  0
SECTION
  2
HEADER
  9
$ACADVER
  1
AC1015
  9
$ACADMAINTVER
 70
     6
  9
$DWGCODEPAGE
  3
ANSI_1252
  9
$INSBASE
 10
0.0
 20
0.0
 30
0.0
  9
$EXTMIN
 10
-314.663364
 20
-147.678893
 30
0.0
  9
$EXTMAX
 10
525.336636
 20
446.321107
 30
0.0
  9
$LIMMIN
 10
-314.663364
 20
-147.678893
  9
$LIMMAX
 10
525.336636
 20
446.321107
  9
$ORTHOMODE
 70
     0
  9
$REGENMODE
 70
     1
  9
$FILLMODE
 70
     1
  9
$QTEXTMODE
 70
     0
  9
$MIRRTEXT
 70
     1
  9
$LTSCALE
 40
2.0
  9
$ATTMODE
 70
     1
  9
$TEXTSIZE
 40
2.5
  9
$TRACEWID
 40
1.0
  9
$TEXTSTYLE
  7
Standard
  9
$CLAYER
  8
0
  9
$CELTYPE
  6
ByLayer
  9
$CECOLOR
 62
     7
  9
$CELTSCALE
 40
1.0
  9
$DISPSILH
 70
     0
  9
$DIMSCALE
 40
2.0
  9
$DIMASZ
 40
3.5
  9
$DIMEXO
 40
0.625
  9
$DIMDLI
 40
3.75
  9
$DIMRND
 40
0.0
  9
$DIMDLE
 40
0.0
  9
$DIMEXE
 40
1.25
  9
$DIMTP
 40
0.0
  9
$DIMTM
 40
0.0
  9
$DIMTXT
 40
3.5
  9
$DIMCEN
 40
2.5
  9
$DIMTSZ
 40
0.0
  9
$DIMTOL
 70
     0
  9
$DIMLIM
 70
     0
  9
$DIMTIH
 70
     0
  9
$DIMTOH
 70
     0
  9
$DIMSE1
 70
     0
  9
$DIMSE2
 70
     0
  9
$DIMTAD
 70
     1
  9
$DIMZIN
 70
     8
  9
$DIMBLK
  1

  9
$DIMASO
 70
     1
  9
$DIMSHO
 70
     1
  9
$DIMPOST
  1

  9
$DIMAPOST
  1

  9
$DIMALT
 70
     0
  9
$DIMALTD
 70
     3
  9
$DIMALTF
 40
0.03937
  9
$DIMLFAC
 40
1.0
  9
$DIMTOFL
 70
     1
  9
$DIMTVP
 40
0.0
  9
$DIMTIX
 70
     0
  9
$DIMSOXD
 70
     0
  9
$DIMSAH
 70
     0
  9
$DIMBLK1
  1

  9
$DIMBLK2
  1

  9
$DIMSTYLE
  2
ISO-25
  9
$DIMCLRD
 70
     0
  9
$DIMCLRE
 70
     0
  9
$DIMCLRT
 70
     0
  9
$DIMTFAC
 40
1.0
  9
$DIMGAP
 40
0.625
  9
$DIMJUST
 70
     0
  9
$DIMSD1
 70
     0
  9
$DIMSD2
 70
     0
  9
$DIMTOLJ
 70
     0
  9
$DIMTZIN
 70
     8
  9
$DIMALTZ
 70
     0
  9
$DIMALTTZ
 70
     0
  9
$DIMUPT
 70
     0
  9
$DIMDEC
 70
     2
  9
$DIMTDEC
 70
     2
  9
$DIMALTU
 70
     2
  9
$DIMALTTD
 70
     3
  9
$DIMTXSTY
  7
Standard
  9
$DIMAUNIT
 70
     0
  9
$DIMADEC
 70
     0
  9
$DIMALTRND
 40
0.0
  9
$DIMAZIN
 70
     0
  9
$DIMDSEP
 70
    44
  9
$DIMATFIT
 70
     3
  9
$DIMFRAC
 70
     0
  9
$DIMLDRBLK
  1

  9
$DIMLUNIT
 70
     2
  9
$DIMLWD
 70
    -2
  9
$DIMLWE
 70
    -2
  9
$DIMTMOVE
 70
     0
  9
$LUNITS
 70
     2
  9
$LUPREC
 70
     4
  9
$SKETCHINC
 40
1.0
  9
$FILLETRAD
 40
10.0
  9
$AUNITS
 70
     0
  9
$AUPREC
 70
     0
  9
$MENU
  1
.
  9
$ELEVATION
 40
0.0
  9
$PELEVATION
 40
0.0
  9
$THICKNESS
 40
0.0
  9
$LIMCHECK
 70
     0
  9
$CHAMFERA
 40
10.0
  9
$CHAMFERB
 40
10.0
  9
$CHAMFERC
 40
20.0
  9
$CHAMFERD
 40
0.0
  9
$SKPOLY
 70
     0
  9
$TDCREATE
 40
2455537.310815753
  9
$TDUCREATE
 40
2455537.269149086
  9
$TDUPDATE
 40
2455537.310815764
  9
$TDUUPDATE
 40
2455537.269149097
  9
$TDINDWG
 40
0.0000000116
  9
$TDUSRTIMER
 40
0.0000000116
  9
$USRTIMER
 70
     1
  9
$ANGBASE
 50
0.0
  9
$ANGDIR
 70
     0
  9
$PDMODE
 70
     0
  9
$PDSIZE
 40
0.0
  9
$PLINEWID
 40
0.0
  9
$SPLFRAME
 70
     0
  9
$SPLINETYPE
 70
     6
  9
$SPLINESEGS
 70
     8
  9
$HANDSEED
  5
12D
  9
$SURFTAB1
 70
     6
  9
$SURFTAB2
 70
     6
  9
$SURFTYPE
 70
     6
  9
$SURFU
 70
     6
  9
$SURFV
 70
     6
  9
$UCSBASE
  2

  9
$UCSNAME
  2

  9
$UCSORG
 10
0.0
 20
0.0
 30
0.0
  9
$UCSXDIR
 10
1.0
 20
0.0
 30
0.0
  9
$UCSYDIR
 10
0.0
 20
1.0
 30
0.0
  9
$UCSORTHOREF
  2

  9
$UCSORTHOVIEW
 70
     0
  9
$UCSORGTOP
 10
0.0
 20
0.0
 30
0.0
  9
$UCSORGBOTTOM
 10
0.0
 20
0.0
 30
0.0
  9
$UCSORGLEFT
 10
0.0
 20
0.0
 30
0.0
  9
$UCSORGRIGHT
 10
0.0
 20
0.0
 30
0.0
  9
$UCSORGFRONT
 10
0.0
 20
0.0
 30
0.0
  9
$UCSORGBACK
 10
0.0
 20
0.0
 30
0.0
  9
$PUCSBASE
  2

  9
$PUCSNAME
  2

  9
$PUCSORG
 10
0.0
 20
0.0
 30
0.0
  9
$PUCSXDIR
 10
1.0
 20
0.0
 30
0.0
  9
$PUCSYDIR
 10
0.0
 20
1.0
 30
0.0
  9
$PUCSORTHOREF
  2

  9
$PUCSORTHOVIEW
 70
     0
  9
$PUCSORGTOP
 10
0.0
 20
0.0
 30
0.0
  9
$PUCSORGBOTTOM
 10
0.0
 20
0.0
 30
0.0
  9
$PUCSORGLEFT
 10
0.0
 20
0.0
 30
0.0
  9
$PUCSORGRIGHT
 10
0.0
 20
0.0
 30
0.0
  9
$PUCSORGFRONT
 10
0.0
 20
0.0
 30
0.0
  9
$PUCSORGBACK
 10
0.0
 20
0.0
 30
0.0
  9
$USERI1
 70
     0
  9
$USERI2
 70
     0
  9
$USERI3
 70
     0
  9
$USERI4
 70
     0
  9
$USERI5
 70
     0
  9
$USERR1
 40
0.0
  9
$USERR2
 40
0.0
  9
$USERR3
 40
0.0
  9
$USERR4
 40
0.0
  9
$USERR5
 40
0.0
  9
$WORLDVIEW
 70
     1
  9
$SHADEDGE
 70
     3
  9
$SHADEDIF
 70
    70
  9
$TILEMODE
 70
     1
  9
$MAXACTVP
 70
    64
  9
$PINSBASE
 10
0.0
 20
0.0
 30
0.0
  9
$PLIMCHECK
 70
     0
  9
$PEXTMIN
 10
-314.663364
 20
-147.678893
 30
0.0
  9
$PEXTMAX
 10
525.336636
 20
446.321107
 30
0.0
  9
$PLIMMIN
 10
-314.663364
 20
-147.678893
  9
$PLIMMAX
 10
525.336636
 20
446.321107
  9
$UNITMODE
 70
     0
  9
$VISRETAIN
 70
     1
  9
$PLINEGEN
 70
     0
  9
$PSLTSCALE
 70
     1
  9
$TREEDEPTH
 70
  3020
  9
$CMLSTYLE
  2
Standard
  9
$CMLJUST
 70
     0
  9
$CMLSCALE
 40
20.0
  9
$PROXYGRAPHICS
 70
     1
  9
$MEASUREMENT
 70
     1
  9
$CELWEIGHT
370
    -1
  9
$ENDCAPS
280
     0
  9
$JOINSTYLE
280
     0
  9
$LWDISPLAY
290
     0
  9
$INSUNITS
 70
     4
  9
$HYPERLINKBASE
  1

  9
$STYLESHEET
  1

  9
$XEDIT
290
     1
  9
$CEPSNTYPE
380
     0
  9
$PSTYLEMODE
290
     1
  9
$FINGERPRINTGUID
  2
{FAEB1C30-E019-11D5-929B-00C0DF256EC4}
  9
$VERSIONGUID
  2
{FAEB1C32-E019-11D5-929B-00C0DF256EC4}
  9
$EXTNAMES
290
     1
  9
$PSVPSCALE
 40
0.0
  9
$OLESTARTUP
290
     0
  0
ENDSEC
  0
SECTION
  2
CLASSES
  0
CLASS
  1
ACDBDICTIONARYWDFLT
  2
AcDbDictionaryWithDefault
  3
ObjectDBX Classes
 90
        0
280
     0
281
     0
  0
CLASS
  1
ACDBPLACEHOLDER
  2
AcDbPlaceHolder
  3
ObjectDBX Classes
 90
        0
280
     0
281
     0
  0
CLASS
  1
LAYOUT
  2
AcDbLayout
  3
ObjectDBX Classes
 90
        0
280
     0
281
     0
  0
ENDSEC
  0
SECTION
  2
TABLES
  0
TABLE
  2
VPORT
  5
8
330
0
100
AcDbSymbolTable
 70
     2
  0
VPORT
  5
29
330
8
100
AcDbSymbolTableRecord
100
AcDbViewportTableRecord
  2
*ACTIVE
 70
     0
 10
0.0
 20
0.0
 11
1.0
 21
1.0
 12
105.336636
 22
149.321107
 13
0.0
 23
0.0
 14
1.0
 24
1.0
 15
0.0
 25
0.0
 16
0.0
 26
0.0
 36
1.0
 17
0.0
 27
0.0
 37
0.0
 40
594.0
 41
1.414141
 42
50.0
 43
0.0
 44
0.0
 50
0.0
 51
0.0
 71
    16
 72
   100
 73
     1
 74
     0
 75
     0
 76
     0
 77
     0
 78
     0
281
     0
 65
     0
110
0.0
120
0.0
130
0.0
111
1.0
121
0.0
131
0.0
112
0.0
122
1.0
132
0.0
 79
     0
146
0.0
  0
ENDTAB
  0
TABLE
  2
LTYPE
  5
5
330
0
100
AcDbSymbolTable
 70
     3
  0
LTYPE
  5
14
330
5
100
AcDbSymbolTableRecord
100
AcDbLinetypeTableRecord
  2
ByBlock
 70
     0
  3

 72
    65
 73
     0
 40
0.0
  0
LTYPE
  5
15
330
5
100
AcDbSymbolTableRecord
100
AcDbLinetypeTableRecord
  2
ByLayer
 70
     0
  3

 72
    65
 73
     0
 40
0.0
  0
LTYPE
  5
16
330
5
100
AcDbSymbolTableRecord
100
AcDbLinetypeTableRecord
  2
Continuous
 70
     0
  3
Solid line
 72
    65
 73
     0
 40
0.0
  0
LTYPE
  5
2A
330
5
100
AcDbSymbolTableRecord
100
AcDbLinetypeTableRecord
  2
DASHED
 70
     0
  3
__ __ __ __ __
 72
    65
 73
     2
 40
6.25
 49
5.0
 74
     4
 75
     0
340
0
 46
1.0
 50
0.0
 44
0.0
 45
0.0
 49
-1.25
 74
     4
 75
     0
340
0
 46
1.0
 50
0.0
 44
0.0
 45
0.0
  0
LTYPE
  5
110
330
5
100
AcDbSymbolTableRecord
100
AcDbLinetypeTableRecord
  2
DASHDOT
 70
     0
  3
__ . __ . __ . __ . __
 72
    65
 73
     4
 40
7.5
 49
5.0
 74
     4
 75
     0
340
0
 46
1.0
 50
0.0
 44
0.0
 45
0.0
 49
-1.25
 74
     4
 75
     0
340
0
 46
1.0
 50
0.0
 44
0.0
 45
0.0
 49
0.0
 74
     4
 75
     0
340
0
 46
1.0
 50
0.0
 44
0.0
 45
0.0
 49
-1.25
 74
     4
 75
     0
340
0
 46
1.0
 50
0.0
 44
0.0
 45
0.0
  0
ENDTAB
  0
TABLE
  2
LAYER
  5
2
330
0
100
AcDbSymbolTable
 70
     9
  0
LAYER
  5
10
330
2
100
AcDbSymbolTableRecord
100
AcDbLayerTableRecord
  2
0
 70
     0
 62
     7
  6
Continuous
370
    -3
390
F
  0
LAYER
  5
2B
330
2
100
AcDbSymbolTableRecord
100
AcDbLayerTableRecord
  2
LC-INFO-1-2-mm-A3-0
 70
     1
 62
     7
  6
ByBlock
370
    -3
390
F
  0
LAYER
  5
2C
330
2
100
AcDbSymbolTableRecord
100
AcDbLayerTableRecord
  2
LC-CUT-HIDDEN
 70
     0
 62
     7
  6
DASHED
370
    -3
390
F
  0
LAYER
  5
2D
330
2
100
AcDbSymbolTableRecord
100
AcDbLayerTableRecord
  2
LC-VIEWPORT
 70
     0
 62
     7
  6
ByBlock
370
    -3
390
F
  0
LAYER
  5
2E
330
2
100
AcDbSymbolTableRecord
100
AcDbLayerTableRecord
  2
LC-3D-HIDDEN
 70
     0
 62
     9
  6
DASHED
370
    -3
390
F
  0
LAYER
  5
31
330
2
100
AcDbSymbolTableRecord
100
AcDbLayerTableRecord
  2
LC-001-100-D00-0
 70
     0
 62
     1
  6
ByBlock
370
    -3
390
F
  0
LAYER
  5
F4
330
2
100
AcDbSymbolTableRecord
100
AcDbLayerTableRecord
  2
LC-002-101-D00-0
 70
     0
 62
     2
  6
ByBlock
370
    -3
390
F
  0
LAYER
  5
F6
330
2
100
AcDbSymbolTableRecord
100
AcDbLayerTableRecord
  2
Defpoints
 70
     0
 62
     7
  6
Continuous
290
     0
370
    -3
390
F
  0
LAYER
  5
112
330
2
100
AcDbSymbolTableRecord
100
AcDbLayerTableRecord
  2
LC-003-003-----0
 70
     0
 62
     2
  6
ByBlock
370
    -3
390
F
  0
ENDTAB
  0
TABLE
  2
STYLE
  5
3
330
0
100
AcDbSymbolTable
 70
     4
  0
STYLE
  5
11
330
3
100
AcDbSymbolTableRecord
100
AcDbTextStyleTableRecord
  2
Standard
 70
     0
 40
0.0
 41
1.0
 50
0.0
 71
     0
 42
2.5
  3
txt
  4

  0
STYLE
  5
2F
330
3
100
AcDbSymbolTableRecord
100
AcDbTextStyleTableRecord
  2
LCTX0-400-0-0pDIN-Schrift
 70
     0
 40
0.0
 41
0.75
 50
0.0
 71
     0
 42
3.5
  3
TXT
  4

  0
STYLE
  5
30
330
3
100
AcDbSymbolTableRecord
100
AcDbTextStyleTableRecord
  2
LCTX15-400-0-0-Arial
 70
     0
 40
0.0
 41
0.8
 50
0.0
 71
     0
 42
3.5
  3

  4

1001
ACAD
1000
Arial
1071
 16777218
  0
STYLE
  5
F2
330
3
100
AcDbSymbolTableRecord
100
AcDbTextStyleTableRecord
  2
LCTX15-400-0-0pDIN-Schrift
 70
     0
 40
2.5
 41
0.8
 50
15.0
 71
     0
 42
3.5
  3
STANDARD
  4

  0
ENDTAB
  0
TABLE
  2
VIEW
  5
6
330
0
100
AcDbSymbolTable
 70
     0
  0
ENDTAB
  0
TABLE
  2
UCS
  5
7
330
0
100
AcDbSymbolTable
 70
     0
  0
ENDTAB
  0
TABLE
  2
APPID
  5
9
330
0
100
AcDbSymbolTable
 70
     1
  0
APPID
  5
12
330
9
100
AcDbSymbolTableRecord
100
AcDbRegAppTableRecord
  2
ACAD
 70
     0
  0
ENDTAB
  0
TABLE
  2
DIMSTYLE
  5
A
330
0
100
AcDbSymbolTable
 70
     2
100
AcDbDimStyleTable
  0
DIMSTYLE
105
27
330
A
100
AcDbSymbolTableRecord
100
AcDbDimStyleTableRecord
  2
ISO-25
 70
     0
 41
2.5
 42
0.625
 43
3.75
 44
1.25
 73
     0
 74
     0
 77
     1
 78
     8
140
2.5
141
2.5
143
0.03937
147
0.625
171
     3
172
     1
271
     2
272
     2
274
     3
278
    44
283
     0
284
     8
340
11
  0
DIMSTYLE
105
F3
102
{ACAD_REACTORS
330
F5
330
103
330
113
330
120
102
}
330
A
100
AcDbSymbolTableRecord
100
AcDbDimStyleTableRecord
  2
LC-DIM-L-0140-02-02
 70
     0
 40
2.0
 41
14.0
 42
0.0
 43
7.5
 44
1.8
 73
     0
 74
     0
 77
     1
 78
     8
 79
     2
140
14.0
141
0.0
146
0.71
147
1.5
176
     2
177
     2
178
     2
179
     2
271
     2
278
    44
289
     1
340
F2
  0
ENDTAB
  0
TABLE
  2
BLOCK_RECORD
  5
1
330
0
100
AcDbSymbolTable
 70
    10
  0
BLOCK_RECORD
  5
1F
330
1
100
AcDbSymbolTableRecord
100
AcDbBlockTableRecord
  2
*Model_Space
340
22
  0
BLOCK_RECORD
  5
1B
330
1
100
AcDbSymbolTableRecord
100
AcDbBlockTableRecord
  2
*Paper_Space
340
1E
  0
BLOCK_RECORD
  5
23
330
1
100
AcDbSymbolTableRecord
100
AcDbBlockTableRecord
  2
*Paper_Space0
340
26
  0
BLOCK_RECORD
  5
5B
330
1
100
AcDbSymbolTableRecord
100
AcDbBlockTableRecord
  2
POLY1
340
0
102
{BLKREFS
331
66
102
}
  0
BLOCK_RECORD
  5
6C
330
1
100
AcDbSymbolTableRecord
100
AcDbBlockTableRecord
  2
POLY2
340
0
102
{BLKREFS
331
77
102
}
  0
BLOCK_RECORD
  5
97
330
1
100
AcDbSymbolTableRecord
100
AcDbBlockTableRecord
  2
KLON1
340
0
102
{BLKREFS
331
CD
102
}
  0
BLOCK_RECORD
  5
CE
330
1
100
AcDbSymbolTableRecord
100
AcDbBlockTableRecord
  2
KLON2
340
0
102
{BLKREFS
331
DD
102
}
  0
BLOCK_RECORD
  5
DE
330
1
100
AcDbSymbolTableRecord
100
AcDbBlockTableRecord
  2
KLON3
340
0
102
{BLKREFS
331
EF
102
}
  0
BLOCK_RECORD
  5
F7
330
1
100
AcDbSymbolTableRecord
100
AcDbBlockTableRecord
  2
*D6
340
0
  0
BLOCK_RECORD
  5
104
330
1
100
AcDbSymbolTableRecord
100
AcDbBlockTableRecord
  2
*D7
340
0
  0
BLOCK_RECORD
  5
114
330
1
100
AcDbSymbolTableRecord
100
AcDbBlockTableRecord
  2
*D8
340
0
  0
BLOCK_RECORD
  5
121
330
1
100
AcDbSymbolTableRecord
100
AcDbBlockTableRecord
  2
*D9
340
0
  0
ENDTAB
  0
ENDSEC
  0
SECTION
  2
BLOCKS
  0
BLOCK
  5
20
330
1F
100
AcDbEntity
  8
0
100
AcDbBlockBegin
  2
*Model_Space
 70
     0
 71
     0
 10
0.0
 20
0.0
 30
0.0
  3
*Model_Space
  1

  0
ENDBLK
  5
21
330
1F
100
AcDbEntity
  8
0
100
AcDbBlockEnd
  0
BLOCK
  5
1C
330
1B
100
AcDbEntity
 67
     1
  8
0
100
AcDbBlockBegin
  2
*Paper_Space
 70
     0
 71
     0
 10
0.0
 20
0.0
 30
0.0
  3
*Paper_Space
  1

  0
ENDBLK
  5
1D
330
1B
100
AcDbEntity
 67
     1
  8
0
100
AcDbBlockEnd
  0
BLOCK
  5
24
330
23
100
AcDbEntity
  8
0
100
AcDbBlockBegin
  2
*Paper_Space0
 70
     0
 71
     0
 10
0.0
 20
0.0
 30
0.0
  3
*Paper_Space0
  1

  0
ENDBLK
  5
25
330
23
100
AcDbEntity
  8
0
100
AcDbBlockEnd
  0
BLOCK
  5
5C
330
5B
100
AcDbEntity
  8
0
100
AcDbBlockBegin
  2
POLY1
 70
     0
 71
     0
 10
0.0
 20
0.0
 30
0.0
  3
POLY1
  1

  4
POLY1
  0
LINE
  5
5E
330
5B
100
AcDbEntity
  8
LC-001-100-D00-0
 62
     7
370
    50
100
AcDbLine
 10
182.589328
 20
268.845108
 30
0.0
 11
182.589328
 21
268.845108
 31
0.0
  0
LINE
  5
5F
330
5B
100
AcDbEntity
  8
LC-001-100-D00-0
 62
     7
370
    50
100
AcDbLine
 10
182.589328
 20
268.845108
 30
0.0
 11
178.948588
 21
263.149975
 31
0.0
  0
LINE
  5
60
330
5B
100
AcDbEntity
  8
LC-001-100-D00-0
 62
     7
370
    50
100
AcDbLine
 10
178.948588
 20
263.149975
 30
0.0
 11
176.500562
 21
259.320138
 31
0.0
  0
LINE
  5
61
330
5B
100
AcDbEntity
  8
LC-001-100-D00-0
 62
     7
370
    50
100
AcDbLine
 10
176.500562
 20
259.320138
 30
0.0
 11
174.60103
 21
256.34918
 31
0.0
  0
LINE
  5
62
330
5B
100
AcDbEntity
  8
LC-001-100-D00-0
 62
     7
370
    50
100
AcDbLine
 10
174.60103
 20
256.34918
 30
0.0
 11
172.770081
 21
253.487657
 31
0.0
  0
LINE
  5
63
330
5B
100
AcDbEntity
  8
LC-001-100-D00-0
 62
     7
370
    50
100
AcDbLine
 10
172.770081
 20
253.487657
 30
0.0
 11
170.250264
 21
249.550436
 31
0.0
  0
LINE
  5
64
330
5B
100
AcDbEntity
  8
LC-001-100-D00-0
 62
     7
370
    50
100
AcDbLine
 10
170.250264
 20
249.550436
 30
0.0
 11
170.250264
 21
249.550436
 31
0.0
  0
LINE
  5
65
330
5B
100
AcDbEntity
  8
LC-001-100-D00-0
 62
     7
370
    50
100
AcDbLine
 10
170.250264
 20
249.550436
 30
0.0
 11
169.542924
 21
248.445108
 31
0.0
  0
ENDBLK
  5
5D
330
5B
100
AcDbEntity
  8
0
100
AcDbBlockEnd
  0
BLOCK
  5
6D
330
6C
100
AcDbEntity
  8
0
100
AcDbBlockBegin
  2
POLY2
 70
     0
 71
     0
 10
0.0
 20
0.0
 30
0.0
  3
POLY2
  1

  4
POLY2
  0
LINE
  5
6F
330
6C
100
AcDbEntity
  8
LC-001-100-D00-0
 62
     7
370
    50
100
AcDbLine
 10
40.097955
 20
248.445108
 30
0.0
 11
40.097955
 21
248.445108
 31
0.0
  0
LINE
  5
70
330
6C
100
AcDbEntity
  8
LC-001-100-D00-0
 62
     7
370
    50
100
AcDbLine
 10
40.097955
 20
248.445108
 30
0.0
 11
39.390615
 21
249.550436
 31
0.0
  0
LINE
  5
71
330
6C
100
AcDbEntity
  8
LC-001-100-D00-0
 62
     7
370
    50
100
AcDbLine
 10
39.390615
 20
249.550436
 30
0.0
 11
36.870798
 21
253.487657
 31
0.0
  0
LINE
  5
72
330
6C
100
AcDbEntity
  8
LC-001-100-D00-0
 62
     7
370
    50
100
AcDbLine
 10
36.870798
 20
253.487657
 30
0.0
 11
35.039849
 21
256.34918
 31
0.0
  0
LINE
  5
73
330
6C
100
AcDbEntity
  8
LC-001-100-D00-0
 62
     7
370
    50
100
AcDbLine
 10
35.039849
 20
256.34918
 30
0.0
 11
33.140318
 21
259.320138
 31
0.0
  0
LINE
  5
74
330
6C
100
AcDbEntity
  8
LC-001-100-D00-0
 62
     7
370
    50
100
AcDbLine
 10
33.140318
 20
259.320138
 30
0.0
 11
30.692291
 21
263.149975
 31
0.0
  0
LINE
  5
75
330
6C
100
AcDbEntity
  8
LC-001-100-D00-0
 62
     7
370
    50
100
AcDbLine
 10
30.692291
 20
263.149975
 30
0.0
 11
30.692291
 21
263.149975
 31
0.0
  0
LINE
  5
76
330
6C
100
AcDbEntity
  8
LC-001-100-D00-0
 62
     7
370
    50
100
AcDbLine
 10
30.692291
 20
263.149975
 30
0.0
 11
27.051551
 21
268.845108
 31
0.0
  0
ENDBLK
  5
6E
330
6C
100
AcDbEntity
  8
0
100
AcDbBlockEnd
  0
BLOCK
  5
98
330
97
100
AcDbEntity
  8
0
100
AcDbBlockBegin
  2
KLON1
 70
     0
 71
     0
 10
0.0
 20
0.0
 30
0.0
  3
KLON1
  1

  4
KLON1
  0
LINE
  5
9A
330
97
100
AcDbEntity
  8
LC-001-100-D00-0
 62
     7
370
    25
100
AcDbLine
 10
158.252854
 20
122.309663
 30
0.0
 11
167.955885
 21
132.012694
 31
0.0
  0
LINE
  5
9B
330
97
100
AcDbEntity
  8
LC-001-100-D00-0
 62
     7
370
    25
100
AcDbLine
 10
147.408043
 20
120.445108
 30
0.0
 11
150.418569
 21
123.455634
 31
0.0
  0
LINE
  5
9C
330
97
100
AcDbEntity
  8
LC-001-100-D00-0
 62
     7
370
    25
100
AcDbLine
 10
166.809914
 20
139.846979
 30
0.0
 11
169.82044
 21
142.857505
 31
0.0
  0
LINE
  5
9D
330
97
100
AcDbEntity
  8
LC-001-100-D00-0
 62
     7
370
    25
100
AcDbLine
 10
138.427787
 20
120.445108
 30
0.0
 11
141.427787
 21
123.445108
 31
0.0
  0
LINE
  5
9E
330
97
100
AcDbEntity
  8
LC-001-100-D00-0
 62
     7
370
    25
100
AcDbLine
 10
166.82044
 20
148.837761
 30
0.0
 11
169.82044
 21
151.837761
 31
0.0
  0
LINE
  5
9F
330
97
100
AcDbEntity
  8
LC-001-100-D00-0
 62
     7
370
    25
100
AcDbLine
 10
129.447531
 20
120.445108
 30
0.0
 11
132.447531
 21
123.445108
 31
0.0
  0
LINE
  5
A0
330
97
100
AcDbEntity
  8
LC-001-100-D00-0
 62
     7
370
    25
100
AcDbLine
 10
166.82044
 20
157.818017
 30
0.0
 11
169.82044
 21
160.818017
 31
0.0
  0
LINE
  5
A1
330
97
100
AcDbEntity
  8
LC-001-100-D00-0
 62
     7
370
    25
100
AcDbLine
 10
120.467275
 20
120.445108
 30
0.0
 11
123.467275
 21
123.445108
 31
0.0
  0
LINE
  5
A2
330
97
100
AcDbEntity
  8
LC-001-100-D00-0
 62
     7
370
    25
100
AcDbLine
 10
166.82044
 20
166.798273
 30
0.0
 11
169.82044
 21
169.798273
 31
0.0
  0
LINE
  5
A3
330
97
100
AcDbEntity
  8
LC-001-100-D00-0
 62
     7
370
    25
100
AcDbLine
 10
111.487019
 20
120.445108
 30
0.0
 11
114.487019
 21
123.445108
 31
0.0
  0
LINE
  5
A4
330
97
100
AcDbEntity
  8
LC-001-100-D00-0
 62
     7
370
    25
100
AcDbLine
 10
166.82044
 20
175.778529
 30
0.0
 11
169.82044
 21
178.778529
 31
0.0
  0
LINE
  5
A5
330
97
100
AcDbEntity
  8
LC-001-100-D00-0
 62
     7
370
    25
100
AcDbLine
 10
102.506763
 20
120.445108
 30
0.0
 11
105.506763
 21
123.445108
 31
0.0
  0
LINE
  5
A6
330
97
100
AcDbEntity
  8
LC-001-100-D00-0
 62
     7
370
    25
100
AcDbLine
 10
166.82044
 20
184.758785
 30
0.0
 11
169.82044
 21
187.758785
 31
0.0
  0
LINE
  5
A7
330
97
100
AcDbEntity
  8
LC-001-100-D00-0
 62
     7
370
    25
100
AcDbLine
 10
93.526507
 20
120.445108
 30
0.0
 11
96.526507
 21
123.445108
 31
0.0
  0
LINE
  5
A8
330
97
100
AcDbEntity
  8
LC-001-100-D00-0
 62
     7
370
    25
100
AcDbLine
 10
166.82044
 20
193.739041
 30
0.0
 11
169.82044
 21
196.739041
 31
0.0
  0
LINE
  5
A9
330
97
100
AcDbEntity
  8
LC-001-100-D00-0
 62
     7
370
    25
100
AcDbLine
 10
84.546251
 20
120.445108
 30
0.0
 11
87.546251
 21
123.445108
 31
0.0
  0
LINE
  5
AA
330
97
100
AcDbEntity
  8
LC-001-100-D00-0
 62
     7
370
    25
100
AcDbLine
 10
166.82044
 20
202.719297
 30
0.0
 11
169.82044
 21
205.719297
 31
0.0
  0
LINE
  5
AB
330
97
100
AcDbEntity
  8
LC-001-100-D00-0
 62
     7
370
    25
100
AcDbLine
 10
75.565994
 20
120.445108
 30
0.0
 11
78.565994
 21
123.445108
 31
0.0
  0
LINE
  5
AC
330
97
100
AcDbEntity
  8
LC-001-100-D00-0
 62
     7
370
    25
100
AcDbLine
 10
166.82044
 20
211.699554
 30
0.0
 11
169.82044
 21
214.699554
 31
0.0
  0
LINE
  5
AD
330
97
100
AcDbEntity
  8
LC-001-100-D00-0
 62
     7
370
    25
100
AcDbLine
 10
66.585738
 20
120.445108
 30
0.0
 11
69.585738
 21
123.445108
 31
0.0
  0
LINE
  5
AE
330
97
100
AcDbEntity
  8
LC-001-100-D00-0
 62
     7
370
    25
100
AcDbLine
 10
166.82044
 20
220.67981
 30
0.0
 11
169.82044
 21
223.67981
 31
0.0
  0
LINE
  5
AF
330
97
100
AcDbEntity
  8
LC-001-100-D00-0
 62
     7
370
    25
100
AcDbLine
 10
57.716459
 20
120.556085
 30
0.0
 11
60.605482
 21
123.445108
 31
0.0
  0
LINE
  5
B0
330
97
100
AcDbEntity
  8
LC-001-100-D00-0
 62
     7
370
    25
100
AcDbLine
 10
166.82044
 20
229.660066
 30
0.0
 11
169.82044
 21
232.660066
 31
0.0
  0
LINE
  5
B1
330
97
100
AcDbEntity
  8
LC-001-100-D00-0
 62
     7
370
    25
100
AcDbLine
 10
50.783379
 20
122.603261
 30
0.0
 11
53.037175
 21
124.857058
 31
0.0
  0
LINE
  5
B2
330
97
100
AcDbEntity
  8
LC-001-100-D00-0
 62
     7
370
    25
100
AcDbLine
 10
166.82044
 20
238.640322
 30
0.0
 11
169.82044
 21
241.640322
 31
0.0
  0
LINE
  5
B3
330
97
100
AcDbEntity
  8
LC-001-100-D00-0
 62
     7
370
    25
100
AcDbLine
 10
45.590841
 20
126.39098
 30
0.0
 11
47.71221
 21
128.512348
 31
0.0
  0
LINE
  5
B4
330
97
100
AcDbEntity
  8
LC-001-100-D00-0
 62
     7
370
    25
100
AcDbLine
 10
166.82044
 20
247.620578
 30
0.0
 11
167.64497
 21
248.445108
 31
0.0
  0
LINE
  5
B5
330
97
100
AcDbEntity
  8
LC-001-100-D00-0
 62
     7
370
    25
100
AcDbLine
 10
173.642211
 20
254.442349
 30
0.0
 11
183.449
 21
264.249139
 31
0.0
  0
LINE
  5
B6
330
97
100
AcDbEntity
  8
LC-001-100-D00-0
 62
     7
370
    25
100
AcDbLine
 10
41.861875
 20
131.64227
 30
0.0
 11
44.127579
 21
133.907974
 31
0.0
  0
LINE
  5
B7
330
97
100
AcDbEntity
  8
LC-001-100-D00-0
 62
     7
370
    25
100
AcDbLine
 10
182.82044
 20
272.600834
 30
0.0
 11
185.82044
 21
275.600834
 31
0.0
  0
LINE
  5
B8
330
97
100
AcDbEntity
  8
LC-001-100-D00-0
 62
     7
370
    25
100
AcDbLine
 10
189.664714
 20
279.445108
 30
0.0
 11
189.82044
 21
279.600834
 31
0.0
  0
LINE
  5
B9
330
97
100
AcDbEntity
  8
LC-001-100-D00-0
 62
     7
370
    25
100
AcDbLine
 10
39.900189
 20
138.66084
 30
0.0
 11
42.82044
 21
141.58109
 31
0.0
  0
LINE
  5
BA
330
97
100
AcDbEntity
  8
LC-001-100-D00-0
 62
     7
370
    25
100
AcDbLine
 10
182.82044
 20
281.58109
 30
0.0
 11
183.684458
 21
282.445108
 31
0.0
  0
LINE
  5
BB
330
97
100
AcDbEntity
  8
LC-001-100-D00-0
 62
     7
370
    25
100
AcDbLine
 10
39.82044
 20
147.561346
 30
0.0
 11
42.82044
 21
150.561346
 31
0.0
  0
LINE
  5
BC
330
97
100
AcDbEntity
  8
LC-001-100-D00-0
 62
     7
370
    25
100
AcDbLine
 10
39.82044
 20
156.541603
 30
0.0
 11
42.82044
 21
159.541603
 31
0.0
  0
LINE
  5
BD
330
97
100
AcDbEntity
  8
LC-001-100-D00-0
 62
     7
370
    25
100
AcDbLine
 10
39.82044
 20
165.521859
 30
0.0
 11
42.82044
 21
168.521859
 31
0.0
  0
LINE
  5
BE
330
97
100
AcDbEntity
  8
LC-001-100-D00-0
 62
     7
370
    25
100
AcDbLine
 10
39.82044
 20
174.502115
 30
0.0
 11
42.82044
 21
177.502115
 31
0.0
  0
LINE
  5
BF
330
97
100
AcDbEntity
  8
LC-001-100-D00-0
 62
     7
370
    25
100
AcDbLine
 10
39.82044
 20
183.482371
 30
0.0
 11
42.82044
 21
186.482371
 31
0.0
  0
LINE
  5
C0
330
97
100
AcDbEntity
  8
LC-001-100-D00-0
 62
     7
370
    25
100
AcDbLine
 10
39.82044
 20
192.462627
 30
0.0
 11
42.82044
 21
195.462627
 31
0.0
  0
LINE
  5
C1
330
97
100
AcDbEntity
  8
LC-001-100-D00-0
 62
     7
370
    25
100
AcDbLine
 10
39.82044
 20
201.442883
 30
0.0
 11
42.82044
 21
204.442883
 31
0.0
  0
LINE
  5
C2
330
97
100
AcDbEntity
  8
LC-001-100-D00-0
 62
     7
370
    25
100
AcDbLine
 10
39.82044
 20
210.423139
 30
0.0
 11
42.82044
 21
213.423139
 31
0.0
  0
LINE
  5
C3
330
97
100
AcDbEntity
  8
LC-001-100-D00-0
 62
     7
370
    25
100
AcDbLine
 10
39.82044
 20
219.403395
 30
0.0
 11
42.82044
 21
222.403395
 31
0.0
  0
LINE
  5
C4
330
97
100
AcDbEntity
  8
LC-001-100-D00-0
 62
     7
370
    25
100
AcDbLine
 10
39.82044
 20
228.383652
 30
0.0
 11
42.82044
 21
231.383652
 31
0.0
  0
LINE
  5
C5
330
97
100
AcDbEntity
  8
LC-001-100-D00-0
 62
     7
370
    25
100
AcDbLine
 10
39.82044
 20
237.363908
 30
0.0
 11
42.82044
 21
240.363908
 31
0.0
  0
LINE
  5
C6
330
97
100
AcDbEntity
  8
LC-001-100-D00-0
 62
     7
370
    25
100
AcDbLine
 10
38.465411
 20
244.989135
 30
0.0
 11
41.921384
 21
248.445108
 31
0.0
  0
LINE
  5
C7
330
97
100
AcDbEntity
  8
LC-001-100-D00-0
 62
     7
370
    25
100
AcDbLine
 10
34.970102
 20
250.474082
 30
0.0
 11
37.142863
 21
252.646844
 31
0.0
  0
LINE
  5
C8
330
97
100
AcDbEntity
  8
LC-001-100-D00-0
 62
     7
370
    25
100
AcDbLine
 10
31.474792
 20
255.959029
 30
0.0
 11
33.647554
 21
258.13179
 31
0.0
  0
LINE
  5
C9
330
97
100
AcDbEntity
  8
LC-001-100-D00-0
 62
     7
370
    25
100
AcDbLine
 10
27.979483
 20
261.443976
 30
0.0
 11
30.152245
 21
263.616737
 31
0.0
  0
LINE
  5
CA
330
97
100
AcDbEntity
  8
LC-001-100-D00-0
 62
     7
370
    25
100
AcDbLine
 10
24.484174
 20
266.928922
 30
0.0
 11
26.82044
 21
269.265188
 31
0.0
  0
LINE
  5
CB
330
97
100
AcDbEntity
  8
LC-001-100-D00-0
 62
     7
370
    25
100
AcDbLine
 10
23.82044
 20
275.245444
 30
0.0
 11
26.82044
 21
278.245444
 31
0.0
  0
LINE
  5
CC
330
97
100
AcDbEntity
  8
LC-001-100-D00-0
 62
     7
370
    25
100
AcDbLine
 10
19.82044
 20
280.2257
 30
0.0
 11
22.039848
 21
282.445108
 31
0.0
  0
ENDBLK
  5
99
330
97
100
AcDbEntity
  8
0
100
AcDbBlockEnd
  0
BLOCK
  5
CF
330
CE
100
AcDbEntity
  8
0
100
AcDbBlockBegin
  2
KLON2
 70
     0
 71
     0
 10
0.0
 20
0.0
 30
0.0
  3
KLON2
  1

  4
KLON2
  0
LINE
  5
D1
330
CE
100
AcDbEntity
  8
LC-001-100-D00-0
 62
     7
370
    25
100
AcDbLine
 10
64.820439
 20
215.466299
 30
0.0
 11
62.820439
 21
217.466299
 31
0.0
  0
LINE
  5
D2
330
CE
100
AcDbEntity
  8
LC-001-100-D00-0
 62
     7
370
    25
100
AcDbLine
 10
64.820439
 20
161.584762
 30
0.0
 11
62.820439
 21
163.584762
 31
0.0
  0
LINE
  5
D3
330
CE
100
AcDbEntity
  8
LC-001-100-D00-0
 62
     7
370
    25
100
AcDbLine
 10
64.820439
 20
224.446559
 30
0.0
 11
62.820439
 21
226.446559
 31
0.0
  0
LINE
  5
D4
330
CE
100
AcDbEntity
  8
LC-001-100-D00-0
 62
     7
370
    25
100
AcDbLine
 10
64.820439
 20
170.565022
 30
0.0
 11
62.820439
 21
172.565022
 31
0.0
  0
LINE
  5
D5
330
CE
100
AcDbEntity
  8
LC-001-100-D00-0
 62
     7
370
    25
100
AcDbLine
 10
64.820439
 20
233.426819
 30
0.0
 11
62.820439
 21
235.426819
 31
0.0
  0
LINE
  5
D6
330
CE
100
AcDbEntity
  8
LC-001-100-D00-0
 62
     7
370
    25
100
AcDbLine
 10
29.210241
 20
269.037017
 30
0.0
 11
27.82044
 21
270.426818
 31
0.0
  0
LINE
  5
D7
330
CE
100
AcDbEntity
  8
LC-001-100-D00-0
 62
     7
370
    25
100
AcDbLine
 10
64.820439
 20
179.545282
 30
0.0
 11
62.820439
 21
181.545282
 31
0.0
  0
LINE
  5
D8
330
CE
100
AcDbEntity
  8
LC-001-100-D00-0
 62
     7
370
    25
100
AcDbLine
 10
64.820439
 20
242.407099
 30
0.0
 11
62.820439
 21
244.407099
 31
0.0
  0
LINE
  5
D9
330
CE
100
AcDbEntity
  8
LC-001-100-D00-0
 62
     7
370
    25
100
AcDbLine
 10
36.3137
 20
270.913838
 30
0.0
 11
33.675633
 21
273.551905
 31
0.0
  0
LINE
  5
DA
330
CE
100
AcDbEntity
  8
LC-001-100-D00-0
 62
     7
370
    25
100
AcDbLine
 10
32.427235
 20
274.800303
 30
0.0
 11
27.82044
 21
279.407098
 31
0.0
  0
LINE
  5
DB
330
CE
100
AcDbEntity
  8
LC-001-100-D00-0
 62
     7
370
    25
100
AcDbLine
 10
24.78243
 20
282.445108
 30
0.0
 11
21.22044
 21
286.007098
 31
0.0
  0
LINE
  5
DC
330
CE
100
AcDbEntity
  8
LC-001-100-D00-0
 62
     7
370
    25
100
AcDbLine
 10
64.820439
 20
188.525562
 30
0.0
 11
62.820439
 21
190.525562
 31
0.0
  0
ENDBLK
  5
D0
330
CE
100
AcDbEntity
  8
0
100
AcDbBlockEnd
  0
BLOCK
  5
DF
330
DE
100
AcDbEntity
  8
0
100
AcDbBlockBegin
  2
KLON3
 70
     0
 71
     0
 10
0.0
 20
0.0
 30
0.0
  3
KLON3
  1

  4
KLON3
  0
LINE
  5
E1
330
DE
100
AcDbEntity
  8
LC-001-100-D00-0
 62
     7
370
    25
100
AcDbLine
 10
170.886331
 20
271.045018
 30
0.0
 11
168.582714
 21
273.348634
 31
0.0
  0
LINE
  5
E2
330
DE
100
AcDbEntity
  8
LC-001-100-D00-0
 62
     7
370
    25
100
AcDbLine
 10
146.82044
 20
241.229371
 30
0.0
 11
144.82044
 21
243.229371
 31
0.0
  0
LINE
  5
E3
330
DE
100
AcDbEntity
  8
LC-001-100-D00-0
 62
     7
370
    25
100
AcDbLine
 10
146.82044
 20
187.347835
 30
0.0
 11
144.82044
 21
189.347835
 31
0.0
  0
LINE
  5
E4
330
DE
100
AcDbEntity
  8
LC-001-100-D00-0
 62
     7
370
    25
100
AcDbLine
 10
181.82044
 20
269.091169
 30
0.0
 11
176.805796
 21
274.105812
 31
0.0
  0
LINE
  5
E5
330
DE
100
AcDbEntity
  8
LC-001-100-D00-0
 62
     7
370
    25
100
AcDbLine
 10
147.006033
 20
250.024038
 30
0.0
 11
145.193916
 21
251.836155
 31
0.0
  0
LINE
  5
E6
330
DE
100
AcDbEntity
  8
LC-001-100-D00-0
 62
     7
370
    25
100
AcDbLine
 10
146.82044
 20
196.328095
 30
0.0
 11
144.82044
 21
198.328095
 31
0.0
  0
LINE
  5
E7
330
DE
100
AcDbEntity
  8
LC-001-100-D00-0
 62
     7
370
    25
100
AcDbLine
 10
181.82044
 20
278.071429
 30
0.0
 11
177.32044
 21
282.571429
 31
0.0
  0
LINE
  5
E8
330
DE
100
AcDbEntity
  8
LC-001-100-D00-0
 62
     7
370
    25
100
AcDbLine
 10
148.991151
 20
257.019181
 30
0.0
 11
147.359268
 21
258.651064
 31
0.0
  0
LINE
  5
E9
330
DE
100
AcDbEntity
  8
LC-001-100-D00-0
 62
     7
370
    25
100
AcDbLine
 10
146.82044
 20
205.308355
 30
0.0
 11
144.82044
 21
207.308355
 31
0.0
  0
LINE
  5
EA
330
DE
100
AcDbEntity
  8
LC-001-100-D00-0
 62
     7
370
    25
100
AcDbLine
 10
146.82044
 20
151.426818
 30
0.0
 11
144.82044
 21
153.426818
 31
0.0
  0
LINE
  5
EB
330
DE
100
AcDbEntity
  8
LC-001-100-D00-0
 62
     7
370
    25
100
AcDbLine
 10
186.42704
 20
282.445108
 30
0.0
 11
177.321824
 21
291.550324
 31
0.0
  0
LINE
  5
EC
330
DE
100
AcDbEntity
  8
LC-001-100-D00-0
 62
     7
370
    25
100
AcDbLine
 10
152.473398
 20
262.517214
 30
0.0
 11
150.871262
 21
264.11935
 31
0.0
  0
LINE
  5
ED
330
DE
100
AcDbEntity
  8
LC-001-100-D00-0
 62
     7
370
    25
100
AcDbLine
 10
146.82044
 20
214.288635
 30
0.0
 11
144.82044
 21
216.288635
 31
0.0
  0
LINE
  5
EE
330
DE
100
AcDbEntity
  8
LC-001-100-D00-0
 62
     7
370
    25
100
AcDbLine
 10
146.82044
 20
160.407098
 30
0.0
 11
144.82044
 21
162.407098
 31
0.0
  0
ENDBLK
  5
E0
330
DE
100
AcDbEntity
  8
0
100
AcDbBlockEnd
  0
BLOCK
  5
101
330
F7
100
AcDbEntity
  8
0
100
AcDbBlockBegin
  2
*D6
 70
     1
 71
     0
 10
0.0
 20
0.0
 30
0.0
  3
*D6
  1

  0
LINE
  5
F8
330
F7
100
AcDbEntity
  8
LC-002-101-D00-0
 62
     2
370
    -2
100
AcDbLine
 10
39.82044
 20
248.445108
 30
0.0
 11
17.313727
 21
248.445108
 31
0.0
  0
LINE
  5
F9
330
F7
100
AcDbEntity
  8
LC-002-101-D00-0
 62
     2
370
    -2
100
AcDbLine
 10
62.820439
 20
145.445107
 30
0.0
 11
17.313727
 21
145.445107
 31
0.0
  0
LINE
  5
FA
330
F7
100
AcDbEntity
  8
LC-002-101-D00-0
 62
     2
370
    -2
100
AcDbLine
 10
20.913727
 20
220.445108
 30
0.0
 11
20.913727
 21
173.445107
 31
0.0
  0
SOLID
  5
FB
330
F7
100
AcDbEntity
  8
LC-002-101-D00-0
 62
     2
100
AcDbTrace
 10
25.580393
 20
220.445108
 30
0.0
 11
16.24706
 21
220.445108
 31
0.0
 12
20.913727
 22
248.445108
 32
0.0
 13
20.913727
 23
248.445108
 33
0.0
  0
SOLID
  5
FC
330
F7
100
AcDbEntity
  8
LC-002-101-D00-0
 62
     2
100
AcDbTrace
 10
16.24706
 20
173.445107
 30
0.0
 11
25.580393
 21
173.445107
 31
0.0
 12
20.913727
 22
145.445107
 32
0.0
 13
20.913727
 23
145.445107
 33
0.0
  0
MTEXT
  5
FD
330
F7
100
AcDbEntity
  8
LC-002-101-D00-0
 62
     2
100
AcDbMText
 10
-9.886273
 20
195.519272
 30
0.0
 40
28.0
 41
0.0
 71
     5
 72
     1
  1
\A1;50
  7
LCTX15-400-0-0pDIN-Schrift
 11
6.123031769111886E-17
 21
1.0
 31
0.0
 73
     1
 44
1.0
  0
POINT
  5
FE
330
F7
100
AcDbEntity
  8
Defpoints
 62
     0
100
AcDbPoint
 10
39.82044
 20
248.445108
 30
0.0
  0
POINT
  5
FF
330
F7
100
AcDbEntity
  8
Defpoints
 62
     0
100
AcDbPoint
 10
62.820439
 20
145.445107
 30
0.0
  0
POINT
  5
100
330
F7
100
AcDbEntity
  8
Defpoints
 62
     0
100
AcDbPoint
 10
20.913727
 20
145.445107
 30
0.0
  0
ENDBLK
  5
102
330
F7
100
AcDbEntity
  8
0
100
AcDbBlockEnd
  0
BLOCK
  5
10E
330
104
100
AcDbEntity
  8
0
100
AcDbBlockBegin
  2
*D7
 70
     1
 71
     0
 10
0.0
 20
0.0
 30
0.0
  3
*D7
  1

  0
LINE
  5
105
330
104
100
AcDbEntity
  8
LC-002-101-D00-0
 62
     2
370
    -2
100
AcDbLine
 10
19.82044
 20
295.445107
 30
0.0
 11
-23.731809
 21
295.445107
 31
0.0
  0
LINE
  5
106
330
104
100
AcDbEntity
  8
LC-002-101-D00-0
 62
     2
370
    -2
100
AcDbLine
 10
59.82044
 20
120.445108
 30
0.0
 11
-23.731809
 21
120.445108
 31
0.0
  0
LINE
  5
107
330
104
100
AcDbEntity
  8
LC-002-101-D00-0
 62
     2
370
    -2
100
AcDbLine
 10
-20.131809
 20
267.445107
 30
0.0
 11
-20.131809
 21
148.445108
 31
0.0
  0
SOLID
  5
108
330
104
100
AcDbEntity
  8
LC-002-101-D00-0
 62
     2
100
AcDbTrace
 10
-15.465142
 20
267.445107
 30
0.0
 11
-24.798475
 21
267.445107
 31
0.0
 12
-20.131809
 22
295.445107
 32
0.0
 13
-20.131809
 23
295.445107
 33
0.0
  0
SOLID
  5
109
330
104
100
AcDbEntity
  8
LC-002-101-D00-0
 62
     2
100
AcDbTrace
 10
-24.798475
 20
148.445108
 30
0.0
 11
-15.465142
 21
148.445108
 31
0.0
 12
-20.131809
 22
120.445108
 32
0.0
 13
-20.131809
 23
120.445108
 33
0.0
  0
MTEXT
  5
10A
330
104
100
AcDbEntity
  8
LC-002-101-D00-0
 62
     2
100
AcDbMText
 10
-50.931809
 20
213.041635
 30
0.0
 40
28.0
 41
0.0
 71
     5
 72
     1
  1
\A1;87,5
  7
LCTX15-400-0-0pDIN-Schrift
 11
6.123031769111886E-17
 21
1.0
 31
0.0
 73
     1
 44
1.0
  0
POINT
  5
10B
330
104
100
AcDbEntity
  8
Defpoints
 62
     0
100
AcDbPoint
 10
19.82044
 20
295.445107
 30
0.0
  0
POINT
  5
10C
330
104
100
AcDbEntity
  8
Defpoints
 62
     0
100
AcDbPoint
 10
59.82044
 20
120.445108
 30
0.0
  0
POINT
  5
10D
330
104
100
AcDbEntity
  8
Defpoints
 62
     0
100
AcDbPoint
 10
-20.131809
 20
120.445108
 30
0.0
  0
ENDBLK
  5
10F
330
104
100
AcDbEntity
  8
0
100
AcDbBlockEnd
  0
BLOCK
  5
11E
330
114
100
AcDbEntity
  8
0
100
AcDbBlockBegin
  2
*D8
 70
     1
 71
     0
 10
0.0
 20
0.0
 30
0.0
  3
*D8
  1

  0
LINE
  5
115
330
114
100
AcDbEntity
  8
LC-003-003-----0
 62
     2
370
    -2
100
AcDbLine
 10
19.82044
 20
295.445107
 30
0.0
 11
19.82044
 21
321.451825
 31
0.0
  0
LINE
  5
116
330
114
100
AcDbEntity
  8
LC-003-003-----0
 62
     2
370
    -2
100
AcDbLine
 10
189.82044
 20
295.445107
 30
0.0
 11
189.82044
 21
321.451825
 31
0.0
  0
LINE
  5
117
330
114
100
AcDbEntity
  8
LC-003-003-----0
 62
     2
370
    -2
100
AcDbLine
 10
47.82044
 20
317.851825
 30
0.0
 11
161.82044
 21
317.851825
 31
0.0
  0
SOLID
  5
118
330
114
100
AcDbEntity
  8
LC-003-003-----0
 62
     2
100
AcDbTrace
 10
47.82044
 20
322.518492
 30
0.0
 11
47.82044
 21
313.185158
 31
0.0
 12
19.82044
 22
317.851825
 32
0.0
 13
19.82044
 23
317.851825
 33
0.0
  0
SOLID
  5
119
330
114
100
AcDbEntity
  8
LC-003-003-----0
 62
     2
100
AcDbTrace
 10
161.82044
 20
313.185158
 30
0.0
 11
161.82044
 21
322.518492
 31
0.0
 12
189.82044
 22
317.851825
 32
0.0
 13
189.82044
 23
317.851825
 33
0.0
  0
MTEXT
  5
11A
330
114
100
AcDbEntity
  8
LC-003-003-----0
 62
     2
100
AcDbMText
 10
105.823446
 20
348.651825
 30
0.0
 40
28.0
 41
0.0
 71
     5
 72
     1
  1
\A1;%%c85
  7
LCTX15-400-0-0pDIN-Schrift
 73
     1
 44
1.0
  0
POINT
  5
11B
330
114
100
AcDbEntity
  8
Defpoints
 62
     0
100
AcDbPoint
 10
19.82044
 20
295.445107
 30
0.0
  0
POINT
  5
11C
330
114
100
AcDbEntity
  8
Defpoints
 62
     0
100
AcDbPoint
 10
189.82044
 20
295.445107
 30
0.0
  0
POINT
  5
11D
330
114
100
AcDbEntity
  8
Defpoints
 62
     0
100
AcDbPoint
 10
189.82044
 20
317.851825
 30
0.0
  0
ENDBLK
  5
11F
330
114
100
AcDbEntity
  8
0
100
AcDbBlockEnd
  0
BLOCK
  5
12B
330
121
100
AcDbEntity
  8
0
100
AcDbBlockBegin
  2
*D9
 70
     1
 71
     0
 10
0.0
 20
0.0
 30
0.0
  3
*D9
  1

  0
LINE
  5
122
330
121
100
AcDbEntity
  8
LC-003-003-----0
 62
     2
370
    -2
100
AcDbLine
 10
39.82044
 20
140.445108
 30
0.0
 11
39.82044
 21
58.403107
 31
0.0
  0
LINE
  5
123
330
121
100
AcDbEntity
  8
LC-003-003-----0
 62
     2
370
    -2
100
AcDbLine
 10
169.82044
 20
140.445108
 30
0.0
 11
169.82044
 21
58.403107
 31
0.0
  0
LINE
  5
124
330
121
100
AcDbEntity
  8
LC-003-003-----0
 62
     2
370
    -2
100
AcDbLine
 10
67.82044
 20
62.003107
 30
0.0
 11
141.82044
 21
62.003107
 31
0.0
  0
SOLID
  5
125
330
121
100
AcDbEntity
  8
LC-003-003-----0
 62
     2
100
AcDbTrace
 10
67.82044
 20
66.669774
 30
0.0
 11
67.82044
 21
57.336441
 31
0.0
 12
39.82044
 22
62.003107
 32
0.0
 13
39.82044
 23
62.003107
 33
0.0
  0
SOLID
  5
126
330
121
100
AcDbEntity
  8
LC-003-003-----0
 62
     2
100
AcDbTrace
 10
141.82044
 20
57.336441
 30
0.0
 11
141.82044
 21
66.669774
 31
0.0
 12
169.82044
 22
62.003107
 32
0.0
 13
169.82044
 23
62.003107
 33
0.0
  0
MTEXT
  5
127
330
121
100
AcDbEntity
  8
LC-003-003-----0
 62
     2
100
AcDbMText
 10
99.991874
 20
92.803107
 30
0.0
 40
28.0
 41
0.0
 71
     5
 72
     1
  1
\A1;%%c65
  7
LCTX15-400-0-0pDIN-Schrift
 73
     1
 44
1.0
  0
POINT
  5
128
330
121
100
AcDbEntity
  8
Defpoints
 62
     0
100
AcDbPoint
 10
39.82044
 20
140.445108
 30
0.0
  0
POINT
  5
129
330
121
100
AcDbEntity
  8
Defpoints
 62
     0
100
AcDbPoint
 10
169.82044
 20
140.445108
 30
0.0
  0
POINT
  5
12A
330
121
100
AcDbEntity
  8
Defpoints
 62
     0
100
AcDbPoint
 10
169.82044
 20
62.003107
 30
0.0
  0
ENDBLK
  5
12C
330
121
100
AcDbEntity
  8
0
100
AcDbBlockEnd
  0
ENDSEC
  0
SECTION
  2
ENTITIES
  0
CIRCLE
  5
32
330
1F
100
AcDbEntity
  8
LC-001-100-D00-0
 62
     7
370
    50
100
AcDbCircle
 10
21.32044
 20
288.545107
 30
0.0
 40
2.5
  0
CIRCLE
  5
33
330
1F
100
AcDbEntity
  8
LC-001-100-D00-0
 62
     7
370
    50
100
AcDbCircle
 10
188.32044
 20
288.545107
 30
0.0
 40
2.5
  0
LINE
  5
34
330
1F
100
AcDbEntity
  8
LC-001-100-D00-0
 62
     7
370
    50
100
AcDbLine
 10
23.82044
 20
286.045107
 30
0.0
 11
23.82044
 21
291.045107
 31
0.0
  0
LINE
  5
35
330
1F
100
AcDbEntity
  8
LC-001-100-D00-0
 62
     7
370
    50
100
AcDbLine
 10
185.82044
 20
291.045107
 30
0.0
 11
185.82044
 21
286.045107
 31
0.0
  0
LINE
  5
36
330
1F
100
AcDbEntity
  8
LC-001-100-D00-0
 62
     7
370
    50
100
AcDbLine
 10
21.22044
 20
282.445108
 30
0.0
 11
21.22044
 21
286.045107
 31
0.0
  0
LINE
  5
37
330
1F
100
AcDbEntity
  8
LC-001-100-D00-0
 62
     7
370
    50
100
AcDbLine
 10
188.42044
 20
286.045107
 30
0.0
 11
188.42044
 21
282.445108
 31
0.0
  0
LINE
  5
38
330
1F
100
AcDbEntity
  8
LC-001-100-D00-0
 62
     7
370
    50
100
AcDbLine
 10
27.82044
 20
268.375837
 30
0.0
 11
27.82044
 21
282.445108
 31
0.0
  0
LINE
  5
39
330
1F
100
AcDbEntity
  8
LC-001-100-D00-0
 62
     7
370
    50
100
AcDbLine
 10
181.82044
 20
268.375837
 30
0.0
 11
159.82044
 21
268.375837
 31
0.0
  0
LINE
  5
3A
330
1F
100
AcDbEntity
  8
LC-001-100-D00-0
 62
     7
370
    50
100
AcDbLine
 10
49.820439
 20
268.375837
 30
0.0
 11
27.82044
 21
268.375837
 31
0.0
  0
LINE
  5
3B
330
1F
100
AcDbEntity
  8
LC-001-100-D00-0
 62
     7
370
    50
100
AcDbLine
 10
181.82044
 20
282.445108
 30
0.0
 11
181.82044
 21
268.375837
 31
0.0
  0
ARC
  5
3C
330
1F
100
AcDbEntity
  8
LC-001-100-D00-0
 62
     7
370
    50
100
AcDbCircle
 10
38.820439
 20
247.045108
 30
0.0
 40
23.99999999999997
100
AcDbArc
 50
0.0
 51
117.279612
  0
ARC
  5
3D
330
1F
100
AcDbEntity
  8
LC-001-100-D00-0
 62
     7
370
    50
100
AcDbCircle
 10
170.82044
 20
247.045108
 30
0.0
 40
24.00000000000001
100
AcDbArc
 50
62.720388
 51
180.0
  0
LINE
  5
3E
330
1F
100
AcDbEntity
  8
LC-001-100-D00-0
 62
     7
370
    50
100
AcDbLine
 10
62.820439
 20
145.445107
 30
0.0
 11
62.820439
 21
247.045108
 31
0.0
  0
LINE
  5
3F
330
1F
100
AcDbEntity
  8
LC-001-100-D00-0
 62
     7
370
    50
100
AcDbLine
 10
146.82044
 20
247.045108
 30
0.0
 11
146.82044
 21
145.445107
 31
0.0
  0
LINE
  5
40
330
1F
100
AcDbEntity
  8
LC-001-100-D00-0
 62
     7
370
    50
100
AcDbLine
 10
64.820439
 20
247.44511
 30
0.0
 11
64.820439
 21
145.445107
 31
0.0
  0
LINE
  5
41
330
1F
100
AcDbEntity
  8
LC-001-100-D00-0
 62
     7
370
    50
100
AcDbLine
 10
144.82044
 20
145.445107
 30
0.0
 11
144.82044
 21
247.44511
 31
0.0
  0
LINE
  5
42
330
1F
100
AcDbEntity
  8
LC-001-100-D00-0
 62
     7
370
    50
100
AcDbLine
 10
144.82044
 20
145.445107
 30
0.0
 11
64.820439
 21
145.445107
 31
0.0
  0
ARC
  5
43
330
1F
100
AcDbEntity
  8
LC-001-100-D00-0
 62
     7
370
    50
100
AcDbCircle
 10
38.820439
 20
247.44511
 30
0.0
 40
26.00000000000003
100
AcDbArc
 50
0.0
 51
90.0
  0
LINE
  5
44
330
1F
100
AcDbEntity
  8
LC-001-100-D00-0
 62
     7
370
    50
100
AcDbLine
 10
170.82044
 20
273.44511
 30
0.0
 11
38.820439
 21
273.44511
 31
0.0
  0
ARC
  5
45
330
1F
100
AcDbEntity
  8
LC-001-100-D00-0
 62
     7
370
    50
100
AcDbCircle
 10
170.82044
 20
247.44511
 30
0.0
 40
26.0
100
AcDbArc
 50
90.0
 51
180.0
  0
ARC
  5
46
330
1F
100
AcDbEntity
  8
LC-001-100-D00-0
 62
     7
370
    50
100
AcDbCircle
 10
34.32044
 20
275.44511
 30
0.0
 40
2.0
100
AcDbArc
 50
180.0
 51
270.0
  0
ARC
  5
47
330
1F
100
AcDbEntity
  8
LC-001-100-D00-0
 62
     7
370
    50
100
AcDbCircle
 10
175.32044
 20
275.44511
 30
0.0
 40
2.0
100
AcDbArc
 50
270.0
 51
0.0
  0
LINE
  5
48
330
1F
100
AcDbEntity
  8
LC-001-100-D00-0
 62
     7
370
    50
100
AcDbLine
 10
32.32044
 20
291.445107
 30
0.0
 11
32.32044
 21
275.44511
 31
0.0
  0
LINE
  5
49
330
1F
100
AcDbEntity
  8
LC-001-100-D00-0
 62
     7
370
    50
100
AcDbLine
 10
177.32044
 20
275.44511
 30
0.0
 11
177.32044
 21
291.445107
 31
0.0
  0
ARC
  5
4A
330
1F
100
AcDbEntity
  8
LC-001-100-D00-0
 62
     7
370
    50
100
AcDbCircle
 10
28.32044
 20
291.445107
 30
0.0
 40
4.000000000000028
100
AcDbArc
 50
0.0
 51
90.0
  0
LINE
  5
4B
330
1F
100
AcDbEntity
  8
LC-001-100-D00-0
 62
     7
370
    50
100
AcDbLine
 10
181.32044
 20
295.445107
 30
0.0
 11
28.32044
 21
295.445107
 31
0.0
  0
ARC
  5
4C
330
1F
100
AcDbEntity
  8
LC-001-100-D00-0
 62
     7
370
    50
100
AcDbCircle
 10
181.32044
 20
291.445107
 30
0.0
 40
4.0
100
AcDbArc
 50
90.0
 51
180.0
  0
LINE
  5
4D
330
1F
100
AcDbEntity
  8
LC-001-100-D00-0
 62
     7
370
    50
100
AcDbLine
 10
19.82044
 20
291.045107
 30
0.0
 11
19.82044
 21
295.445107
 31
0.0
  0
LINE
  5
4E
330
1F
100
AcDbEntity
  8
LC-001-100-D00-0
 62
     7
370
    50
100
AcDbLine
 10
189.82044
 20
295.445107
 30
0.0
 11
189.82044
 21
291.045107
 31
0.0
  0
LINE
  5
4F
330
1F
100
AcDbEntity
  8
LC-001-100-D00-0
 62
     7
370
    50
100
AcDbLine
 10
19.82044
 20
295.445107
 30
0.0
 11
28.32044
 21
295.445107
 31
0.0
  0
LINE
  5
50
330
1F
100
AcDbEntity
  8
LC-001-100-D00-0
 62
     7
370
    50
100
AcDbLine
 10
34.32044
 20
273.44511
 30
0.0
 11
38.820439
 21
273.44511
 31
0.0
  0
LINE
  5
51
330
1F
100
AcDbEntity
  8
LC-001-100-D00-0
 62
     7
370
    50
100
AcDbLine
 10
64.820439
 20
145.445107
 30
0.0
 11
62.820439
 21
145.445107
 31
0.0
  0
LINE
  5
52
330
1F
100
AcDbEntity
  8
LC-001-100-D00-0
 62
     7
370
    50
100
AcDbLine
 10
27.82044
 20
282.445108
 30
0.0
 11
21.22044
 21
282.445108
 31
0.0
  0
LINE
  5
53
330
1F
100
AcDbEntity
  8
LC-001-100-D00-0
 62
     7
370
    50
100
AcDbLine
 10
21.22044
 20
286.045107
 30
0.0
 11
23.82044
 21
286.045107
 31
0.0
  0
LINE
  5
54
330
1F
100
AcDbEntity
  8
LC-001-100-D00-0
 62
     7
370
    50
100
AcDbLine
 10
23.82044
 20
291.045107
 30
0.0
 11
19.82044
 21
291.045107
 31
0.0
  0
LINE
  5
55
330
1F
100
AcDbEntity
  8
LC-001-100-D00-0
 62
     7
370
    50
100
AcDbLine
 10
181.32044
 20
295.445107
 30
0.0
 11
189.82044
 21
295.445107
 31
0.0
  0
LINE
  5
56
330
1F
100
AcDbEntity
  8
LC-001-100-D00-0
 62
     7
370
    50
100
AcDbLine
 10
170.82044
 20
273.44511
 30
0.0
 11
175.32044
 21
273.44511
 31
0.0
  0
LINE
  5
57
330
1F
100
AcDbEntity
  8
LC-001-100-D00-0
 62
     7
370
    50
100
AcDbLine
 10
146.82044
 20
145.445107
 30
0.0
 11
144.82044
 21
145.445107
 31
0.0
  0
LINE
  5
58
330
1F
100
AcDbEntity
  8
LC-001-100-D00-0
 62
     7
370
    50
100
AcDbLine
 10
188.42044
 20
282.445108
 30
0.0
 11
181.82044
 21
282.445108
 31
0.0
  0
LINE
  5
59
330
1F
100
AcDbEntity
  8
LC-001-100-D00-0
 62
     7
370
    50
100
AcDbLine
 10
185.82044
 20
286.045107
 30
0.0
 11
188.42044
 21
286.045107
 31
0.0
  0
LINE
  5
5A
330
1F
100
AcDbEntity
  8
LC-001-100-D00-0
 62
     7
370
    50
100
AcDbLine
 10
189.82044
 20
291.045107
 30
0.0
 11
185.82044
 21
291.045107
 31
0.0
  0
INSERT
  5
66
330
1F
100
AcDbEntity
  8
LC-001-100-D00-0
 62
     7
370
    50
100
AcDbBlockReference
  2
POLY1
 10
0.0
 20
0.0
 30
0.0
  0
LINE
  5
67
330
1F
100
AcDbEntity
  8
LC-001-100-D00-0
 62
     7
370
    50
100
AcDbLine
 10
182.589328
 20
268.845108
 30
0.0
 11
182.82044
 21
268.845108
 31
0.0
  0
LINE
  5
68
330
1F
100
AcDbEntity
  8
LC-001-100-D00-0
 62
     7
370
    50
100
AcDbLine
 10
182.82044
 20
268.845108
 30
0.0
 11
169.82044
 21
248.445108
 31
0.0
  0
LINE
  5
69
330
1F
100
AcDbEntity
  8
LC-001-100-D00-0
 62
     7
370
    50
100
AcDbLine
 10
169.82044
 20
242.862782
 30
0.0
 11
185.350402
 21
267.232877
 31
0.0
  0
ARC
  5
6A
330
1F
100
AcDbEntity
  8
LC-001-100-D00-0
 62
     7
370
    50
100
AcDbCircle
 10
182.82044
 20
268.845108
 30
0.0
 40
3.000000000000015
100
AcDbArc
 50
327.492476
 51
0.0
  0
LINE
  5
6B
330
1F
100
AcDbEntity
  8
LC-001-100-D00-0
 62
     7
370
    50
100
AcDbLine
 10
26.82044
 20
268.845108
 30
0.0
 11
27.051551
 21
268.845108
 31
0.0
  0
INSERT
  5
77
330
1F
100
AcDbEntity
  8
LC-001-100-D00-0
 62
     7
370
    50
100
AcDbBlockReference
  2
POLY2
 10
0.0
 20
0.0
 30
0.0
  0
LINE
  5
78
330
1F
100
AcDbEntity
  8
LC-001-100-D00-0
 62
     7
370
    50
100
AcDbLine
 10
39.82044
 20
248.445108
 30
0.0
 11
26.82044
 21
268.845108
 31
0.0
  0
LINE
  5
79
330
1F
100
AcDbEntity
  8
LC-001-100-D00-0
 62
     7
370
    50
100
AcDbLine
 10
182.82044
 20
282.445108
 30
0.0
 11
182.82044
 21
268.845108
 31
0.0
  0
LINE
  5
7A
330
1F
100
AcDbEntity
  8
LC-001-100-D00-0
 62
     7
370
    50
100
AcDbLine
 10
182.589328
 20
269.445108
 30
0.0
 11
182.589328
 21
268.845108
 31
0.0
  0
LINE
  5
7B
330
1F
100
AcDbEntity
  8
LC-001-100-D00-0
 62
     7
370
    50
100
AcDbLine
 10
182.589328
 20
269.445108
 30
0.0
 11
181.82044
 21
269.445108
 31
0.0
  0
LINE
  5
7C
330
1F
100
AcDbEntity
  8
LC-001-100-D00-0
 62
     7
370
    50
100
AcDbLine
 10
27.82044
 20
269.445108
 30
0.0
 11
27.051551
 21
269.445108
 31
0.0
  0
LINE
  5
7D
330
1F
100
AcDbEntity
  8
LC-001-100-D00-0
 62
     7
370
    50
100
AcDbLine
 10
27.051551
 20
268.845108
 30
0.0
 11
27.051551
 21
269.445108
 31
0.0
  0
LINE
  5
7E
330
1F
100
AcDbEntity
  8
LC-001-100-D00-0
 62
     7
370
    50
100
AcDbLine
 10
26.82044
 20
268.845108
 30
0.0
 11
26.82044
 21
282.445108
 31
0.0
  0
LINE
  5
7F
330
1F
100
AcDbEntity
  8
LC-001-100-D00-0
 62
     7
370
    50
100
AcDbLine
 10
189.82044
 20
279.445108
 30
0.0
 11
189.82044
 21
282.445108
 31
0.0
  0
LINE
  5
80
330
1F
100
AcDbEntity
  8
LC-001-100-D00-0
 62
     7
370
    50
100
AcDbLine
 10
19.82044
 20
282.445108
 30
0.0
 11
19.82044
 21
279.445108
 31
0.0
  0
LINE
  5
81
330
1F
100
AcDbEntity
  8
LC-001-100-D00-0
 62
     7
370
    50
100
AcDbLine
 10
185.82044
 20
268.845108
 30
0.0
 11
185.82044
 21
279.445108
 31
0.0
  0
LINE
  5
82
330
1F
100
AcDbEntity
  8
LC-001-100-D00-0
 62
     7
370
    50
100
AcDbLine
 10
23.82044
 20
279.445108
 30
0.0
 11
23.82044
 21
268.845108
 31
0.0
  0
LINE
  5
83
330
1F
100
AcDbEntity
  8
LC-001-100-D00-0
 62
     7
370
    50
100
AcDbLine
 10
24.290477
 20
267.232877
 30
0.0
 11
39.82044
 21
242.862782
 31
0.0
  0
LINE
  5
84
330
1F
100
AcDbEntity
  8
LC-001-100-D00-0
 62
     7
370
    50
100
AcDbLine
 10
169.82044
 20
140.445108
 30
0.0
 11
169.82044
 21
242.862782
 31
0.0
  0
LINE
  5
85
330
1F
100
AcDbEntity
  8
LC-001-100-D00-0
 62
     7
370
    50
100
AcDbLine
 10
39.82044
 20
242.862782
 30
0.0
 11
39.82044
 21
140.445108
 31
0.0
  0
ARC
  5
86
330
1F
100
AcDbEntity
  8
LC-001-100-D00-0
 62
     7
370
    50
100
AcDbCircle
 10
149.82044
 20
140.445108
 30
0.0
 40
19.99999999999994
100
AcDbArc
 50
270.0
 51
0.0
  0
ARC
  5
87
330
1F
100
AcDbEntity
  8
LC-001-100-D00-0
 62
     7
370
    50
100
AcDbCircle
 10
59.82044
 20
140.445108
 30
0.0
 40
20.00000000000003
100
AcDbArc
 50
180.0
 51
270.0
  0
ARC
  5
88
330
1F
100
AcDbEntity
  8
LC-001-100-D00-0
 62
     7
370
    50
100
AcDbCircle
 10
149.82044
 20
140.445108
 30
0.0
 40
16.99999999999994
100
AcDbArc
 50
270.0
 51
0.0
  0
ARC
  5
89
330
1F
100
AcDbEntity
  8
LC-001-100-D00-0
 62
     7
370
    50
100
AcDbCircle
 10
59.82044
 20
140.445108
 30
0.0
 40
17.00000000000003
100
AcDbArc
 50
180.0
 51
270.0
  0
LINE
  5
8A
330
1F
100
AcDbEntity
  8
LC-001-100-D00-0
 62
     7
370
    50
100
AcDbLine
 10
42.82044
 20
248.445108
 30
0.0
 11
62.779571
 21
248.445108
 31
0.0
  0
LINE
  5
8B
330
1F
100
AcDbEntity
  8
LC-001-100-D00-0
 62
     7
370
    50
100
AcDbLine
 10
146.861308
 20
248.445108
 30
0.0
 11
166.82044
 21
248.445108
 31
0.0
  0
LINE
  5
8C
330
1F
100
AcDbEntity
  8
LC-001-100-D00-0
 62
     7
370
    50
100
AcDbLine
 10
166.82044
 20
248.445108
 30
0.0
 11
166.82044
 21
140.445108
 31
0.0
  0
LINE
  5
8D
330
1F
100
AcDbEntity
  8
LC-001-100-D00-0
 62
     7
370
    50
100
AcDbLine
 10
42.82044
 20
140.445108
 30
0.0
 11
42.82044
 21
248.445108
 31
0.0
  0
ARC
  5
8E
330
1F
100
AcDbEntity
  8
LC-001-100-D00-0
 62
     7
370
    50
100
AcDbCircle
 10
26.82044
 20
268.845108
 30
0.0
 40
3.0
100
AcDbArc
 50
180.0
 51
212.507524
  0
LINE
  5
8F
330
1F
100
AcDbEntity
  8
LC-001-100-D00-0
 62
     7
370
    50
100
AcDbLine
 10
42.82044
 20
248.445108
 30
0.0
 11
39.82044
 21
248.445108
 31
0.0
  0
LINE
  5
90
330
1F
100
AcDbEntity
  8
LC-001-100-D00-0
 62
     7
370
    50
100
AcDbLine
 10
169.82044
 20
248.445108
 30
0.0
 11
166.82044
 21
248.445108
 31
0.0
  0
LINE
  5
91
330
1F
100
AcDbEntity
  8
LC-001-100-D00-0
 62
     7
370
    50
100
AcDbLine
 10
149.82044
 20
123.445108
 30
0.0
 11
59.82044
 21
123.445108
 31
0.0
  0
LINE
  5
92
330
1F
100
AcDbEntity
  8
LC-001-100-D00-0
 62
     7
370
    50
100
AcDbLine
 10
185.82044
 20
279.445108
 30
0.0
 11
189.82044
 21
279.445108
 31
0.0
  0
LINE
  5
93
330
1F
100
AcDbEntity
  8
LC-001-100-D00-0
 62
     7
370
    50
100
AcDbLine
 10
19.82044
 20
279.445108
 30
0.0
 11
23.82044
 21
279.445108
 31
0.0
  0
LINE
  5
94
330
1F
100
AcDbEntity
  8
LC-001-100-D00-0
 62
     7
370
    50
100
AcDbLine
 10
26.82044
 20
282.445108
 30
0.0
 11
19.82044
 21
282.445108
 31
0.0
  0
LINE
  5
95
330
1F
100
AcDbEntity
  8
LC-001-100-D00-0
 62
     7
370
    50
100
AcDbLine
 10
189.82044
 20
282.445108
 30
0.0
 11
182.82044
 21
282.445108
 31
0.0
  0
LINE
  5
96
330
1F
100
AcDbEntity
  8
LC-001-100-D00-0
 62
     7
370
    50
100
AcDbLine
 10
59.82044
 20
120.445108
 30
0.0
 11
149.82044
 21
120.445108
 31
0.0
  0
INSERT
  5
CD
330
1F
100
AcDbEntity
  8
LC-001-100-D00-0
 62
     7
370
    25
100
AcDbBlockReference
  2
KLON1
 10
0.0
 20
0.0
 30
0.0
  0
INSERT
  5
DD
330
1F
100
AcDbEntity
  8
LC-001-100-D00-0
 62
     7
370
    25
100
AcDbBlockReference
  2
KLON2
 10
0.0
 20
0.0
 30
0.0
  0
INSERT
  5
EF
330
1F
100
AcDbEntity
  8
LC-001-100-D00-0
 62
     7
370
    25
100
AcDbBlockReference
  2
KLON3
 10
0.0
 20
0.0
 30
0.0
  0
LINE
  5
F0
330
1F
100
AcDbEntity
  8
LC-001-100-D00-0
 62
     7
370
    25
100
AcDbLine
 10
187.443383
 20
286.204002
 30
0.0
 11
190.661545
 21
289.422164
 31
0.0
  0
LINE
  5
F1
330
1F
100
AcDbEntity
  8
LC-001-100-D00-0
 62
     7
370
    25
100
AcDbLine
 10
18.840844
 20
288.226353
 30
0.0
 11
21.639194
 21
291.024703
 31
0.0
  0
DIMENSION
  5
F5
330
1F
100
AcDbEntity
  8
LC-002-101-D00-0
 62
     7
370
    25
100
AcDbDimension
  2
*D6
 10
20.913727
 20
145.445107
 30
0.0
 11
-9.886273
 21
195.519272
 31
0.0
 70
   160
  1
50
 71
     5
 42
103.000001
 53
90.0
  3
LC-DIM-L-0140-02-02
100
AcDbAlignedDimension
 13
39.82044
 23
248.445108
 33
0.0
 14
62.820439
 24
145.445107
 34
0.0
 50
90.0
100
AcDbRotatedDimension
  0
DIMENSION
  5
103
330
1F
100
AcDbEntity
  8
LC-002-101-D00-0
 62
     7
370
    25
100
AcDbDimension
  2
*D7
 10
-20.131809
 20
120.445108
 30
0.0
 11
-50.931809
 21
213.041635
 31
0.0
 70
   160
  1
87,5
 71
     5
 42
174.999999
 53
90.0
  3
LC-DIM-L-0140-02-02
100
AcDbAlignedDimension
 13
19.82044
 23
295.445107
 33
0.0
 14
59.82044
 24
120.445108
 34
0.0
 50
90.0
100
AcDbRotatedDimension
  0
LINE
  5
111
330
1F
100
AcDbEntity
  8
LC-001-100-D00-0
  6
DASHDOT
 62
     7
370
    25
100
AcDbLine
 10
104.82044
 20
118.999511
 30
0.0
 11
104.82044
 21
298.088856
 31
0.0
  0
DIMENSION
  5
113
330
1F
100
AcDbEntity
  8
LC-003-003-----0
 62
     7
370
    25
100
AcDbDimension
  2
*D8
 10
189.82044
 20
317.851825
 30
0.0
 11
105.823446
 21
348.651825
 31
0.0
 70
   160
  1
%%c85
 71
     5
 42
170.0
  3
LC-DIM-L-0140-02-02
100
AcDbAlignedDimension
 13
19.82044
 23
295.445107
 33
0.0
 14
189.82044
 24
295.445107
 34
0.0
100
AcDbRotatedDimension
  0
DIMENSION
  5
120
330
1F
100
AcDbEntity
  8
LC-003-003-----0
 62
     7
370
    25
100
AcDbDimension
  2
*D9
 10
169.82044
 20
62.003107
 30
0.0
 11
99.991874
 21
92.803107
 31
0.0
 70
   160
  1
%%c65
 71
     5
 42
130.0
  3
LC-DIM-L-0140-02-02
100
AcDbAlignedDimension
 13
39.82044
 23
140.445108
 33
0.0
 14
169.82044
 24
140.445108
 34
0.0
100
AcDbRotatedDimension
  0
ENDSEC
  0
SECTION
  2
OBJECTS
  0
DICTIONARY
  5
C
330
0
100
AcDbDictionary
281
     1
  3
ACAD_GROUP
350
D
  3
ACAD_LAYOUT
350
1A
  3
ACAD_MLINESTYLE
350
17
  3
ACAD_PLOTSETTINGS
350
19
  3
ACAD_PLOTSTYLENAME
350
E
  0
DICTIONARY
  5
D
102
{ACAD_REACTORS
330
C
102
}
330
C
100
AcDbDictionary
281
     1
  0
DICTIONARY
  5
1A
102
{ACAD_REACTORS
330
C
102
}
330
C
100
AcDbDictionary
281
     1
  3
Layout1
350
1E
  3
Layout2
350
26
  3
Model
350
22
  0
DICTIONARY
  5
17
102
{ACAD_REACTORS
330
C
102
}
330
C
100
AcDbDictionary
281
     1
  3
Standard
350
18
  0
DICTIONARY
  5
19
102
{ACAD_REACTORS
330
C
102
}
330
C
100
AcDbDictionary
281
     1
  0
ACDBDICTIONARYWDFLT
  5
E
102
{ACAD_REACTORS
330
C
102
}
330
C
100
AcDbDictionary
281
     1
  3
Normal
350
F
100
AcDbDictionaryWithDefault
340
F
  0
LAYOUT
  5
1E
102
{ACAD_REACTORS
330
1A
102
}
330
1A
100
AcDbPlotSettings
  1

  2

  4

  6

 40
0.0
 41
0.0
 42
0.0
 43
0.0
 44
0.0
 45
0.0
 46
0.0
 47
0.0
 48
0.0
 49
0.0
140
0.0
141
0.0
142
1.0
143
1.0
 70
   688
 72
     0
 73
     0
 74
     5
  7

 75
    16
147
1.0
148
0.0
149
0.0
100
AcDbLayout
  1
Layout1
 70
     1
 71
     1
 10
-314.663364
 20
-147.678893
 11
525.336636
 21
446.321107
 12
0.0
 22
0.0
 32
0.0
 14
-314.663364
 24
-147.678893
 34
0.0
 15
525.336636
 25
446.321107
 35
0.0
146
0.0
 13
0.0
 23
0.0
 33
0.0
 16
1.0
 26
0.0
 36
0.0
 17
0.0
 27
1.0
 37
0.0
 76
     0
330
1B
  0
LAYOUT
  5
26
102
{ACAD_REACTORS
330
1A
102
}
330
1A
100
AcDbPlotSettings
  1

  2

  4

  6

 40
0.0
 41
0.0
 42
0.0
 43
0.0
 44
0.0
 45
0.0
 46
0.0
 47
0.0
 48
0.0
 49
0.0
140
0.0
141
0.0
142
1.0
143
1.0
 70
   688
 72
     0
 73
     0
 74
     5
  7

 75
    16
147
1.0
148
0.0
149
0.0
100
AcDbLayout
  1
Layout2
 70
     1
 71
     2
 10
0.0
 20
0.0
 11
0.0
 21
0.0
 12
0.0
 22
0.0
 32
0.0
 14
0.0
 24
0.0
 34
0.0
 15
0.0
 25
0.0
 35
0.0
146
0.0
 13
0.0
 23
0.0
 33
0.0
 16
1.0
 26
0.0
 36
0.0
 17
0.0
 27
1.0
 37
0.0
 76
     0
330
23
  0
LAYOUT
  5
22
102
{ACAD_REACTORS
330
1A
102
}
330
1A
100
AcDbPlotSettings
  1

  2

  4

  6

 40
0.0
 41
0.0
 42
0.0
 43
0.0
 44
0.0
 45
0.0
 46
0.0
 47
0.0
 48
0.0
 49
0.0
140
0.0
141
0.0
142
1.0
143
1.0
 70
  1776
 72
     0
 73
     0
 74
     0
  7

 75
     0
147
1.0
148
0.0
149
0.0
100
AcDbLayout
  1
Model
 70
     1
 71
     0
 10
-314.663364
 20
-147.678893
 11
525.336636
 21
446.321107
 12
0.0
 22
0.0
 32
0.0
 14
-314.663364
 24
-147.678893
 34
0.0
 15
525.336636
 25
446.321107
 35
0.0
146
0.0
 13
0.0
 23
0.0
 33
0.0
 16
1.0
 26
0.0
 36
0.0
 17
0.0
 27
1.0
 37
0.0
 76
     0
330
1F
  0
MLINESTYLE
  5
18
102
{ACAD_REACTORS
330
17
102
}
330
17
100
AcDbMlineStyle
  2
Standard
 70
     0
  3

 62
   256
 51
90.0
 52
90.0
 71
     2
 49
0.5
 62
   256
  6
BYLAYER
 49
-0.5
 62
   256
  6
BYLAYER
  0
ACDBPLACEHOLDER
  5
F
102
{ACAD_REACTORS
330
E
102
}
330
E
  0
ENDSEC
  0
EOF
