  0
SECTION
  2
HEADER
  9
$ACADVER
  1
AC1009
  9
$INSBASE
 10
-95.836967
 20
122.545525
 30
0.0
  9
$EXTMIN
 10
-338.121798
 20
9.829144
 30
0.0
  9
$EXTMAX
 10
501.878202
 20
603.829144
 30
0.0
  9
$LIMMIN
 10
-338.121798
 20
9.829144
  9
$LIMMAX
 10
501.878202
 20
603.829144
  9
$ORTHOMODE
 70
     0
  9
$REGENMODE
 70
     1
  9
$FILLMODE
 70
     1
  9
$QTEXTMODE
 70
     0
  9
$MIRRTEXT
 70
     1
  9
$DRAGMODE
 70
     2
  9
$LTSCALE
 40
2.0
  9
$OSMODE
 70
     0
  9
$ATTMODE
 70
     1
  9
$TEXTSIZE
 40
0.2
  9
$TRACEWID
 40
0.05
  9
$TEXTSTYLE
  7
STANDARD
  9
$CLAYER
  8
0
  9
$CELTYPE
  6
BYLAYER
  9
$CECOLOR
 62
     7
  9
$DIMSCALE
 40
2.0
  9
$DIMASZ
 40
3.5
  9
$DIMEXO
 40
0.0625
  9
$DIMDLI
 40
0.38
  9
$DIMRND
 40
0.0
  9
$DIMDLE
 40
0.0
  9
$DIMEXE
 40
0.18
  9
$DIMTP
 40
0.0
  9
$DIMTM
 40
0.0
  9
$DIMTXT
 40
3.5
  9
$DIMCEN
 40
0.09
  9
$DIMTSZ
 40
0.0
  9
$DIMTOL
 70
     0
  9
$DIMLIM
 70
     0
  9
$DIMTIH
 70
     1
  9
$DIMTOH
 70
     1
  9
$DIMSE1
 70
     0
  9
$DIMSE2
 70
     0
  9
$DIMTAD
 70
     1
  9
$DIMZIN
 70
     0
  9
$DIMBLK
  1

  9
$DIMASO
 70
     1
  9
$DIMSHO
 70
     1
  9
$DIMPOST
  1

  9
$DIMAPOST
  1

  9
$DIMALT
 70
     0
  9
$DIMALTD
 70
     2
  9
$DIMALTF
 40
25.4
  9
$DIMLFAC
 40
1.0
  9
$DIMTOFL
 70
     0
  9
$DIMTVP
 40
0.0
  9
$DIMTIX
 70
     0
  9
$DIMSOXD
 70
     0
  9
$DIMSAH
 70
     0
  9
$DIMBLK1
  1

  9
$DIMBLK2
  1

  9
$DIMSTYLE
  2
STANDARD
  9
$DIMCLRD
 70
     0
  9
$DIMCLRE
 70
     0
  9
$DIMCLRT
 70
     0
  9
$DIMTFAC
 40
1.0
  9
$DIMGAP
 40
0.09
  9
$LUNITS
 70
     2
  9
$LUPREC
 70
     2
  9
$AXISMODE
 70
     0
  9
$AXISUNIT
 10
0.0
 20
0.0
  9
$SKETCHINC
 40
0.1
  9
$FILLETRAD
 40
0.0
  9
$AUNITS
 70
     0
  9
$AUPREC
 70
     0
  9
$MENU
  1
acad
  9
$ELEVATION
 40
0.0
  9
$PELEVATION
 40
0.0
  9
$THICKNESS
 40
0.0
  9
$LIMCHECK
 70
     0
  9
$BLIPMODE
 70
     1
  9
$CHAMFERA
 40
0.0
  9
$CHAMFERB
 40
0.0
  9
$SKPOLY
 70
     0
  9
$TDCREATE
 40
0.000000000
  9
$TDUPDATE
 40
0.000000000
  9
$TDINDWG
 40
0.0000000000
  9
$TDUSRTIMER
 40
0.0000000000
  9
$USRTIMER
 70
     1
  9
$ANGBASE
 50
0.0
  9
$ANGDIR
 70
     0
  9
$PDMODE
 70
     0
  9
$PDSIZE
 40
0.0
  9
$PLINEWID
 40
0.0
  9
$COORDS
 70
     0
  9
$SPLFRAME
 70
     0
  9
$SPLINETYPE
 70
     6
  9
$SPLINESEGS
 70
     8
  9
$ATTDIA
 70
     0
  9
$ATTREQ
 70
     1
  9
$HANDLING
 70
     1
  9
$HANDSEED
  5
20A
  9
$SURFTAB1
 70
     6
  9
$SURFTAB2
 70
     6
  9
$SURFTYPE
 70
     6
  9
$SURFU
 70
     6
  9
$SURFV
 70
     6
  9
$UCSNAME
  2

  9
$UCSORG
 10
0.0
 20
0.0
 30
0.0
  9
$UCSXDIR
 10
1.0
 20
0.0
 30
0.0
  9
$UCSYDIR
 10
0.0
 20
1.0
 30
0.0
  9
$PUCSNAME
  2

  9
$PUCSORG
 10
0.0
 20
0.0
 30
0.0
  9
$PUCSXDIR
 10
1.0
 20
0.0
 30
0.0
  9
$PUCSYDIR
 10
0.0
 20
1.0
 30
0.0
  9
$USERI1
 70
     0
  9
$USERI2
 70
     0
  9
$USERI3
 70
     0
  9
$USERI4
 70
     0
  9
$USERI5
 70
     0
  9
$USERR1
 40
0.0
  9
$USERR2
 40
0.0
  9
$USERR3
 40
0.0
  9
$USERR4
 40
0.0
  9
$USERR5
 40
0.0
  9
$WORLDVIEW
 70
     1
  9
$SHADEDGE
 70
     3
  9
$SHADEDIF
 70
    70
  9
$TILEMODE
 70
     1
  9
$MAXACTVP
 70
    16
  9
$PINSBASE
 10
0.0
 20
0.0
 30
0.0
  9
$PLIMCHECK
 70
     0
  9
$PEXTMIN
 10
1.000000E+20
 20
1.000000E+20
 30
1.000000E+20
  9
$PEXTMAX
 10
-1.000000E+20
 20
-1.000000E+20
 30
-1.000000E+20
  9
$PLIMMIN
 10
-338.121798
 20
9.829144
  9
$PLIMMAX
 10
501.878202
 20
603.829144
  9
$UNITMODE
 70
     0
  9
$VISRETAIN
 70
     0
  9
$PLINEGEN
 70
     1
  9
$PSLTSCALE
 70
     0
  9
$TREEDEPTH
 70
  3020
  9
$DWGCODEPAGE
  3
dos850
  0
ENDSEC
  0
SECTION
  2
TABLES
  0
TABLE
  2
VPORT
 70
     1
  0
VPORT
  2
*ACTIVE
 70
     0
 10
0.0
 20
0.0
 11
1.0
 21
1.0
 12
420.0
 22
297.0
 13
0.0
 23
0.0
 14
1.0
 24
1.0
 15
0.0
 25
0.0
 16
0.0
 26
0.0
 36
1.0
 17
-338.121798
 27
9.829144
 37
0.0
 40
594.0
 41
1.604229
 42
50.0
 43
0.0
 44
0.0
 50
0.0
 51
0.0
 71
     0
 72
   100
 73
     1
 74
     1
 75
     0
 76
     0
 77
     0
 78
     0
  0
ENDTAB
  0
TABLE
  2
LTYPE
 70
     2
  0
LTYPE
  2
CONTINUOUS
 70
    64
  3
Solid line
 72
    65
 73
     0
 40
0.0
  0
LTYPE
  2
DASHDOT
 70
    64
  3
__ . __ . __ . __ . __
 72
    65
 73
     4
 40
7.5
 49
5.0
 49
-1.25
 49
0.0
 49
-1.25
  0
ENDTAB
  0
TABLE
  2
LAYER
 70
    10
  0
LAYER
  2
0
 70
     0
 62
     7
  6
CONTINUOUS
  0
LAYER
  2
LC-INFO-1-2-MM-A3-0
 70
     1
 62
    -1
  6
CONTINUOUS
  0
LAYER
  2
LC-004-003-MTH-0
 70
     0
 62
     2
  6
CONTINUOUS
  0
LAYER
  2
LC-005-003-MTG-0
 70
     0
 62
     2
  6
CONTINUOUS
  0
LAYER
  2
LC-003-003-----0
 70
     0
 62
     2
  6
CONTINUOUS
  0
LAYER
  2
LC-007-005-----0
 70
     0
 62
     2
  6
CONTINUOUS
  0
LAYER
  2
LC-001-000-----0
 70
     0
 62
     7
  6
CONTINUOUS
  0
LAYER
  2
LC-002-002-----0
 70
     0
 62
     1
  6
CONTINUOUS
  0
LAYER
  2
LC-006-002-RND-0
 70
     0
 62
     1
  6
CONTINUOUS
  0
LAYER
  2
LC-000
 70
     0
 62
     7
  6
CONTINUOUS
  0
ENDTAB
  0
TABLE
  2
STYLE
 70
     4
  0
STYLE
  2
STANDARD
 70
     0
 40
0.0
 41
1.0
 50
0.0
 71
     0
 42
0.0
  3
txt
  4

  0
STYLE
  2
LC-STANDARD
 70
    64
 40
0.0
 41
1.0
 50
0.0
 71
     0
 42
3.5
  3
MONOTXT
  4

  0
STYLE
  2
LC-TXTSTYLE-150-400-0-0-A2
 70
    64
 40
0.0
 41
1.0
 50
15.0
 71
     0
 42
3.5
  3
MONOTXT
  4

  0
STYLE
  2
LC-TXTSTYLE-150-400-0-0-D3
 70
    64
 40
0.0
 41
1.0
 50
15.0
 71
     0
 42
3.5
  3
LC-STANDARD
  4

  0
ENDTAB
  0
TABLE
  2
VIEW
 70
     0
  0
ENDTAB
  0
TABLE
  2
UCS
 70
     0
  0
ENDTAB
  0
TABLE
  2
APPID
 70
     1
  0
APPID
  2
ACAD
 70
     0
  0
ENDTAB
  0
TABLE
  2
DIMSTYLE
 70
     4
  0
DIMSTYLE
  2
STANDARD
 70
     0
  3

  4

  5

  6

  7

 40
1.0
 41
0.18
 42
0.0625
 43
0.38
 44
0.18
 45
0.0
 46
0.0
 47
0.0
 48
0.0
 71
     0
 72
     0
 73
     1
 74
     1
 75
     0
 76
     0
 77
     0
 78
     0
140
0.18
141
0.09
142
0.0
143
25.4
144
1.0
145
0.0
146
1.0
147
0.09
170
     0
171
     2
172
     0
173
     0
174
     0
175
     0
176
     0
177
     0
178
     0
  0
DIMSTYLE
  2
LC-STANDARD
 70
     0
  3

  4

  5

  6

  7

 40
1.0
 41
3.5
 42
0.0
 43
7.5
 44
1.8
 45
0.0
 46
0.0
 47
0.0
 48
0.0
 71
     0
 72
     0
 73
     0
 74
     0
 75
     0
 76
     0
 77
     1
 78
     8
140
3.5
141
0.0
142
0.0
143
25.4
144
1.0
145
0.0
146
0.71
147
1.5
170
     0
171
     2
172
     1
173
     0
174
     0
175
     0
176
     0
177
     0
178
     3
  0
DIMSTYLE
  2
LC-DIM-L-0140-01-02
 70
     0
  3

  4

  5

  6

  7

 40
2.0
 41
3.5
 42
0.0
 43
7.5
 44
1.8
 45
0.0
 46
0.0
 47
0.0
 48
0.0
 71
     0
 72
     0
 73
     0
 74
     0
 75
     0
 76
     0
 77
     1
 78
     8
140
14.0
141
0.0
142
0.0
143
25.4
144
1.0
145
0.0
146
0.71
147
1.5
170
     0
171
     2
172
     0
173
     0
174
     0
175
     0
176
     2
177
     2
178
     8
  0
DIMSTYLE
  2
LC-DIM-L-0140-02-02
 70
     0
  3

  4

  5

  6

  7

 40
2.0
 41
3.5
 42
0.0
 43
7.5
 44
1.8
 45
0.0
 46
0.0
 47
0.0
 48
0.0
 71
     0
 72
     0
 73
     0
 74
     0
 75
     0
 76
     0
 77
     1
 78
     8
140
14.0
141
0.0
142
0.0
143
25.4
144
1.0
145
0.0
146
0.71
147
1.5
170
     0
171
     2
172
     0
173
     0
174
     0
175
     0
176
     2
177
     2
178
     8
  0
ENDTAB
  0
ENDSEC
  0
SECTION
  2
BLOCKS
  0
BLOCK
  8
0
  5
24
  2
*D0
 70
    65
 10
0.0
 20
0.0
 30
0.0
  3
*D0
  0
LINE
  8
LC-004-003-MTH-0
  6
CONTINUOUS
  5
26
 10
-66.762132
 20
322.710628
 30
0.0
 11
-66.762132
 21
235.2
 31
0.0
  0
LINE
  8
LC-004-003-MTH-0
  6
CONTINUOUS
  5
27
 10
43.237868
 20
322.710628
 30
0.0
 11
43.237868
 21
235.2
 31
0.0
  0
LINE
  8
LC-005-003-MTG-0
  6
CONTINUOUS
  5
29
 10
-66.762132
 20
252.0
 30
0.0
 11
43.237868
 21
252.0
 31
0.0
  0
LINE
  8
LC-003-003-----0
  6
CONTINUOUS
  5
2B
 10
-39.001676
 20
255.654733
 30
0.0
 11
-66.762132
 21
252.0
 31
0.0
  0
LINE
  8
LC-003-003-----0
  6
CONTINUOUS
  5
2C
 10
-66.762132
 20
252.0
 30
0.0
 11
-39.001676
 21
248.345267
 31
0.0
  0
LINE
  8
LC-003-003-----0
  6
CONTINUOUS
  5
2D
 10
-39.001676
 20
248.345267
 30
0.0
 11
-39.001676
 21
255.654733
 31
0.0
  0
LINE
  8
LC-003-003-----0
  6
CONTINUOUS
  5
2E
 10
-38.939395
 20
254.704503
 30
0.0
 11
-59.482132
 21
252.0
 31
0.0
  0
LINE
  8
LC-003-003-----0
  6
CONTINUOUS
  5
2F
 10
-59.482132
 20
252.0
 30
0.0
 11
-38.939395
 21
249.295497
 31
0.0
  0
LINE
  8
LC-003-003-----0
  6
CONTINUOUS
  5
30
 10
-38.877113
 20
253.754272
 30
0.0
 11
-52.202132
 21
252.0
 31
0.0
  0
LINE
  8
LC-003-003-----0
  6
CONTINUOUS
  5
31
 10
-52.202132
 20
252.0
 30
0.0
 11
-38.877113
 21
250.245728
 31
0.0
  0
LINE
  8
LC-003-003-----0
  6
CONTINUOUS
  5
32
 10
-38.814832
 20
252.804041
 30
0.0
 11
-44.922132
 21
252.0
 31
0.0
  0
LINE
  8
LC-003-003-----0
  6
CONTINUOUS
  5
33
 10
-44.922132
 20
252.0
 30
0.0
 11
-38.814832
 21
251.195959
 31
0.0
  0
LINE
  8
LC-003-003-----0
  6
CONTINUOUS
  5
34
 10
15.477412
 20
248.345267
 30
0.0
 11
43.237868
 21
252.0
 31
0.0
  0
LINE
  8
LC-003-003-----0
  6
CONTINUOUS
  5
35
 10
43.237868
 20
252.0
 30
0.0
 11
15.477412
 21
255.654733
 31
0.0
  0
LINE
  8
LC-003-003-----0
  6
CONTINUOUS
  5
36
 10
15.477412
 20
255.654733
 30
0.0
 11
15.477412
 21
248.345267
 31
0.0
  0
LINE
  8
LC-003-003-----0
  6
CONTINUOUS
  5
37
 10
15.41513
 20
249.295497
 30
0.0
 11
35.957868
 21
252.0
 31
0.0
  0
LINE
  8
LC-003-003-----0
  6
CONTINUOUS
  5
38
 10
35.957868
 20
252.0
 30
0.0
 11
15.41513
 21
254.704503
 31
0.0
  0
LINE
  8
LC-003-003-----0
  6
CONTINUOUS
  5
39
 10
15.352849
 20
250.245728
 30
0.0
 11
28.677868
 21
252.0
 31
0.0
  0
LINE
  8
LC-003-003-----0
  6
CONTINUOUS
  5
3A
 10
28.677868
 20
252.0
 30
0.0
 11
15.352849
 21
253.754272
 31
0.0
  0
LINE
  8
LC-003-003-----0
  6
CONTINUOUS
  5
3B
 10
15.290568
 20
251.195959
 30
0.0
 11
21.397868
 21
252.0
 31
0.0
  0
LINE
  8
LC-003-003-----0
  6
CONTINUOUS
  5
3C
 10
21.397868
 20
252.0
 30
0.0
 11
15.290568
 21
252.804041
 31
0.0
  0
TEXT
  8
LC-003-003-----0
  6
CONTINUOUS
 62
     8
  5
3E
 10
-45.51161
 20
259.827554
 30
0.0
 40
28.0
  1
Ø110
 41
0.9
 51
15.0
  7
LC-TXTSTYLE-150-400-0-0-D0
 72
     1
 11
-7.413972
 21
259.827554
 31
0.0
  0
ENDBLK
  8
0
  5
3F
  0
BLOCK
  8
0
  5
41
  2
BLK1
 70
    64
 10
0.0
 20
0.0
 30
0.0
  3
BLK1
  0
ENDBLK
  8
0
  5
42
  0
BLOCK
  8
0
  5
44
  2
*X2
 70
    65
 10
40.237868
 20
321.710628
 30
0.0
  3
*X2
  0
LINE
  8
LC-007-005-----0
  6
CONTINUOUS
  5
46
 10
41.696342
 20
321.710628
 30
0.0
 11
43.070055
 21
323.08434
 31
0.0
  0
LINE
  8
LC-007-005-----0
  6
CONTINUOUS
  5
47
 10
40.737868
 20
323.58058
 30
0.0
 11
43.237868
 21
326.08058
 31
0.0
  0
LINE
  8
LC-007-005-----0
  6
CONTINUOUS
  5
48
 10
40.737868
 20
326.409008
 30
0.0
 11
43.237868
 21
328.909008
 31
0.0
  0
LINE
  8
LC-007-005-----0
  6
CONTINUOUS
  5
49
 10
40.737868
 20
329.237435
 30
0.0
 11
43.237868
 21
331.737435
 31
0.0
  0
LINE
  8
LC-007-005-----0
  6
CONTINUOUS
  5
4A
 10
40.737868
 20
332.065862
 30
0.0
 11
43.237868
 21
334.565862
 31
0.0
  0
LINE
  8
LC-007-005-----0
  6
CONTINUOUS
  5
4B
 10
40.737868
 20
334.894289
 30
0.0
 11
43.237868
 21
337.394289
 31
0.0
  0
LINE
  8
LC-007-005-----0
  6
CONTINUOUS
  5
4C
 10
40.737868
 20
337.722716
 30
0.0
 11
43.237868
 21
340.222716
 31
0.0
  0
LINE
  8
LC-007-005-----0
  6
CONTINUOUS
  5
4D
 10
40.737868
 20
340.551143
 30
0.0
 11
43.237868
 21
343.051143
 31
0.0
  0
LINE
  8
LC-007-005-----0
  6
CONTINUOUS
  5
4E
 10
40.737868
 20
343.37957
 30
0.0
 11
43.237868
 21
345.87957
 31
0.0
  0
LINE
  8
LC-007-005-----0
  6
CONTINUOUS
  5
4F
 10
40.737868
 20
346.207997
 30
0.0
 11
43.237868
 21
348.707997
 31
0.0
  0
LINE
  8
LC-007-005-----0
  6
CONTINUOUS
  5
50
 10
40.737868
 20
349.036425
 30
0.0
 11
43.237868
 21
351.536425
 31
0.0
  0
LINE
  8
LC-007-005-----0
  6
CONTINUOUS
  5
51
 10
40.737868
 20
351.864852
 30
0.0
 11
43.237868
 21
354.364852
 31
0.0
  0
LINE
  8
LC-007-005-----0
  6
CONTINUOUS
  5
52
 10
40.737868
 20
354.693279
 30
0.0
 11
43.237868
 21
357.193279
 31
0.0
  0
LINE
  8
LC-007-005-----0
  6
CONTINUOUS
  5
53
 10
40.737868
 20
357.521706
 30
0.0
 11
43.237868
 21
360.021706
 31
0.0
  0
LINE
  8
LC-007-005-----0
  6
CONTINUOUS
  5
54
 10
40.737868
 20
360.350133
 30
0.0
 11
43.237868
 21
362.850133
 31
0.0
  0
LINE
  8
LC-007-005-----0
  6
CONTINUOUS
  5
55
 10
40.737868
 20
363.17856
 30
0.0
 11
43.237868
 21
365.67856
 31
0.0
  0
LINE
  8
LC-007-005-----0
  6
CONTINUOUS
  5
56
 10
40.737868
 20
366.006987
 30
0.0
 11
43.237868
 21
368.506987
 31
0.0
  0
LINE
  8
LC-007-005-----0
  6
CONTINUOUS
  5
57
 10
40.737868
 20
368.835414
 30
0.0
 11
43.237868
 21
371.335414
 31
0.0
  0
LINE
  8
LC-007-005-----0
  6
CONTINUOUS
  5
58
 10
40.737868
 20
371.663842
 30
0.0
 11
43.237868
 21
374.163842
 31
0.0
  0
LINE
  8
LC-007-005-----0
  6
CONTINUOUS
  5
59
 10
40.737868
 20
374.492269
 30
0.0
 11
43.237868
 21
376.992269
 31
0.0
  0
LINE
  8
LC-007-005-----0
  6
CONTINUOUS
  5
5A
 10
40.737868
 20
377.320696
 30
0.0
 11
43.237868
 21
379.820696
 31
0.0
  0
LINE
  8
LC-007-005-----0
  6
CONTINUOUS
  5
5B
 10
40.737868
 20
380.149123
 30
0.0
 11
43.237868
 21
382.649123
 31
0.0
  0
LINE
  8
LC-007-005-----0
  6
CONTINUOUS
  5
5C
 10
40.737868
 20
382.97755
 30
0.0
 11
43.237868
 21
385.47755
 31
0.0
  0
LINE
  8
LC-007-005-----0
  6
CONTINUOUS
  5
5D
 10
40.737868
 20
385.805977
 30
0.0
 11
43.237868
 21
388.305977
 31
0.0
  0
LINE
  8
LC-007-005-----0
  6
CONTINUOUS
  5
5E
 10
40.737868
 20
388.634404
 30
0.0
 11
43.237868
 21
391.134404
 31
0.0
  0
LINE
  8
LC-007-005-----0
  6
CONTINUOUS
  5
5F
 10
40.737868
 20
391.462831
 30
0.0
 11
43.237868
 21
393.962831
 31
0.0
  0
LINE
  8
LC-007-005-----0
  6
CONTINUOUS
  5
60
 10
40.737868
 20
394.291259
 30
0.0
 11
43.237868
 21
396.791259
 31
0.0
  0
LINE
  8
LC-007-005-----0
  6
CONTINUOUS
  5
61
 10
40.737868
 20
397.119686
 30
0.0
 11
43.237868
 21
399.619686
 31
0.0
  0
LINE
  8
LC-007-005-----0
  6
CONTINUOUS
  5
62
 10
40.737868
 20
399.948113
 30
0.0
 11
43.237868
 21
402.448113
 31
0.0
  0
LINE
  8
LC-007-005-----0
  6
CONTINUOUS
  5
63
 10
40.737868
 20
402.77654
 30
0.0
 11
43.237868
 21
405.27654
 31
0.0
  0
LINE
  8
LC-007-005-----0
  6
CONTINUOUS
  5
64
 10
40.737868
 20
405.604967
 30
0.0
 11
43.237868
 21
408.104967
 31
0.0
  0
LINE
  8
LC-007-005-----0
  6
CONTINUOUS
  5
65
 10
40.737868
 20
408.433394
 30
0.0
 11
43.237868
 21
410.933394
 31
0.0
  0
LINE
  8
LC-007-005-----0
  6
CONTINUOUS
  5
66
 10
40.737868
 20
411.261821
 30
0.0
 11
43.237868
 21
413.761821
 31
0.0
  0
LINE
  8
LC-007-005-----0
  6
CONTINUOUS
  5
67
 10
40.737868
 20
414.090248
 30
0.0
 11
43.237868
 21
416.590248
 31
0.0
  0
LINE
  8
LC-007-005-----0
  6
CONTINUOUS
  5
68
 10
40.737868
 20
416.918676
 30
0.0
 11
43.237868
 21
419.418676
 31
0.0
  0
LINE
  8
LC-007-005-----0
  6
CONTINUOUS
  5
69
 10
40.737868
 20
419.747103
 30
0.0
 11
43.237868
 21
422.247103
 31
0.0
  0
LINE
  8
LC-007-005-----0
  6
CONTINUOUS
  5
6A
 10
40.737868
 20
422.57553
 30
0.0
 11
43.237868
 21
425.07553
 31
0.0
  0
LINE
  8
LC-007-005-----0
  6
CONTINUOUS
  5
6B
 10
40.737868
 20
425.403957
 30
0.0
 11
43.237868
 21
427.903957
 31
0.0
  0
LINE
  8
LC-007-005-----0
  6
CONTINUOUS
  5
6C
 10
40.237868
 20
427.732384
 30
0.0
 11
43.237868
 21
430.732384
 31
0.0
  0
ENDBLK
  8
0
  5
6D
  0
BLOCK
  8
0
  5
6F
  2
*X3
 70
    65
 10
-66.762132
 20
321.710628
 30
0.0
  3
*X3
  0
LINE
  8
LC-007-005-----0
  6
CONTINUOUS
  5
70
 10
-65.783889
 20
321.710628
 30
0.0
 11
-64.262132
 21
323.232384
 31
0.0
  0
LINE
  8
LC-007-005-----0
  6
CONTINUOUS
  5
71
 10
-66.730472
 20
323.592471
 30
0.0
 11
-64.262132
 21
326.060811
 31
0.0
  0
LINE
  8
LC-007-005-----0
  6
CONTINUOUS
  5
72
 10
-66.762132
 20
326.389238
 30
0.0
 11
-64.262132
 21
328.889238
 31
0.0
  0
LINE
  8
LC-007-005-----0
  6
CONTINUOUS
  5
73
 10
-66.762132
 20
329.217665
 30
0.0
 11
-64.262132
 21
331.717665
 31
0.0
  0
LINE
  8
LC-007-005-----0
  6
CONTINUOUS
  5
74
 10
-66.762132
 20
332.046093
 30
0.0
 11
-64.262132
 21
334.546093
 31
0.0
  0
LINE
  8
LC-007-005-----0
  6
CONTINUOUS
  5
75
 10
-66.762132
 20
334.87452
 30
0.0
 11
-64.262132
 21
337.37452
 31
0.0
  0
LINE
  8
LC-007-005-----0
  6
CONTINUOUS
  5
76
 10
-66.762132
 20
337.702947
 30
0.0
 11
-64.262132
 21
340.202947
 31
0.0
  0
LINE
  8
LC-007-005-----0
  6
CONTINUOUS
  5
77
 10
-66.762132
 20
340.531374
 30
0.0
 11
-64.262132
 21
343.031374
 31
0.0
  0
LINE
  8
LC-007-005-----0
  6
CONTINUOUS
  5
78
 10
-66.762132
 20
343.359801
 30
0.0
 11
-64.262132
 21
345.859801
 31
0.0
  0
LINE
  8
LC-007-005-----0
  6
CONTINUOUS
  5
79
 10
-66.762132
 20
346.188228
 30
0.0
 11
-64.262132
 21
348.688228
 31
0.0
  0
LINE
  8
LC-007-005-----0
  6
CONTINUOUS
  5
7A
 10
-66.762132
 20
349.016655
 30
0.0
 11
-64.262132
 21
351.516655
 31
0.0
  0
LINE
  8
LC-007-005-----0
  6
CONTINUOUS
  5
7B
 10
-66.762132
 20
351.845082
 30
0.0
 11
-64.262132
 21
354.345082
 31
0.0
  0
LINE
  8
LC-007-005-----0
  6
CONTINUOUS
  5
7C
 10
-66.762132
 20
354.67351
 30
0.0
 11
-64.262132
 21
357.17351
 31
0.0
  0
LINE
  8
LC-007-005-----0
  6
CONTINUOUS
  5
7D
 10
-66.762132
 20
357.501937
 30
0.0
 11
-64.262132
 21
360.001937
 31
0.0
  0
LINE
  8
LC-007-005-----0
  6
CONTINUOUS
  5
7E
 10
-66.762132
 20
360.330364
 30
0.0
 11
-64.262132
 21
362.830364
 31
0.0
  0
LINE
  8
LC-007-005-----0
  6
CONTINUOUS
  5
7F
 10
-66.762132
 20
363.158791
 30
0.0
 11
-64.262132
 21
365.658791
 31
0.0
  0
LINE
  8
LC-007-005-----0
  6
CONTINUOUS
  5
80
 10
-66.762132
 20
365.987218
 30
0.0
 11
-64.262132
 21
368.487218
 31
0.0
  0
LINE
  8
LC-007-005-----0
  6
CONTINUOUS
  5
81
 10
-66.762132
 20
368.815645
 30
0.0
 11
-64.262132
 21
371.315645
 31
0.0
  0
LINE
  8
LC-007-005-----0
  6
CONTINUOUS
  5
82
 10
-66.762132
 20
371.644072
 30
0.0
 11
-64.262132
 21
374.144072
 31
0.0
  0
LINE
  8
LC-007-005-----0
  6
CONTINUOUS
  5
83
 10
-66.762132
 20
374.472499
 30
0.0
 11
-64.262132
 21
376.972499
 31
0.0
  0
LINE
  8
LC-007-005-----0
  6
CONTINUOUS
  5
84
 10
-66.762132
 20
377.300927
 30
0.0
 11
-64.262132
 21
379.800927
 31
0.0
  0
LINE
  8
LC-007-005-----0
  6
CONTINUOUS
  5
85
 10
-66.762132
 20
380.129354
 30
0.0
 11
-64.262132
 21
382.629354
 31
0.0
  0
LINE
  8
LC-007-005-----0
  6
CONTINUOUS
  5
86
 10
-66.762132
 20
382.957781
 30
0.0
 11
-64.262132
 21
385.457781
 31
0.0
  0
LINE
  8
LC-007-005-----0
  6
CONTINUOUS
  5
87
 10
-66.762132
 20
385.786208
 30
0.0
 11
-64.262132
 21
388.286208
 31
0.0
  0
LINE
  8
LC-007-005-----0
  6
CONTINUOUS
  5
88
 10
-66.762132
 20
388.614635
 30
0.0
 11
-64.262132
 21
391.114635
 31
0.0
  0
LINE
  8
LC-007-005-----0
  6
CONTINUOUS
  5
89
 10
-66.762132
 20
391.443062
 30
0.0
 11
-64.262132
 21
393.943062
 31
0.0
  0
LINE
  8
LC-007-005-----0
  6
CONTINUOUS
  5
8A
 10
-66.762132
 20
394.271489
 30
0.0
 11
-64.262132
 21
396.771489
 31
0.0
  0
LINE
  8
LC-007-005-----0
  6
CONTINUOUS
  5
8B
 10
-66.762132
 20
397.099916
 30
0.0
 11
-64.262132
 21
399.599916
 31
0.0
  0
LINE
  8
LC-007-005-----0
  6
CONTINUOUS
  5
8C
 10
-66.762132
 20
399.928343
 30
0.0
 11
-64.262132
 21
402.428343
 31
0.0
  0
LINE
  8
LC-007-005-----0
  6
CONTINUOUS
  5
8D
 10
-66.762132
 20
402.756771
 30
0.0
 11
-64.262132
 21
405.256771
 31
0.0
  0
LINE
  8
LC-007-005-----0
  6
CONTINUOUS
  5
8E
 10
-66.762132
 20
405.585198
 30
0.0
 11
-64.262132
 21
408.085198
 31
0.0
  0
LINE
  8
LC-007-005-----0
  6
CONTINUOUS
  5
8F
 10
-66.762132
 20
408.413625
 30
0.0
 11
-64.262132
 21
410.913625
 31
0.0
  0
LINE
  8
LC-007-005-----0
  6
CONTINUOUS
  5
90
 10
-66.762132
 20
411.242052
 30
0.0
 11
-64.262132
 21
413.742052
 31
0.0
  0
LINE
  8
LC-007-005-----0
  6
CONTINUOUS
  5
91
 10
-66.762132
 20
414.070479
 30
0.0
 11
-64.262132
 21
416.570479
 31
0.0
  0
LINE
  8
LC-007-005-----0
  6
CONTINUOUS
  5
92
 10
-66.762132
 20
416.898906
 30
0.0
 11
-64.262132
 21
419.398906
 31
0.0
  0
LINE
  8
LC-007-005-----0
  6
CONTINUOUS
  5
93
 10
-66.762132
 20
419.727333
 30
0.0
 11
-64.262132
 21
422.227333
 31
0.0
  0
LINE
  8
LC-007-005-----0
  6
CONTINUOUS
  5
94
 10
-66.762132
 20
422.55576
 30
0.0
 11
-64.262132
 21
425.05576
 31
0.0
  0
LINE
  8
LC-007-005-----0
  6
CONTINUOUS
  5
95
 10
-66.762132
 20
425.384188
 30
0.0
 11
-63.762132
 21
428.384188
 31
0.0
  0
LINE
  8
LC-007-005-----0
  6
CONTINUOUS
  5
96
 10
-66.762132
 20
428.212615
 30
0.0
 11
-65.260237
 21
429.71451
 31
0.0
  0
LINE
  8
LC-007-005-----0
  6
CONTINUOUS
  5
97
 10
-66.762132
 20
431.041042
 30
0.0
 11
-66.092546
 21
431.710628
 31
0.0
  0
ENDBLK
  8
0
  5
98
  0
BLOCK
  8
0
  5
9A
  2
*X4
 70
    65
 10
-71.761739
 20
318.710653
 30
0.0
  3
*X4
  0
LINE
  8
LC-007-005-----0
  6
CONTINUOUS
  5
9B
 10
-65.955436
 20
318.710653
 30
0.0
 11
-63.761694
 21
320.904395
 31
0.0
  0
LINE
  8
LC-007-005-----0
  6
CONTINUOUS
  5
9C
 10
-68.783863
 20
318.710653
 30
0.0
 11
-65.783889
 21
321.710628
 31
0.0
  0
LINE
  8
LC-007-005-----0
  6
CONTINUOUS
  5
9D
 10
-71.245039
 20
319.077904
 30
0.0
 11
-67.012151
 21
323.310792
 31
0.0
  0
LINE
  8
LC-007-005-----0
  6
CONTINUOUS
  5
9E
 10
-71.761739
 20
321.389631
 30
0.0
 11
-67.012142
 21
326.139228
 31
0.0
  0
LINE
  8
LC-007-005-----0
  6
CONTINUOUS
  5
9F
 10
-71.761739
 20
324.218058
 30
0.0
 11
-67.012134
 21
328.967664
 31
0.0
  0
LINE
  8
LC-007-005-----0
  6
CONTINUOUS
  5
A0
 10
-71.761739
 20
327.046486
 30
0.0
 11
-70.097656
 21
328.710569
 31
0.0
  0
LINE
  8
LC-007-005-----0
  6
CONTINUOUS
  5
A1
 10
-69.012132
 20
329.796093
 30
0.0
 11
-67.012125
 21
331.7961
 31
0.0
  0
LINE
  8
LC-007-005-----0
  6
CONTINUOUS
  5
A2
 10
-69.012132
 20
332.62452
 30
0.0
 11
-67.012116
 21
334.624535
 31
0.0
  0
LINE
  8
LC-007-005-----0
  6
CONTINUOUS
  5
A3
 10
-69.012132
 20
335.452947
 30
0.0
 11
-67.383363
 21
337.081716
 31
0.0
  0
LINE
  8
LC-007-005-----0
  6
CONTINUOUS
  5
A4
 10
-69.012132
 20
338.281374
 30
0.0
 11
-68.797577
 21
338.495929
 31
0.0
  0
ENDBLK
  8
0
  5
A5
  0
BLOCK
  8
0
  5
A7
  2
*X5
 70
    65
 10
40.23743
 20
318.710653
 30
0.0
  3
*X5
  0
LINE
  8
LC-007-005-----0
  6
CONTINUOUS
  5
A8
 10
47.285243
 20
318.814246
 30
0.0
 11
48.133881
 21
319.662885
 31
0.0
  0
LINE
  8
LC-007-005-----0
  6
CONTINUOUS
  5
A9
 10
44.353222
 20
318.710653
 30
0.0
 11
48.237475
 21
322.594906
 31
0.0
  0
LINE
  8
LC-007-005-----0
  6
CONTINUOUS
  5
AA
 10
41.524795
 20
318.710653
 30
0.0
 11
48.237475
 21
325.423333
 31
0.0
  0
LINE
  8
LC-007-005-----0
  6
CONTINUOUS
  5
AB
 10
40.23743
 20
320.251715
 30
0.0
 11
41.696342
 21
321.710628
 31
0.0
  0
LINE
  8
LC-007-005-----0
  6
CONTINUOUS
  5
AC
 10
43.487886
 20
323.502172
 30
0.0
 11
48.237475
 21
328.25176
 31
0.0
  0
LINE
  8
LC-007-005-----0
  6
CONTINUOUS
  5
AD
 10
43.487878
 20
326.33059
 30
0.0
 11
45.867856
 21
328.710569
 31
0.0
  0
LINE
  8
LC-007-005-----0
  6
CONTINUOUS
  5
AE
 10
43.487869
 20
329.159008
 30
0.0
 11
45.487868
 21
331.159008
 31
0.0
  0
LINE
  8
LC-007-005-----0
  6
CONTINUOUS
  5
AF
 10
43.48786
 20
331.987427
 30
0.0
 11
45.487868
 21
333.987435
 31
0.0
  0
LINE
  8
LC-007-005-----0
  6
CONTINUOUS
  5
B0
 10
43.487852
 20
334.815845
 30
0.0
 11
45.487868
 21
336.815862
 31
0.0
  0
ENDBLK
  8
0
  5
B1
  0
BLOCK
  8
0
  5
B3
  2
*X6
 70
    65
 10
-71.162132
 20
422.806942
 30
0.0
  3
*X6
  0
LINE
  8
LC-007-005-----0
  6
CONTINUOUS
  5
B4
 10
-63.016028
 20
423.473438
 30
0.0
 11
-62.466388
 21
424.023077
 31
0.0
  0
LINE
  8
LC-007-005-----0
  6
CONTINUOUS
  5
B5
 10
-63.770025
 20
425.547868
 30
0.0
 11
-62.462132
 21
426.85576
 31
0.0
  0
LINE
  8
LC-007-005-----0
  6
CONTINUOUS
  5
B6
 10
-63.162132
 20
428.984188
 30
0.0
 11
-62.462132
 21
429.684188
 31
0.0
  0
LINE
  8
LC-007-005-----0
  6
CONTINUOUS
  5
B7
 10
-63.363269
 20
431.611478
 30
0.0
 11
-62.866131
 21
432.108616
 31
0.0
  0
LINE
  8
LC-007-005-----0
  6
CONTINUOUS
  5
B8
 10
-66.007027
 20
431.796146
 30
0.0
 11
-65.392546
 21
432.410628
 31
0.0
  0
LINE
  8
LC-007-005-----0
  6
CONTINUOUS
  5
B9
 10
-66.762132
 20
433.869469
 30
0.0
 11
-66.172393
 21
434.459208
 31
0.0
  0
LINE
  8
LC-007-005-----0
  6
CONTINUOUS
  5
BA
 10
-68.505015
 20
434.955014
 30
0.0
 11
-67.936556
 21
435.523472
 31
0.0
  0
LINE
  8
LC-007-005-----0
  6
CONTINUOUS
  5
BB
 10
-70.425939
 20
435.862517
 30
0.0
 11
-69.762132
 21
436.526323
 31
0.0
  0
LINE
  8
LC-007-005-----0
  6
CONTINUOUS
  5
BC
 10
-70.462132
 20
438.65475
 30
0.0
 11
-69.762132
 21
439.35475
 31
0.0
  0
ENDBLK
  8
0
  5
BD
  0
BLOCK
  8
0
  5
BF
  2
*X7
 70
    65
 10
38.097201
 20
422.806942
 30
0.0
  3
*X7
  0
LINE
  8
LC-007-005-----0
  6
CONTINUOUS
  5
C0
 10
38.704716
 20
423.370805
 30
0.0
 11
39.883423
 21
424.549512
 31
0.0
  0
LINE
  8
LC-007-005-----0
  6
CONTINUOUS
  5
C1
 10
38.937868
 20
426.432384
 30
0.0
 11
39.637868
 21
427.132384
 31
0.0
  0
LINE
  8
LC-007-005-----0
  6
CONTINUOUS
  5
C2
 10
38.937868
 20
429.260811
 30
0.0
 11
39.637868
 21
429.960811
 31
0.0
  0
LINE
  8
LC-007-005-----0
  6
CONTINUOUS
  5
C3
 10
41.387684
 20
431.710628
 30
0.0
 11
42.090458
 21
432.413401
 31
0.0
  0
LINE
  8
LC-007-005-----0
  6
CONTINUOUS
  5
C4
 10
42.535095
 20
432.858038
 30
0.0
 11
43.237868
 21
433.560811
 31
0.0
  0
LINE
  8
LC-007-005-----0
  6
CONTINUOUS
  5
C5
 10
44.560347
 20
434.883291
 30
0.0
 11
45.33207
 21
435.655014
 31
0.0
  0
LINE
  8
LC-007-005-----0
  6
CONTINUOUS
  5
C6
 10
46.237868
 20
436.560811
 30
0.0
 11
46.937868
 21
437.260811
 31
0.0
  0
LINE
  8
LC-007-005-----0
  6
CONTINUOUS
  5
C7
 10
46.237868
 20
439.389238
 30
0.0
 11
47.580703
 21
440.732074
 31
0.0
  0
ENDBLK
  8
0
  5
C8
  0
BLOCK
  8
0
  5
CA
  2
BLK2
 70
    64
 10
0.0
 20
0.0
 30
0.0
  3
BLK2
  0
ENDBLK
  8
0
  5
CB
  0
BLOCK
  8
0
  5
CD
  2
*X9
 70
    65
 10
-63.762132
 20
321.710628
 30
0.0
  3
*X9
  0
LINE
  8
LC-007-005-----0
  6
CONTINUOUS
  5
CE
 10
-12.043773
 20
321.710628
 30
0.0
 11
-11.762132
 21
321.992269
 31
0.0
  0
LINE
  8
LC-007-005-----0
  6
CONTINUOUS
  5
CF
 10
-17.700627
 20
321.710628
 30
0.0
 11
-11.762132
 21
327.649123
 31
0.0
  0
LINE
  8
LC-007-005-----0
  6
CONTINUOUS
  5
D0
 10
-23.357482
 20
321.710628
 30
0.0
 11
-11.762132
 21
333.305977
 31
0.0
  0
LINE
  8
LC-007-005-----0
  6
CONTINUOUS
  5
D1
 10
-29.014336
 20
321.710628
 30
0.0
 11
-15.014336
 21
335.710628
 31
0.0
  0
LINE
  8
LC-007-005-----0
  6
CONTINUOUS
  5
D2
 10
-34.67119
 20
321.710628
 30
0.0
 11
-20.67119
 21
335.710628
 31
0.0
  0
LINE
  8
LC-007-005-----0
  6
CONTINUOUS
  5
D3
 10
-40.328044
 20
321.710628
 30
0.0
 11
-26.328044
 21
335.710628
 31
0.0
  0
LINE
  8
LC-007-005-----0
  6
CONTINUOUS
  5
D4
 10
-45.984899
 20
321.710628
 30
0.0
 11
-31.984899
 21
335.710628
 31
0.0
  0
LINE
  8
LC-007-005-----0
  6
CONTINUOUS
  5
D5
 10
-51.641753
 20
321.710628
 30
0.0
 11
-37.641753
 21
335.710628
 31
0.0
  0
LINE
  8
LC-007-005-----0
  6
CONTINUOUS
  5
D6
 10
-57.298607
 20
321.710628
 30
0.0
 11
-43.298607
 21
335.710628
 31
0.0
  0
LINE
  8
LC-007-005-----0
  6
CONTINUOUS
  5
D7
 10
-62.955461
 20
321.710628
 30
0.0
 11
-48.955461
 21
335.710628
 31
0.0
  0
LINE
  8
LC-007-005-----0
  6
CONTINUOUS
  5
D8
 10
-63.762132
 20
326.560811
 30
0.0
 11
-54.612316
 21
335.710628
 31
0.0
  0
LINE
  8
LC-007-005-----0
  6
CONTINUOUS
  5
D9
 10
-63.762132
 20
332.217665
 30
0.0
 11
-60.26917
 21
335.710628
 31
0.0
  0
LINE
  8
LC-007-005-----0
  6
CONTINUOUS
  5
DA
 10
-11.762132
 20
334.202824
 30
0.0
 11
-13.269935
 21
335.710628
 31
0.0
  0
LINE
  8
LC-007-005-----0
  6
CONTINUOUS
  5
DB
 10
-11.762132
 20
328.54597
 30
0.0
 11
-18.92679
 21
335.710628
 31
0.0
  0
LINE
  8
LC-007-005-----0
  6
CONTINUOUS
  5
DC
 10
-11.762132
 20
322.889116
 30
0.0
 11
-24.583644
 21
335.710628
 31
0.0
  0
LINE
  8
LC-007-005-----0
  6
CONTINUOUS
  5
DD
 10
-16.240498
 20
321.710628
 30
0.0
 11
-30.240498
 21
335.710628
 31
0.0
  0
LINE
  8
LC-007-005-----0
  6
CONTINUOUS
  5
DE
 10
-21.897352
 20
321.710628
 30
0.0
 11
-35.897352
 21
335.710628
 31
0.0
  0
LINE
  8
LC-007-005-----0
  6
CONTINUOUS
  5
DF
 10
-27.554207
 20
321.710628
 30
0.0
 11
-41.554207
 21
335.710628
 31
0.0
  0
LINE
  8
LC-007-005-----0
  6
CONTINUOUS
  5
E0
 10
-33.211061
 20
321.710628
 30
0.0
 11
-47.211061
 21
335.710628
 31
0.0
  0
LINE
  8
LC-007-005-----0
  6
CONTINUOUS
  5
E1
 10
-38.867915
 20
321.710628
 30
0.0
 11
-52.867915
 21
335.710628
 31
0.0
  0
LINE
  8
LC-007-005-----0
  6
CONTINUOUS
  5
E2
 10
-44.524769
 20
321.710628
 30
0.0
 11
-58.524769
 21
335.710628
 31
0.0
  0
LINE
  8
LC-007-005-----0
  6
CONTINUOUS
  5
E3
 10
-50.181624
 20
321.710628
 30
0.0
 11
-63.762132
 21
335.291136
 31
0.0
  0
LINE
  8
LC-007-005-----0
  6
CONTINUOUS
  5
E4
 10
-55.838478
 20
321.710628
 30
0.0
 11
-63.762132
 21
329.634282
 31
0.0
  0
LINE
  8
LC-007-005-----0
  6
CONTINUOUS
  5
E5
 10
-61.495332
 20
321.710628
 30
0.0
 11
-63.762132
 21
323.977428
 31
0.0
  0
ENDBLK
  8
0
  5
E6
  0
BLOCK
  8
0
  5
E8
  2
*X10
 70
    65
 10
-11.762132
 20
321.710628
 30
0.0
  3
*X10
  0
LINE
  8
LC-007-005-----0
  6
CONTINUOUS
  5
E9
 10
38.867915
 20
321.710628
 30
0.0
 11
40.237868
 21
323.08058
 31
0.0
  0
LINE
  8
LC-007-005-----0
  6
CONTINUOUS
  5
EA
 10
33.211061
 20
321.710628
 30
0.0
 11
40.237868
 21
328.737435
 31
0.0
  0
LINE
  8
LC-007-005-----0
  6
CONTINUOUS
  5
EB
 10
27.554207
 20
321.710628
 30
0.0
 11
40.237868
 21
334.394289
 31
0.0
  0
LINE
  8
LC-007-005-----0
  6
CONTINUOUS
  5
EC
 10
21.897352
 20
321.710628
 30
0.0
 11
35.897352
 21
335.710628
 31
0.0
  0
LINE
  8
LC-007-005-----0
  6
CONTINUOUS
  5
ED
 10
16.240498
 20
321.710628
 30
0.0
 11
30.240498
 21
335.710628
 31
0.0
  0
LINE
  8
LC-007-005-----0
  6
CONTINUOUS
  5
EE
 10
10.583644
 20
321.710628
 30
0.0
 11
24.583644
 21
335.710628
 31
0.0
  0
LINE
  8
LC-007-005-----0
  6
CONTINUOUS
  5
EF
 10
4.92679
 20
321.710628
 30
0.0
 11
18.92679
 21
335.710628
 31
0.0
  0
LINE
  8
LC-007-005-----0
  6
CONTINUOUS
  5
F0
 10
-0.730065
 20
321.710628
 30
0.0
 11
13.269935
 21
335.710628
 31
0.0
  0
LINE
  8
LC-007-005-----0
  6
CONTINUOUS
  5
F1
 10
-6.386919
 20
321.710628
 30
0.0
 11
7.613081
 21
335.710628
 31
0.0
  0
LINE
  8
LC-007-005-----0
  6
CONTINUOUS
  5
F2
 10
-11.762132
 20
321.992269
 30
0.0
 11
1.956227
 21
335.710628
 31
0.0
  0
LINE
  8
LC-007-005-----0
  6
CONTINUOUS
  5
F3
 10
-11.762132
 20
327.649123
 30
0.0
 11
-3.700627
 21
335.710628
 31
0.0
  0
LINE
  8
LC-007-005-----0
  6
CONTINUOUS
  5
F4
 10
-11.762132
 20
333.305977
 30
0.0
 11
-9.357482
 21
335.710628
 31
0.0
  0
LINE
  8
LC-007-005-----0
  6
CONTINUOUS
  5
F5
 10
40.237868
 20
333.114513
 30
0.0
 11
37.641753
 21
335.710628
 31
0.0
  0
LINE
  8
LC-007-005-----0
  6
CONTINUOUS
  5
F6
 10
40.237868
 20
327.457658
 30
0.0
 11
31.984899
 21
335.710628
 31
0.0
  0
LINE
  8
LC-007-005-----0
  6
CONTINUOUS
  5
F7
 10
40.237868
 20
321.800804
 30
0.0
 11
26.328044
 21
335.710628
 31
0.0
  0
LINE
  8
LC-007-005-----0
  6
CONTINUOUS
  5
F8
 10
34.67119
 20
321.710628
 30
0.0
 11
20.67119
 21
335.710628
 31
0.0
  0
LINE
  8
LC-007-005-----0
  6
CONTINUOUS
  5
F9
 10
29.014336
 20
321.710628
 30
0.0
 11
15.014336
 21
335.710628
 31
0.0
  0
LINE
  8
LC-007-005-----0
  6
CONTINUOUS
  5
FA
 10
23.357482
 20
321.710628
 30
0.0
 11
9.357482
 21
335.710628
 31
0.0
  0
LINE
  8
LC-007-005-----0
  6
CONTINUOUS
  5
FB
 10
17.700627
 20
321.710628
 30
0.0
 11
3.700627
 21
335.710628
 31
0.0
  0
LINE
  8
LC-007-005-----0
  6
CONTINUOUS
  5
FC
 10
12.043773
 20
321.710628
 30
0.0
 11
-1.956227
 21
335.710628
 31
0.0
  0
LINE
  8
LC-007-005-----0
  6
CONTINUOUS
  5
FD
 10
6.386919
 20
321.710628
 30
0.0
 11
-7.613081
 21
335.710628
 31
0.0
  0
LINE
  8
LC-007-005-----0
  6
CONTINUOUS
  5
FE
 10
0.730065
 20
321.710628
 30
0.0
 11
-11.762132
 21
334.202824
 31
0.0
  0
LINE
  8
LC-007-005-----0
  6
CONTINUOUS
  5
FF
 10
-4.92679
 20
321.710628
 30
0.0
 11
-11.762132
 21
328.54597
 31
0.0
  0
LINE
  8
LC-007-005-----0
  6
CONTINUOUS
  5
100
 10
-10.583644
 20
321.710628
 30
0.0
 11
-11.762132
 21
322.889116
 31
0.0
  0
ENDBLK
  8
0
  5
101
  0
BLOCK
  8
0
  5
103
  2
*D11
 70
    65
 10
0.0
 20
0.0
 30
0.0
  3
*D11
  0
LINE
  8
LC-004-003-MTH-0
  6
CONTINUOUS
  5
104
 10
40.23743
 20
321.710628
 30
0.0
 11
98.888209
 21
321.708793
 31
0.0
  0
LINE
  8
LC-004-003-MTH-0
  6
CONTINUOUS
  5
105
 10
40.237868
 20
335.710628
 30
0.0
 11
98.888647
 21
335.708793
 31
0.0
  0
LINE
  8
LC-003-003-----0
  6
CONTINUOUS
  5
106
 10
85.742074
 20
293.948748
 30
0.0
 11
82.088209
 21
321.709319
 31
0.0
  0
LINE
  8
LC-003-003-----0
  6
CONTINUOUS
  5
107
 10
82.088209
 20
321.709319
 30
0.0
 11
78.432607
 21
293.948977
 31
0.0
  0
LINE
  8
LC-003-003-----0
  6
CONTINUOUS
  5
108
 10
78.432607
 20
293.948977
 30
0.0
 11
85.742074
 21
293.948748
 31
0.0
  0
LINE
  8
LC-003-003-----0
  6
CONTINUOUS
  5
109
 10
84.791841
 20
293.886497
 30
0.0
 11
82.087981
 21
314.429319
 31
0.0
  0
LINE
  8
LC-003-003-----0
  6
CONTINUOUS
  5
10A
 10
82.087981
 20
314.429319
 30
0.0
 11
79.382836
 21
293.886666
 31
0.0
  0
LINE
  8
LC-003-003-----0
  6
CONTINUOUS
  5
10B
 10
83.841609
 20
293.824245
 30
0.0
 11
82.087753
 21
307.149319
 31
0.0
  0
LINE
  8
LC-003-003-----0
  6
CONTINUOUS
  5
10C
 10
82.087753
 20
307.149319
 30
0.0
 11
80.333065
 21
293.824355
 31
0.0
  0
LINE
  8
LC-003-003-----0
  6
CONTINUOUS
  5
10D
 10
82.891376
 20
293.761993
 30
0.0
 11
82.087526
 21
299.869319
 31
0.0
  0
LINE
  8
LC-003-003-----0
  6
CONTINUOUS
  5
10E
 10
82.087526
 20
299.869319
 30
0.0
 11
81.283293
 21
293.762043
 31
0.0
  0
LINE
  8
LC-003-003-----0
  6
CONTINUOUS
  5
10F
 10
78.434781
 20
363.469889
 30
0.0
 11
82.088647
 21
335.709319
 31
0.0
  0
LINE
  8
LC-003-003-----0
  6
CONTINUOUS
  5
110
 10
82.088647
 20
335.709319
 30
0.0
 11
85.744248
 21
363.46966
 31
0.0
  0
LINE
  8
LC-003-003-----0
  6
CONTINUOUS
  5
111
 10
85.744248
 20
363.46966
 30
0.0
 11
78.434781
 21
363.469889
 31
0.0
  0
LINE
  8
LC-003-003-----0
  6
CONTINUOUS
  5
112
 10
79.385014
 20
363.532141
 30
0.0
 11
82.088874
 21
342.989319
 31
0.0
  0
LINE
  8
LC-003-003-----0
  6
CONTINUOUS
  5
113
 10
82.088874
 20
342.989319
 30
0.0
 11
84.794019
 21
363.531972
 31
0.0
  0
LINE
  8
LC-003-003-----0
  6
CONTINUOUS
  5
114
 10
80.335247
 20
363.594392
 30
0.0
 11
82.089102
 21
350.269319
 31
0.0
  0
LINE
  8
LC-003-003-----0
  6
CONTINUOUS
  5
115
 10
82.089102
 20
350.269319
 30
0.0
 11
83.843791
 21
363.594283
 31
0.0
  0
LINE
  8
LC-003-003-----0
  6
CONTINUOUS
  5
116
 10
81.285479
 20
363.656644
 30
0.0
 11
82.08933
 21
357.549319
 31
0.0
  0
LINE
  8
LC-003-003-----0
  6
CONTINUOUS
  5
117
 10
82.08933
 20
357.549319
 30
0.0
 11
82.893562
 21
363.656594
 31
0.0
  0
LINE
  8
LC-005-003-MTG-0
  6
CONTINUOUS
  5
118
 10
82.086983
 20
282.509319
 30
0.0
 11
82.091254
 21
419.073719
 31
0.0
  0
TEXT
  8
LC-003-003-----0
  6
CONTINUOUS
 62
     8
  5
119
 10
74.261968
 20
378.137216
 30
0.0
 40
28.0
  1
14
 50
90.0
 51
15.0
  7
LC-TXTSTYLE-150-400-0-0-D0
  0
ENDBLK
  8
0
  5
11A
  0
BLOCK
  8
0
  5
11C
  2
*D12
 70
    65
 10
0.0
 20
0.0
 30
0.0
  3
*D12
  0
LINE
  8
LC-004-003-MTH-0
  6
CONTINUOUS
  5
11D
 10
-71.162132
 20
440.455014
 30
0.0
 11
-71.162132
 21
478.8
 31
0.0
  0
LINE
  8
LC-004-003-MTH-0
  6
CONTINUOUS
  5
11E
 10
47.637868
 20
440.455014
 30
0.0
 11
47.637868
 21
478.8
 31
0.0
  0
LINE
  8
LC-005-003-MTG-0
  6
CONTINUOUS
  5
11F
 10
-71.162132
 20
462.0
 30
0.0
 11
47.637868
 21
462.0
 31
0.0
  0
LINE
  8
LC-003-003-----0
  6
CONTINUOUS
  5
120
 10
-43.401676
 20
465.654733
 30
0.0
 11
-71.162132
 21
462.0
 31
0.0
  0
LINE
  8
LC-003-003-----0
  6
CONTINUOUS
  5
121
 10
-71.162132
 20
462.0
 30
0.0
 11
-43.401676
 21
458.345267
 31
0.0
  0
LINE
  8
LC-003-003-----0
  6
CONTINUOUS
  5
122
 10
-43.401676
 20
458.345267
 30
0.0
 11
-43.401676
 21
465.654733
 31
0.0
  0
LINE
  8
LC-003-003-----0
  6
CONTINUOUS
  5
123
 10
-43.339395
 20
464.704503
 30
0.0
 11
-63.882132
 21
462.0
 31
0.0
  0
LINE
  8
LC-003-003-----0
  6
CONTINUOUS
  5
124
 10
-63.882132
 20
462.0
 30
0.0
 11
-43.339395
 21
459.295497
 31
0.0
  0
LINE
  8
LC-003-003-----0
  6
CONTINUOUS
  5
125
 10
-43.277113
 20
463.754272
 30
0.0
 11
-56.602132
 21
462.0
 31
0.0
  0
LINE
  8
LC-003-003-----0
  6
CONTINUOUS
  5
126
 10
-56.602132
 20
462.0
 30
0.0
 11
-43.277113
 21
460.245728
 31
0.0
  0
LINE
  8
LC-003-003-----0
  6
CONTINUOUS
  5
127
 10
-43.214832
 20
462.804041
 30
0.0
 11
-49.322132
 21
462.0
 31
0.0
  0
LINE
  8
LC-003-003-----0
  6
CONTINUOUS
  5
128
 10
-49.322132
 20
462.0
 30
0.0
 11
-43.214832
 21
461.195959
 31
0.0
  0
LINE
  8
LC-003-003-----0
  6
CONTINUOUS
  5
129
 10
19.877412
 20
458.345267
 30
0.0
 11
47.637868
 21
462.0
 31
0.0
  0
LINE
  8
LC-003-003-----0
  6
CONTINUOUS
  5
12A
 10
47.637868
 20
462.0
 30
0.0
 11
19.877412
 21
465.654733
 31
0.0
  0
LINE
  8
LC-003-003-----0
  6
CONTINUOUS
  5
12B
 10
19.877412
 20
465.654733
 30
0.0
 11
19.877412
 21
458.345267
 31
0.0
  0
LINE
  8
LC-003-003-----0
  6
CONTINUOUS
  5
12C
 10
19.81513
 20
459.295497
 30
0.0
 11
40.357868
 21
462.0
 31
0.0
  0
LINE
  8
LC-003-003-----0
  6
CONTINUOUS
  5
12D
 10
40.357868
 20
462.0
 30
0.0
 11
19.81513
 21
464.704503
 31
0.0
  0
LINE
  8
LC-003-003-----0
  6
CONTINUOUS
  5
12E
 10
19.752849
 20
460.245728
 30
0.0
 11
33.077868
 21
462.0
 31
0.0
  0
LINE
  8
LC-003-003-----0
  6
CONTINUOUS
  5
12F
 10
33.077868
 20
462.0
 30
0.0
 11
19.752849
 21
463.754272
 31
0.0
  0
LINE
  8
LC-003-003-----0
  6
CONTINUOUS
  5
130
 10
19.690568
 20
461.195959
 30
0.0
 11
25.797868
 21
462.0
 31
0.0
  0
LINE
  8
LC-003-003-----0
  6
CONTINUOUS
  5
131
 10
25.797868
 20
462.0
 30
0.0
 11
19.690568
 21
462.804041
 31
0.0
  0
TEXT
  8
LC-003-003-----0
  6
CONTINUOUS
 62
     8
  5
132
 10
-45.51161
 20
469.827554
 30
0.0
 40
28.0
  1
Ø120
 51
15.0
  7
LC-TXTSTYLE-150-400-0-0-D0
 72
     1
 11
-7.413972
 21
469.827554
 31
0.0
  0
ENDBLK
  8
0
  5
133
  0
BLOCK
  8
0
  5
135
  2
*D13
 70
    65
 10
0.0
 20
0.0
 30
0.0
  3
*D13
  0
LINE
  8
LC-004-003-MTH-0
  6
CONTINUOUS
  5
136
 10
40.23743
 20
321.710628
 30
0.0
 11
142.8
 21
321.710628
 31
0.0
  0
LINE
  8
LC-004-003-MTH-0
  6
CONTINUOUS
  5
137
 10
46.937868
 20
441.155014
 30
0.0
 11
142.8
 21
441.155014
 31
0.0
  0
LINE
  8
LC-005-003-MTG-0
  6
CONTINUOUS
  5
138
 10
126.0
 20
321.710628
 30
0.0
 11
126.0
 21
441.155014
 31
0.0
  0
LINE
  8
LC-003-003-----0
  6
CONTINUOUS
  5
139
 10
122.345267
 20
349.471084
 30
0.0
 11
126.0
 21
321.710628
 31
0.0
  0
LINE
  8
LC-003-003-----0
  6
CONTINUOUS
  5
13A
 10
126.0
 20
321.710628
 30
0.0
 11
129.654733
 21
349.471084
 31
0.0
  0
LINE
  8
LC-003-003-----0
  6
CONTINUOUS
  5
13B
 10
129.654733
 20
349.471084
 30
0.0
 11
122.345267
 21
349.471084
 31
0.0
  0
LINE
  8
LC-003-003-----0
  6
CONTINUOUS
  5
13C
 10
123.295497
 20
349.533365
 30
0.0
 11
126.0
 21
328.990628
 31
0.0
  0
LINE
  8
LC-003-003-----0
  6
CONTINUOUS
  5
13D
 10
126.0
 20
328.990628
 30
0.0
 11
128.704503
 21
349.533365
 31
0.0
  0
LINE
  8
LC-003-003-----0
  6
CONTINUOUS
  5
13E
 10
124.245728
 20
349.595646
 30
0.0
 11
126.0
 21
336.270628
 31
0.0
  0
LINE
  8
LC-003-003-----0
  6
CONTINUOUS
  5
13F
 10
126.0
 20
336.270628
 30
0.0
 11
127.754272
 21
349.595646
 31
0.0
  0
LINE
  8
LC-003-003-----0
  6
CONTINUOUS
  5
140
 10
125.195959
 20
349.657928
 30
0.0
 11
126.0
 21
343.550628
 31
0.0
  0
LINE
  8
LC-003-003-----0
  6
CONTINUOUS
  5
141
 10
126.0
 20
343.550628
 30
0.0
 11
126.804041
 21
349.657928
 31
0.0
  0
LINE
  8
LC-003-003-----0
  6
CONTINUOUS
  5
142
 10
129.654733
 20
413.394557
 30
0.0
 11
126.0
 21
441.155014
 31
0.0
  0
LINE
  8
LC-003-003-----0
  6
CONTINUOUS
  5
143
 10
126.0
 20
441.155014
 30
0.0
 11
122.345267
 21
413.394557
 31
0.0
  0
LINE
  8
LC-003-003-----0
  6
CONTINUOUS
  5
144
 10
122.345267
 20
413.394557
 30
0.0
 11
129.654733
 21
413.394557
 31
0.0
  0
LINE
  8
LC-003-003-----0
  6
CONTINUOUS
  5
145
 10
128.704503
 20
413.332276
 30
0.0
 11
126.0
 21
433.875014
 31
0.0
  0
LINE
  8
LC-003-003-----0
  6
CONTINUOUS
  5
146
 10
126.0
 20
433.875014
 30
0.0
 11
123.295497
 21
413.332276
 31
0.0
  0
LINE
  8
LC-003-003-----0
  6
CONTINUOUS
  5
147
 10
127.754272
 20
413.269995
 30
0.0
 11
126.0
 21
426.595014
 31
0.0
  0
LINE
  8
LC-003-003-----0
  6
CONTINUOUS
  5
148
 10
126.0
 20
426.595014
 30
0.0
 11
124.245728
 21
413.269995
 31
0.0
  0
LINE
  8
LC-003-003-----0
  6
CONTINUOUS
  5
149
 10
126.804041
 20
413.207713
 30
0.0
 11
126.0
 21
419.315014
 31
0.0
  0
LINE
  8
LC-003-003-----0
  6
CONTINUOUS
  5
14A
 10
126.0
 20
419.315014
 30
0.0
 11
125.195959
 21
413.207713
 31
0.0
  0
TEXT
  8
LC-003-003-----0
  6
CONTINUOUS
 62
     8
  5
14B
 10
118.172446
 20
332.106965
 30
0.0
 40
28.0
  1
9-105
 50
90.0
 51
15.0
  7
LC-TXTSTYLE-150-400-0-0-D0
 72
     1
 11
118.172446
 21
385.78098
 31
0.0
  0
ENDBLK
  8
0
  5
14C
  0
BLOCK
  8
0
  5
14E
  2
*D14
 70
    65
 10
0.0
 20
0.0
 30
0.0
  3
*D14
  0
LINE
  8
LC-004-003-MTH-0
  6
CONTINUOUS
  5
14F
 10
-69.262132
 20
434.955014
 30
0.0
 11
-134.4
 21
434.955014
 31
0.0
  0
LINE
  8
LC-004-003-MTH-0
  6
CONTINUOUS
  5
150
 10
-70.462132
 20
441.155014
 30
0.0
 11
-134.4
 21
441.155014
 31
0.0
  0
LINE
  8
LC-003-003-----0
  6
CONTINUOUS
  5
151
 10
-113.945267
 20
407.194557
 30
0.0
 11
-117.6
 21
434.955014
 31
0.0
  0
LINE
  8
LC-003-003-----0
  6
CONTINUOUS
  5
152
 10
-117.6
 20
434.955014
 30
0.0
 11
-121.254733
 21
407.194557
 31
0.0
  0
LINE
  8
LC-003-003-----0
  6
CONTINUOUS
  5
153
 10
-121.254733
 20
407.194557
 30
0.0
 11
-113.945267
 21
407.194557
 31
0.0
  0
LINE
  8
LC-003-003-----0
  6
CONTINUOUS
  5
154
 10
-114.895497
 20
407.132276
 30
0.0
 11
-117.6
 21
427.675014
 31
0.0
  0
LINE
  8
LC-003-003-----0
  6
CONTINUOUS
  5
155
 10
-117.6
 20
427.675014
 30
0.0
 11
-120.304503
 21
407.132276
 31
0.0
  0
LINE
  8
LC-003-003-----0
  6
CONTINUOUS
  5
156
 10
-115.845728
 20
407.069995
 30
0.0
 11
-117.6
 21
420.395014
 31
0.0
  0
LINE
  8
LC-003-003-----0
  6
CONTINUOUS
  5
157
 10
-117.6
 20
420.395014
 30
0.0
 11
-119.354272
 21
407.069995
 31
0.0
  0
LINE
  8
LC-003-003-----0
  6
CONTINUOUS
  5
158
 10
-116.795959
 20
407.007713
 30
0.0
 11
-117.6
 21
413.115014
 31
0.0
  0
LINE
  8
LC-003-003-----0
  6
CONTINUOUS
  5
159
 10
-117.6
 20
413.115014
 30
0.0
 11
-118.404041
 21
407.007713
 31
0.0
  0
LINE
  8
LC-003-003-----0
  6
CONTINUOUS
  5
15A
 10
-121.254733
 20
468.91547
 30
0.0
 11
-117.6
 21
441.155014
 31
0.0
  0
LINE
  8
LC-003-003-----0
  6
CONTINUOUS
  5
15B
 10
-117.6
 20
441.155014
 30
0.0
 11
-113.945267
 21
468.91547
 31
0.0
  0
LINE
  8
LC-003-003-----0
  6
CONTINUOUS
  5
15C
 10
-113.945267
 20
468.91547
 30
0.0
 11
-121.254733
 21
468.91547
 31
0.0
  0
LINE
  8
LC-003-003-----0
  6
CONTINUOUS
  5
15D
 10
-120.304503
 20
468.977751
 30
0.0
 11
-117.6
 21
448.435014
 31
0.0
  0
LINE
  8
LC-003-003-----0
  6
CONTINUOUS
  5
15E
 10
-117.6
 20
448.435014
 30
0.0
 11
-114.895497
 21
468.977751
 31
0.0
  0
LINE
  8
LC-003-003-----0
  6
CONTINUOUS
  5
15F
 10
-119.354272
 20
469.040032
 30
0.0
 11
-117.6
 21
455.715014
 31
0.0
  0
LINE
  8
LC-003-003-----0
  6
CONTINUOUS
  5
160
 10
-117.6
 20
455.715014
 30
0.0
 11
-115.845728
 21
469.040032
 31
0.0
  0
LINE
  8
LC-003-003-----0
  6
CONTINUOUS
  5
161
 10
-118.404041
 20
469.102314
 30
0.0
 11
-117.6
 21
462.995014
 31
0.0
  0
LINE
  8
LC-003-003-----0
  6
CONTINUOUS
  5
162
 10
-117.6
 20
462.995014
 30
0.0
 11
-116.795959
 21
469.102314
 31
0.0
  0
LINE
  8
LC-005-003-MTG-0
  6
CONTINUOUS
  5
163
 10
-117.6
 20
342.789514
 30
0.0
 11
-117.6
 21
480.355014
 31
0.0
  0
TEXT
  8
LC-003-003-----0
  6
CONTINUOUS
 62
     8
  5
164
 10
-125.427554
 20
353.997977
 30
0.0
 40
28.0
  1
6,2
 50
90.0
 51
15.0
  7
LC-TXTSTYLE-150-400-0-0-D0
 72
     2
 11
-125.427554
 21
401.223173
 31
0.0
  0
ENDBLK
  8
0
  5
165
  0
ENDSEC
  0
SECTION
  2
ENTITIES
  0
VIEWPORT
  8
LC-000
  5
204
 67
     1
 68
     1
 10
420.0
 20
297.0
 30
0.0
 40
840.0
 41
594.0
 69
     1
1001
ACAD
1000
MVIEW
1002
{
1070
    16
1010
0.0
1020
0.0
1030
0.0
1010
0.0
1020
0.0
1030
1.0
1040
0.0
1040
594.0
1040
420.0
1040
297.0
1040
50.0
1040
0.0
1040
0.0
1070
     0
1070
   100
1070
     1
1070
     1
1070
     0
1070
     0
1070
     0
1070
     0
1040
0.0
1040
0.0
1040
0.0
1040
1.0
1040
1.0
1040
0.0
1040
0.0
1070
     0
1002
{
1002
}
1002
}
  0
VIEWPORT
  8
0
  5
205
 67
     1
 68
     1
 10
0.0
 20
0.0
 30
0.0
 40
0.0
 41
0.0
 69
     1
1001
ACAD
1000
MVIEW
1002
{
1070
    16
1010
0.0
1020
0.0
1030
0.0
1010
0.0
1020
0.0
1030
1.0
1040
0.0
1040
594.0
1040
0.0
1040
0.0
1040
50.0
1040
0.0
1040
0.0
1070
     0
1070
   100
1070
     0
1070
     1
1070
     0
1070
     0
1070
     0
1070
     0
1040
0.0
1040
0.0
1040
0.0
1040
0.5
1040
0.5
1040
0.5
1040
0.5
1070
     0
1002
{
1002
}
1002
}
  0
DIMENSION
  8
0
  5
166
  2
*D0
 10
-11.762132
 20
252.0
 30
0.0
 11
-11.762132
 21
252.0
 31
0.0
  1
%%c<>
 13
-66.762132
 23
322.710628
 33
0.0
 14
43.237868
 24
322.710628
 34
0.0
  3
LC-DIM-L-0140-01-02
  0
INSERT
  8
0
  5
168
  2
BLK1
 10
0.0
 20
0.0
 30
0.0
  0
INSERT
  8
0
  5
169
  2
*X2
 10
40.237868
 20
321.710628
 30
0.0
  0
INSERT
  8
0
  5
16A
  2
*X3
 10
-66.762132
 20
321.710628
 30
0.0
  0
INSERT
  8
0
  5
16B
  2
*X4
 10
-71.761739
 20
318.710653
 30
0.0
  0
INSERT
  8
0
  5
16C
  2
*X5
 10
40.23743
 20
318.710653
 30
0.0
  0
INSERT
  8
0
  5
16D
  2
*X6
 10
-71.162132
 20
422.806942
 30
0.0
  0
INSERT
  8
0
  5
16E
  2
*X7
 10
38.097201
 20
422.806942
 30
0.0
  0
INSERT
  8
0
  5
16F
  2
BLK2
 10
0.0
 20
0.0
 30
0.0
  0
INSERT
  8
0
  5
170
  2
*X9
 10
-63.762132
 20
321.710628
 30
0.0
  0
INSERT
  8
0
  5
171
  2
*X10
 10
-11.762132
 20
321.710628
 30
0.0
  0
DIMENSION
  8
0
  5
172
  2
*D11
 10
82.088428
 20
328.709319
 30
0.0
 11
82.088428
 21
328.709319
 31
0.0
 70
     1
 13
40.23743
 23
321.710628
 33
0.0
 14
40.237868
 24
335.710628
 34
0.0
  3
LC-DIM-L-0140-02-02
  0
DIMENSION
  8
0
  5
173
  2
*D12
 10
-11.762132
 20
462.0
 30
0.0
 11
-11.762132
 21
462.0
 31
0.0
  1
%%c120
 13
-71.162132
 23
440.455014
 33
0.0
 14
47.637868
 24
440.455014
 34
0.0
  3
LC-DIM-L-0140-02-02
  0
DIMENSION
  8
0
  5
174
  2
*D13
 10
126.0
 20
381.432821
 30
0.0
 11
126.0
 21
381.432821
 31
0.0
  1
9-105
 13
40.23743
 23
321.710628
 33
0.0
 14
46.937868
 24
441.155014
 34
0.0
 50
90.0
  3
LC-DIM-L-0140-02-02
  0
DIMENSION
  8
0
  5
175
  2
*D14
 10
-117.6
 20
421.471144
 30
0.0
 11
-117.6
 21
421.471144
 31
0.0
 13
-70.462132
 23
441.155014
 33
0.0
 14
-69.262132
 24
434.955014
 34
0.0
 50
90.0
  3
LC-DIM-L-0140-02-02
  0
LINE
  8
LC-002-002-----0
  6
CONTINUOUS
  5
177
 10
40.737868
 20
426.710628
 30
0.0
 11
40.737868
 21
321.710628
 31
0.0
  0
LINE
  8
LC-002-002-----0
  6
CONTINUOUS
  5
178
 10
-11.762132
 20
321.710628
 30
0.0
 11
-64.262132
 21
321.710628
 31
0.0
  0
LINE
  8
LC-002-002-----0
  6
CONTINUOUS
  5
179
 10
43.237868
 20
323.710628
 30
0.0
 11
42.70197
 21
321.710628
 31
0.0
  0
LINE
  8
LC-002-002-----0
  6
CONTINUOUS
  5
17A
 10
-11.762132
 20
321.710628
 30
0.0
 11
40.737868
 21
321.710628
 31
0.0
  0
LINE
  8
LC-002-002-----0
  6
CONTINUOUS
  5
17B
 10
41.987868
 20
430.010628
 30
0.0
 11
41.987868
 21
431.710628
 31
0.0
  0
LINE
  8
LC-002-002-----0
  6
CONTINUOUS
  5
17C
 10
-66.762132
 20
323.710628
 30
0.0
 11
-66.226234
 21
321.710628
 31
0.0
  0
LINE
  8
LC-002-002-----0
  6
CONTINUOUS
  5
17D
 10
-64.262132
 20
426.710628
 30
0.0
 11
-64.262132
 21
321.710628
 31
0.0
  0
LINE
  8
LC-002-002-----0
  6
CONTINUOUS
  5
17E
 10
-65.512132
 20
430.010628
 30
0.0
 11
-65.512132
 21
431.710628
 31
0.0
  0
LINE
  8
LC-002-002-----0
  6
CONTINUOUS
  5
17F
 10
40.737868
 20
426.710628
 30
0.0
 11
40.237868
 21
426.710628
 31
0.0
  0
LINE
  8
LC-002-002-----0
  6
CONTINUOUS
  5
180
 10
-64.262132
 20
426.710628
 30
0.0
 11
-63.762132
 21
426.710628
 31
0.0
  0
LINE
  8
LC-002-002-----0
  6
CONTINUOUS
  5
181
 10
-66.226234
 20
321.710628
 30
0.0
 11
-64.262132
 21
321.710628
 31
0.0
  0
LINE
  8
LC-002-002-----0
  6
CONTINUOUS
  5
182
 10
-66.762132
 20
431.710628
 30
0.0
 11
-66.762132
 21
323.710628
 31
0.0
  0
LINE
  8
LC-002-002-----0
  6
CONTINUOUS
  5
183
 10
40.737868
 20
429.710628
 30
0.0
 11
40.237868
 21
429.210628
 31
0.0
  0
LINE
  8
LC-002-002-----0
  6
CONTINUOUS
  5
184
 10
42.70197
 20
321.710628
 30
0.0
 11
40.737868
 21
321.710628
 31
0.0
  0
LINE
  8
LC-002-002-----0
  6
CONTINUOUS
  5
185
 10
43.237868
 20
431.710628
 30
0.0
 11
43.237868
 21
323.710628
 31
0.0
  0
LINE
  8
LC-002-002-----0
  6
CONTINUOUS
  5
186
 10
-64.262132
 20
429.710628
 30
0.0
 11
-63.762132
 21
429.210628
 31
0.0
  0
LINE
  8
LC-002-002-----0
  6
CONTINUOUS
  5
187
 10
40.737868
 20
429.710628
 30
0.0
 11
41.687868
 21
429.710628
 31
0.0
  0
LINE
  8
LC-002-002-----0
  6
CONTINUOUS
  5
188
 10
-66.762132
 20
431.710628
 30
0.0
 11
-65.512132
 21
431.710628
 31
0.0
  0
ARC
  8
LC-006-002-RND-0
  6
CONTINUOUS
  5
18A
 10
41.687868
 20
430.010628
 30
0.0
 40
0.3
 50
270.0
 51
0.0
  0
ARC
  8
LC-006-002-RND-0
  6
CONTINUOUS
  5
18B
 10
-65.212132
 20
430.010628
 30
0.0
 40
0.3
 50
180.0
 51
270.0
  0
LINE
  8
LC-002-002-----0
  6
CONTINUOUS
  5
18C
 10
-63.762132
 20
429.210628
 30
0.0
 11
-63.762132
 21
426.710628
 31
0.0
  0
LINE
  8
LC-002-002-----0
  6
CONTINUOUS
  5
18D
 10
40.237868
 20
429.210628
 30
0.0
 11
40.237868
 21
426.710628
 31
0.0
  0
LINE
  8
LC-002-002-----0
  6
CONTINUOUS
  5
18E
 10
40.737868
 20
429.710628
 30
0.0
 11
40.237868
 21
429.210628
 31
0.0
  0
LINE
  8
LC-002-002-----0
  6
CONTINUOUS
  5
18F
 10
-64.262132
 20
429.710628
 30
0.0
 11
-65.212132
 21
429.710628
 31
0.0
  0
LINE
  8
LC-002-002-----0
  6
CONTINUOUS
  5
190
 10
41.987868
 20
431.710628
 30
0.0
 11
43.237868
 21
431.710628
 31
0.0
  0
LINE
  8
LC-002-002-----0
  6
CONTINUOUS
  5
191
 10
-47.455423
 20
318.710653
 30
0.0
 11
-47.455423
 21
321.710628
 31
0.0
  0
LINE
  8
LC-002-002-----0
  6
CONTINUOUS
  5
192
 10
-49.576725
 20
318.710653
 30
0.0
 11
-49.576725
 21
321.710628
 31
0.0
  0
LINE
  8
LC-002-002-----0
  6
CONTINUOUS
  5
193
 10
-13.262119
 20
321.710628
 30
0.0
 11
-11.762132
 21
321.710628
 31
0.0
  0
LINE
  8
LC-002-002-----0
  6
CONTINUOUS
  5
194
 10
-49.576725
 20
321.710628
 30
0.0
 11
-47.455423
 21
321.710628
 31
0.0
  0
LINE
  8
LC-002-002-----0
  6
CONTINUOUS
  5
195
 10
-63.761694
 20
318.710653
 30
0.0
 11
-11.762132
 21
318.710653
 31
0.0
  0
LINE
  8
LC-002-002-----0
  6
CONTINUOUS
  5
196
 10
-13.262119
 20
318.710653
 30
0.0
 11
-13.262119
 21
321.710628
 31
0.0
  0
LINE
  8
LC-002-002-----0
  6
CONTINUOUS
  5
197
 10
-67.01211
 20
336.710462
 30
0.0
 11
-67.012156
 21
321.710628
 31
0.0
  0
LINE
  8
LC-002-002-----0
  6
CONTINUOUS
  5
198
 10
-63.761694
 20
318.710653
 30
0.0
 11
-70.261739
 21
318.710653
 31
0.0
  0
LINE
  8
LC-002-002-----0
  6
CONTINUOUS
  5
199
 10
-71.761739
 20
320.210653
 30
0.0
 11
-71.761739
 21
328.709878
 31
0.0
  0
LINE
  8
LC-002-002-----0
  6
CONTINUOUS
  5
19A
 10
-69.012132
 20
338.710484
 30
0.0
 11
-69.012132
 21
328.710569
 31
0.0
  0
LINE
  8
LC-002-002-----0
  6
CONTINUOUS
  5
19B
 10
-70.261752
 20
328.710569
 30
0.0
 11
-71.761739
 21
328.710569
 31
0.0
  0
LINE
  8
LC-002-002-----0
  6
CONTINUOUS
  5
19C
 10
-69.012132
 20
338.710484
 30
0.0
 11
-67.01211
 21
336.710462
 31
0.0
  0
LINE
  8
LC-002-002-----0
  6
CONTINUOUS
  5
19D
 10
-67.012156
 20
321.710628
 30
0.0
 11
-63.761694
 21
321.710628
 31
0.0
  0
LINE
  8
LC-002-002-----0
  6
CONTINUOUS
  5
19E
 10
-63.761694
 20
321.710628
 30
0.0
 11
-63.761694
 21
318.710653
 31
0.0
  0
LINE
  8
LC-002-002-----0
  6
CONTINUOUS
  5
19F
 10
-70.261752
 20
328.710569
 30
0.0
 11
-69.012132
 21
328.710569
 31
0.0
  0
ARC
  8
LC-006-002-RND-0
  6
CONTINUOUS
  5
1A0
 10
-70.261739
 20
320.210653
 30
0.0
 40
1.5
 50
180.0
 51
270.0
  0
LINE
  8
LC-002-002-----0
  6
CONTINUOUS
  5
1A1
 10
23.931159
 20
318.710653
 30
0.0
 11
23.931159
 21
321.710628
 31
0.0
  0
LINE
  8
LC-002-002-----0
  6
CONTINUOUS
  5
1A2
 10
26.052461
 20
318.710653
 30
0.0
 11
26.052461
 21
321.710628
 31
0.0
  0
LINE
  8
LC-002-002-----0
  6
CONTINUOUS
  5
1A3
 10
-10.262145
 20
321.710628
 30
0.0
 11
-11.762132
 21
321.710628
 31
0.0
  0
LINE
  8
LC-002-002-----0
  6
CONTINUOUS
  5
1A4
 10
26.052461
 20
321.710628
 30
0.0
 11
23.931159
 21
321.710628
 31
0.0
  0
LINE
  8
LC-002-002-----0
  6
CONTINUOUS
  5
1A5
 10
40.23743
 20
318.710653
 30
0.0
 11
-11.762132
 21
318.710653
 31
0.0
  0
LINE
  8
LC-002-002-----0
  6
CONTINUOUS
  5
1A6
 10
-10.262145
 20
318.710653
 30
0.0
 11
-10.262145
 21
321.710628
 31
0.0
  0
LINE
  8
LC-002-002-----0
  6
CONTINUOUS
  5
1A7
 10
43.487846
 20
336.710462
 30
0.0
 11
43.487892
 21
321.710628
 31
0.0
  0
LINE
  8
LC-002-002-----0
  6
CONTINUOUS
  5
1A8
 10
40.23743
 20
318.710653
 30
0.0
 11
46.737475
 21
318.710653
 31
0.0
  0
LINE
  8
LC-002-002-----0
  6
CONTINUOUS
  5
1A9
 10
48.237475
 20
320.210653
 30
0.0
 11
48.237475
 21
328.709878
 31
0.0
  0
LINE
  8
LC-002-002-----0
  6
CONTINUOUS
  5
1AA
 10
45.487868
 20
338.710484
 30
0.0
 11
45.487868
 21
328.710569
 31
0.0
  0
LINE
  8
LC-002-002-----0
  6
CONTINUOUS
  5
1AB
 10
46.737487
 20
328.710569
 30
0.0
 11
48.237475
 21
328.710569
 31
0.0
  0
LINE
  8
LC-002-002-----0
  6
CONTINUOUS
  5
1AC
 10
45.487868
 20
338.710484
 30
0.0
 11
43.487846
 21
336.710462
 31
0.0
  0
LINE
  8
LC-002-002-----0
  6
CONTINUOUS
  5
1AD
 10
43.487892
 20
321.710628
 30
0.0
 11
40.23743
 21
321.710628
 31
0.0
  0
LINE
  8
LC-002-002-----0
  6
CONTINUOUS
  5
1AE
 10
40.23743
 20
321.710628
 30
0.0
 11
40.23743
 21
318.710653
 31
0.0
  0
LINE
  8
LC-002-002-----0
  6
CONTINUOUS
  5
1AF
 10
46.737487
 20
328.710569
 30
0.0
 11
45.487868
 21
328.710569
 31
0.0
  0
ARC
  8
LC-006-002-RND-0
  6
CONTINUOUS
  5
1B0
 10
46.737475
 20
320.210653
 30
0.0
 40
1.5
 50
270.0
 51
0.0
  0
ARC
  8
LC-006-002-RND-0
  6
CONTINUOUS
  5
1B1
 10
43.737868
 20
433.956746
 30
0.0
 40
0.5
 50
112.0
 51
180.0
  0
ARC
  8
LC-006-002-RND-0
  6
CONTINUOUS
  5
1B2
 10
43.737868
 20
433.956746
 30
0.0
 40
1.2
 50
112.0
 51
180.0
  0
LINE
  8
LC-002-002-----0
  6
CONTINUOUS
  5
1B3
 10
-67.074829
 20
434.420338
 30
0.0
 11
-68.398198
 21
434.955014
 31
0.0
  0
LINE
  8
LC-002-002-----0
  6
CONTINUOUS
  5
1B4
 10
-66.812604
 20
435.069366
 30
0.0
 11
-68.262132
 21
435.655014
 31
0.0
  0
ARC
  8
LC-006-002-RND-0
  6
CONTINUOUS
  5
1B5
 10
-67.262132
 20
433.956746
 30
0.0
 40
1.2
 50
0.0
 51
68.0
  0
ARC
  8
LC-006-002-RND-0
  6
CONTINUOUS
  5
1B6
 10
-67.262132
 20
433.956746
 30
0.0
 40
0.5
 50
360.0
 51
68.0
  0
LINE
  8
LC-002-002-----0
  6
CONTINUOUS
  5
1B7
 10
46.937868
 20
441.155014
 30
0.0
 11
-11.762132
 21
441.155014
 31
0.0
  0
LINE
  8
LC-002-002-----0
  6
CONTINUOUS
  5
1B8
 10
45.737868
 20
434.955014
 30
0.0
 11
44.873934
 21
434.955014
 31
0.0
  0
LINE
  8
LC-002-002-----0
  6
CONTINUOUS
  5
1B9
 10
39.301588
 20
426.187838
 30
0.0
 11
38.937868
 21
426.187838
 31
0.0
  0
ARC
  8
LC-006-002-RND-0
  6
CONTINUOUS
  5
1BA
 10
45.737868
 20
436.155014
 30
0.0
 40
1.2
 50
270.0
 51
0.0
  0
LINE
  8
LC-002-002-----0
  6
CONTINUOUS
  5
1BB
 10
45.737868
 20
435.655014
 30
0.0
 11
44.737868
 21
435.655014
 31
0.0
  0
ARC
  8
LC-006-002-RND-0
  6
CONTINUOUS
  5
1BC
 10
45.737868
 20
436.155014
 30
0.0
 40
0.5
 50
270.0
 51
0.0
  0
LINE
  8
LC-002-002-----0
  6
CONTINUOUS
  5
1BD
 10
-69.262132
 20
434.955014
 30
0.0
 11
-68.398198
 21
434.955014
 31
0.0
  0
ARC
  8
LC-006-002-RND-0
  6
CONTINUOUS
  5
1BE
 10
-69.262132
 20
436.155014
 30
0.0
 40
1.2
 50
180.0
 51
270.0
  0
ARC
  8
LC-006-002-RND-0
  6
CONTINUOUS
  5
1BF
 10
-69.262132
 20
436.155014
 30
0.0
 40
0.5
 50
180.0
 51
270.0
  0
ARC
  8
LC-002-002-----0
  6
CONTINUOUS
  5
1C0
 10
-70.462132
 20
440.455014
 30
0.0
 40
0.7
 50
360.0
 51
180.0
  0
ARC
  8
LC-006-002-RND-0
  6
CONTINUOUS
  5
1C1
 10
-65.562132
 20
432.910628
 30
0.0
 40
0.5
 50
180.0
 51
270.0
  0
LINE
  8
LC-002-002-----0
  6
CONTINUOUS
  5
1C2
 10
-70.462132
 20
438.655014
 30
0.0
 11
-71.162132
 21
438.655014
 31
0.0
  0
LINE
  8
LC-002-002-----0
  6
CONTINUOUS
  5
1C3
 10
-70.462132
 20
436.155014
 30
0.0
 11
-70.462132
 21
439.960276
 31
0.0
  0
LINE
  8
LC-002-002-----0
  6
CONTINUOUS
  5
1C4
 10
-69.762132
 20
436.155014
 30
0.0
 11
-69.762132
 21
440.455014
 31
0.0
  0
LINE
  8
LC-002-002-----0
  6
CONTINUOUS
  5
1C5
 10
-71.162132
 20
438.655014
 30
0.0
 11
-71.162132
 21
440.455014
 31
0.0
  0
ARC
  8
LC-006-002-RND-0
  6
CONTINUOUS
  5
1C6
 10
-65.562132
 20
432.910628
 30
0.0
 40
1.2
 50
180.0
 51
270.0
  0
ARC
  8
LC-006-002-RND-0
  6
CONTINUOUS
  5
1C7
 10
-63.662132
 20
431.210628
 30
0.0
 40
1.2
 50
360.0
 51
90.0
  0
LINE
  8
LC-002-002-----0
  6
CONTINUOUS
  5
1C8
 10
-63.662132
 20
431.710628
 30
0.0
 11
-65.562132
 21
431.710628
 31
0.0
  0
LINE
  8
LC-002-002-----0
  6
CONTINUOUS
  5
1C9
 10
-66.062132
 20
433.956746
 30
0.0
 11
-66.062132
 21
432.910628
 31
0.0
  0
ARC
  8
LC-002-002-----0
  6
CONTINUOUS
  5
1CA
 10
46.937868
 20
440.455014
 30
0.0
 40
0.7
 50
0.0
 51
180.0
  0
LINE
  8
LC-002-002-----0
  6
CONTINUOUS
  5
1CB
 10
-66.762132
 20
433.956746
 30
0.0
 11
-66.762132
 21
432.910628
 31
0.0
  0
ARC
  8
LC-006-002-RND-0
  6
CONTINUOUS
  5
1CC
 10
42.037868
 20
432.910628
 30
0.0
 40
0.5
 50
270.0
 51
0.0
  0
LINE
  8
LC-002-002-----0
  6
CONTINUOUS
  5
1CD
 10
46.937868
 20
438.655014
 30
0.0
 11
47.637868
 21
438.655014
 31
0.0
  0
ARC
  8
LC-006-002-RND-0
  6
CONTINUOUS
  5
1CE
 10
-63.662132
 20
431.210628
 30
0.0
 40
0.5
 50
0.0
 51
90.0
  0
LINE
  8
LC-002-002-----0
  6
CONTINUOUS
  5
1CF
 10
-62.462132
 20
426.187838
 30
0.0
 11
-62.462132
 21
431.210628
 31
0.0
  0
LINE
  8
LC-002-002-----0
  6
CONTINUOUS
  5
1D0
 10
-63.162132
 20
426.888193
 30
0.0
 11
-63.162132
 21
431.210628
 31
0.0
  0
LINE
  8
LC-002-002-----0
  6
CONTINUOUS
  5
1D1
 10
-62.825852
 20
426.187838
 30
0.0
 11
-62.462132
 21
426.187838
 31
0.0
  0
LINE
  8
LC-002-002-----0
  6
CONTINUOUS
  5
1D2
 10
-63.10776
 20
425.785232
 30
0.0
 11
-62.111448
 21
423.047888
 31
0.0
  0
LINE
  8
LC-002-002-----0
  6
CONTINUOUS
  5
1D3
 10
46.937868
 20
436.155014
 30
0.0
 11
46.937868
 21
440.048702
 31
0.0
  0
ARC
  8
LC-006-002-RND-0
  6
CONTINUOUS
  5
1D4
 10
-62.825852
 20
425.887838
 30
0.0
 40
0.3
 50
90.0
 51
200.0
  0
LINE
  8
LC-002-002-----0
  6
CONTINUOUS
  5
1D5
 10
-62.111448
 20
423.047888
 30
0.0
 11
-62.773443
 21
422.806942
 31
0.0
  0
LINE
  8
LC-002-002-----0
  6
CONTINUOUS
  5
1D6
 10
-63.755127
 20
425.504095
 30
0.0
 11
-62.773443
 21
422.806942
 31
0.0
  0
ARC
  8
LC-002-002-----0
  6
CONTINUOUS
  5
1D7
 10
-62.721465
 20
425.880317
 30
0.0
 40
1.1
 50
113.616097
 51
200.0
  0
LINE
  8
LC-002-002-----0
  6
CONTINUOUS
  5
1D8
 10
44.737868
 20
435.655014
 30
0.0
 11
-11.762132
 21
435.655014
 31
0.0
  0
LINE
  8
LC-002-002-----0
  6
CONTINUOUS
  5
1D9
 10
-70.462132
 20
441.155014
 30
0.0
 11
-11.762132
 21
441.155014
 31
0.0
  0
LINE
  8
LC-002-002-----0
  6
CONTINUOUS
  5
1DA
 10
-69.262132
 20
435.655014
 30
0.0
 11
-68.262132
 21
435.655014
 31
0.0
  0
LINE
  8
LC-002-002-----0
  6
CONTINUOUS
  5
1DB
 10
-11.762132
 20
432.410628
 30
0.0
 11
-63.662132
 21
432.410628
 31
0.0
  0
LINE
  8
LC-002-002-----0
  6
CONTINUOUS
  5
1DC
 10
-62.462132
 20
426.187838
 30
0.0
 11
-11.762132
 21
426.187838
 31
0.0
  0
LINE
  8
LC-002-002-----0
  6
CONTINUOUS
  5
1DD
 10
46.237868
 20
436.155014
 30
0.0
 11
46.237868
 21
440.455014
 31
0.0
  0
LINE
  8
LC-002-002-----0
  6
CONTINUOUS
  5
1DE
 10
-62.113143
 20
423.052544
 30
0.0
 11
-11.762132
 21
423.052544
 31
0.0
  0
LINE
  8
LC-002-002-----0
  6
CONTINUOUS
  5
1DF
 10
-62.773443
 20
422.806942
 30
0.0
 11
-11.762132
 21
422.806942
 31
0.0
  0
LINE
  8
LC-002-002-----0
  6
CONTINUOUS
  5
1E0
 10
-68.262132
 20
435.655014
 30
0.0
 11
-11.762132
 21
435.655014
 31
0.0
  0
LINE
  8
LC-002-002-----0
  6
CONTINUOUS
  5
1E1
 10
-63.662132
 20
432.410628
 30
0.0
 11
-65.562132
 21
432.410628
 31
0.0
  0
LINE
  8
LC-002-002-----0
  6
CONTINUOUS
  5
1E2
 10
37.188656
 20
423.052544
 30
0.0
 11
-11.762132
 21
423.052544
 31
0.0
  0
LINE
  8
LC-002-002-----0
  6
CONTINUOUS
  5
1E3
 10
39.583496
 20
425.785232
 30
0.0
 11
38.587184
 21
423.047888
 31
0.0
  0
LINE
  8
LC-002-002-----0
  6
CONTINUOUS
  5
1E4
 10
40.230863
 20
425.504095
 30
0.0
 11
39.249179
 21
422.806942
 31
0.0
  0
ARC
  8
LC-002-002-----0
  6
CONTINUOUS
  5
1E5
 10
39.197201
 20
425.880317
 30
0.0
 40
1.1
 50
340.0
 51
66.383903
  0
LINE
  8
LC-002-002-----0
  6
CONTINUOUS
  5
1E6
 10
39.583496
 20
425.785232
 30
0.0
 11
38.587184
 21
423.047888
 31
0.0
  0
ARC
  8
LC-006-002-RND-0
  6
CONTINUOUS
  5
1E7
 10
39.301588
 20
425.887838
 30
0.0
 40
0.3
 50
340.0
 51
90.0
  0
LINE
  8
LC-002-002-----0
  6
CONTINUOUS
  5
1E8
 10
38.574393
 20
423.052544
 30
0.0
 11
-11.762132
 21
423.052544
 31
0.0
  0
LINE
  8
LC-002-002-----0
  6
CONTINUOUS
  5
1E9
 10
38.587184
 20
423.047888
 30
0.0
 11
39.249179
 21
422.806942
 31
0.0
  0
LINE
  8
LC-002-002-----0
  6
CONTINUOUS
  5
1EA
 10
40.137868
 20
432.410628
 30
0.0
 11
42.037868
 21
432.410628
 31
0.0
  0
LINE
  8
LC-002-002-----0
  6
CONTINUOUS
  5
1EB
 10
38.937868
 20
426.187838
 30
0.0
 11
-11.762132
 21
426.187838
 31
0.0
  0
LINE
  8
LC-002-002-----0
  6
CONTINUOUS
  5
1EC
 10
39.249179
 20
422.806942
 30
0.0
 11
-11.762132
 21
422.806942
 31
0.0
  0
LINE
  8
LC-002-002-----0
  6
CONTINUOUS
  5
1ED
 10
43.28834
 20
435.069366
 30
0.0
 11
44.737868
 21
435.655014
 31
0.0
  0
LINE
  8
LC-002-002-----0
  6
CONTINUOUS
  5
1EE
 10
43.550565
 20
434.420338
 30
0.0
 11
44.873934
 21
434.955014
 31
0.0
  0
LINE
  8
LC-002-002-----0
  6
CONTINUOUS
  5
1EF
 10
47.637868
 20
438.655014
 30
0.0
 11
47.637868
 21
440.455014
 31
0.0
  0
ARC
  8
LC-006-002-RND-0
  6
CONTINUOUS
  5
1F0
 10
42.037868
 20
432.910628
 30
0.0
 40
1.2
 50
270.0
 51
0.0
  0
ARC
  8
LC-006-002-RND-0
  6
CONTINUOUS
  5
1F1
 10
40.137868
 20
431.210628
 30
0.0
 40
1.2
 50
90.0
 51
180.0
  0
LINE
  8
LC-002-002-----0
  6
CONTINUOUS
  5
1F2
 10
40.137868
 20
431.710628
 30
0.0
 11
42.037868
 21
431.710628
 31
0.0
  0
LINE
  8
LC-002-002-----0
  6
CONTINUOUS
  5
1F3
 10
-11.762132
 20
432.410628
 30
0.0
 11
40.137868
 21
432.410628
 31
0.0
  0
LINE
  8
LC-002-002-----0
  6
CONTINUOUS
  5
1F4
 10
42.537868
 20
433.956746
 30
0.0
 11
42.537868
 21
432.910628
 31
0.0
  0
LINE
  8
LC-002-002-----0
  6
CONTINUOUS
  5
1F5
 10
43.237868
 20
433.956746
 30
0.0
 11
43.237868
 21
432.910628
 31
0.0
  0
ARC
  8
LC-006-002-RND-0
  6
CONTINUOUS
  5
1F6
 10
40.137868
 20
431.210628
 30
0.0
 40
0.5
 50
90.0
 51
180.0
  0
LINE
  8
LC-002-002-----0
  6
CONTINUOUS
  5
1F7
 10
38.937868
 20
426.187838
 30
0.0
 11
38.937868
 21
431.210628
 31
0.0
  0
LINE
  8
LC-002-002-----0
  6
CONTINUOUS
  5
1F8
 10
39.637868
 20
426.888193
 30
0.0
 11
39.637868
 21
431.210628
 31
0.0
  0
LINE
  8
LC-002-002-----0
  6
CONTINUOUS
  5
1F9
 10
40.230863
 20
425.504095
 30
0.0
 11
39.249179
 21
422.806942
 31
0.0
  0
ARC
  8
LC-002-002-----0
  6
CONTINUOUS
  5
1FA
 10
39.197201
 20
425.880317
 30
0.0
 40
1.1
 50
340.0
 51
66.383903
  0
CIRCLE
  8
LC-002-002-----0
  6
CONTINUOUS
  5
1FB
 10
201.642173
 20
379.932833
 30
0.0
 40
54.3
  0
CIRCLE
  8
LC-002-002-----0
  6
CONTINUOUS
  5
1FC
 10
201.642173
 20
379.932833
 30
0.0
 40
56.5
  0
CIRCLE
  8
LC-002-002-----0
  6
CONTINUOUS
  5
1FD
 10
201.642173
 20
379.932833
 30
0.0
 40
59.4
  0
CIRCLE
  8
LC-002-002-----0
  6
CONTINUOUS
  5
1FE
 10
201.642173
 20
379.932833
 30
0.0
 40
50.7
  0
CIRCLE
  8
LC-002-002-----0
  6
CONTINUOUS
  5
1FF
 10
201.642173
 20
379.932833
 30
0.0
 40
50.336525
  0
LINE
  8
LC-002-002-----0
  6
DASHDOT
 62
     2
  5
201
 10
-11.762132
 20
318.710653
 30
0.0
 11
-11.762132
 21
441.155014
 31
0.0
  0
LINE
  8
LC-002-002-----0
  6
CONTINUOUS
 62
     2
  5
202
 10
40.737868
 20
335.710628
 30
0.0
 11
-64.262132
 21
335.710628
 31
0.0
  0
ENDSEC
  0
EOF
