  0
SECTION
  2
HEADER
  9
$ACADVER
  1
AC1015
  9
$ACADMAINTVER
 70
     6
  9
$DWGCODEPAGE
  3
DOS850
  9
$INSBASE
 10
0.0
 20
0.0
 30
0.0
  9
$EXTMIN
 10
-210.0
 20
-148.5
 30
0.0
  9
$EXTMAX
 10
630.0
 20
445.5
 30
0.0
  9
$LIMMIN
 10
-210.0
 20
-148.5
  9
$LIMMAX
 10
630.0
 20
445.5
  9
$ORTHOMODE
 70
     0
  9
$REGENMODE
 70
     1
  9
$FILLMODE
 70
     1
  9
$QTEXTMODE
 70
     0
  9
$MIRRTEXT
 70
     1
  9
$LTSCALE
 40
2.0
  9
$ATTMODE
 70
     1
  9
$TEXTSIZE
 40
2.5
  9
$TRACEWID
 40
1.0
  9
$TEXTSTYLE
  7
Standard
  9
$CLAYER
  8
0
  9
$CELTYPE
  6
ByLayer
  9
$CECOLOR
 62
     7
  9
$CELTSCALE
 40
1.0
  9
$DISPSILH
 70
     0
  9
$DIMSCALE
 40
2.0
  9
$DIMASZ
 40
3.5
  9
$DIMEXO
 40
0.625
  9
$DIMDLI
 40
3.75
  9
$DIMRND
 40
0.0
  9
$DIMDLE
 40
0.0
  9
$DIMEXE
 40
1.25
  9
$DIMTP
 40
0.0
  9
$DIMTM
 40
0.0
  9
$DIMTXT
 40
3.5
  9
$DIMCEN
 40
2.5
  9
$DIMTSZ
 40
0.0
  9
$DIMTOL
 70
     0
  9
$DIMLIM
 70
     0
  9
$DIMTIH
 70
     0
  9
$DIMTOH
 70
     0
  9
$DIMSE1
 70
     0
  9
$DIMSE2
 70
     0
  9
$DIMTAD
 70
     1
  9
$DIMZIN
 70
     8
  9
$DIMBLK
  1

  9
$DIMASO
 70
     1
  9
$DIMSHO
 70
     1
  9
$DIMPOST
  1

  9
$DIMAPOST
  1

  9
$DIMALT
 70
     0
  9
$DIMALTD
 70
     3
  9
$DIMALTF
 40
0.03937
  9
$DIMLFAC
 40
1.0
  9
$DIMTOFL
 70
     1
  9
$DIMTVP
 40
0.0
  9
$DIMTIX
 70
     0
  9
$DIMSOXD
 70
     0
  9
$DIMSAH
 70
     0
  9
$DIMBLK1
  1

  9
$DIMBLK2
  1

  9
$DIMSTYLE
  2
ISO-25
  9
$DIMCLRD
 70
     0
  9
$DIMCLRE
 70
     0
  9
$DIMCLRT
 70
     0
  9
$DIMTFAC
 40
1.0
  9
$DIMGAP
 40
0.625
  9
$DIMJUST
 70
     0
  9
$DIMSD1
 70
     0
  9
$DIMSD2
 70
     0
  9
$DIMTOLJ
 70
     0
  9
$DIMTZIN
 70
     8
  9
$DIMALTZ
 70
     0
  9
$DIMALTTZ
 70
     0
  9
$DIMUPT
 70
     0
  9
$DIMDEC
 70
     2
  9
$DIMTDEC
 70
     2
  9
$DIMALTU
 70
     2
  9
$DIMALTTD
 70
     3
  9
$DIMTXSTY
  7
Standard
  9
$DIMAUNIT
 70
     0
  9
$DIMADEC
 70
     0
  9
$DIMALTRND
 40
0.0
  9
$DIMAZIN
 70
     0
  9
$DIMDSEP
 70
    44
  9
$DIMATFIT
 70
     3
  9
$DIMFRAC
 70
     0
  9
$DIMLDRBLK
  1

  9
$DIMLUNIT
 70
     2
  9
$DIMLWD
 70
    -2
  9
$DIMLWE
 70
    -2
  9
$DIMTMOVE
 70
     0
  9
$LUNITS
 70
     2
  9
$LUPREC
 70
     4
  9
$SKETCHINC
 40
1.0
  9
$FILLETRAD
 40
10.0
  9
$AUNITS
 70
     0
  9
$AUPREC
 70
     0
  9
$MENU
  1
.
  9
$ELEVATION
 40
0.0
  9
$PELEVATION
 40
0.0
  9
$THICKNESS
 40
0.0
  9
$LIMCHECK
 70
     0
  9
$CHAMFERA
 40
10.0
  9
$CHAMFERB
 40
10.0
  9
$CHAMFERC
 40
20.0
  9
$CHAMFERD
 40
0.0
  9
$SKPOLY
 70
     0
  9
$TDCREATE
 40
2453663.386243738
  9
$TDUCREATE
 40
2453663.302910405
  9
$TDUPDATE
 40
2453663.38624375
  9
$TDUUPDATE
 40
2453663.302910417
  9
$TDINDWG
 40
0.0000000116
  9
$TDUSRTIMER
 40
0.0000000116
  9
$USRTIMER
 70
     1
  9
$ANGBASE
 50
0.0
  9
$ANGDIR
 70
     0
  9
$PDMODE
 70
     0
  9
$PDSIZE
 40
0.0
  9
$PLINEWID
 40
0.0
  9
$SPLFRAME
 70
     0
  9
$SPLINETYPE
 70
     6
  9
$SPLINESEGS
 70
     8
  9
$HANDSEED
  5
B2
  9
$SURFTAB1
 70
     6
  9
$SURFTAB2
 70
     6
  9
$SURFTYPE
 70
     6
  9
$SURFU
 70
     6
  9
$SURFV
 70
     6
  9
$UCSBASE
  2

  9
$UCSNAME
  2

  9
$UCSORG
 10
0.0
 20
0.0
 30
0.0
  9
$UCSXDIR
 10
1.0
 20
0.0
 30
0.0
  9
$UCSYDIR
 10
0.0
 20
1.0
 30
0.0
  9
$UCSORTHOREF
  2

  9
$UCSORTHOVIEW
 70
     0
  9
$UCSORGTOP
 10
0.0
 20
0.0
 30
0.0
  9
$UCSORGBOTTOM
 10
0.0
 20
0.0
 30
0.0
  9
$UCSORGLEFT
 10
0.0
 20
0.0
 30
0.0
  9
$UCSORGRIGHT
 10
0.0
 20
0.0
 30
0.0
  9
$UCSORGFRONT
 10
0.0
 20
0.0
 30
0.0
  9
$UCSORGBACK
 10
0.0
 20
0.0
 30
0.0
  9
$PUCSBASE
  2

  9
$PUCSNAME
  2

  9
$PUCSORG
 10
0.0
 20
0.0
 30
0.0
  9
$PUCSXDIR
 10
1.0
 20
0.0
 30
0.0
  9
$PUCSYDIR
 10
0.0
 20
1.0
 30
0.0
  9
$PUCSORTHOREF
  2

  9
$PUCSORTHOVIEW
 70
     0
  9
$PUCSORGTOP
 10
0.0
 20
0.0
 30
0.0
  9
$PUCSORGBOTTOM
 10
0.0
 20
0.0
 30
0.0
  9
$PUCSORGLEFT
 10
0.0
 20
0.0
 30
0.0
  9
$PUCSORGRIGHT
 10
0.0
 20
0.0
 30
0.0
  9
$PUCSORGFRONT
 10
0.0
 20
0.0
 30
0.0
  9
$PUCSORGBACK
 10
0.0
 20
0.0
 30
0.0
  9
$USERI1
 70
     0
  9
$USERI2
 70
     0
  9
$USERI3
 70
     0
  9
$USERI4
 70
     0
  9
$USERI5
 70
     0
  9
$USERR1
 40
0.0
  9
$USERR2
 40
0.0
  9
$USERR3
 40
0.0
  9
$USERR4
 40
0.0
  9
$USERR5
 40
0.0
  9
$WORLDVIEW
 70
     1
  9
$SHADEDGE
 70
     3
  9
$SHADEDIF
 70
    70
  9
$TILEMODE
 70
     1
  9
$MAXACTVP
 70
    64
  9
$PINSBASE
 10
0.0
 20
0.0
 30
0.0
  9
$PLIMCHECK
 70
     0
  9
$PEXTMIN
 10
-210.0
 20
-148.5
 30
0.0
  9
$PEXTMAX
 10
630.0
 20
445.5
 30
0.0
  9
$PLIMMIN
 10
-210.0
 20
-148.5
  9
$PLIMMAX
 10
630.0
 20
445.5
  9
$UNITMODE
 70
     0
  9
$VISRETAIN
 70
     1
  9
$PLINEGEN
 70
     0
  9
$PSLTSCALE
 70
     1
  9
$TREEDEPTH
 70
  3020
  9
$CMLSTYLE
  2
Standard
  9
$CMLJUST
 70
     0
  9
$CMLSCALE
 40
20.0
  9
$PROXYGRAPHICS
 70
     1
  9
$MEASUREMENT
 70
     1
  9
$CELWEIGHT
370
    -1
  9
$ENDCAPS
280
     0
  9
$JOINSTYLE
280
     0
  9
$LWDISPLAY
290
     0
  9
$INSUNITS
 70
     4
  9
$HYPERLINKBASE
  1

  9
$STYLESHEET
  1

  9
$XEDIT
290
     1
  9
$CEPSNTYPE
380
     0
  9
$PSTYLEMODE
290
     1
  9
$FINGERPRINTGUID
  2
{FAEB1C30-E019-11D5-929B-00C0DF256EC4}
  9
$VERSIONGUID
  2
{FAEB1C32-E019-11D5-929B-00C0DF256EC4}
  9
$EXTNAMES
290
     1
  9
$PSVPSCALE
 40
0.0
  9
$OLESTARTUP
290
     0
  0
ENDSEC
  0
SECTION
  2
CLASSES
  0
CLASS
  1
ACDBDICTIONARYWDFLT
  2
AcDbDictionaryWithDefault
  3
ObjectDBX Classes
 90
        0
280
     0
281
     0
  0
CLASS
  1
ACDBPLACEHOLDER
  2
AcDbPlaceHolder
  3
ObjectDBX Classes
 90
        0
280
     0
281
     0
  0
CLASS
  1
LAYOUT
  2
AcDbLayout
  3
ObjectDBX Classes
 90
        0
280
     0
281
     0
  0
ENDSEC
  0
SECTION
  2
TABLES
  0
TABLE
  2
VPORT
  5
8
330
0
100
AcDbSymbolTable
 70
     2
  0
VPORT
  5
29
330
8
100
AcDbSymbolTableRecord
100
AcDbViewportTableRecord
  2
*ACTIVE
 70
     0
 10
0.0
 20
0.0
 11
1.0
 21
1.0
 12
210.0
 22
148.5
 13
0.0
 23
0.0
 14
1.0
 24
1.0
 15
0.0
 25
0.0
 16
0.0
 26
0.0
 36
1.0
 17
0.0
 27
0.0
 37
0.0
 40
594.0
 41
1.414141
 42
50.0
 43
0.0
 44
0.0
 50
0.0
 51
0.0
 71
    16
 72
   100
 73
     1
 74
     0
 75
     0
 76
     0
 77
     0
 78
     0
281
     0
 65
     0
110
0.0
120
0.0
130
0.0
111
1.0
121
0.0
131
0.0
112
0.0
122
1.0
132
0.0
 79
     0
146
0.0
  0
ENDTAB
  0
TABLE
  2
LTYPE
  5
5
330
0
100
AcDbSymbolTable
 70
     3
  0
LTYPE
  5
14
330
5
100
AcDbSymbolTableRecord
100
AcDbLinetypeTableRecord
  2
ByBlock
 70
     0
  3

 72
    65
 73
     0
 40
0.0
  0
LTYPE
  5
15
330
5
100
AcDbSymbolTableRecord
100
AcDbLinetypeTableRecord
  2
ByLayer
 70
     0
  3

 72
    65
 73
     0
 40
0.0
  0
LTYPE
  5
16
330
5
100
AcDbSymbolTableRecord
100
AcDbLinetypeTableRecord
  2
Continuous
 70
     0
  3
Solid line
 72
    65
 73
     0
 40
0.0
  0
LTYPE
  5
2A
330
5
100
AcDbSymbolTableRecord
100
AcDbLinetypeTableRecord
  2
DASHED
 70
     0
  3
__ __ __ __ __
 72
    65
 73
     2
 40
6.25
 49
5.0
 74
     4
 75
     0
340
0
 46
1.0
 50
0.0
 44
0.0
 45
0.0
 49
-1.25
 74
     4
 75
     0
340
0
 46
1.0
 50
0.0
 44
0.0
 45
0.0
  0
LTYPE
  5
5F
330
5
100
AcDbSymbolTableRecord
100
AcDbLinetypeTableRecord
  2
CENTER
 70
     0
  3
__ . __ . __ . __ . __
 72
    65
 73
     4
 40
7.5
 49
5.0
 74
     4
 75
     0
340
0
 46
1.0
 50
0.0
 44
0.0
 45
0.0
 49
-1.25
 74
     4
 75
     0
340
0
 46
1.0
 50
0.0
 44
0.0
 45
0.0
 49
0.0
 74
     4
 75
     0
340
0
 46
1.0
 50
0.0
 44
0.0
 45
0.0
 49
-1.25
 74
     4
 75
     0
340
0
 46
1.0
 50
0.0
 44
0.0
 45
0.0
  0
ENDTAB
  0
TABLE
  2
LAYER
  5
2
330
0
100
AcDbSymbolTable
 70
    13
  0
LAYER
  5
10
330
2
100
AcDbSymbolTableRecord
100
AcDbLayerTableRecord
  2
0
 70
     0
 62
     7
  6
Continuous
370
    -3
390
F
  0
LAYER
  5
2B
330
2
100
AcDbSymbolTableRecord
100
AcDbLayerTableRecord
  2
LC-INFO-1-2-mm-A3-0
 70
     1
 62
     7
  6
ByBlock
370
    -3
390
F
  0
LAYER
  5
2C
330
2
100
AcDbSymbolTableRecord
100
AcDbLayerTableRecord
  2
LC-CUT-HIDDEN
 70
     0
 62
     7
  6
DASHED
370
    -3
390
F
  0
LAYER
  5
2D
330
2
100
AcDbSymbolTableRecord
100
AcDbLayerTableRecord
  2
LC-VIEWPORT
 70
     0
 62
     7
  6
ByBlock
370
    -3
390
F
  0
LAYER
  5
2E
330
2
100
AcDbSymbolTableRecord
100
AcDbLayerTableRecord
  2
LC-3D-HIDDEN
 70
     0
 62
     9
  6
DASHED
370
    -3
390
F
  0
LAYER
  5
30
330
2
100
AcDbSymbolTableRecord
100
AcDbLayerTableRecord
  2
LC-001-001-RND-0
 70
     0
 62
     1
  6
ByBlock
370
    -3
390
F
  0
LAYER
  5
32
330
2
100
AcDbSymbolTableRecord
100
AcDbLayerTableRecord
  2
LC-002-002-----0
 70
     0
 62
     1
  6
ByBlock
370
    -3
390
F
  0
LAYER
  5
34
330
2
100
AcDbSymbolTableRecord
100
AcDbLayerTableRecord
  2
LC-003-002-RND-0
 70
     0
 62
     1
  6
ByBlock
370
    -3
390
F
  0
LAYER
  5
36
330
2
100
AcDbSymbolTableRecord
100
AcDbLayerTableRecord
  2
LC-004-001-----0
 70
     0
 62
     1
  6
ByBlock
370
    -3
390
F
  0
LAYER
  5
60
330
2
100
AcDbSymbolTableRecord
100
AcDbLayerTableRecord
  2
LC-005-006-MLN-0
 70
     0
 62
     2
  6
CENTER
370
    -3
390
F
  0
LAYER
  5
67
330
2
100
AcDbSymbolTableRecord
100
AcDbLayerTableRecord
  2
LC-006-005-----0
 70
     0
 62
     2
  6
ByBlock
370
    -3
390
F
  0
LAYER
  5
8E
330
2
100
AcDbSymbolTableRecord
100
AcDbLayerTableRecord
  2
LC-007-003-----0
 70
     0
 62
     2
  6
ByBlock
370
    -3
390
F
  0
LAYER
  5
90
330
2
100
AcDbSymbolTableRecord
100
AcDbLayerTableRecord
  2
Defpoints
 70
     0
 62
     7
  6
Continuous
290
     0
370
    -3
390
F
  0
ENDTAB
  0
TABLE
  2
STYLE
  5
3
330
0
100
AcDbSymbolTable
 70
     3
  0
STYLE
  5
11
330
3
100
AcDbSymbolTableRecord
100
AcDbTextStyleTableRecord
  2
Standard
 70
     0
 40
0.0
 41
1.0
 50
0.0
 71
     0
 42
2.5
  3
txt
  4

  0
STYLE
  5
2F
330
3
100
AcDbSymbolTableRecord
100
AcDbTextStyleTableRecord
  2
LCTX15-400-0-0-Arial
 70
     0
 40
0.0
 41
0.9
 50
0.0
 71
     0
 42
3.5
  3

  4

1001
ACAD
1000
Arial
1071
 16777218
  0
STYLE
  5
8C
330
3
100
AcDbSymbolTableRecord
100
AcDbTextStyleTableRecord
  2
LCTX15-400-0-0pDIN-Schrift
 70
     0
 40
2.5
 41
0.8
 50
15.0
 71
     0
 42
3.5
  3
STANDARD
  4

  0
ENDTAB
  0
TABLE
  2
VIEW
  5
6
330
0
100
AcDbSymbolTable
 70
     0
  0
ENDTAB
  0
TABLE
  2
UCS
  5
7
330
0
100
AcDbSymbolTable
 70
     0
  0
ENDTAB
  0
TABLE
  2
APPID
  5
9
330
0
100
AcDbSymbolTable
 70
     1
  0
APPID
  5
12
330
9
100
AcDbSymbolTableRecord
100
AcDbRegAppTableRecord
  2
ACAD
 70
     0
  0
ENDTAB
  0
TABLE
  2
DIMSTYLE
  5
A
330
0
100
AcDbSymbolTable
 70
     2
100
AcDbDimStyleTable
  0
DIMSTYLE
105
27
330
A
100
AcDbSymbolTableRecord
100
AcDbDimStyleTableRecord
  2
ISO-25
 70
     0
 41
2.5
 42
0.625
 43
3.75
 44
1.25
 73
     0
 74
     0
 77
     1
 78
     8
140
2.5
141
2.5
143
0.03937
147
0.625
171
     3
172
     1
271
     2
272
     2
274
     3
278
    44
283
     0
284
     8
340
11
  0
DIMSTYLE
105
8D
102
{ACAD_REACTORS
330
8F
330
9D
102
}
330
A
100
AcDbSymbolTableRecord
100
AcDbDimStyleTableRecord
  2
LC-DIM-L-0140-01-02
 70
     0
 40
2.0
 41
14.0
 42
0.0
 43
7.5
 44
1.8
 73
     0
 74
     0
 77
     1
 78
     8
 79
     2
140
14.0
141
0.0
146
0.71
147
1.5
176
     2
177
     2
178
     2
179
     1
271
     1
278
    44
289
     1
340
8C
  0
ENDTAB
  0
TABLE
  2
BLOCK_RECORD
  5
1
330
0
100
AcDbSymbolTable
 70
     5
  0
BLOCK_RECORD
  5
1F
330
1
100
AcDbSymbolTableRecord
100
AcDbBlockTableRecord
  2
*Model_Space
340
22
  0
BLOCK_RECORD
  5
1B
330
1
100
AcDbSymbolTableRecord
100
AcDbBlockTableRecord
  2
*Paper_Space
340
1E
  0
BLOCK_RECORD
  5
23
330
1
100
AcDbSymbolTableRecord
100
AcDbBlockTableRecord
  2
*Paper_Space0
340
26
  0
BLOCK_RECORD
  5
64
330
1
100
AcDbSymbolTableRecord
100
AcDbBlockTableRecord
  2
*X11
340
0
102
{BLKREFS
331
6C
102
}
  0
BLOCK_RECORD
  5
82
330
1
100
AcDbSymbolTableRecord
100
AcDbBlockTableRecord
  2
*X22
340
0
102
{BLKREFS
331
8B
102
}
  0
BLOCK_RECORD
  5
91
330
1
100
AcDbSymbolTableRecord
100
AcDbBlockTableRecord
  2
*D3
340
0
  0
BLOCK_RECORD
  5
9E
330
1
100
AcDbSymbolTableRecord
100
AcDbBlockTableRecord
  2
*D4
340
0
  0
ENDTAB
  0
ENDSEC
  0
SECTION
  2
BLOCKS
  0
BLOCK
  5
20
330
1F
100
AcDbEntity
  8
0
100
AcDbBlockBegin
  2
*Model_Space
 70
     0
 71
     0
 10
0.0
 20
0.0
 30
0.0
  3
*Model_Space
  1

  0
ENDBLK
  5
21
330
1F
100
AcDbEntity
  8
0
100
AcDbBlockEnd
  0
BLOCK
  5
1C
330
1B
100
AcDbEntity
 67
     1
  8
0
100
AcDbBlockBegin
  2
*Paper_Space
 70
     0
 71
     0
 10
0.0
 20
0.0
 30
0.0
  3
*Paper_Space
  1

  0
ENDBLK
  5
1D
330
1B
100
AcDbEntity
 67
     1
  8
0
100
AcDbBlockEnd
  0
BLOCK
  5
24
330
23
100
AcDbEntity
  8
0
100
AcDbBlockBegin
  2
*Paper_Space0
 70
     0
 71
     0
 10
0.0
 20
0.0
 30
0.0
  3
*Paper_Space0
  1

  0
ENDBLK
  5
25
330
23
100
AcDbEntity
  8
0
100
AcDbBlockEnd
  0
BLOCK
  5
65
330
64
100
AcDbEntity
  8
0
100
AcDbBlockBegin
  2
*X11
 70
     1
 71
     0
 10
0.0
 20
0.0
 30
0.0
  3
*X11
  1

  4
*X1
  0
LINE
  5
68
330
64
100
AcDbEntity
  8
LC-006-005-----0
 62
     7
370
    25
100
AcDbLine
 10
108.95
 20
165.518542
 30
0.0
 11
109.65
 21
166.218542
 31
0.0
  0
LINE
  5
69
330
64
100
AcDbEntity
  8
LC-006-005-----0
 62
     7
370
    25
100
AcDbLine
 10
105.703769
 20
165.100738
 30
0.0
 11
106.45
 21
165.84697
 31
0.0
  0
LINE
  5
6A
330
64
100
AcDbEntity
  8
LC-006-005-----0
 62
     7
370
    25
100
AcDbLine
 10
108.941767
 20
168.338737
 30
0.0
 11
109.503685
 21
168.900655
 31
0.0
  0
LINE
  5
6B
330
64
100
AcDbEntity
  8
LC-006-005-----0
 62
     7
370
    25
100
AcDbLine
 10
105.75
 20
167.975397
 30
0.0
 11
107.685286
 21
169.910683
 31
0.0
  0
ENDBLK
  5
66
330
64
100
AcDbEntity
  8
0
100
AcDbBlockEnd
  0
BLOCK
  5
83
330
82
100
AcDbEntity
  8
0
100
AcDbBlockBegin
  2
*X22
 70
     1
 71
     0
 10
0.0
 20
0.0
 30
0.0
  3
*X22
  1

  4
*X2
  0
LINE
  5
85
330
82
100
AcDbEntity
  8
LC-006-005-----0
 62
     7
370
    25
100
AcDbLine
 10
206.05168
 20
163.625273
 30
0.0
 11
206.25
 21
163.823593
 31
0.0
  0
LINE
  5
86
330
82
100
AcDbEntity
  8
LC-006-005-----0
 62
     7
370
    25
100
AcDbLine
 10
205.050075
 20
165.452095
 30
0.0
 11
205.75
 21
166.15202
 31
0.0
  0
LINE
  5
87
330
82
100
AcDbEntity
  8
LC-006-005-----0
 62
     7
370
    25
100
AcDbLine
 10
201.85
 20
165.080447
 30
0.0
 11
202.55
 21
165.780447
 31
0.0
  0
LINE
  5
88
330
82
100
AcDbEntity
  8
LC-006-005-----0
 62
     7
370
    25
100
AcDbLine
 10
205.04772
 20
168.278168
 30
0.0
 11
205.623569
 21
168.854017
 31
0.0
  0
LINE
  5
89
330
82
100
AcDbEntity
  8
LC-006-005-----0
 62
     7
370
    25
100
AcDbLine
 10
201.85
 20
167.908875
 30
0.0
 11
202.744768
 21
168.803643
 31
0.0
  0
LINE
  5
8A
330
82
100
AcDbEntity
  8
LC-006-005-----0
 62
     7
370
    25
100
AcDbLine
 10
202.95704
 20
169.015914
 30
0.0
 11
203.851808
 21
169.910683
 31
0.0
  0
ENDBLK
  5
84
330
82
100
AcDbEntity
  8
0
100
AcDbBlockEnd
  0
BLOCK
  5
9B
330
91
100
AcDbEntity
  8
0
100
AcDbBlockBegin
  2
*D3
 70
     1
 71
     0
 10
0.0
 20
0.0
 30
0.0
  3
*D3
  1

  0
LINE
  5
92
330
91
100
AcDbEntity
  8
LC-007-003-----0
 62
     2
370
    -2
100
AcDbLine
 10
105.75
 20
168.210683
 30
0.0
 11
105.75
 21
192.904669
 31
0.0
  0
LINE
  5
93
330
91
100
AcDbEntity
  8
LC-007-003-----0
 62
     2
370
    -2
100
AcDbLine
 10
205.75
 20
168.210683
 30
0.0
 11
205.75
 21
192.904669
 31
0.0
  0
LINE
  5
94
330
91
100
AcDbEntity
  8
LC-007-003-----0
 62
     2
370
    -2
100
AcDbLine
 10
133.75
 20
189.304669
 30
0.0
 11
177.75
 21
189.304669
 31
0.0
  0
SOLID
  5
95
330
91
100
AcDbEntity
  8
LC-007-003-----0
 62
     2
100
AcDbTrace
 10
133.75
 20
193.971336
 30
0.0
 11
133.75
 21
184.638003
 31
0.0
 12
105.75
 22
189.304669
 32
0.0
 13
105.75
 23
189.304669
 33
0.0
  0
SOLID
  5
96
330
91
100
AcDbEntity
  8
LC-007-003-----0
 62
     2
100
AcDbTrace
 10
177.75
 20
184.638003
 30
0.0
 11
177.75
 21
193.971336
 31
0.0
 12
205.75
 22
189.304669
 32
0.0
 13
205.75
 23
189.304669
 33
0.0
  0
MTEXT
  5
97
330
91
100
AcDbEntity
  8
LC-007-003-----0
 62
     2
100
AcDbMText
 10
155.75
 20
220.104669
 30
0.0
 40
28.0
 41
0.0
 71
     5
 72
     1
  1
\A1;100
  7
LCTX15-400-0-0pDIN-Schrift
 73
     1
 44
1.0
  0
POINT
  5
98
330
91
100
AcDbEntity
  8
Defpoints
 62
     0
100
AcDbPoint
 10
105.75
 20
168.210683
 30
0.0
  0
POINT
  5
99
330
91
100
AcDbEntity
  8
Defpoints
 62
     0
100
AcDbPoint
 10
205.75
 20
168.210683
 30
0.0
  0
POINT
  5
9A
330
91
100
AcDbEntity
  8
Defpoints
 62
     0
100
AcDbPoint
 10
205.75
 20
189.304669
 30
0.0
  0
ENDBLK
  5
9C
330
91
100
AcDbEntity
  8
0
100
AcDbBlockEnd
  0
BLOCK
  5
AA
330
9E
100
AcDbEntity
  8
0
100
AcDbBlockBegin
  2
*D4
 70
     1
 71
     0
 10
0.0
 20
0.0
 30
0.0
  3
*D4
  1

  0
LINE
  5
9F
330
9E
100
AcDbEntity
  8
LC-007-003-----0
 62
     2
370
    -2
100
AcDbLine
 10
105.25
 20
163.510683
 30
0.0
 11
81.80616
 21
163.510683
 31
0.0
  0
LINE
  5
A0
330
9E
100
AcDbEntity
  8
LC-007-003-----0
 62
     2
370
    -2
100
AcDbLine
 10
109.65
 20
169.910683
 30
0.0
 11
81.80616
 21
169.910683
 31
0.0
  0
LINE
  5
A1
330
9E
100
AcDbEntity
  8
LC-007-003-----0
 62
     2
370
    -2
100
AcDbLine
 10
85.40616
 20
135.510683
 30
0.0
 11
85.40616
 21
107.510683
 31
0.0
  0
LINE
  5
A2
330
9E
100
AcDbEntity
  8
LC-007-003-----0
 62
     2
370
    -2
100
AcDbLine
 10
85.40616
 20
197.910683
 30
0.0
 11
85.40616
 21
225.910683
 31
0.0
  0
LINE
  5
A3
330
9E
100
AcDbEntity
  8
LC-007-003-----0
 62
     2
370
    -2
100
AcDbLine
 10
85.40616
 20
163.510683
 30
0.0
 11
85.40616
 21
169.910683
 31
0.0
  0
SOLID
  5
A4
330
9E
100
AcDbEntity
  8
LC-007-003-----0
 62
     2
100
AcDbTrace
 10
90.072827
 20
135.510683
 30
0.0
 11
80.739493
 21
135.510683
 31
0.0
 12
85.40616
 22
163.510683
 32
0.0
 13
85.40616
 23
163.510683
 33
0.0
  0
SOLID
  5
A5
330
9E
100
AcDbEntity
  8
LC-007-003-----0
 62
     2
100
AcDbTrace
 10
80.739493
 20
197.910683
 30
0.0
 11
90.072827
 21
197.910683
 31
0.0
 12
85.40616
 22
169.910683
 32
0.0
 13
85.40616
 23
169.910683
 33
0.0
  0
MTEXT
  5
A6
330
9E
100
AcDbEntity
  8
LC-007-003-----0
 62
     2
100
AcDbMText
 10
54.60616
 20
166.710683
 30
0.0
 40
28.0
 41
0.0
 71
     5
 72
     1
  1
\A1;6,4
  7
LCTX15-400-0-0pDIN-Schrift
 11
6.123031769111886E-17
 21
1.0
 31
0.0
 73
     1
 44
1.0
  0
POINT
  5
A7
330
9E
100
AcDbEntity
  8
Defpoints
 62
     0
100
AcDbPoint
 10
105.25
 20
163.510683
 30
0.0
  0
POINT
  5
A8
330
9E
100
AcDbEntity
  8
Defpoints
 62
     0
100
AcDbPoint
 10
109.65
 20
169.910683
 30
0.0
  0
POINT
  5
A9
330
9E
100
AcDbEntity
  8
Defpoints
 62
     0
100
AcDbPoint
 10
85.40616
 20
169.910683
 30
0.0
  0
ENDBLK
  5
AB
330
9E
100
AcDbEntity
  8
0
100
AcDbBlockEnd
  0
ENDSEC
  0
SECTION
  2
ENTITIES
  0
ARC
  5
31
102
{ACAD_REACTORS
330
B1
102
}
330
1F
100
AcDbEntity
  8
LC-001-001-RND-0
 62
     7
370
    50
100
AcDbCircle
 10
110.65
 20
165.210683
 30
0.0
 40
1.699999999999989
100
AcDbArc
 50
180.0
 51
270.0
  0
LINE
  5
33
102
{ACAD_REACTORS
330
B1
102
}
330
1F
100
AcDbEntity
  8
LC-002-002-----0
 62
     7
370
    50
100
AcDbLine
 10
110.65
 20
164.210683
 30
0.0
 11
155.75
 21
164.210683
 31
0.0
  0
ARC
  5
35
102
{ACAD_REACTORS
330
B1
102
}
330
1F
100
AcDbEntity
  8
LC-003-002-RND-0
 62
     7
370
    50
100
AcDbCircle
 10
110.65
 20
165.210683
 30
0.0
 40
1.0
100
AcDbArc
 50
180.0
 51
270.0
  0
LINE
  5
37
102
{ACAD_REACTORS
330
B0
102
}
330
1F
100
AcDbEntity
  8
LC-004-001-----0
 62
     7
370
    50
100
AcDbLine
 10
306.75
 20
116.210683
 30
0.0
 11
395.75
 21
116.210683
 31
0.0
  0
LINE
  5
38
102
{ACAD_REACTORS
330
B0
102
}
330
1F
100
AcDbEntity
  8
LC-002-002-----0
 62
     7
370
    50
100
AcDbLine
 10
301.25
 20
211.210683
 30
0.0
 11
301.25
 21
122.210683
 31
0.0
  0
LINE
  5
39
102
{ACAD_REACTORS
330
B0
102
}
330
1F
100
AcDbEntity
  8
LC-004-001-----0
 62
     7
370
    50
100
AcDbLine
 10
395.75
 20
217.210683
 30
0.0
 11
306.75
 21
217.210683
 31
0.0
  0
ARC
  5
3A
102
{ACAD_REACTORS
330
B0
102
}
330
1F
100
AcDbEntity
  8
LC-002-002-----0
 62
     7
370
    50
100
AcDbCircle
 10
306.75
 20
122.210683
 30
0.0
 40
5.5
100
AcDbArc
 50
180.0
 51
270.0
  0
LINE
  5
3B
102
{ACAD_REACTORS
330
B0
102
}
330
1F
100
AcDbEntity
  8
LC-004-001-----0
 62
     7
370
    50
100
AcDbLine
 10
394.55
 20
120.610683
 30
0.0
 11
307.95
 21
120.610683
 31
0.0
  0
LINE
  5
3C
102
{ACAD_REACTORS
330
B0
102
}
330
1F
100
AcDbEntity
  8
LC-004-001-----0
 62
     7
370
    50
100
AcDbLine
 10
394.55
 20
212.810683
 30
0.0
 11
307.95
 21
212.810683
 31
0.0
  0
CIRCLE
  5
3D
102
{ACAD_REACTORS
330
B0
102
}
330
1F
100
AcDbEntity
  8
LC-004-001-----0
 62
     7
370
    50
100
AcDbCircle
 10
351.25
 20
166.710683
 30
0.0
 40
46.10000000000002
  0
LINE
  5
3E
102
{ACAD_REACTORS
330
B0
102
}
330
1F
100
AcDbEntity
  8
LC-004-001-----0
 62
     7
370
    50
100
AcDbLine
 10
401.75
 20
122.210683
 30
0.0
 11
401.75
 21
211.210683
 31
0.0
  0
LINE
  5
3F
102
{ACAD_REACTORS
330
B0
102
}
330
1F
100
AcDbEntity
  8
LC-002-002-----0
 62
     7
370
    50
100
AcDbLine
 10
306.75
 20
116.710683
 30
0.0
 11
395.75
 21
116.710683
 31
0.0
  0
LINE
  5
40
102
{ACAD_REACTORS
330
B0
102
}
330
1F
100
AcDbEntity
  8
LC-004-001-----0
 62
     7
370
    50
100
AcDbLine
 10
397.35
 20
210.010683
 30
0.0
 11
397.35
 21
123.410683
 31
0.0
  0
ARC
  5
41
102
{ACAD_REACTORS
330
B0
102
}
330
1F
100
AcDbEntity
  8
LC-002-002-----0
 62
     7
370
    50
100
AcDbCircle
 10
395.75
 20
122.210683
 30
0.0
 40
5.500000000000028
100
AcDbArc
 50
270.0
 51
0.0
  0
ARC
  5
42
102
{ACAD_REACTORS
330
B0
102
}
330
1F
100
AcDbEntity
  8
LC-004-001-----0
 62
     7
370
    50
100
AcDbCircle
 10
395.75
 20
122.210683
 30
0.0
 40
6.000000000000028
100
AcDbArc
 50
270.0
 51
0.0
  0
ARC
  5
43
102
{ACAD_REACTORS
330
B0
102
}
330
1F
100
AcDbEntity
  8
LC-001-001-RND-0
 62
     7
370
    50
100
AcDbCircle
 10
394.55
 20
123.410683
 30
0.0
 40
2.799999999999983
100
AcDbArc
 50
270.0
 51
0.0
  0
ARC
  5
44
102
{ACAD_REACTORS
330
B0
102
}
330
1F
100
AcDbEntity
  8
LC-004-001-----0
 62
     7
370
    50
100
AcDbCircle
 10
395.75
 20
211.210683
 30
0.0
 40
6.0
100
AcDbArc
 50
0.0
 51
90.0
  0
LINE
  5
45
102
{ACAD_REACTORS
330
B0
102
}
330
1F
100
AcDbEntity
  8
LC-002-002-----0
 62
     7
370
    50
100
AcDbLine
 10
401.25
 20
122.210683
 30
0.0
 11
401.25
 21
211.210683
 31
0.0
  0
ARC
  5
46
102
{ACAD_REACTORS
330
B0
102
}
330
1F
100
AcDbEntity
  8
LC-004-001-----0
 62
     7
370
    50
100
AcDbCircle
 10
394.55
 20
210.010683
 30
0.0
 40
2.799999999999955
100
AcDbArc
 50
0.0
 51
90.0
  0
ARC
  5
47
102
{ACAD_REACTORS
330
B0
102
}
330
1F
100
AcDbEntity
  8
LC-002-002-----0
 62
     7
370
    50
100
AcDbCircle
 10
395.75
 20
211.210683
 30
0.0
 40
5.5
100
AcDbArc
 50
0.0
 51
90.0
  0
LINE
  5
48
102
{ACAD_REACTORS
330
B0
102
}
330
1F
100
AcDbEntity
  8
LC-004-001-----0
 62
     7
370
    50
100
AcDbLine
 10
300.75
 20
211.210683
 30
0.0
 11
300.75
 21
122.210683
 31
0.0
  0
LINE
  5
49
102
{ACAD_REACTORS
330
B0
102
}
330
1F
100
AcDbEntity
  8
LC-004-001-----0
 62
     7
370
    50
100
AcDbLine
 10
305.15
 20
210.010683
 30
0.0
 11
305.15
 21
123.410683
 31
0.0
  0
ARC
  5
4A
102
{ACAD_REACTORS
330
B0
102
}
330
1F
100
AcDbEntity
  8
LC-004-001-----0
 62
     7
370
    50
100
AcDbCircle
 10
306.75
 20
122.210683
 30
0.0
 40
6.0
100
AcDbArc
 50
180.0
 51
270.0
  0
LINE
  5
4B
102
{ACAD_REACTORS
330
B0
102
}
330
1F
100
AcDbEntity
  8
LC-002-002-----0
 62
     7
370
    50
100
AcDbLine
 10
395.75
 20
216.710683
 30
0.0
 11
306.75
 21
216.710683
 31
0.0
  0
ARC
  5
4C
102
{ACAD_REACTORS
330
B0
102
}
330
1F
100
AcDbEntity
  8
LC-004-001-----0
 62
     7
370
    50
100
AcDbCircle
 10
307.95
 20
123.410683
 30
0.0
 40
2.800000000000068
100
AcDbArc
 50
180.0
 51
270.0
  0
ARC
  5
4D
102
{ACAD_REACTORS
330
B0
102
}
330
1F
100
AcDbEntity
  8
LC-004-001-----0
 62
     7
370
    50
100
AcDbCircle
 10
306.75
 20
211.210683
 30
0.0
 40
6.0
100
AcDbArc
 50
90.0
 51
180.0
  0
ARC
  5
4E
102
{ACAD_REACTORS
330
B0
102
}
330
1F
100
AcDbEntity
  8
LC-002-002-----0
 62
     7
370
    50
100
AcDbCircle
 10
306.75
 20
211.210683
 30
0.0
 40
5.5
100
AcDbArc
 50
90.0
 51
180.0
  0
ARC
  5
4F
102
{ACAD_REACTORS
330
B0
102
}
330
1F
100
AcDbEntity
  8
LC-001-001-RND-0
 62
     7
370
    50
100
AcDbCircle
 10
307.95
 20
210.010683
 30
0.0
 40
2.800000000000011
100
AcDbArc
 50
90.0
 51
180.0
  0
LINE
  5
50
102
{ACAD_REACTORS
330
B1
102
}
330
1F
100
AcDbEntity
  8
LC-004-001-----0
 62
     7
370
    50
100
AcDbLine
 10
109.65
 20
169.910683
 30
0.0
 11
155.75
 21
169.910683
 31
0.0
  0
LINE
  5
51
102
{ACAD_REACTORS
330
B1
102
}
330
1F
100
AcDbEntity
  8
LC-004-001-----0
 62
     7
370
    50
100
AcDbLine
 10
109.65
 20
168.210683
 30
0.0
 11
109.65
 21
163.83591
 31
0.0
  0
LINE
  5
52
102
{ACAD_REACTORS
330
B1
102
}
330
1F
100
AcDbEntity
  8
LC-004-001-----0
 62
     7
370
    50
100
AcDbLine
 10
108.95
 20
168.210683
 30
0.0
 11
108.95
 21
165.210683
 31
0.0
  0
LINE
  5
53
102
{ACAD_REACTORS
330
B1
102
}
330
1F
100
AcDbEntity
  8
LC-004-001-----0
 62
     7
370
    50
100
AcDbLine
 10
107.95
 20
169.210683
 30
0.0
 11
107.45
 21
169.210683
 31
0.0
  0
LINE
  5
54
102
{ACAD_REACTORS
330
B1
102
}
330
1F
100
AcDbEntity
  8
LC-004-001-----0
 62
     7
370
    50
100
AcDbLine
 10
107.95
 20
169.910683
 30
0.0
 11
107.45
 21
169.910683
 31
0.0
  0
LINE
  5
55
102
{ACAD_REACTORS
330
B1
102
}
330
1F
100
AcDbEntity
  8
LC-004-001-----0
 62
     7
370
    50
100
AcDbLine
 10
105.25
 20
163.510683
 30
0.0
 11
155.75
 21
163.510683
 31
0.0
  0
ARC
  5
56
102
{ACAD_REACTORS
330
B1
102
}
330
1F
100
AcDbEntity
  8
LC-004-001-----0
 62
     7
370
    50
100
AcDbCircle
 10
107.45
 20
168.210683
 30
0.0
 40
1.0
100
AcDbArc
 50
90.0
 51
180.0
  0
ARC
  5
57
102
{ACAD_REACTORS
330
B1
102
}
330
1F
100
AcDbEntity
  8
LC-004-001-----0
 62
     7
370
    50
100
AcDbCircle
 10
107.45
 20
168.210683
 30
0.0
 40
1.699999999999989
100
AcDbArc
 50
90.0
 51
180.0
  0
LINE
  5
58
102
{ACAD_REACTORS
330
B1
102
}
330
1F
100
AcDbEntity
  8
LC-002-002-----0
 62
     7
370
    50
100
AcDbLine
 10
105.25
 20
164.35224
 30
0.0
 11
105.25
 21
163.510683
 31
0.0
  0
LINE
  5
59
102
{ACAD_REACTORS
330
B1
102
}
330
1F
100
AcDbEntity
  8
LC-004-001-----0
 62
     7
370
    50
100
AcDbLine
 10
105.75
 20
168.210683
 30
0.0
 11
105.75
 21
165.470274
 31
0.0
  0
LINE
  5
5A
102
{ACAD_REACTORS
330
B1
102
}
330
1F
100
AcDbEntity
  8
LC-004-001-----0
 62
     7
370
    50
100
AcDbLine
 10
106.45
 20
165.470274
 30
0.0
 11
106.45
 21
168.210683
 31
0.0
  0
ARC
  5
5B
102
{ACAD_REACTORS
330
B1
102
}
330
1F
100
AcDbEntity
  8
LC-004-001-----0
 62
     7
370
    50
100
AcDbCircle
 10
107.95
 20
168.210683
 30
0.0
 40
1.0
100
AcDbArc
 50
0.0
 51
90.0
  0
ARC
  5
5C
102
{ACAD_REACTORS
330
B1
102
}
330
1F
100
AcDbEntity
  8
LC-004-001-----0
 62
     7
370
    50
100
AcDbCircle
 10
107.95
 20
168.210683
 30
0.0
 40
1.0
100
AcDbArc
 50
0.0
 51
90.0
  0
ARC
  5
5D
102
{ACAD_REACTORS
330
B1
102
}
330
1F
100
AcDbEntity
  8
LC-004-001-----0
 62
     7
370
    50
100
AcDbCircle
 10
107.95
 20
168.210683
 30
0.0
 40
1.700000000000046
100
AcDbArc
 50
0.0
 51
90.0
  0
LINE
  5
5E
102
{ACAD_REACTORS
330
B1
102
}
330
1F
100
AcDbEntity
  8
LC-004-001-----0
 62
     7
370
    50
100
AcDbLine
 10
109.65
 20
169.910683
 30
0.0
 11
107.95
 21
169.910683
 31
0.0
  0
LINE
  5
61
102
{ACAD_REACTORS
330
B1
102
}
330
1F
100
AcDbEntity
  8
LC-005-006-MLN-0
 62
     7
370
    25
100
AcDbLine
 10
155.75
 20
179.110683
 30
0.0
 11
155.75
 21
153.510683
 31
0.0
  0
ARC
  5
62
102
{ACAD_REACTORS
330
B1
102
}
330
1F
100
AcDbEntity
  8
LC-002-002-----0
 62
     7
370
    50
100
AcDbCircle
 10
104.25
 20
165.470274
 30
0.0
 40
1.500000000000187
100
AcDbArc
 50
311.810315
 51
0.0
  0
ARC
  5
63
102
{ACAD_REACTORS
330
B1
102
}
330
1F
100
AcDbEntity
  8
LC-002-002-----0
 62
     7
370
    50
100
AcDbCircle
 10
104.25
 20
165.470274
 30
0.0
 40
2.199999999999857
100
AcDbArc
 50
297.035692
 51
0.0
  0
INSERT
  5
6C
102
{ACAD_REACTORS
330
B1
102
}
330
1F
100
AcDbEntity
  8
LC-006-005-----0
 62
     7
370
    25
100
AcDbBlockReference
  2
*X11
 10
0.0
 20
0.0
 30
0.0
  0
ARC
  5
6D
102
{ACAD_REACTORS
330
B1
102
}
330
1F
100
AcDbEntity
  8
LC-001-001-RND-0
 62
     7
370
    50
100
AcDbCircle
 10
200.85
 20
165.210683
 30
0.0
 40
1.699999999999989
100
AcDbArc
 50
270.0
 51
0.0
  0
LINE
  5
6E
102
{ACAD_REACTORS
330
B1
102
}
330
1F
100
AcDbEntity
  8
LC-002-002-----0
 62
     7
370
    50
100
AcDbLine
 10
200.85
 20
164.210683
 30
0.0
 11
155.75
 21
164.210683
 31
0.0
  0
ARC
  5
6F
102
{ACAD_REACTORS
330
B1
102
}
330
1F
100
AcDbEntity
  8
LC-003-002-RND-0
 62
     7
370
    50
100
AcDbCircle
 10
200.85
 20
165.210683
 30
0.0
 40
1.0
100
AcDbArc
 50
270.0
 51
0.0
  0
LINE
  5
70
102
{ACAD_REACTORS
330
B1
102
}
330
1F
100
AcDbEntity
  8
LC-004-001-----0
 62
     7
370
    50
100
AcDbLine
 10
201.85
 20
169.910683
 30
0.0
 11
155.75
 21
169.910683
 31
0.0
  0
LINE
  5
71
102
{ACAD_REACTORS
330
B1
102
}
330
1F
100
AcDbEntity
  8
LC-004-001-----0
 62
     7
370
    50
100
AcDbLine
 10
201.85
 20
168.210683
 30
0.0
 11
201.85
 21
163.83591
 31
0.0
  0
LINE
  5
72
102
{ACAD_REACTORS
330
B1
102
}
330
1F
100
AcDbEntity
  8
LC-004-001-----0
 62
     7
370
    50
100
AcDbLine
 10
202.55
 20
168.210683
 30
0.0
 11
202.55
 21
165.210683
 31
0.0
  0
LINE
  5
73
102
{ACAD_REACTORS
330
B1
102
}
330
1F
100
AcDbEntity
  8
LC-004-001-----0
 62
     7
370
    50
100
AcDbLine
 10
203.55
 20
169.210683
 30
0.0
 11
204.05
 21
169.210683
 31
0.0
  0
LINE
  5
74
102
{ACAD_REACTORS
330
B1
102
}
330
1F
100
AcDbEntity
  8
LC-004-001-----0
 62
     7
370
    50
100
AcDbLine
 10
203.55
 20
169.910683
 30
0.0
 11
204.05
 21
169.910683
 31
0.0
  0
LINE
  5
75
102
{ACAD_REACTORS
330
B1
102
}
330
1F
100
AcDbEntity
  8
LC-004-001-----0
 62
     7
370
    50
100
AcDbLine
 10
206.25
 20
163.510683
 30
0.0
 11
155.75
 21
163.510683
 31
0.0
  0
ARC
  5
76
102
{ACAD_REACTORS
330
B1
102
}
330
1F
100
AcDbEntity
  8
LC-004-001-----0
 62
     7
370
    50
100
AcDbCircle
 10
204.05
 20
168.210683
 30
0.0
 40
1.0
100
AcDbArc
 50
0.0
 51
90.0
  0
ARC
  5
77
102
{ACAD_REACTORS
330
B1
102
}
330
1F
100
AcDbEntity
  8
LC-004-001-----0
 62
     7
370
    50
100
AcDbCircle
 10
204.05
 20
168.210683
 30
0.0
 40
1.699999999999989
100
AcDbArc
 50
0.0
 51
90.0
  0
LINE
  5
78
102
{ACAD_REACTORS
330
B1
102
}
330
1F
100
AcDbEntity
  8
LC-002-002-----0
 62
     7
370
    50
100
AcDbLine
 10
206.25
 20
164.35224
 30
0.0
 11
206.25
 21
163.510683
 31
0.0
  0
LINE
  5
79
102
{ACAD_REACTORS
330
B1
102
}
330
1F
100
AcDbEntity
  8
LC-004-001-----0
 62
     7
370
    50
100
AcDbLine
 10
205.75
 20
168.210683
 30
0.0
 11
205.75
 21
165.470274
 31
0.0
  0
LINE
  5
7A
102
{ACAD_REACTORS
330
B1
102
}
330
1F
100
AcDbEntity
  8
LC-004-001-----0
 62
     7
370
    50
100
AcDbLine
 10
205.05
 20
165.470274
 30
0.0
 11
205.05
 21
168.210683
 31
0.0
  0
ARC
  5
7B
102
{ACAD_REACTORS
330
B1
102
}
330
1F
100
AcDbEntity
  8
LC-004-001-----0
 62
     7
370
    50
100
AcDbCircle
 10
203.55
 20
168.210683
 30
0.0
 40
1.0
100
AcDbArc
 50
90.0
 51
180.0
  0
ARC
  5
7C
102
{ACAD_REACTORS
330
B1
102
}
330
1F
100
AcDbEntity
  8
LC-004-001-----0
 62
     7
370
    50
100
AcDbCircle
 10
203.55
 20
168.210683
 30
0.0
 40
1.0
100
AcDbArc
 50
90.0
 51
180.0
  0
ARC
  5
7D
102
{ACAD_REACTORS
330
B1
102
}
330
1F
100
AcDbEntity
  8
LC-004-001-----0
 62
     7
370
    50
100
AcDbCircle
 10
203.55
 20
168.210683
 30
0.0
 40
1.700000000000046
100
AcDbArc
 50
90.0
 51
180.0
  0
LINE
  5
7E
102
{ACAD_REACTORS
330
B1
102
}
330
1F
100
AcDbEntity
  8
LC-004-001-----0
 62
     7
370
    50
100
AcDbLine
 10
201.85
 20
169.910683
 30
0.0
 11
203.55
 21
169.910683
 31
0.0
  0
LINE
  5
7F
102
{ACAD_REACTORS
330
B1
102
}
330
1F
100
AcDbEntity
  8
LC-005-006-MLN-0
 62
     7
370
    25
100
AcDbLine
 10
155.75
 20
179.110683
 30
0.0
 11
155.75
 21
153.510683
 31
0.0
  0
ARC
  5
80
102
{ACAD_REACTORS
330
B1
102
}
330
1F
100
AcDbEntity
  8
LC-002-002-----0
 62
     7
370
    50
100
AcDbCircle
 10
207.25
 20
165.470274
 30
0.0
 40
1.500000000000199
100
AcDbArc
 50
180.0
 51
228.189685
  0
ARC
  5
81
102
{ACAD_REACTORS
330
B1
102
}
330
1F
100
AcDbEntity
  8
LC-002-002-----0
 62
     7
370
    50
100
AcDbCircle
 10
207.25
 20
165.470274
 30
0.0
 40
2.199999999999847
100
AcDbArc
 50
180.0
 51
242.964308
  0
INSERT
  5
8B
102
{ACAD_REACTORS
330
B1
102
}
330
1F
100
AcDbEntity
  8
LC-006-005-----0
 62
     7
370
    25
100
AcDbBlockReference
  2
*X22
 10
0.0
 20
0.0
 30
0.0
  0
DIMENSION
  5
8F
330
1F
100
AcDbEntity
  8
LC-007-003-----0
 62
     7
370
    25
100
AcDbDimension
  2
*D3
 10
205.75
 20
189.304669
 30
0.0
 11
155.75
 21
220.104669
 31
0.0
 70
   160
 71
     5
 42
100.0
  3
LC-DIM-L-0140-01-02
100
AcDbAlignedDimension
 13
105.75
 23
168.210683
 33
0.0
 14
205.75
 24
168.210683
 34
0.0
100
AcDbRotatedDimension
  0
DIMENSION
  5
9D
330
1F
100
AcDbEntity
  8
LC-007-003-----0
 62
     7
370
    25
100
AcDbDimension
  2
*D4
 10
85.40616
 20
169.910683
 30
0.0
 11
54.60616
 21
166.710683
 31
0.0
 70
   160
 71
     5
 42
6.4
 53
90.0
  3
LC-DIM-L-0140-01-02
100
AcDbAlignedDimension
 13
105.25
 23
163.510683
 33
0.0
 14
109.65
 24
169.910683
 34
0.0
 50
90.0
100
AcDbRotatedDimension
  0
LINE
  5
AC
330
1F
100
AcDbEntity
  8
LC-002-002-----0
 62
     7
370
    25
100
AcDbLine
 10
116.458458
 20
202.357456
 30
0.0
 11
131.458458
 21
202.357456
 31
0.0
  0
LINE
  5
AD
330
1F
100
AcDbEntity
  8
LC-002-002-----0
 62
     7
370
    25
100
AcDbLine
 10
116.458458
 20
217.357456
 30
0.0
 11
116.458458
 21
202.357456
 31
0.0
  0
LINE
  5
AE
330
1F
100
AcDbEntity
  8
LC-002-002-----0
 62
     7
370
    25
100
AcDbLine
 10
131.458458
 20
217.357456
 30
0.0
 11
131.458458
 21
202.357456
 31
0.0
  0
LINE
  5
AF
330
1F
100
AcDbEntity
  8
LC-002-002-----0
 62
     7
370
    25
100
AcDbLine
 10
116.458458
 20
217.357456
 30
0.0
 11
131.458458
 21
217.357456
 31
0.0
  0
ENDSEC
  0
SECTION
  2
OBJECTS
  0
DICTIONARY
  5
C
330
0
100
AcDbDictionary
281
     1
  3
ACAD_GROUP
350
D
  3
ACAD_LAYOUT
350
1A
  3
ACAD_MLINESTYLE
350
17
  3
ACAD_PLOTSETTINGS
350
19
  3
ACAD_PLOTSTYLENAME
350
E
  0
DICTIONARY
  5
D
102
{ACAD_REACTORS
330
C
102
}
330
C
100
AcDbDictionary
281
     1
  3
LCGROUP137
350
B0
  3
LCGROUP178
350
B1
  0
DICTIONARY
  5
1A
102
{ACAD_REACTORS
330
C
102
}
330
C
100
AcDbDictionary
281
     1
  3
Layout1
350
1E
  3
Layout2
350
26
  3
Model
350
22
  0
DICTIONARY
  5
17
102
{ACAD_REACTORS
330
C
102
}
330
C
100
AcDbDictionary
281
     1
  3
Standard
350
18
  0
DICTIONARY
  5
19
102
{ACAD_REACTORS
330
C
102
}
330
C
100
AcDbDictionary
281
     1
  0
ACDBDICTIONARYWDFLT
  5
E
102
{ACAD_REACTORS
330
C
102
}
330
C
100
AcDbDictionary
281
     1
  3
Normal
350
F
100
AcDbDictionaryWithDefault
340
F
  0
GROUP
  5
B0
102
{ACAD_REACTORS
330
D
102
}
330
D
100
AcDbGroup
300
GRP137
 70
     1
 71
     1
340
37
340
38
340
39
340
3A
340
3B
340
3C
340
3D
340
3E
340
3F
340
40
340
41
340
42
340
43
340
44
340
45
340
46
340
47
340
48
340
49
340
4A
340
4B
340
4C
340
4D
340
4E
340
4F
  0
GROUP
  5
B1
102
{ACAD_REACTORS
330
D
102
}
330
D
100
AcDbGroup
300
Rahmen
 70
     1
 71
     1
340
31
340
33
340
35
340
50
340
51
340
52
340
53
340
54
340
55
340
56
340
57
340
58
340
59
340
5A
340
5B
340
5C
340
5D
340
5E
340
61
340
62
340
63
340
6C
340
6D
340
6E
340
6F
340
70
340
71
340
72
340
73
340
74
340
75
340
76
340
77
340
78
340
79
340
7A
340
7B
340
7C
340
7D
340
7E
340
7F
340
80
340
81
340
8B
  0
LAYOUT
  5
1E
102
{ACAD_REACTORS
330
1A
102
}
330
1A
100
AcDbPlotSettings
  1

  2

  4

  6

 40
0.0
 41
0.0
 42
0.0
 43
0.0
 44
0.0
 45
0.0
 46
0.0
 47
0.0
 48
0.0
 49
0.0
140
0.0
141
0.0
142
1.0
143
1.0
 70
   688
 72
     0
 73
     0
 74
     5
  7

 75
    16
147
1.0
148
0.0
149
0.0
100
AcDbLayout
  1
Layout1
 70
     1
 71
     1
 10
-210.0
 20
-148.5
 11
630.0
 21
445.5
 12
0.0
 22
0.0
 32
0.0
 14
-210.0
 24
-148.5
 34
0.0
 15
630.0
 25
445.5
 35
0.0
146
0.0
 13
0.0
 23
0.0
 33
0.0
 16
1.0
 26
0.0
 36
0.0
 17
0.0
 27
1.0
 37
0.0
 76
     0
330
1B
  0
LAYOUT
  5
26
102
{ACAD_REACTORS
330
1A
102
}
330
1A
100
AcDbPlotSettings
  1

  2

  4

  6

 40
0.0
 41
0.0
 42
0.0
 43
0.0
 44
0.0
 45
0.0
 46
0.0
 47
0.0
 48
0.0
 49
0.0
140
0.0
141
0.0
142
1.0
143
1.0
 70
   688
 72
     0
 73
     0
 74
     5
  7

 75
    16
147
1.0
148
0.0
149
0.0
100
AcDbLayout
  1
Layout2
 70
     1
 71
     2
 10
0.0
 20
0.0
 11
0.0
 21
0.0
 12
0.0
 22
0.0
 32
0.0
 14
0.0
 24
0.0
 34
0.0
 15
0.0
 25
0.0
 35
0.0
146
0.0
 13
0.0
 23
0.0
 33
0.0
 16
1.0
 26
0.0
 36
0.0
 17
0.0
 27
1.0
 37
0.0
 76
     0
330
23
  0
LAYOUT
  5
22
102
{ACAD_REACTORS
330
1A
102
}
330
1A
100
AcDbPlotSettings
  1

  2

  4

  6

 40
0.0
 41
0.0
 42
0.0
 43
0.0
 44
0.0
 45
0.0
 46
0.0
 47
0.0
 48
0.0
 49
0.0
140
0.0
141
0.0
142
1.0
143
1.0
 70
  1776
 72
     0
 73
     0
 74
     0
  7

 75
     0
147
1.0
148
0.0
149
0.0
100
AcDbLayout
  1
Model
 70
     1
 71
     0
 10
-210.0
 20
-148.5
 11
630.0
 21
445.5
 12
0.0
 22
0.0
 32
0.0
 14
-210.0
 24
-148.5
 34
0.0
 15
630.0
 25
445.5
 35
0.0
146
0.0
 13
0.0
 23
0.0
 33
0.0
 16
1.0
 26
0.0
 36
0.0
 17
0.0
 27
1.0
 37
0.0
 76
     0
330
1F
  0
MLINESTYLE
  5
18
102
{ACAD_REACTORS
330
17
102
}
330
17
100
AcDbMlineStyle
  2
Standard
 70
     0
  3

 62
   256
 51
90.0
 52
90.0
 71
     2
 49
0.5
 62
   256
  6
BYLAYER
 49
-0.5
 62
   256
  6
BYLAYER
  0
ACDBPLACEHOLDER
  5
F
102
{ACAD_REACTORS
330
E
102
}
330
E
  0
ENDSEC
  0
EOF
