  0
SECTION
  2
HEADER
  9
$ACADVER
  1
AC1015
  9
$ACADMAINTVER
 70
     6
  9
$DWGCODEPAGE
  3
DOS850
  9
$INSBASE
 10
0.0
 20
0.0
 30
0.0
  9
$EXTMIN
 10
-260.187988
 20
-247.14
 30
0.0
  9
$EXTMAX
 10
579.812012
 20
346.86
 30
0.0
  9
$LIMMIN
 10
-260.187988
 20
-247.14
  9
$LIMMAX
 10
579.812012
 20
346.86
  9
$ORTHOMODE
 70
     0
  9
$REGENMODE
 70
     1
  9
$FILLMODE
 70
     1
  9
$QTEXTMODE
 70
     0
  9
$MIRRTEXT
 70
     1
  9
$LTSCALE
 40
2.0
  9
$ATTMODE
 70
     1
  9
$TEXTSIZE
 40
2.5
  9
$TRACEWID
 40
1.0
  9
$TEXTSTYLE
  7
Standard
  9
$CLAYER
  8
0
  9
$CELTYPE
  6
ByLayer
  9
$CECOLOR
 62
     7
  9
$CELTSCALE
 40
1.0
  9
$DISPSILH
 70
     0
  9
$DIMSCALE
 40
2.0
  9
$DIMASZ
 40
3.5
  9
$DIMEXO
 40
0.625
  9
$DIMDLI
 40
3.75
  9
$DIMRND
 40
0.0
  9
$DIMDLE
 40
0.0
  9
$DIMEXE
 40
1.25
  9
$DIMTP
 40
0.0
  9
$DIMTM
 40
0.0
  9
$DIMTXT
 40
3.5
  9
$DIMCEN
 40
2.5
  9
$DIMTSZ
 40
0.0
  9
$DIMTOL
 70
     0
  9
$DIMLIM
 70
     0
  9
$DIMTIH
 70
     0
  9
$DIMTOH
 70
     0
  9
$DIMSE1
 70
     0
  9
$DIMSE2
 70
     0
  9
$DIMTAD
 70
     1
  9
$DIMZIN
 70
     8
  9
$DIMBLK
  1

  9
$DIMASO
 70
     1
  9
$DIMSHO
 70
     1
  9
$DIMPOST
  1

  9
$DIMAPOST
  1

  9
$DIMALT
 70
     0
  9
$DIMALTD
 70
     3
  9
$DIMALTF
 40
0.03937
  9
$DIMLFAC
 40
1.0
  9
$DIMTOFL
 70
     1
  9
$DIMTVP
 40
0.0
  9
$DIMTIX
 70
     0
  9
$DIMSOXD
 70
     0
  9
$DIMSAH
 70
     0
  9
$DIMBLK1
  1

  9
$DIMBLK2
  1

  9
$DIMSTYLE
  2
ISO-25
  9
$DIMCLRD
 70
     0
  9
$DIMCLRE
 70
     0
  9
$DIMCLRT
 70
     0
  9
$DIMTFAC
 40
1.0
  9
$DIMGAP
 40
0.625
  9
$DIMJUST
 70
     0
  9
$DIMSD1
 70
     0
  9
$DIMSD2
 70
     0
  9
$DIMTOLJ
 70
     0
  9
$DIMTZIN
 70
     8
  9
$DIMALTZ
 70
     0
  9
$DIMALTTZ
 70
     0
  9
$DIMUPT
 70
     0
  9
$DIMDEC
 70
     2
  9
$DIMTDEC
 70
     2
  9
$DIMALTU
 70
     2
  9
$DIMALTTD
 70
     3
  9
$DIMTXSTY
  7
Standard
  9
$DIMAUNIT
 70
     0
  9
$DIMADEC
 70
     0
  9
$DIMALTRND
 40
0.0
  9
$DIMAZIN
 70
     0
  9
$DIMDSEP
 70
    44
  9
$DIMATFIT
 70
     3
  9
$DIMFRAC
 70
     0
  9
$DIMLDRBLK
  1

  9
$DIMLUNIT
 70
     2
  9
$DIMLWD
 70
    -2
  9
$DIMLWE
 70
    -2
  9
$DIMTMOVE
 70
     0
  9
$LUNITS
 70
     2
  9
$LUPREC
 70
     4
  9
$SKETCHINC
 40
1.0
  9
$FILLETRAD
 40
10.0
  9
$AUNITS
 70
     0
  9
$AUPREC
 70
     0
  9
$MENU
  1
.
  9
$ELEVATION
 40
0.0
  9
$PELEVATION
 40
0.0
  9
$THICKNESS
 40
0.0
  9
$LIMCHECK
 70
     0
  9
$CHAMFERA
 40
10.0
  9
$CHAMFERB
 40
10.0
  9
$CHAMFERC
 40
20.0
  9
$CHAMFERD
 40
0.0
  9
$SKPOLY
 70
     0
  9
$TDCREATE
 40
2453663.387816007
  9
$TDUCREATE
 40
2453663.304482674
  9
$TDUPDATE
 40
2453663.387816018
  9
$TDUUPDATE
 40
2453663.304482685
  9
$TDINDWG
 40
0.0000000116
  9
$TDUSRTIMER
 40
0.0000000116
  9
$USRTIMER
 70
     1
  9
$ANGBASE
 50
0.0
  9
$ANGDIR
 70
     0
  9
$PDMODE
 70
     0
  9
$PDSIZE
 40
0.0
  9
$PLINEWID
 40
0.0
  9
$SPLFRAME
 70
     0
  9
$SPLINETYPE
 70
     6
  9
$SPLINESEGS
 70
     8
  9
$HANDSEED
  5
109
  9
$SURFTAB1
 70
     6
  9
$SURFTAB2
 70
     6
  9
$SURFTYPE
 70
     6
  9
$SURFU
 70
     6
  9
$SURFV
 70
     6
  9
$UCSBASE
  2

  9
$UCSNAME
  2

  9
$UCSORG
 10
0.0
 20
0.0
 30
0.0
  9
$UCSXDIR
 10
1.0
 20
0.0
 30
0.0
  9
$UCSYDIR
 10
0.0
 20
1.0
 30
0.0
  9
$UCSORTHOREF
  2

  9
$UCSORTHOVIEW
 70
     0
  9
$UCSORGTOP
 10
0.0
 20
0.0
 30
0.0
  9
$UCSORGBOTTOM
 10
0.0
 20
0.0
 30
0.0
  9
$UCSORGLEFT
 10
0.0
 20
0.0
 30
0.0
  9
$UCSORGRIGHT
 10
0.0
 20
0.0
 30
0.0
  9
$UCSORGFRONT
 10
0.0
 20
0.0
 30
0.0
  9
$UCSORGBACK
 10
0.0
 20
0.0
 30
0.0
  9
$PUCSBASE
  2

  9
$PUCSNAME
  2

  9
$PUCSORG
 10
0.0
 20
0.0
 30
0.0
  9
$PUCSXDIR
 10
1.0
 20
0.0
 30
0.0
  9
$PUCSYDIR
 10
0.0
 20
1.0
 30
0.0
  9
$PUCSORTHOREF
  2

  9
$PUCSORTHOVIEW
 70
     0
  9
$PUCSORGTOP
 10
0.0
 20
0.0
 30
0.0
  9
$PUCSORGBOTTOM
 10
0.0
 20
0.0
 30
0.0
  9
$PUCSORGLEFT
 10
0.0
 20
0.0
 30
0.0
  9
$PUCSORGRIGHT
 10
0.0
 20
0.0
 30
0.0
  9
$PUCSORGFRONT
 10
0.0
 20
0.0
 30
0.0
  9
$PUCSORGBACK
 10
0.0
 20
0.0
 30
0.0
  9
$USERI1
 70
     0
  9
$USERI2
 70
     0
  9
$USERI3
 70
     0
  9
$USERI4
 70
     0
  9
$USERI5
 70
     0
  9
$USERR1
 40
0.0
  9
$USERR2
 40
0.0
  9
$USERR3
 40
0.0
  9
$USERR4
 40
0.0
  9
$USERR5
 40
0.0
  9
$WORLDVIEW
 70
     1
  9
$SHADEDGE
 70
     3
  9
$SHADEDIF
 70
    70
  9
$TILEMODE
 70
     1
  9
$MAXACTVP
 70
    64
  9
$PINSBASE
 10
0.0
 20
0.0
 30
0.0
  9
$PLIMCHECK
 70
     0
  9
$PEXTMIN
 10
-260.187988
 20
-247.14
 30
0.0
  9
$PEXTMAX
 10
579.812012
 20
346.86
 30
0.0
  9
$PLIMMIN
 10
-260.187988
 20
-247.14
  9
$PLIMMAX
 10
579.812012
 20
346.86
  9
$UNITMODE
 70
     0
  9
$VISRETAIN
 70
     1
  9
$PLINEGEN
 70
     0
  9
$PSLTSCALE
 70
     1
  9
$TREEDEPTH
 70
  3020
  9
$CMLSTYLE
  2
Standard
  9
$CMLJUST
 70
     0
  9
$CMLSCALE
 40
20.0
  9
$PROXYGRAPHICS
 70
     1
  9
$MEASUREMENT
 70
     1
  9
$CELWEIGHT
370
    -1
  9
$ENDCAPS
280
     0
  9
$JOINSTYLE
280
     0
  9
$LWDISPLAY
290
     0
  9
$INSUNITS
 70
     4
  9
$HYPERLINKBASE
  1

  9
$STYLESHEET
  1

  9
$XEDIT
290
     1
  9
$CEPSNTYPE
380
     0
  9
$PSTYLEMODE
290
     1
  9
$FINGERPRINTGUID
  2
{FAEB1C30-E019-11D5-929B-00C0DF256EC4}
  9
$VERSIONGUID
  2
{FAEB1C32-E019-11D5-929B-00C0DF256EC4}
  9
$EXTNAMES
290
     1
  9
$PSVPSCALE
 40
0.0
  9
$OLESTARTUP
290
     0
  0
ENDSEC
  0
SECTION
  2
CLASSES
  0
CLASS
  1
ACDBDICTIONARYWDFLT
  2
AcDbDictionaryWithDefault
  3
ObjectDBX Classes
 90
        0
280
     0
281
     0
  0
CLASS
  1
ACDBPLACEHOLDER
  2
AcDbPlaceHolder
  3
ObjectDBX Classes
 90
        0
280
     0
281
     0
  0
CLASS
  1
LAYOUT
  2
AcDbLayout
  3
ObjectDBX Classes
 90
        0
280
     0
281
     0
  0
ENDSEC
  0
SECTION
  2
TABLES
  0
TABLE
  2
VPORT
  5
8
330
0
100
AcDbSymbolTable
 70
     2
  0
VPORT
  5
29
330
8
100
AcDbSymbolTableRecord
100
AcDbViewportTableRecord
  2
*ACTIVE
 70
     0
 10
0.0
 20
0.0
 11
1.0
 21
1.0
 12
159.812012
 22
49.86
 13
0.0
 23
0.0
 14
1.0
 24
1.0
 15
0.0
 25
0.0
 16
0.0
 26
0.0
 36
1.0
 17
0.0
 27
0.0
 37
0.0
 40
594.0
 41
1.414141
 42
50.0
 43
0.0
 44
0.0
 50
0.0
 51
0.0
 71
    16
 72
   100
 73
     1
 74
     0
 75
     0
 76
     0
 77
     0
 78
     0
281
     0
 65
     0
110
0.0
120
0.0
130
0.0
111
1.0
121
0.0
131
0.0
112
0.0
122
1.0
132
0.0
 79
     0
146
0.0
  0
ENDTAB
  0
TABLE
  2
LTYPE
  5
5
330
0
100
AcDbSymbolTable
 70
     3
  0
LTYPE
  5
14
330
5
100
AcDbSymbolTableRecord
100
AcDbLinetypeTableRecord
  2
ByBlock
 70
     0
  3

 72
    65
 73
     0
 40
0.0
  0
LTYPE
  5
15
330
5
100
AcDbSymbolTableRecord
100
AcDbLinetypeTableRecord
  2
ByLayer
 70
     0
  3

 72
    65
 73
     0
 40
0.0
  0
LTYPE
  5
16
330
5
100
AcDbSymbolTableRecord
100
AcDbLinetypeTableRecord
  2
Continuous
 70
     0
  3
Solid line
 72
    65
 73
     0
 40
0.0
  0
LTYPE
  5
2A
330
5
100
AcDbSymbolTableRecord
100
AcDbLinetypeTableRecord
  2
DASHED
 70
     0
  3
__ __ __ __ __
 72
    65
 73
     2
 40
6.25
 49
5.0
 74
     4
 75
     0
340
0
 46
1.0
 50
0.0
 44
0.0
 45
0.0
 49
-1.25
 74
     4
 75
     0
340
0
 46
1.0
 50
0.0
 44
0.0
 45
0.0
  0
LTYPE
  5
30
330
5
100
AcDbSymbolTableRecord
100
AcDbLinetypeTableRecord
  2
CENTER
 70
     0
  3
__ . __ . __ . __ . __
 72
    65
 73
     4
 40
7.5
 49
5.0
 74
     4
 75
     0
340
0
 46
1.0
 50
0.0
 44
0.0
 45
0.0
 49
-1.25
 74
     4
 75
     0
340
0
 46
1.0
 50
0.0
 44
0.0
 45
0.0
 49
0.0
 74
     4
 75
     0
340
0
 46
1.0
 50
0.0
 44
0.0
 45
0.0
 49
-1.25
 74
     4
 75
     0
340
0
 46
1.0
 50
0.0
 44
0.0
 45
0.0
  0
ENDTAB
  0
TABLE
  2
LAYER
  5
2
330
0
100
AcDbSymbolTable
 70
    10
  0
LAYER
  5
10
330
2
100
AcDbSymbolTableRecord
100
AcDbLayerTableRecord
  2
0
 70
     0
 62
     7
  6
Continuous
370
    -3
390
F
  0
LAYER
  5
2B
330
2
100
AcDbSymbolTableRecord
100
AcDbLayerTableRecord
  2
LC-INFO-1-2-mm-A3-0
 70
     1
 62
     7
  6
ByBlock
370
    -3
390
F
  0
LAYER
  5
2C
330
2
100
AcDbSymbolTableRecord
100
AcDbLayerTableRecord
  2
LC-CUT-HIDDEN
 70
     0
 62
     7
  6
DASHED
370
    -3
390
F
  0
LAYER
  5
2D
330
2
100
AcDbSymbolTableRecord
100
AcDbLayerTableRecord
  2
LC-VIEWPORT
 70
     0
 62
     7
  6
ByBlock
370
    -3
390
F
  0
LAYER
  5
2E
330
2
100
AcDbSymbolTableRecord
100
AcDbLayerTableRecord
  2
LC-3D-HIDDEN
 70
     0
 62
     9
  6
DASHED
370
    -3
390
F
  0
LAYER
  5
31
330
2
100
AcDbSymbolTableRecord
100
AcDbLayerTableRecord
  2
LC-001-006-MLN-0
 70
     0
 62
     2
  6
CENTER
370
    -3
390
F
  0
LAYER
  5
33
330
2
100
AcDbSymbolTableRecord
100
AcDbLayerTableRecord
  2
LC-002-002-----0
 70
     0
 62
     1
  6
ByBlock
370
    -3
390
F
  0
LAYER
  5
40
330
2
100
AcDbSymbolTableRecord
100
AcDbLayerTableRecord
  2
LC-003-005-----0
 70
     0
 62
     2
  6
ByBlock
370
    -3
390
F
  0
LAYER
  5
4A
330
2
100
AcDbSymbolTableRecord
100
AcDbLayerTableRecord
  2
LC-004-003-----0
 70
     0
 62
     2
  6
ByBlock
370
    -3
390
F
  0
LAYER
  5
4C
330
2
100
AcDbSymbolTableRecord
100
AcDbLayerTableRecord
  2
Defpoints
 70
     0
 62
     7
  6
Continuous
290
     0
370
    -3
390
F
  0
ENDTAB
  0
TABLE
  2
STYLE
  5
3
330
0
100
AcDbSymbolTable
 70
     3
  0
STYLE
  5
11
330
3
100
AcDbSymbolTableRecord
100
AcDbTextStyleTableRecord
  2
Standard
 70
     0
 40
0.0
 41
1.0
 50
0.0
 71
     0
 42
2.5
  3
txt
  4

  0
STYLE
  5
2F
330
3
100
AcDbSymbolTableRecord
100
AcDbTextStyleTableRecord
  2
LCTX15-400-0-0-Arial
 70
     0
 40
0.0
 41
0.9
 50
0.0
 71
     0
 42
3.5
  3

  4

1001
ACAD
1000
Arial
1071
 16777218
  0
STYLE
  5
48
330
3
100
AcDbSymbolTableRecord
100
AcDbTextStyleTableRecord
  2
LCTX15-400-0-0pDIN-Schrift
 70
     0
 40
2.5
 41
0.8
 50
15.0
 71
     0
 42
3.5
  3
STANDARD
  4

  0
ENDTAB
  0
TABLE
  2
VIEW
  5
6
330
0
100
AcDbSymbolTable
 70
     0
  0
ENDTAB
  0
TABLE
  2
UCS
  5
7
330
0
100
AcDbSymbolTable
 70
     0
  0
ENDTAB
  0
TABLE
  2
APPID
  5
9
330
0
100
AcDbSymbolTable
 70
     1
  0
APPID
  5
12
330
9
100
AcDbSymbolTableRecord
100
AcDbRegAppTableRecord
  2
ACAD
 70
     0
  0
ENDTAB
  0
TABLE
  2
DIMSTYLE
  5
A
330
0
100
AcDbSymbolTable
 70
     2
100
AcDbDimStyleTable
  0
DIMSTYLE
105
27
330
A
100
AcDbSymbolTableRecord
100
AcDbDimStyleTableRecord
  2
ISO-25
 70
     0
 41
2.5
 42
0.625
 43
3.75
 44
1.25
 73
     0
 74
     0
 77
     1
 78
     8
140
2.5
141
2.5
143
0.03937
147
0.625
171
     3
172
     1
271
     2
272
     2
274
     3
278
    44
283
     0
284
     8
340
11
  0
DIMSTYLE
105
49
102
{ACAD_REACTORS
330
4B
330
70
330
95
330
B8
330
DA
330
FB
102
}
330
A
100
AcDbSymbolTableRecord
100
AcDbDimStyleTableRecord
  2
LC-DIM-L-0140-02-02
 70
     0
 40
2.0
 41
14.0
 42
0.0
 43
7.5
 44
1.8
 73
     0
 74
     0
 77
     1
 78
     8
 79
     2
140
14.0
141
0.0
146
0.71
147
1.5
176
     2
177
     2
178
     2
179
     2
271
     2
278
    44
289
     1
340
48
  0
ENDTAB
  0
TABLE
  2
BLOCK_RECORD
  5
1
330
0
100
AcDbSymbolTable
 70
    12
  0
BLOCK_RECORD
  5
1F
330
1
100
AcDbSymbolTableRecord
100
AcDbBlockTableRecord
  2
*Model_Space
340
22
  0
BLOCK_RECORD
  5
1B
330
1
100
AcDbSymbolTableRecord
100
AcDbBlockTableRecord
  2
*Paper_Space
340
1E
  0
BLOCK_RECORD
  5
23
330
1
100
AcDbSymbolTableRecord
100
AcDbBlockTableRecord
  2
*Paper_Space0
340
26
  0
BLOCK_RECORD
  5
3D
330
1
100
AcDbSymbolTableRecord
100
AcDbBlockTableRecord
  2
*X11
340
0
102
{BLKREFS
331
47
102
}
  0
BLOCK_RECORD
  5
4D
330
1
100
AcDbSymbolTableRecord
100
AcDbBlockTableRecord
  2
*D2
340
0
  0
BLOCK_RECORD
  5
64
330
1
100
AcDbSymbolTableRecord
100
AcDbBlockTableRecord
  2
*X23
340
0
102
{BLKREFS
331
6F
102
}
  0
BLOCK_RECORD
  5
71
330
1
100
AcDbSymbolTableRecord
100
AcDbBlockTableRecord
  2
*D4
340
0
  0
BLOCK_RECORD
  5
88
330
1
100
AcDbSymbolTableRecord
100
AcDbBlockTableRecord
  2
*X35
340
0
102
{BLKREFS
331
94
102
}
  0
BLOCK_RECORD
  5
96
330
1
100
AcDbSymbolTableRecord
100
AcDbBlockTableRecord
  2
*D6
340
0
  0
BLOCK_RECORD
  5
AD
330
1
100
AcDbSymbolTableRecord
100
AcDbBlockTableRecord
  2
*X47
340
0
102
{BLKREFS
331
B7
102
}
  0
BLOCK_RECORD
  5
B9
330
1
100
AcDbSymbolTableRecord
100
AcDbBlockTableRecord
  2
*D8
340
0
  0
BLOCK_RECORD
  5
D0
330
1
100
AcDbSymbolTableRecord
100
AcDbBlockTableRecord
  2
*X59
340
0
102
{BLKREFS
331
D9
102
}
  0
BLOCK_RECORD
  5
DB
330
1
100
AcDbSymbolTableRecord
100
AcDbBlockTableRecord
  2
*D10
340
0
  0
BLOCK_RECORD
  5
FC
330
1
100
AcDbSymbolTableRecord
100
AcDbBlockTableRecord
  2
*D11
340
0
  0
ENDTAB
  0
ENDSEC
  0
SECTION
  2
BLOCKS
  0
BLOCK
  5
20
330
1F
100
AcDbEntity
  8
0
100
AcDbBlockBegin
  2
*Model_Space
 70
     0
 71
     0
 10
0.0
 20
0.0
 30
0.0
  3
*Model_Space
  1

  0
ENDBLK
  5
21
330
1F
100
AcDbEntity
  8
0
100
AcDbBlockEnd
  0
BLOCK
  5
1C
330
1B
100
AcDbEntity
 67
     1
  8
0
100
AcDbBlockBegin
  2
*Paper_Space
 70
     0
 71
     0
 10
0.0
 20
0.0
 30
0.0
  3
*Paper_Space
  1

  0
ENDBLK
  5
1D
330
1B
100
AcDbEntity
 67
     1
  8
0
100
AcDbBlockEnd
  0
BLOCK
  5
24
330
23
100
AcDbEntity
  8
0
100
AcDbBlockBegin
  2
*Paper_Space0
 70
     0
 71
     0
 10
0.0
 20
0.0
 30
0.0
  3
*Paper_Space0
  1

  0
ENDBLK
  5
25
330
23
100
AcDbEntity
  8
0
100
AcDbBlockEnd
  0
BLOCK
  5
3E
330
3D
100
AcDbEntity
  8
0
100
AcDbBlockBegin
  2
*X11
 70
     1
 71
     0
 10
0.0
 20
0.0
 30
0.0
  3
*X11
  1

  4
*X1
  0
LINE
  5
41
330
3D
100
AcDbEntity
  8
LC-003-005-----0
 62
     7
370
    25
100
AcDbLine
 10
233.849845
 20
230.719311
 30
0.0
 11
232.030988
 21
232.538168
 31
0.0
  0
LINE
  5
42
330
3D
100
AcDbEntity
  8
LC-003-005-----0
 62
     7
370
    25
100
AcDbLine
 10
231.909667
 20
230.538168
 30
0.0
 11
229.909667
 21
232.538168
 31
0.0
  0
LINE
  5
43
330
3D
100
AcDbEntity
  8
LC-003-005-----0
 62
     7
370
    25
100
AcDbLine
 10
229.788347
 20
230.538168
 30
0.0
 11
229.349845
 21
230.97667
 31
0.0
  0
LINE
  5
44
330
3D
100
AcDbEntity
  8
LC-003-005-----0
 62
     7
370
    25
100
AcDbLine
 10
93.349845
 20
231.212168
 30
0.0
 11
92.023845
 21
232.538168
 31
0.0
  0
LINE
  5
45
330
3D
100
AcDbEntity
  8
LC-003-005-----0
 62
     7
370
    25
100
AcDbLine
 10
91.902525
 20
230.538168
 30
0.0
 11
89.902525
 21
232.538168
 31
0.0
  0
LINE
  5
46
330
3D
100
AcDbEntity
  8
LC-003-005-----0
 62
     7
370
    25
100
AcDbLine
 10
89.781204
 20
230.538168
 30
0.0
 11
88.849845
 21
231.469527
 31
0.0
  0
ENDBLK
  5
3F
330
3D
100
AcDbEntity
  8
0
100
AcDbBlockEnd
  0
BLOCK
  5
59
330
4D
100
AcDbEntity
  8
0
100
AcDbBlockBegin
  2
*D2
 70
     1
 71
     0
 10
0.0
 20
0.0
 30
0.0
  3
*D2
  1

  0
LINE
  5
4E
330
4D
100
AcDbEntity
  8
LC-004-003-----0
 62
     2
370
    -2
100
AcDbLine
 10
234.349845
 20
230.538168
 30
0.0
 11
252.059444
 21
230.538168
 31
0.0
  0
LINE
  5
4F
330
4D
100
AcDbEntity
  8
LC-004-003-----0
 62
     2
370
    -2
100
AcDbLine
 10
234.349845
 20
232.538168
 30
0.0
 11
252.059444
 21
232.538168
 31
0.0
  0
LINE
  5
50
330
4D
100
AcDbEntity
  8
LC-004-003-----0
 62
     2
370
    -2
100
AcDbLine
 10
248.459444
 20
202.538168
 30
0.0
 11
248.459444
 21
174.538168
 31
0.0
  0
LINE
  5
51
330
4D
100
AcDbEntity
  8
LC-004-003-----0
 62
     2
370
    -2
100
AcDbLine
 10
248.459444
 20
260.538168
 30
0.0
 11
248.459444
 21
288.538168
 31
0.0
  0
LINE
  5
52
330
4D
100
AcDbEntity
  8
LC-004-003-----0
 62
     2
370
    -2
100
AcDbLine
 10
248.459444
 20
230.538168
 30
0.0
 11
248.459444
 21
232.538168
 31
0.0
  0
SOLID
  5
53
330
4D
100
AcDbEntity
  8
LC-004-003-----0
 62
     2
100
AcDbTrace
 10
253.126111
 20
202.538168
 30
0.0
 11
243.792777
 21
202.538168
 31
0.0
 12
248.459444
 22
230.538168
 32
0.0
 13
248.459444
 23
230.538168
 33
0.0
  0
SOLID
  5
54
330
4D
100
AcDbEntity
  8
LC-004-003-----0
 62
     2
100
AcDbTrace
 10
243.792777
 20
260.538168
 30
0.0
 11
253.126111
 21
260.538168
 31
0.0
 12
248.459444
 22
232.538168
 32
0.0
 13
248.459444
 23
232.538168
 33
0.0
  0
MTEXT
  5
55
330
4D
100
AcDbEntity
  8
LC-004-003-----0
 62
     2
100
AcDbMText
 10
217.659444
 20
231.538168
 30
0.0
 40
28.0
 41
0.0
 71
     5
 72
     1
  1
\A1;2
  7
LCTX15-400-0-0pDIN-Schrift
 11
6.123031769111886E-17
 21
1.0
 31
0.0
 73
     1
 44
1.0
  0
POINT
  5
56
330
4D
100
AcDbEntity
  8
Defpoints
 62
     0
100
AcDbPoint
 10
234.349845
 20
230.538168
 30
0.0
  0
POINT
  5
57
330
4D
100
AcDbEntity
  8
Defpoints
 62
     0
100
AcDbPoint
 10
234.349845
 20
232.538168
 30
0.0
  0
POINT
  5
58
330
4D
100
AcDbEntity
  8
Defpoints
 62
     0
100
AcDbPoint
 10
248.459444
 20
232.538168
 30
0.0
  0
ENDBLK
  5
5A
330
4D
100
AcDbEntity
  8
0
100
AcDbBlockEnd
  0
BLOCK
  5
65
330
64
100
AcDbEntity
  8
0
100
AcDbBlockBegin
  2
*X23
 70
     1
 71
     0
 10
0.0
 20
0.0
 30
0.0
  3
*X23
  1

  4
*X2
  0
LINE
  5
67
330
64
100
AcDbEntity
  8
LC-003-005-----0
 62
     7
370
    25
100
AcDbLine
 10
233.849845
 20
88.590848
 30
0.0
 11
233.318035
 21
89.122657
 31
0.0
  0
LINE
  5
68
330
64
100
AcDbEntity
  8
LC-003-005-----0
 62
     7
370
    25
100
AcDbLine
 10
233.849845
 20
86.469527
 30
0.0
 11
231.196715
 21
89.122657
 31
0.0
  0
LINE
  5
69
330
64
100
AcDbEntity
  8
LC-003-005-----0
 62
     7
370
    25
100
AcDbLine
 10
232.075394
 20
86.122657
 30
0.0
 11
229.349845
 21
88.848207
 31
0.0
  0
LINE
  5
6A
330
64
100
AcDbEntity
  8
LC-003-005-----0
 62
     7
370
    25
100
AcDbLine
 10
229.954074
 20
86.122657
 30
0.0
 11
229.349845
 21
86.726887
 31
0.0
  0
LINE
  5
6B
330
64
100
AcDbEntity
  8
LC-003-005-----0
 62
     7
370
    25
100
AcDbLine
 10
93.349845
 20
89.083705
 30
0.0
 11
93.310892
 21
89.122657
 31
0.0
  0
LINE
  5
6C
330
64
100
AcDbEntity
  8
LC-003-005-----0
 62
     7
370
    25
100
AcDbLine
 10
93.349845
 20
86.962385
 30
0.0
 11
91.189572
 21
89.122657
 31
0.0
  0
LINE
  5
6D
330
64
100
AcDbEntity
  8
LC-003-005-----0
 62
     7
370
    25
100
AcDbLine
 10
92.068252
 20
86.122657
 30
0.0
 11
89.068252
 21
89.122657
 31
0.0
  0
LINE
  5
6E
330
64
100
AcDbEntity
  8
LC-003-005-----0
 62
     7
370
    25
100
AcDbLine
 10
89.946931
 20
86.122657
 30
0.0
 11
88.849845
 21
87.219744
 31
0.0
  0
ENDBLK
  5
66
330
64
100
AcDbEntity
  8
0
100
AcDbBlockEnd
  0
BLOCK
  5
7D
330
71
100
AcDbEntity
  8
0
100
AcDbBlockBegin
  2
*D4
 70
     1
 71
     0
 10
0.0
 20
0.0
 30
0.0
  3
*D4
  1

  0
LINE
  5
72
330
71
100
AcDbEntity
  8
LC-004-003-----0
 62
     2
370
    -2
100
AcDbLine
 10
234.349845
 20
86.122657
 30
0.0
 11
51.608043
 21
86.122657
 31
0.0
  0
LINE
  5
73
330
71
100
AcDbEntity
  8
LC-004-003-----0
 62
     2
370
    -2
100
AcDbLine
 10
234.349845
 20
89.122657
 30
0.0
 11
51.608043
 21
89.122657
 31
0.0
  0
LINE
  5
74
330
71
100
AcDbEntity
  8
LC-004-003-----0
 62
     2
370
    -2
100
AcDbLine
 10
55.208043
 20
58.122657
 30
0.0
 11
55.208043
 21
30.122657
 31
0.0
  0
LINE
  5
75
330
71
100
AcDbEntity
  8
LC-004-003-----0
 62
     2
370
    -2
100
AcDbLine
 10
55.208043
 20
117.122657
 30
0.0
 11
55.208043
 21
145.122657
 31
0.0
  0
LINE
  5
76
330
71
100
AcDbEntity
  8
LC-004-003-----0
 62
     2
370
    -2
100
AcDbLine
 10
55.208043
 20
86.122657
 30
0.0
 11
55.208043
 21
89.122657
 31
0.0
  0
SOLID
  5
77
330
71
100
AcDbEntity
  8
LC-004-003-----0
 62
     2
100
AcDbTrace
 10
59.87471
 20
58.122657
 30
0.0
 11
50.541376
 21
58.122657
 31
0.0
 12
55.208043
 22
86.122657
 32
0.0
 13
55.208043
 23
86.122657
 33
0.0
  0
SOLID
  5
78
330
71
100
AcDbEntity
  8
LC-004-003-----0
 62
     2
100
AcDbTrace
 10
50.541376
 20
117.122657
 30
0.0
 11
59.87471
 21
117.122657
 31
0.0
 12
55.208043
 22
89.122657
 32
0.0
 13
55.208043
 23
89.122657
 33
0.0
  0
MTEXT
  5
79
330
71
100
AcDbEntity
  8
LC-004-003-----0
 62
     2
100
AcDbMText
 10
24.408043
 20
87.622657
 30
0.0
 40
28.0
 41
0.0
 71
     5
 72
     1
  1
\A1;3
  7
LCTX15-400-0-0pDIN-Schrift
 11
6.123031769111886E-17
 21
1.0
 31
0.0
 73
     1
 44
1.0
  0
POINT
  5
7A
330
71
100
AcDbEntity
  8
Defpoints
 62
     0
100
AcDbPoint
 10
234.349845
 20
86.122657
 30
0.0
  0
POINT
  5
7B
330
71
100
AcDbEntity
  8
Defpoints
 62
     0
100
AcDbPoint
 10
234.349845
 20
89.122657
 30
0.0
  0
POINT
  5
7C
330
71
100
AcDbEntity
  8
Defpoints
 62
     0
100
AcDbPoint
 10
55.208043
 20
89.122657
 30
0.0
  0
ENDBLK
  5
7E
330
71
100
AcDbEntity
  8
0
100
AcDbBlockEnd
  0
BLOCK
  5
89
330
88
100
AcDbEntity
  8
0
100
AcDbBlockBegin
  2
*X35
 70
     1
 71
     0
 10
0.0
 20
0.0
 30
0.0
  3
*X35
  1

  4
*X3
  0
LINE
  5
8B
330
88
100
AcDbEntity
  8
LC-003-005-----0
 62
     7
370
    25
100
AcDbLine
 10
233.849845
 20
39.80048
 30
0.0
 11
232.527667
 21
41.122657
 31
0.0
  0
LINE
  5
8C
330
88
100
AcDbEntity
  8
LC-003-005-----0
 62
     7
370
    25
100
AcDbLine
 10
233.849845
 20
37.679159
 30
0.0
 11
230.406347
 21
41.122657
 31
0.0
  0
LINE
  5
8D
330
88
100
AcDbEntity
  8
LC-003-005-----0
 62
     7
370
    25
100
AcDbLine
 10
233.285026
 20
36.122657
 30
0.0
 11
229.349845
 21
40.057839
 31
0.0
  0
LINE
  5
8E
330
88
100
AcDbEntity
  8
LC-003-005-----0
 62
     7
370
    25
100
AcDbLine
 10
231.163706
 20
36.122657
 30
0.0
 11
229.349845
 21
37.936519
 31
0.0
  0
LINE
  5
8F
330
88
100
AcDbEntity
  8
LC-003-005-----0
 62
     7
370
    25
100
AcDbLine
 10
93.349845
 20
40.293337
 30
0.0
 11
92.520524
 21
41.122657
 31
0.0
  0
LINE
  5
90
330
88
100
AcDbEntity
  8
LC-003-005-----0
 62
     7
370
    25
100
AcDbLine
 10
93.349845
 20
38.172017
 30
0.0
 11
90.399204
 21
41.122657
 31
0.0
  0
LINE
  5
91
330
88
100
AcDbEntity
  8
LC-003-005-----0
 62
     7
370
    25
100
AcDbLine
 10
93.277884
 20
36.122657
 30
0.0
 11
88.849845
 21
40.550696
 31
0.0
  0
LINE
  5
92
330
88
100
AcDbEntity
  8
LC-003-005-----0
 62
     7
370
    25
100
AcDbLine
 10
91.156563
 20
36.122657
 30
0.0
 11
88.849845
 21
38.429376
 31
0.0
  0
LINE
  5
93
330
88
100
AcDbEntity
  8
LC-003-005-----0
 62
     7
370
    25
100
AcDbLine
 10
89.035243
 20
36.122657
 30
0.0
 11
88.849845
 21
36.308056
 31
0.0
  0
ENDBLK
  5
8A
330
88
100
AcDbEntity
  8
0
100
AcDbBlockEnd
  0
BLOCK
  5
A2
330
96
100
AcDbEntity
  8
0
100
AcDbBlockBegin
  2
*D6
 70
     1
 71
     0
 10
0.0
 20
0.0
 30
0.0
  3
*D6
  1

  0
LINE
  5
97
330
96
100
AcDbEntity
  8
LC-004-003-----0
 62
     2
370
    -2
100
AcDbLine
 10
234.349845
 20
36.122657
 30
0.0
 11
264.470084
 21
36.122657
 31
0.0
  0
LINE
  5
98
330
96
100
AcDbEntity
  8
LC-004-003-----0
 62
     2
370
    -2
100
AcDbLine
 10
234.349845
 20
41.122657
 30
0.0
 11
264.470084
 21
41.122657
 31
0.0
  0
LINE
  5
99
330
96
100
AcDbEntity
  8
LC-004-003-----0
 62
     2
370
    -2
100
AcDbLine
 10
260.870084
 20
8.122657
 30
0.0
 11
260.870084
 21
-19.877343
 31
0.0
  0
LINE
  5
9A
330
96
100
AcDbEntity
  8
LC-004-003-----0
 62
     2
370
    -2
100
AcDbLine
 10
260.870084
 20
69.122657
 30
0.0
 11
260.870084
 21
97.122657
 31
0.0
  0
LINE
  5
9B
330
96
100
AcDbEntity
  8
LC-004-003-----0
 62
     2
370
    -2
100
AcDbLine
 10
260.870084
 20
36.122657
 30
0.0
 11
260.870084
 21
41.122657
 31
0.0
  0
SOLID
  5
9C
330
96
100
AcDbEntity
  8
LC-004-003-----0
 62
     2
100
AcDbTrace
 10
265.536751
 20
8.122657
 30
0.0
 11
256.203418
 21
8.122657
 31
0.0
 12
260.870084
 22
36.122657
 32
0.0
 13
260.870084
 23
36.122657
 33
0.0
  0
SOLID
  5
9D
330
96
100
AcDbEntity
  8
LC-004-003-----0
 62
     2
100
AcDbTrace
 10
256.203418
 20
69.122657
 30
0.0
 11
265.536751
 21
69.122657
 31
0.0
 12
260.870084
 22
41.122657
 32
0.0
 13
260.870084
 23
41.122657
 33
0.0
  0
MTEXT
  5
9E
330
96
100
AcDbEntity
  8
LC-004-003-----0
 62
     2
100
AcDbMText
 10
230.070084
 20
38.622657
 30
0.0
 40
28.0
 41
0.0
 71
     5
 72
     1
  1
\A1;5
  7
LCTX15-400-0-0pDIN-Schrift
 11
6.123031769111886E-17
 21
1.0
 31
0.0
 73
     1
 44
1.0
  0
POINT
  5
9F
330
96
100
AcDbEntity
  8
Defpoints
 62
     0
100
AcDbPoint
 10
234.349845
 20
36.122657
 30
0.0
  0
POINT
  5
A0
330
96
100
AcDbEntity
  8
Defpoints
 62
     0
100
AcDbPoint
 10
234.349845
 20
41.122657
 30
0.0
  0
POINT
  5
A1
330
96
100
AcDbEntity
  8
Defpoints
 62
     0
100
AcDbPoint
 10
260.870084
 20
41.122657
 30
0.0
  0
ENDBLK
  5
A3
330
96
100
AcDbEntity
  8
0
100
AcDbBlockEnd
  0
BLOCK
  5
AE
330
AD
100
AcDbEntity
  8
0
100
AcDbBlockBegin
  2
*X47
 70
     1
 71
     0
 10
0.0
 20
0.0
 30
0.0
  3
*X47
  1

  4
*X4
  0
LINE
  5
B0
330
AD
100
AcDbEntity
  8
LC-003-005-----0
 62
     7
370
    25
100
AcDbLine
 10
233.849845
 20
184.050263
 30
0.0
 11
233.77745
 21
184.122657
 31
0.0
  0
LINE
  5
B1
330
AD
100
AcDbEntity
  8
LC-003-005-----0
 62
     7
370
    25
100
AcDbLine
 10
233.65613
 20
182.122657
 30
0.0
 11
231.65613
 21
184.122657
 31
0.0
  0
LINE
  5
B2
330
AD
100
AcDbEntity
  8
LC-003-005-----0
 62
     7
370
    25
100
AcDbLine
 10
231.53481
 20
182.122657
 30
0.0
 11
229.53481
 21
184.122657
 31
0.0
  0
LINE
  5
B3
330
AD
100
AcDbEntity
  8
LC-003-005-----0
 62
     7
370
    25
100
AcDbLine
 10
229.413489
 20
182.122657
 30
0.0
 11
229.349845
 21
182.186302
 31
0.0
  0
LINE
  5
B4
330
AD
100
AcDbEntity
  8
LC-003-005-----0
 62
     7
370
    25
100
AcDbLine
 10
93.349845
 20
182.4218
 30
0.0
 11
91.648987
 21
184.122657
 31
0.0
  0
LINE
  5
B5
330
AD
100
AcDbEntity
  8
LC-003-005-----0
 62
     7
370
    25
100
AcDbLine
 10
91.527667
 20
182.122657
 30
0.0
 11
89.527667
 21
184.122657
 31
0.0
  0
LINE
  5
B6
330
AD
100
AcDbEntity
  8
LC-003-005-----0
 62
     7
370
    25
100
AcDbLine
 10
89.406347
 20
182.122657
 30
0.0
 11
88.849845
 21
182.679159
 31
0.0
  0
ENDBLK
  5
AF
330
AD
100
AcDbEntity
  8
0
100
AcDbBlockEnd
  0
BLOCK
  5
C5
330
B9
100
AcDbEntity
  8
0
100
AcDbBlockBegin
  2
*D8
 70
     1
 71
     0
 10
0.0
 20
0.0
 30
0.0
  3
*D8
  1

  0
LINE
  5
BA
330
B9
100
AcDbEntity
  8
LC-004-003-----0
 62
     2
370
    -2
100
AcDbLine
 10
234.349845
 20
182.122657
 30
0.0
 11
305.247903
 21
182.122657
 31
0.0
  0
LINE
  5
BB
330
B9
100
AcDbEntity
  8
LC-004-003-----0
 62
     2
370
    -2
100
AcDbLine
 10
234.349845
 20
184.122657
 30
0.0
 11
305.247903
 21
184.122657
 31
0.0
  0
LINE
  5
BC
330
B9
100
AcDbEntity
  8
LC-004-003-----0
 62
     2
370
    -2
100
AcDbLine
 10
301.647903
 20
154.122657
 30
0.0
 11
301.647903
 21
126.122657
 31
0.0
  0
LINE
  5
BD
330
B9
100
AcDbEntity
  8
LC-004-003-----0
 62
     2
370
    -2
100
AcDbLine
 10
301.647903
 20
212.122657
 30
0.0
 11
301.647903
 21
240.122657
 31
0.0
  0
LINE
  5
BE
330
B9
100
AcDbEntity
  8
LC-004-003-----0
 62
     2
370
    -2
100
AcDbLine
 10
301.647903
 20
182.122657
 30
0.0
 11
301.647903
 21
184.122657
 31
0.0
  0
SOLID
  5
BF
330
B9
100
AcDbEntity
  8
LC-004-003-----0
 62
     2
100
AcDbTrace
 10
306.314569
 20
154.122657
 30
0.0
 11
296.981236
 21
154.122657
 31
0.0
 12
301.647903
 22
182.122657
 32
0.0
 13
301.647903
 23
182.122657
 33
0.0
  0
SOLID
  5
C0
330
B9
100
AcDbEntity
  8
LC-004-003-----0
 62
     2
100
AcDbTrace
 10
296.981236
 20
212.122657
 30
0.0
 11
306.314569
 21
212.122657
 31
0.0
 12
301.647903
 22
184.122657
 32
0.0
 13
301.647903
 23
184.122657
 33
0.0
  0
MTEXT
  5
C1
330
B9
100
AcDbEntity
  8
LC-004-003-----0
 62
     2
100
AcDbMText
 10
270.847903
 20
183.122657
 30
0.0
 40
28.0
 41
0.0
 71
     5
 72
     1
  1
\A1;2
  7
LCTX15-400-0-0pDIN-Schrift
 11
6.123031769111886E-17
 21
1.0
 31
0.0
 73
     1
 44
1.0
  0
POINT
  5
C2
330
B9
100
AcDbEntity
  8
Defpoints
 62
     0
100
AcDbPoint
 10
234.349845
 20
182.122657
 30
0.0
  0
POINT
  5
C3
330
B9
100
AcDbEntity
  8
Defpoints
 62
     0
100
AcDbPoint
 10
234.349845
 20
184.122657
 30
0.0
  0
POINT
  5
C4
330
B9
100
AcDbEntity
  8
Defpoints
 62
     0
100
AcDbPoint
 10
301.647903
 20
184.122657
 30
0.0
  0
ENDBLK
  5
C6
330
B9
100
AcDbEntity
  8
0
100
AcDbBlockEnd
  0
BLOCK
  5
D1
330
D0
100
AcDbEntity
  8
0
100
AcDbBlockBegin
  2
*X59
 70
     1
 71
     0
 10
0.0
 20
0.0
 30
0.0
  3
*X59
  1

  4
*X5
  0
LINE
  5
D3
330
D0
100
AcDbEntity
  8
LC-003-005-----0
 62
     7
370
    25
100
AcDbLine
 10
233.849845
 20
135.259895
 30
0.0
 11
231.987083
 21
137.122657
 31
0.0
  0
LINE
  5
D4
330
D0
100
AcDbEntity
  8
LC-003-005-----0
 62
     7
370
    25
100
AcDbLine
 10
232.865762
 20
134.122657
 30
0.0
 11
229.865762
 21
137.122657
 31
0.0
  0
LINE
  5
D5
330
D0
100
AcDbEntity
  8
LC-003-005-----0
 62
     7
370
    25
100
AcDbLine
 10
230.744442
 20
134.122657
 30
0.0
 11
229.349845
 21
135.517254
 31
0.0
  0
LINE
  5
D6
330
D0
100
AcDbEntity
  8
LC-003-005-----0
 62
     7
370
    25
100
AcDbLine
 10
93.349845
 20
135.752752
 30
0.0
 11
91.97994
 21
137.122657
 31
0.0
  0
LINE
  5
D7
330
D0
100
AcDbEntity
  8
LC-003-005-----0
 62
     7
370
    25
100
AcDbLine
 10
92.85862
 20
134.122657
 30
0.0
 11
89.85862
 21
137.122657
 31
0.0
  0
LINE
  5
D8
330
D0
100
AcDbEntity
  8
LC-003-005-----0
 62
     7
370
    25
100
AcDbLine
 10
90.737299
 20
134.122657
 30
0.0
 11
88.849845
 21
136.010112
 31
0.0
  0
ENDBLK
  5
D2
330
D0
100
AcDbEntity
  8
0
100
AcDbBlockEnd
  0
BLOCK
  5
E7
330
DB
100
AcDbEntity
  8
0
100
AcDbBlockBegin
  2
*D10
 70
     1
 71
     0
 10
0.0
 20
0.0
 30
0.0
  3
*D10
  1

  0
LINE
  5
DC
330
DB
100
AcDbEntity
  8
LC-004-003-----0
 62
     2
370
    -2
100
AcDbLine
 10
234.349845
 20
134.122657
 30
0.0
 11
80.861696
 21
134.122657
 31
0.0
  0
LINE
  5
DD
330
DB
100
AcDbEntity
  8
LC-004-003-----0
 62
     2
370
    -2
100
AcDbLine
 10
234.349845
 20
137.122657
 30
0.0
 11
80.861696
 21
137.122657
 31
0.0
  0
LINE
  5
DE
330
DB
100
AcDbEntity
  8
LC-004-003-----0
 62
     2
370
    -2
100
AcDbLine
 10
84.461696
 20
106.122657
 30
0.0
 11
84.461696
 21
78.122657
 31
0.0
  0
LINE
  5
DF
330
DB
100
AcDbEntity
  8
LC-004-003-----0
 62
     2
370
    -2
100
AcDbLine
 10
84.461696
 20
165.122657
 30
0.0
 11
84.461696
 21
193.122657
 31
0.0
  0
LINE
  5
E0
330
DB
100
AcDbEntity
  8
LC-004-003-----0
 62
     2
370
    -2
100
AcDbLine
 10
84.461696
 20
134.122657
 30
0.0
 11
84.461696
 21
137.122657
 31
0.0
  0
SOLID
  5
E1
330
DB
100
AcDbEntity
  8
LC-004-003-----0
 62
     2
100
AcDbTrace
 10
89.128362
 20
106.122657
 30
0.0
 11
79.795029
 21
106.122657
 31
0.0
 12
84.461696
 22
134.122657
 32
0.0
 13
84.461696
 23
134.122657
 33
0.0
  0
SOLID
  5
E2
330
DB
100
AcDbEntity
  8
LC-004-003-----0
 62
     2
100
AcDbTrace
 10
79.795029
 20
165.122657
 30
0.0
 11
89.128362
 21
165.122657
 31
0.0
 12
84.461696
 22
137.122657
 32
0.0
 13
84.461696
 23
137.122657
 33
0.0
  0
MTEXT
  5
E3
330
DB
100
AcDbEntity
  8
LC-004-003-----0
 62
     2
100
AcDbMText
 10
53.661696
 20
135.622657
 30
0.0
 40
28.0
 41
0.0
 71
     5
 72
     1
  1
\A1;3
  7
LCTX15-400-0-0pDIN-Schrift
 11
6.123031769111886E-17
 21
1.0
 31
0.0
 73
     1
 44
1.0
  0
POINT
  5
E4
330
DB
100
AcDbEntity
  8
Defpoints
 62
     0
100
AcDbPoint
 10
234.349845
 20
134.122657
 30
0.0
  0
POINT
  5
E5
330
DB
100
AcDbEntity
  8
Defpoints
 62
     0
100
AcDbPoint
 10
234.349845
 20
137.122657
 30
0.0
  0
POINT
  5
E6
330
DB
100
AcDbEntity
  8
Defpoints
 62
     0
100
AcDbPoint
 10
84.461696
 20
137.122657
 30
0.0
  0
ENDBLK
  5
E8
330
DB
100
AcDbEntity
  8
0
100
AcDbBlockEnd
  0
BLOCK
  5
106
330
FC
100
AcDbEntity
  8
0
100
AcDbBlockBegin
  2
*D11
 70
     1
 71
     0
 10
0.0
 20
0.0
 30
0.0
  3
*D11
  1

  0
LINE
  5
FD
330
FC
100
AcDbEntity
  8
LC-004-003-----0
 62
     2
370
    -2
100
AcDbLine
 10
88.849845
 20
-102.483088
 30
0.0
 11
88.849845
 21
-14.414054
 31
0.0
  0
LINE
  5
FE
330
FC
100
AcDbEntity
  8
LC-004-003-----0
 62
     2
370
    -2
100
AcDbLine
 10
233.849845
 20
-102.483088
 30
0.0
 11
233.849845
 21
-14.414054
 31
0.0
  0
LINE
  5
FF
330
FC
100
AcDbEntity
  8
LC-004-003-----0
 62
     2
370
    -2
100
AcDbLine
 10
116.849845
 20
-18.014054
 30
0.0
 11
205.849845
 21
-18.014054
 31
0.0
  0
SOLID
  5
100
330
FC
100
AcDbEntity
  8
LC-004-003-----0
 62
     2
100
AcDbTrace
 10
116.849845
 20
-13.347388
 30
0.0
 11
116.849845
 21
-22.680721
 31
0.0
 12
88.849845
 22
-18.014054
 32
0.0
 13
88.849845
 23
-18.014054
 33
0.0
  0
SOLID
  5
101
330
FC
100
AcDbEntity
  8
LC-004-003-----0
 62
     2
100
AcDbTrace
 10
205.849845
 20
-22.680721
 30
0.0
 11
205.849845
 21
-13.347388
 31
0.0
 12
233.849845
 22
-18.014054
 32
0.0
 13
233.849845
 23
-18.014054
 33
0.0
  0
MTEXT
  5
102
330
FC
100
AcDbEntity
  8
LC-004-003-----0
 62
     2
100
AcDbMText
 10
154.615864
 20
12.785946
 30
0.0
 40
28.0
 41
0.0
 71
     5
 72
     1
  1
\A1;145
  7
LCTX15-400-0-0pDIN-Schrift
 73
     1
 44
1.0
  0
POINT
  5
103
330
FC
100
AcDbEntity
  8
Defpoints
 62
     0
100
AcDbPoint
 10
88.849845
 20
-102.483088
 30
0.0
  0
POINT
  5
104
330
FC
100
AcDbEntity
  8
Defpoints
 62
     0
100
AcDbPoint
 10
233.849845
 20
-102.483088
 30
0.0
  0
POINT
  5
105
330
FC
100
AcDbEntity
  8
Defpoints
 62
     0
100
AcDbPoint
 10
233.849845
 20
-18.014054
 30
0.0
  0
ENDBLK
  5
107
330
FC
100
AcDbEntity
  8
0
100
AcDbBlockEnd
  0
ENDSEC
  0
SECTION
  2
ENTITIES
  0
LINE
  5
32
102
{ACAD_REACTORS
330
108
102
}
330
1F
100
AcDbEntity
  8
LC-001-006-MLN-0
 62
     7
370
    25
100
AcDbLine
 10
161.349845
 20
-19.983088
 30
0.0
 11
161.349845
 21
-184.983088
 31
0.0
  0
LINE
  5
34
330
1F
100
AcDbEntity
  8
LC-002-002-----0
 62
     7
370
    50
100
AcDbLine
 10
234.349845
 20
232.538168
 30
0.0
 11
88.349845
 21
232.538168
 31
0.0
  0
LINE
  5
35
330
1F
100
AcDbEntity
  8
LC-002-002-----0
 62
     7
370
    50
100
AcDbLine
 10
234.349845
 20
230.538168
 30
0.0
 11
88.349845
 21
230.538168
 31
0.0
  0
LINE
  5
36
330
1F
100
AcDbEntity
  8
LC-002-002-----0
 62
     7
370
    50
100
AcDbLine
 10
233.849845
 20
232.538168
 30
0.0
 11
233.849845
 21
230.538168
 31
0.0
  0
LINE
  5
37
330
1F
100
AcDbEntity
  8
LC-002-002-----0
 62
     7
370
    50
100
AcDbLine
 10
88.849845
 20
232.538168
 30
0.0
 11
88.849845
 21
230.538168
 31
0.0
  0
LINE
  5
38
330
1F
100
AcDbEntity
  8
LC-001-006-MLN-0
 62
     7
370
    25
100
AcDbLine
 10
161.349845
 20
242.538168
 30
0.0
 11
161.349845
 21
220.538168
 31
0.0
  0
LINE
  5
39
330
1F
100
AcDbEntity
  8
LC-002-002-----0
 62
     7
370
    50
100
AcDbLine
 10
234.349845
 20
232.538168
 30
0.0
 11
234.349845
 21
230.538168
 31
0.0
  0
LINE
  5
3A
330
1F
100
AcDbEntity
  8
LC-002-002-----0
 62
     7
370
    50
100
AcDbLine
 10
229.349845
 20
232.538168
 30
0.0
 11
229.349845
 21
230.538168
 31
0.0
  0
LINE
  5
3B
330
1F
100
AcDbEntity
  8
LC-002-002-----0
 62
     7
370
    50
100
AcDbLine
 10
88.349845
 20
232.538168
 30
0.0
 11
88.349845
 21
230.538168
 31
0.0
  0
LINE
  5
3C
330
1F
100
AcDbEntity
  8
LC-002-002-----0
 62
     7
370
    50
100
AcDbLine
 10
93.349845
 20
232.538168
 30
0.0
 11
93.349845
 21
230.538168
 31
0.0
  0
INSERT
  5
47
330
1F
100
AcDbEntity
  8
LC-003-005-----0
 62
     7
370
    25
100
AcDbBlockReference
  2
*X11
 10
0.0
 20
0.0
 30
0.0
  0
DIMENSION
  5
4B
330
1F
100
AcDbEntity
  8
LC-004-003-----0
 62
     7
370
    25
100
AcDbDimension
  2
*D2
 10
248.459444
 20
232.538168
 30
0.0
 11
217.659444
 21
231.538168
 31
0.0
 70
   160
 71
     5
 42
2.0
 53
90.0
  3
LC-DIM-L-0140-02-02
100
AcDbAlignedDimension
 13
234.349845
 23
230.538168
 33
0.0
 14
234.349845
 24
232.538168
 34
0.0
 50
90.0
100
AcDbRotatedDimension
  0
LINE
  5
5B
330
1F
100
AcDbEntity
  8
LC-002-002-----0
 62
     7
370
    50
100
AcDbLine
 10
234.349845
 20
89.122657
 30
0.0
 11
88.349845
 21
89.122657
 31
0.0
  0
LINE
  5
5C
330
1F
100
AcDbEntity
  8
LC-002-002-----0
 62
     7
370
    50
100
AcDbLine
 10
234.349845
 20
86.122657
 30
0.0
 11
88.349845
 21
86.122657
 31
0.0
  0
LINE
  5
5D
330
1F
100
AcDbEntity
  8
LC-002-002-----0
 62
     7
370
    50
100
AcDbLine
 10
233.849845
 20
89.122657
 30
0.0
 11
233.849845
 21
86.122657
 31
0.0
  0
LINE
  5
5E
330
1F
100
AcDbEntity
  8
LC-002-002-----0
 62
     7
370
    50
100
AcDbLine
 10
88.849845
 20
89.122657
 30
0.0
 11
88.849845
 21
86.122657
 31
0.0
  0
LINE
  5
5F
330
1F
100
AcDbEntity
  8
LC-001-006-MLN-0
 62
     7
370
    25
100
AcDbLine
 10
161.349845
 20
99.122657
 30
0.0
 11
161.349845
 21
76.122657
 31
0.0
  0
LINE
  5
60
330
1F
100
AcDbEntity
  8
LC-002-002-----0
 62
     7
370
    50
100
AcDbLine
 10
234.349845
 20
89.122657
 30
0.0
 11
234.349845
 21
86.122657
 31
0.0
  0
LINE
  5
61
330
1F
100
AcDbEntity
  8
LC-002-002-----0
 62
     7
370
    50
100
AcDbLine
 10
229.349845
 20
89.122657
 30
0.0
 11
229.349845
 21
86.122657
 31
0.0
  0
LINE
  5
62
330
1F
100
AcDbEntity
  8
LC-002-002-----0
 62
     7
370
    50
100
AcDbLine
 10
88.349845
 20
89.122657
 30
0.0
 11
88.349845
 21
86.122657
 31
0.0
  0
LINE
  5
63
330
1F
100
AcDbEntity
  8
LC-002-002-----0
 62
     7
370
    50
100
AcDbLine
 10
93.349845
 20
89.122657
 30
0.0
 11
93.349845
 21
86.122657
 31
0.0
  0
INSERT
  5
6F
330
1F
100
AcDbEntity
  8
LC-003-005-----0
 62
     7
370
    25
100
AcDbBlockReference
  2
*X23
 10
0.0
 20
0.0
 30
0.0
  0
DIMENSION
  5
70
330
1F
100
AcDbEntity
  8
LC-004-003-----0
 62
     7
370
    25
100
AcDbDimension
  2
*D4
 10
55.208043
 20
89.122657
 30
0.0
 11
24.408043
 21
87.622657
 31
0.0
 70
   160
 71
     5
 42
3.0
 53
90.0
  3
LC-DIM-L-0140-02-02
100
AcDbAlignedDimension
 13
234.349845
 23
86.122657
 33
0.0
 14
234.349845
 24
89.122657
 34
0.0
 50
90.0
100
AcDbRotatedDimension
  0
LINE
  5
7F
330
1F
100
AcDbEntity
  8
LC-002-002-----0
 62
     7
370
    50
100
AcDbLine
 10
234.349845
 20
41.122657
 30
0.0
 11
88.349845
 21
41.122657
 31
0.0
  0
LINE
  5
80
330
1F
100
AcDbEntity
  8
LC-002-002-----0
 62
     7
370
    50
100
AcDbLine
 10
234.349845
 20
36.122657
 30
0.0
 11
88.349845
 21
36.122657
 31
0.0
  0
LINE
  5
81
330
1F
100
AcDbEntity
  8
LC-002-002-----0
 62
     7
370
    50
100
AcDbLine
 10
233.849845
 20
41.122657
 30
0.0
 11
233.849845
 21
36.122657
 31
0.0
  0
LINE
  5
82
330
1F
100
AcDbEntity
  8
LC-002-002-----0
 62
     7
370
    50
100
AcDbLine
 10
88.849845
 20
41.122657
 30
0.0
 11
88.849845
 21
36.122657
 31
0.0
  0
LINE
  5
83
330
1F
100
AcDbEntity
  8
LC-001-006-MLN-0
 62
     7
370
    25
100
AcDbLine
 10
161.349845
 20
51.122657
 30
0.0
 11
161.349845
 21
26.122657
 31
0.0
  0
LINE
  5
84
330
1F
100
AcDbEntity
  8
LC-002-002-----0
 62
     7
370
    50
100
AcDbLine
 10
234.349845
 20
41.122657
 30
0.0
 11
234.349845
 21
36.122657
 31
0.0
  0
LINE
  5
85
330
1F
100
AcDbEntity
  8
LC-002-002-----0
 62
     7
370
    50
100
AcDbLine
 10
229.349845
 20
41.122657
 30
0.0
 11
229.349845
 21
36.122657
 31
0.0
  0
LINE
  5
86
330
1F
100
AcDbEntity
  8
LC-002-002-----0
 62
     7
370
    50
100
AcDbLine
 10
88.349845
 20
41.122657
 30
0.0
 11
88.349845
 21
36.122657
 31
0.0
  0
LINE
  5
87
330
1F
100
AcDbEntity
  8
LC-002-002-----0
 62
     7
370
    50
100
AcDbLine
 10
93.349845
 20
41.122657
 30
0.0
 11
93.349845
 21
36.122657
 31
0.0
  0
INSERT
  5
94
330
1F
100
AcDbEntity
  8
LC-003-005-----0
 62
     7
370
    25
100
AcDbBlockReference
  2
*X35
 10
0.0
 20
0.0
 30
0.0
  0
DIMENSION
  5
95
330
1F
100
AcDbEntity
  8
LC-004-003-----0
 62
     7
370
    25
100
AcDbDimension
  2
*D6
 10
260.870084
 20
41.122657
 30
0.0
 11
230.070084
 21
38.622657
 31
0.0
 70
   160
 71
     5
 42
5.0
 53
90.0
  3
LC-DIM-L-0140-02-02
100
AcDbAlignedDimension
 13
234.349845
 23
36.122657
 33
0.0
 14
234.349845
 24
41.122657
 34
0.0
 50
90.0
100
AcDbRotatedDimension
  0
LINE
  5
A4
330
1F
100
AcDbEntity
  8
LC-002-002-----0
 62
     7
370
    50
100
AcDbLine
 10
234.349845
 20
184.122657
 30
0.0
 11
88.349845
 21
184.122657
 31
0.0
  0
LINE
  5
A5
330
1F
100
AcDbEntity
  8
LC-002-002-----0
 62
     7
370
    50
100
AcDbLine
 10
234.349845
 20
182.122657
 30
0.0
 11
88.349845
 21
182.122657
 31
0.0
  0
LINE
  5
A6
330
1F
100
AcDbEntity
  8
LC-002-002-----0
 62
     7
370
    50
100
AcDbLine
 10
233.849845
 20
184.122657
 30
0.0
 11
233.849845
 21
182.122657
 31
0.0
  0
LINE
  5
A7
330
1F
100
AcDbEntity
  8
LC-002-002-----0
 62
     7
370
    50
100
AcDbLine
 10
88.849845
 20
184.122657
 30
0.0
 11
88.849845
 21
182.122657
 31
0.0
  0
LINE
  5
A8
330
1F
100
AcDbEntity
  8
LC-001-006-MLN-0
 62
     7
370
    25
100
AcDbLine
 10
161.349845
 20
194.122657
 30
0.0
 11
161.349845
 21
172.122657
 31
0.0
  0
LINE
  5
A9
330
1F
100
AcDbEntity
  8
LC-002-002-----0
 62
     7
370
    50
100
AcDbLine
 10
234.349845
 20
184.122657
 30
0.0
 11
234.349845
 21
182.122657
 31
0.0
  0
LINE
  5
AA
330
1F
100
AcDbEntity
  8
LC-002-002-----0
 62
     7
370
    50
100
AcDbLine
 10
229.349845
 20
184.122657
 30
0.0
 11
229.349845
 21
182.122657
 31
0.0
  0
LINE
  5
AB
330
1F
100
AcDbEntity
  8
LC-002-002-----0
 62
     7
370
    50
100
AcDbLine
 10
88.349845
 20
184.122657
 30
0.0
 11
88.349845
 21
182.122657
 31
0.0
  0
LINE
  5
AC
330
1F
100
AcDbEntity
  8
LC-002-002-----0
 62
     7
370
    50
100
AcDbLine
 10
93.349845
 20
184.122657
 30
0.0
 11
93.349845
 21
182.122657
 31
0.0
  0
INSERT
  5
B7
330
1F
100
AcDbEntity
  8
LC-003-005-----0
 62
     7
370
    25
100
AcDbBlockReference
  2
*X47
 10
0.0
 20
0.0
 30
0.0
  0
DIMENSION
  5
B8
330
1F
100
AcDbEntity
  8
LC-004-003-----0
 62
     7
370
    25
100
AcDbDimension
  2
*D8
 10
301.647903
 20
184.122657
 30
0.0
 11
270.847903
 21
183.122657
 31
0.0
 70
   160
 71
     5
 42
2.0
 53
90.0
  3
LC-DIM-L-0140-02-02
100
AcDbAlignedDimension
 13
234.349845
 23
182.122657
 33
0.0
 14
234.349845
 24
184.122657
 34
0.0
 50
90.0
100
AcDbRotatedDimension
  0
LINE
  5
C7
330
1F
100
AcDbEntity
  8
LC-002-002-----0
 62
     7
370
    50
100
AcDbLine
 10
234.349845
 20
137.122657
 30
0.0
 11
88.349845
 21
137.122657
 31
0.0
  0
LINE
  5
C8
330
1F
100
AcDbEntity
  8
LC-002-002-----0
 62
     7
370
    50
100
AcDbLine
 10
234.349845
 20
134.122657
 30
0.0
 11
88.349845
 21
134.122657
 31
0.0
  0
LINE
  5
C9
330
1F
100
AcDbEntity
  8
LC-002-002-----0
 62
     7
370
    50
100
AcDbLine
 10
233.849845
 20
137.122657
 30
0.0
 11
233.849845
 21
134.122657
 31
0.0
  0
LINE
  5
CA
330
1F
100
AcDbEntity
  8
LC-002-002-----0
 62
     7
370
    50
100
AcDbLine
 10
88.849845
 20
137.122657
 30
0.0
 11
88.849845
 21
134.122657
 31
0.0
  0
LINE
  5
CB
330
1F
100
AcDbEntity
  8
LC-001-006-MLN-0
 62
     7
370
    25
100
AcDbLine
 10
161.349845
 20
147.122657
 30
0.0
 11
161.349845
 21
124.122657
 31
0.0
  0
LINE
  5
CC
330
1F
100
AcDbEntity
  8
LC-002-002-----0
 62
     7
370
    50
100
AcDbLine
 10
234.349845
 20
137.122657
 30
0.0
 11
234.349845
 21
134.122657
 31
0.0
  0
LINE
  5
CD
330
1F
100
AcDbEntity
  8
LC-002-002-----0
 62
     7
370
    50
100
AcDbLine
 10
229.349845
 20
137.122657
 30
0.0
 11
229.349845
 21
134.122657
 31
0.0
  0
LINE
  5
CE
330
1F
100
AcDbEntity
  8
LC-002-002-----0
 62
     7
370
    50
100
AcDbLine
 10
88.349845
 20
137.122657
 30
0.0
 11
88.349845
 21
134.122657
 31
0.0
  0
LINE
  5
CF
330
1F
100
AcDbEntity
  8
LC-002-002-----0
 62
     7
370
    50
100
AcDbLine
 10
93.349845
 20
137.122657
 30
0.0
 11
93.349845
 21
134.122657
 31
0.0
  0
INSERT
  5
D9
330
1F
100
AcDbEntity
  8
LC-003-005-----0
 62
     7
370
    25
100
AcDbBlockReference
  2
*X59
 10
0.0
 20
0.0
 30
0.0
  0
DIMENSION
  5
DA
330
1F
100
AcDbEntity
  8
LC-004-003-----0
 62
     7
370
    25
100
AcDbDimension
  2
*D10
 10
84.461696
 20
137.122657
 30
0.0
 11
53.661696
 21
135.622657
 31
0.0
 70
   160
 71
     5
 42
3.0
 53
90.0
  3
LC-DIM-L-0140-02-02
100
AcDbAlignedDimension
 13
234.349845
 23
134.122657
 33
0.0
 14
234.349845
 24
137.122657
 34
0.0
 50
90.0
100
AcDbRotatedDimension
  0
LINE
  5
E9
330
1F
100
AcDbEntity
  8
LC-001-006-MLN-0
 62
     7
370
    25
100
AcDbLine
 10
78.849845
 20
-102.483088
 30
0.0
 11
243.849845
 21
-102.483088
 31
0.0
  0
ARC
  5
EA
330
1F
100
AcDbEntity
  8
LC-002-002-----0
 62
     7
370
    50
100
AcDbCircle
 10
161.349845
 20
-102.483088
 30
0.0
 40
72.50000000000037
100
AcDbArc
 50
91.202149
 51
133.797851
  0
CIRCLE
  5
EB
330
1F
100
AcDbEntity
  8
LC-002-002-----0
 62
     7
370
    50
100
AcDbCircle
 10
161.349845
 20
-102.483088
 30
0.0
 40
70.0
  0
ARC
  5
EC
330
1F
100
AcDbEntity
  8
LC-002-002-----0
 62
     7
370
    50
100
AcDbCircle
 10
161.349845
 20
-31.983088
 30
0.0
 40
2.500000000005872
100
AcDbArc
 50
52.524824
 51
127.475176
  0
ARC
  5
ED
330
1F
100
AcDbEntity
  8
LC-002-002-----0
 62
     7
370
    50
100
AcDbCircle
 10
111.498817
 20
-52.63206
 30
0.0
 40
2.500000000005902
100
AcDbArc
 50
97.524824
 51
172.475176
  0
ARC
  5
EE
330
1F
100
AcDbEntity
  8
LC-002-002-----0
 62
     7
370
    50
100
AcDbCircle
 10
90.849845
 20
-102.483088
 30
0.0
 40
2.500000000005837
100
AcDbArc
 50
142.524824
 51
217.475176
  0
ARC
  5
EF
330
1F
100
AcDbEntity
  8
LC-002-002-----0
 62
     7
370
    50
100
AcDbCircle
 10
111.498817
 20
-152.334116
 30
0.0
 40
2.500000000005853
100
AcDbArc
 50
187.524824
 51
262.475176
  0
ARC
  5
F0
330
1F
100
AcDbEntity
  8
LC-002-002-----0
 62
     7
370
    50
100
AcDbCircle
 10
161.349845
 20
-172.983088
 30
0.0
 40
2.500000000005848
100
AcDbArc
 50
232.524824
 51
307.475176
  0
ARC
  5
F1
330
1F
100
AcDbEntity
  8
LC-002-002-----0
 62
     7
370
    50
100
AcDbCircle
 10
211.200873
 20
-152.334116
 30
0.0
 40
2.500000000005924
100
AcDbArc
 50
277.524824
 51
352.475176
  0
ARC
  5
F2
330
1F
100
AcDbEntity
  8
LC-002-002-----0
 62
     7
370
    50
100
AcDbCircle
 10
231.849845
 20
-102.483088
 30
0.0
 40
2.500000000005904
100
AcDbArc
 50
322.524824
 51
37.475176
  0
ARC
  5
F3
330
1F
100
AcDbEntity
  8
LC-002-002-----0
 62
     7
370
    50
100
AcDbCircle
 10
211.200873
 20
-52.63206
 30
0.0
 40
2.500000000005924
100
AcDbArc
 50
7.524824
 51
82.475176
  0
ARC
  5
F4
330
1F
100
AcDbEntity
  8
LC-002-002-----0
 62
     7
370
    50
100
AcDbCircle
 10
161.349845
 20
-102.483088
 30
0.0
 40
72.50000000000117
100
AcDbArc
 50
136.202149
 51
178.797851
  0
ARC
  5
F5
330
1F
100
AcDbEntity
  8
LC-002-002-----0
 62
     7
370
    50
100
AcDbCircle
 10
161.349845
 20
-102.483088
 30
0.0
 40
72.50000000000095
100
AcDbArc
 50
181.202149
 51
223.797851
  0
ARC
  5
F6
330
1F
100
AcDbEntity
  8
LC-002-002-----0
 62
     7
370
    50
100
AcDbCircle
 10
161.349845
 20
-102.483088
 30
0.0
 40
72.50000000000065
100
AcDbArc
 50
226.202149
 51
268.797851
  0
ARC
  5
F7
330
1F
100
AcDbEntity
  8
LC-002-002-----0
 62
     7
370
    50
100
AcDbCircle
 10
161.349845
 20
-102.483088
 30
0.0
 40
72.50000000000104
100
AcDbArc
 50
271.202149
 51
313.797851
  0
ARC
  5
F8
330
1F
100
AcDbEntity
  8
LC-002-002-----0
 62
     7
370
    50
100
AcDbCircle
 10
161.349845
 20
-102.483088
 30
0.0
 40
72.50000000000044
100
AcDbArc
 50
316.202149
 51
358.797851
  0
ARC
  5
F9
330
1F
100
AcDbEntity
  8
LC-002-002-----0
 62
     7
370
    50
100
AcDbCircle
 10
161.349845
 20
-102.483088
 30
0.0
 40
72.50000000000075
100
AcDbArc
 50
1.202149
 51
43.797851
  0
ARC
  5
FA
330
1F
100
AcDbEntity
  8
LC-002-002-----0
 62
     7
370
    50
100
AcDbCircle
 10
161.349845
 20
-102.483088
 30
0.0
 40
72.50000000000027
100
AcDbArc
 50
46.202149
 51
88.797851
  0
DIMENSION
  5
FB
330
1F
100
AcDbEntity
  8
LC-004-003-----0
 62
     7
370
    25
100
AcDbDimension
  2
*D11
 10
233.849845
 20
-18.014054
 30
0.0
 11
154.615864
 21
12.785946
 31
0.0
 70
   160
 71
     5
 42
145.0
  3
LC-DIM-L-0140-02-02
100
AcDbAlignedDimension
 13
88.849845
 23
-102.483088
 33
0.0
 14
233.849845
 24
-102.483088
 34
0.0
100
AcDbRotatedDimension
  0
ENDSEC
  0
SECTION
  2
OBJECTS
  0
DICTIONARY
  5
C
330
0
100
AcDbDictionary
281
     1
  3
ACAD_GROUP
350
D
  3
ACAD_LAYOUT
350
1A
  3
ACAD_MLINESTYLE
350
17
  3
ACAD_PLOTSETTINGS
350
19
  3
ACAD_PLOTSTYLENAME
350
E
  0
DICTIONARY
  5
D
102
{ACAD_REACTORS
330
C
102
}
330
C
100
AcDbDictionary
281
     1
  3
LCGROUP11
350
108
  0
DICTIONARY
  5
1A
102
{ACAD_REACTORS
330
C
102
}
330
C
100
AcDbDictionary
281
     1
  3
Layout1
350
1E
  3
Layout2
350
26
  3
Model
350
22
  0
DICTIONARY
  5
17
102
{ACAD_REACTORS
330
C
102
}
330
C
100
AcDbDictionary
281
     1
  3
Standard
350
18
  0
DICTIONARY
  5
19
102
{ACAD_REACTORS
330
C
102
}
330
C
100
AcDbDictionary
281
     1
  0
ACDBDICTIONARYWDFLT
  5
E
102
{ACAD_REACTORS
330
C
102
}
330
C
100
AcDbDictionary
281
     1
  3
Normal
350
F
100
AcDbDictionaryWithDefault
340
F
  0
GROUP
  5
108
102
{ACAD_REACTORS
330
D
102
}
330
D
100
AcDbGroup
300
GRP11
 70
     1
 71
     1
340
32
  0
LAYOUT
  5
1E
102
{ACAD_REACTORS
330
1A
102
}
330
1A
100
AcDbPlotSettings
  1

  2

  4

  6

 40
0.0
 41
0.0
 42
0.0
 43
0.0
 44
0.0
 45
0.0
 46
0.0
 47
0.0
 48
0.0
 49
0.0
140
0.0
141
0.0
142
1.0
143
1.0
 70
   688
 72
     0
 73
     0
 74
     5
  7

 75
    16
147
1.0
148
0.0
149
0.0
100
AcDbLayout
  1
Layout1
 70
     1
 71
     1
 10
-260.187988
 20
-247.14
 11
579.812012
 21
346.86
 12
0.0
 22
0.0
 32
0.0
 14
-260.187988
 24
-247.14
 34
0.0
 15
579.812012
 25
346.86
 35
0.0
146
0.0
 13
0.0
 23
0.0
 33
0.0
 16
1.0
 26
0.0
 36
0.0
 17
0.0
 27
1.0
 37
0.0
 76
     0
330
1B
  0
LAYOUT
  5
26
102
{ACAD_REACTORS
330
1A
102
}
330
1A
100
AcDbPlotSettings
  1

  2

  4

  6

 40
0.0
 41
0.0
 42
0.0
 43
0.0
 44
0.0
 45
0.0
 46
0.0
 47
0.0
 48
0.0
 49
0.0
140
0.0
141
0.0
142
1.0
143
1.0
 70
   688
 72
     0
 73
     0
 74
     5
  7

 75
    16
147
1.0
148
0.0
149
0.0
100
AcDbLayout
  1
Layout2
 70
     1
 71
     2
 10
0.0
 20
0.0
 11
0.0
 21
0.0
 12
0.0
 22
0.0
 32
0.0
 14
0.0
 24
0.0
 34
0.0
 15
0.0
 25
0.0
 35
0.0
146
0.0
 13
0.0
 23
0.0
 33
0.0
 16
1.0
 26
0.0
 36
0.0
 17
0.0
 27
1.0
 37
0.0
 76
     0
330
23
  0
LAYOUT
  5
22
102
{ACAD_REACTORS
330
1A
102
}
330
1A
100
AcDbPlotSettings
  1

  2

  4

  6

 40
0.0
 41
0.0
 42
0.0
 43
0.0
 44
0.0
 45
0.0
 46
0.0
 47
0.0
 48
0.0
 49
0.0
140
0.0
141
0.0
142
1.0
143
1.0
 70
  1776
 72
     0
 73
     0
 74
     0
  7

 75
     0
147
1.0
148
0.0
149
0.0
100
AcDbLayout
  1
Model
 70
     1
 71
     0
 10
-260.187988
 20
-247.14
 11
579.812012
 21
346.86
 12
0.0
 22
0.0
 32
0.0
 14
-260.187988
 24
-247.14
 34
0.0
 15
579.812012
 25
346.86
 35
0.0
146
0.0
 13
0.0
 23
0.0
 33
0.0
 16
1.0
 26
0.0
 36
0.0
 17
0.0
 27
1.0
 37
0.0
 76
     0
330
1F
  0
MLINESTYLE
  5
18
102
{ACAD_REACTORS
330
17
102
}
330
17
100
AcDbMlineStyle
  2
Standard
 70
     0
  3

 62
   256
 51
90.0
 52
90.0
 71
     2
 49
0.5
 62
   256
  6
BYLAYER
 49
-0.5
 62
   256
  6
BYLAYER
  0
ACDBPLACEHOLDER
  5
F
102
{ACAD_REACTORS
330
E
102
}
330
E
  0
ENDSEC
  0
EOF
