  0
SECTION
  2
HEADER
  9
$ACADVER
  1
AC1009
  9
$INSBASE
 10
0.0
 20
0.0
 30
0.0
  9
$EXTMIN
 10
-210.0
 20
-148.5
 30
0.0
  9
$EXTMAX
 10
630.0
 20
445.5
 30
0.0
  9
$LIMMIN
 10
-210.0
 20
-148.5
  9
$LIMMAX
 10
630.0
 20
445.5
  9
$ORTHOMODE
 70
     0
  9
$REGENMODE
 70
     1
  9
$FILLMODE
 70
     1
  9
$QTEXTMODE
 70
     0
  9
$MIRRTEXT
 70
     1
  9
$DRAGMODE
 70
     2
  9
$LTSCALE
 40
2.0
  9
$OSMODE
 70
     0
  9
$ATTMODE
 70
     1
  9
$TEXTSIZE
 40
0.2
  9
$TRACEWID
 40
0.05
  9
$TEXTSTYLE
  7
STANDARD
  9
$CLAYER
  8
0
  9
$CELTYPE
  6
BYLAYER
  9
$CECOLOR
 62
     7
  9
$DIMSCALE
 40
2.0
  9
$DIMASZ
 40
3.5
  9
$DIMEXO
 40
0.0625
  9
$DIMDLI
 40
0.38
  9
$DIMRND
 40
0.0
  9
$DIMDLE
 40
0.0
  9
$DIMEXE
 40
0.18
  9
$DIMTP
 40
0.0
  9
$DIMTM
 40
0.0
  9
$DIMTXT
 40
3.5
  9
$DIMCEN
 40
0.09
  9
$DIMTSZ
 40
0.0
  9
$DIMTOL
 70
     0
  9
$DIMLIM
 70
     0
  9
$DIMTIH
 70
     1
  9
$DIMTOH
 70
     1
  9
$DIMSE1
 70
     0
  9
$DIMSE2
 70
     0
  9
$DIMTAD
 70
     1
  9
$DIMZIN
 70
     0
  9
$DIMBLK
  1

  9
$DIMASO
 70
     1
  9
$DIMSHO
 70
     1
  9
$DIMPOST
  1

  9
$DIMAPOST
  1

  9
$DIMALT
 70
     0
  9
$DIMALTD
 70
     2
  9
$DIMALTF
 40
25.4
  9
$DIMLFAC
 40
1.0
  9
$DIMTOFL
 70
     0
  9
$DIMTVP
 40
0.0
  9
$DIMTIX
 70
     0
  9
$DIMSOXD
 70
     0
  9
$DIMSAH
 70
     0
  9
$DIMBLK1
  1

  9
$DIMBLK2
  1

  9
$DIMSTYLE
  2
STANDARD
  9
$DIMCLRD
 70
     0
  9
$DIMCLRE
 70
     0
  9
$DIMCLRT
 70
     0
  9
$DIMTFAC
 40
1.0
  9
$DIMGAP
 40
0.09
  9
$LUNITS
 70
     2
  9
$LUPREC
 70
     2
  9
$AXISMODE
 70
     0
  9
$AXISUNIT
 10
0.0
 20
0.0
  9
$SKETCHINC
 40
0.1
  9
$FILLETRAD
 40
0.0
  9
$AUNITS
 70
     0
  9
$AUPREC
 70
     0
  9
$MENU
  1
acad
  9
$ELEVATION
 40
0.0
  9
$PELEVATION
 40
0.0
  9
$THICKNESS
 40
0.0
  9
$LIMCHECK
 70
     0
  9
$BLIPMODE
 70
     1
  9
$CHAMFERA
 40
0.0
  9
$CHAMFERB
 40
0.0
  9
$SKPOLY
 70
     0
  9
$TDCREATE
 40
0.000000000
  9
$TDUPDATE
 40
0.000000000
  9
$TDINDWG
 40
0.0000000000
  9
$TDUSRTIMER
 40
0.0000000000
  9
$USRTIMER
 70
     1
  9
$ANGBASE
 50
0.0
  9
$ANGDIR
 70
     0
  9
$PDMODE
 70
     0
  9
$PDSIZE
 40
0.0
  9
$PLINEWID
 40
0.0
  9
$COORDS
 70
     0
  9
$SPLFRAME
 70
     0
  9
$SPLINETYPE
 70
     6
  9
$SPLINESEGS
 70
     8
  9
$ATTDIA
 70
     0
  9
$ATTREQ
 70
     1
  9
$HANDLING
 70
     1
  9
$HANDSEED
  5
482
  9
$SURFTAB1
 70
     6
  9
$SURFTAB2
 70
     6
  9
$SURFTYPE
 70
     6
  9
$SURFU
 70
     6
  9
$SURFV
 70
     6
  9
$UCSNAME
  2

  9
$UCSORG
 10
0.0
 20
0.0
 30
0.0
  9
$UCSXDIR
 10
1.0
 20
0.0
 30
0.0
  9
$UCSYDIR
 10
0.0
 20
1.0
 30
0.0
  9
$PUCSNAME
  2

  9
$PUCSORG
 10
0.0
 20
0.0
 30
0.0
  9
$PUCSXDIR
 10
1.0
 20
0.0
 30
0.0
  9
$PUCSYDIR
 10
0.0
 20
1.0
 30
0.0
  9
$USERI1
 70
     0
  9
$USERI2
 70
     0
  9
$USERI3
 70
     0
  9
$USERI4
 70
     0
  9
$USERI5
 70
     0
  9
$USERR1
 40
0.0
  9
$USERR2
 40
0.0
  9
$USERR3
 40
0.0
  9
$USERR4
 40
0.0
  9
$USERR5
 40
0.0
  9
$WORLDVIEW
 70
     1
  9
$SHADEDGE
 70
     3
  9
$SHADEDIF
 70
    70
  9
$TILEMODE
 70
     1
  9
$MAXACTVP
 70
    16
  9
$PINSBASE
 10
0.0
 20
0.0
 30
0.0
  9
$PLIMCHECK
 70
     0
  9
$PEXTMIN
 10
1.000000E+20
 20
1.000000E+20
 30
1.000000E+20
  9
$PEXTMAX
 10
-1.000000E+20
 20
-1.000000E+20
 30
-1.000000E+20
  9
$PLIMMIN
 10
-210.0
 20
-148.5
  9
$PLIMMAX
 10
630.0
 20
445.5
  9
$UNITMODE
 70
     0
  9
$VISRETAIN
 70
     0
  9
$PLINEGEN
 70
     1
  9
$PSLTSCALE
 70
     0
  9
$TREEDEPTH
 70
  3020
  9
$DWGCODEPAGE
  3
dos850
  0
ENDSEC
  0
SECTION
  2
TABLES
  0
TABLE
  2
VPORT
 70
     1
  0
VPORT
  2
*ACTIVE
 70
     0
 10
0.0
 20
0.0
 11
1.0
 21
1.0
 12
420.0
 22
297.0
 13
0.0
 23
0.0
 14
1.0
 24
1.0
 15
0.0
 25
0.0
 16
0.0
 26
0.0
 36
1.0
 17
-210.0
 27
-148.5
 37
0.0
 40
594.0
 41
1.604229
 42
50.0
 43
0.0
 44
0.0
 50
0.0
 51
0.0
 71
     0
 72
   100
 73
     1
 74
     1
 75
     0
 76
     0
 77
     0
 78
     0
  0
ENDTAB
  0
TABLE
  2
LTYPE
 70
     3
  0
LTYPE
  2
CONTINUOUS
 70
    64
  3
Solid line
 72
    65
 73
     0
 40
0.0
  0
LTYPE
  2
DASHDOT
 70
    64
  3
__ . __ . __ . __ . __
 72
    65
 73
     4
 40
7.5
 49
5.0
 49
-1.25
 49
0.0
 49
-1.25
  0
LTYPE
  2
CENTER
 70
    64
  3
__ . __ . __ . __ . __
 72
    65
 73
     4
 40
7.5
 49
5.0
 49
-1.25
 49
0.0
 49
-1.25
  0
ENDTAB
  0
TABLE
  2
LAYER
 70
    13
  0
LAYER
  2
0
 70
     0
 62
     7
  6
CONTINUOUS
  0
LAYER
  2
LC-INFO-1-2-MM-A3-0
 70
     1
 62
    -1
  6
CONTINUOUS
  0
LAYER
  2
LC-003-003-MTH-0
 70
     0
 62
     2
  6
CONTINUOUS
  0
LAYER
  2
LC-004-003-MTG-0
 70
     0
 62
     2
  6
CONTINUOUS
  0
LAYER
  2
LC-002-003-----0
 70
     0
 62
     2
  6
CONTINUOUS
  0
LAYER
  2
LC-007-005-----0
 70
     0
 62
     2
  6
CONTINUOUS
  0
LAYER
  2
LC-008-000-----0
 70
     0
 62
     7
  6
CONTINUOUS
  0
LAYER
  2
LC-009-000-----0
 70
     0
 62
     7
  6
CONTINUOUS
  0
LAYER
  2
LC-001-002-----0
 70
     0
 62
     1
  6
CONTINUOUS
  0
LAYER
  2
LC-005-002-RND-0
 70
     0
 62
     1
  6
CONTINUOUS
  0
LAYER
  2
LC-006-001-----0
 70
     0
 62
     1
  6
CONTINUOUS
  0
LAYER
  2
LC-010-006-MLN-0
 70
     0
 62
     2
  6
CENTER
  0
LAYER
  2
LC-000
 70
     0
 62
     7
  6
CONTINUOUS
  0
ENDTAB
  0
TABLE
  2
STYLE
 70
     5
  0
STYLE
  2
STANDARD
 70
     0
 40
0.0
 41
1.0
 50
0.0
 71
     0
 42
0.0
  3
txt
  4

  0
STYLE
  2
LC-STANDARD
 70
    64
 40
0.0
 41
1.0
 50
0.0
 71
     0
 42
3.5
  3
MONOTXT
  4

  0
STYLE
  2
LC-TXTSTYLE-150-400-0-0-A2
 70
    64
 40
0.0
 41
1.0
 50
15.0
 71
     0
 42
3.5
  3
MONOTXT
  4

  0
STYLE
  2
LC-TXTSTYLE-0-400-0-0-DIN3
 70
    64
 40
0.0
 41
1.0
 50
0.0
 71
     0
 42
3.5
  3
MONOTXT
  4

  0
STYLE
  2
LC-TXTSTYLE-150-400-0-0-D4
 70
    64
 40
0.0
 41
1.0
 50
15.0
 71
     0
 42
3.5
  3
LC-STANDARD
  4

  0
ENDTAB
  0
TABLE
  2
VIEW
 70
     0
  0
ENDTAB
  0
TABLE
  2
UCS
 70
     0
  0
ENDTAB
  0
TABLE
  2
APPID
 70
     1
  0
APPID
  2
ACAD
 70
     0
  0
ENDTAB
  0
TABLE
  2
DIMSTYLE
 70
     3
  0
DIMSTYLE
  2
STANDARD
 70
     0
  3

  4

  5

  6

  7

 40
1.0
 41
0.18
 42
0.0625
 43
0.38
 44
0.18
 45
0.0
 46
0.0
 47
0.0
 48
0.0
 71
     0
 72
     0
 73
     1
 74
     1
 75
     0
 76
     0
 77
     0
 78
     0
140
0.18
141
0.09
142
0.0
143
25.4
144
1.0
145
0.0
146
1.0
147
0.09
170
     0
171
     2
172
     0
173
     0
174
     0
175
     0
176
     0
177
     0
178
     0
  0
DIMSTYLE
  2
LC-STANDARD
 70
     0
  3

  4

  5

  6

  7

 40
1.0
 41
3.5
 42
0.0
 43
7.5
 44
1.8
 45
0.0
 46
0.0
 47
0.0
 48
0.0
 71
     0
 72
     0
 73
     0
 74
     0
 75
     0
 76
     0
 77
     1
 78
     8
140
3.5
141
0.0
142
0.0
143
25.4
144
1.0
145
0.0
146
0.71
147
1.5
170
     0
171
     2
172
     1
173
     0
174
     0
175
     0
176
     0
177
     0
178
     3
  0
DIMSTYLE
  2
LC-DIM-L-0140-02-02
 70
     0
  3

  4

  5

  6

  7

 40
2.0
 41
3.5
 42
0.0
 43
7.5
 44
1.8
 45
0.0
 46
0.0
 47
0.0
 48
0.0
 71
     0
 72
     0
 73
     0
 74
     0
 75
     0
 76
     0
 77
     1
 78
     8
140
14.0
141
0.0
142
0.0
143
25.4
144
1.0
145
0.0
146
0.71
147
1.5
170
     0
171
     2
172
     0
173
     0
174
     0
175
     0
176
     2
177
     2
178
     8
  0
ENDTAB
  0
ENDSEC
  0
SECTION
  2
BLOCKS
  0
BLOCK
  8
0
  5
24
  2
*D0
 70
    65
 10
0.0
 20
0.0
 30
0.0
  3
*D0
  0
LINE
  8
LC-003-003-MTH-0
  6
CONTINUOUS
  5
26
 10
64.268563
 20
169.637205
 30
0.0
 11
64.268563
 21
212.8
 31
0.0
  0
LINE
  8
LC-003-003-MTH-0
  6
CONTINUOUS
  5
27
 10
164.268563
 20
169.637205
 30
0.0
 11
164.268563
 21
212.8
 31
0.0
  0
LINE
  8
LC-004-003-MTG-0
  6
CONTINUOUS
  5
29
 10
64.268563
 20
196.0
 30
0.0
 11
164.268563
 21
196.0
 31
0.0
  0
LINE
  8
LC-002-003-----0
  6
CONTINUOUS
  5
2B
 10
92.02902
 20
199.654733
 30
0.0
 11
64.268563
 21
196.0
 31
0.0
  0
LINE
  8
LC-002-003-----0
  6
CONTINUOUS
  5
2C
 10
64.268563
 20
196.0
 30
0.0
 11
92.02902
 21
192.345267
 31
0.0
  0
LINE
  8
LC-002-003-----0
  6
CONTINUOUS
  5
2D
 10
92.02902
 20
192.345267
 30
0.0
 11
92.02902
 21
199.654733
 31
0.0
  0
LINE
  8
LC-002-003-----0
  6
CONTINUOUS
  5
2E
 10
92.091301
 20
198.704503
 30
0.0
 11
71.548563
 21
196.0
 31
0.0
  0
LINE
  8
LC-002-003-----0
  6
CONTINUOUS
  5
2F
 10
71.548563
 20
196.0
 30
0.0
 11
92.091301
 21
193.295497
 31
0.0
  0
LINE
  8
LC-002-003-----0
  6
CONTINUOUS
  5
30
 10
92.153582
 20
197.754272
 30
0.0
 11
78.828563
 21
196.0
 31
0.0
  0
LINE
  8
LC-002-003-----0
  6
CONTINUOUS
  5
31
 10
78.828563
 20
196.0
 30
0.0
 11
92.153582
 21
194.245728
 31
0.0
  0
LINE
  8
LC-002-003-----0
  6
CONTINUOUS
  5
32
 10
92.215864
 20
196.804041
 30
0.0
 11
86.108563
 21
196.0
 31
0.0
  0
LINE
  8
LC-002-003-----0
  6
CONTINUOUS
  5
33
 10
86.108563
 20
196.0
 30
0.0
 11
92.215864
 21
195.195959
 31
0.0
  0
LINE
  8
LC-002-003-----0
  6
CONTINUOUS
  5
34
 10
136.508107
 20
192.345267
 30
0.0
 11
164.268563
 21
196.0
 31
0.0
  0
LINE
  8
LC-002-003-----0
  6
CONTINUOUS
  5
35
 10
164.268563
 20
196.0
 30
0.0
 11
136.508107
 21
199.654733
 31
0.0
  0
LINE
  8
LC-002-003-----0
  6
CONTINUOUS
  5
36
 10
136.508107
 20
199.654733
 30
0.0
 11
136.508107
 21
192.345267
 31
0.0
  0
LINE
  8
LC-002-003-----0
  6
CONTINUOUS
  5
37
 10
136.445826
 20
193.295497
 30
0.0
 11
156.988563
 21
196.0
 31
0.0
  0
LINE
  8
LC-002-003-----0
  6
CONTINUOUS
  5
38
 10
156.988563
 20
196.0
 30
0.0
 11
136.445826
 21
198.704503
 31
0.0
  0
LINE
  8
LC-002-003-----0
  6
CONTINUOUS
  5
39
 10
136.383544
 20
194.245728
 30
0.0
 11
149.708563
 21
196.0
 31
0.0
  0
LINE
  8
LC-002-003-----0
  6
CONTINUOUS
  5
3A
 10
149.708563
 20
196.0
 30
0.0
 11
136.383544
 21
197.754272
 31
0.0
  0
LINE
  8
LC-002-003-----0
  6
CONTINUOUS
  5
3B
 10
136.321263
 20
195.195959
 30
0.0
 11
142.428563
 21
196.0
 31
0.0
  0
LINE
  8
LC-002-003-----0
  6
CONTINUOUS
  5
3C
 10
142.428563
 20
196.0
 30
0.0
 11
136.321263
 21
196.804041
 31
0.0
  0
TEXT
  8
LC-002-003-----0
  6
CONTINUOUS
 62
     8
  5
3E
 10
88.852944
 20
203.827554
 30
0.0
 40
28.0
  1
100
 41
0.9
 51
15.0
  7
LC-TXTSTYLE-150-400-0-0-D0
 72
     1
 11
118.616723
 21
203.827554
 31
0.0
  0
ENDBLK
  8
0
  5
3F
  0
BLOCK
  8
0
  5
41
  2
*D1
 70
    65
 10
0.0
 20
0.0
 30
0.0
  3
*D1
  0
LINE
  8
LC-003-003-MTH-0
  6
CONTINUOUS
  5
42
 10
41.768563
 20
25.837205
 30
0.0
 11
41.768563
 21
-56.0
 31
0.0
  0
LINE
  8
LC-003-003-MTH-0
  6
CONTINUOUS
  5
43
 10
186.768563
 20
25.837205
 30
0.0
 11
186.768563
 21
-56.0
 31
0.0
  0
LINE
  8
LC-004-003-MTG-0
  6
CONTINUOUS
  5
44
 10
41.768563
 20
-39.2
 30
0.0
 11
186.768563
 21
-39.2
 31
0.0
  0
LINE
  8
LC-002-003-----0
  6
CONTINUOUS
  5
45
 10
69.52902
 20
-35.545267
 30
0.0
 11
41.768563
 21
-39.2
 31
0.0
  0
LINE
  8
LC-002-003-----0
  6
CONTINUOUS
  5
46
 10
41.768563
 20
-39.2
 30
0.0
 11
69.52902
 21
-42.854733
 31
0.0
  0
LINE
  8
LC-002-003-----0
  6
CONTINUOUS
  5
47
 10
69.52902
 20
-42.854733
 30
0.0
 11
69.52902
 21
-35.545267
 31
0.0
  0
LINE
  8
LC-002-003-----0
  6
CONTINUOUS
  5
48
 10
69.591301
 20
-36.495497
 30
0.0
 11
49.048563
 21
-39.2
 31
0.0
  0
LINE
  8
LC-002-003-----0
  6
CONTINUOUS
  5
49
 10
49.048563
 20
-39.2
 30
0.0
 11
69.591301
 21
-41.904503
 31
0.0
  0
LINE
  8
LC-002-003-----0
  6
CONTINUOUS
  5
4A
 10
69.653582
 20
-37.445728
 30
0.0
 11
56.328563
 21
-39.2
 31
0.0
  0
LINE
  8
LC-002-003-----0
  6
CONTINUOUS
  5
4B
 10
56.328563
 20
-39.2
 30
0.0
 11
69.653582
 21
-40.954272
 31
0.0
  0
LINE
  8
LC-002-003-----0
  6
CONTINUOUS
  5
4C
 10
69.715864
 20
-38.395959
 30
0.0
 11
63.608563
 21
-39.2
 31
0.0
  0
LINE
  8
LC-002-003-----0
  6
CONTINUOUS
  5
4D
 10
63.608563
 20
-39.2
 30
0.0
 11
69.715864
 21
-40.004041
 31
0.0
  0
LINE
  8
LC-002-003-----0
  6
CONTINUOUS
  5
4E
 10
159.008107
 20
-42.854733
 30
0.0
 11
186.768563
 21
-39.2
 31
0.0
  0
LINE
  8
LC-002-003-----0
  6
CONTINUOUS
  5
4F
 10
186.768563
 20
-39.2
 30
0.0
 11
159.008107
 21
-35.545267
 31
0.0
  0
LINE
  8
LC-002-003-----0
  6
CONTINUOUS
  5
50
 10
159.008107
 20
-35.545267
 30
0.0
 11
159.008107
 21
-42.854733
 31
0.0
  0
LINE
  8
LC-002-003-----0
  6
CONTINUOUS
  5
51
 10
158.945826
 20
-41.904503
 30
0.0
 11
179.488563
 21
-39.2
 31
0.0
  0
LINE
  8
LC-002-003-----0
  6
CONTINUOUS
  5
52
 10
179.488563
 20
-39.2
 30
0.0
 11
158.945826
 21
-36.495497
 31
0.0
  0
LINE
  8
LC-002-003-----0
  6
CONTINUOUS
  5
53
 10
158.883544
 20
-40.954272
 30
0.0
 11
172.208563
 21
-39.2
 31
0.0
  0
LINE
  8
LC-002-003-----0
  6
CONTINUOUS
  5
54
 10
172.208563
 20
-39.2
 30
0.0
 11
158.883544
 21
-37.445728
 31
0.0
  0
LINE
  8
LC-002-003-----0
  6
CONTINUOUS
  5
55
 10
158.821263
 20
-40.004041
 30
0.0
 11
164.928563
 21
-39.2
 31
0.0
  0
LINE
  8
LC-002-003-----0
  6
CONTINUOUS
  5
56
 10
164.928563
 20
-39.2
 30
0.0
 11
158.821263
 21
-38.395959
 31
0.0
  0
TEXT
  8
LC-002-003-----0
  6
CONTINUOUS
 62
     8
  5
57
 10
80.519086
 20
-31.372446
 30
0.0
 40
28.0
  1
Ø145
 51
15.0
  7
LC-TXTSTYLE-150-400-0-0-D0
 72
     1
 11
118.616723
 21
-31.372446
 31
0.0
  0
ENDBLK
  8
0
  5
58
  0
BLOCK
  8
0
  5
5A
  2
*D2
 70
    65
 10
0.0
 20
0.0
 30
0.0
  3
*D2
  0
LINE
  8
LC-003-003-MTH-0
  6
CONTINUOUS
  5
5B
 10
63.768563
 20
164.137205
 30
0.0
 11
19.2
 21
164.137205
 31
0.0
  0
LINE
  8
LC-003-003-MTH-0
  6
CONTINUOUS
  5
5C
 10
65.968563
 20
171.337205
 30
0.0
 11
19.2
 21
171.337205
 31
0.0
  0
LINE
  8
LC-002-003-----0
  6
CONTINUOUS
  5
5D
 10
39.654733
 20
136.376749
 30
0.0
 11
36.0
 21
164.137205
 31
0.0
  0
LINE
  8
LC-002-003-----0
  6
CONTINUOUS
  5
5E
 10
36.0
 20
164.137205
 30
0.0
 11
32.345267
 21
136.376749
 31
0.0
  0
LINE
  8
LC-002-003-----0
  6
CONTINUOUS
  5
5F
 10
32.345267
 20
136.376749
 30
0.0
 11
39.654733
 21
136.376749
 31
0.0
  0
LINE
  8
LC-002-003-----0
  6
CONTINUOUS
  5
60
 10
38.704503
 20
136.314468
 30
0.0
 11
36.0
 21
156.857205
 31
0.0
  0
LINE
  8
LC-002-003-----0
  6
CONTINUOUS
  5
61
 10
36.0
 20
156.857205
 30
0.0
 11
33.295497
 21
136.314468
 31
0.0
  0
LINE
  8
LC-002-003-----0
  6
CONTINUOUS
  5
62
 10
37.754272
 20
136.252186
 30
0.0
 11
36.0
 21
149.577205
 31
0.0
  0
LINE
  8
LC-002-003-----0
  6
CONTINUOUS
  5
63
 10
36.0
 20
149.577205
 30
0.0
 11
34.245728
 21
136.252186
 31
0.0
  0
LINE
  8
LC-002-003-----0
  6
CONTINUOUS
  5
64
 10
36.804041
 20
136.189905
 30
0.0
 11
36.0
 21
142.297205
 31
0.0
  0
LINE
  8
LC-002-003-----0
  6
CONTINUOUS
  5
65
 10
36.0
 20
142.297205
 30
0.0
 11
35.195959
 21
136.189905
 31
0.0
  0
LINE
  8
LC-002-003-----0
  6
CONTINUOUS
  5
66
 10
32.345267
 20
199.097661
 30
0.0
 11
36.0
 21
171.337205
 31
0.0
  0
LINE
  8
LC-002-003-----0
  6
CONTINUOUS
  5
67
 10
36.0
 20
171.337205
 30
0.0
 11
39.654733
 21
199.097661
 31
0.0
  0
LINE
  8
LC-002-003-----0
  6
CONTINUOUS
  5
68
 10
39.654733
 20
199.097661
 30
0.0
 11
32.345267
 21
199.097661
 31
0.0
  0
LINE
  8
LC-002-003-----0
  6
CONTINUOUS
  5
69
 10
33.295497
 20
199.159943
 30
0.0
 11
36.0
 21
178.617205
 31
0.0
  0
LINE
  8
LC-002-003-----0
  6
CONTINUOUS
  5
6A
 10
36.0
 20
178.617205
 30
0.0
 11
38.704503
 21
199.159943
 31
0.0
  0
LINE
  8
LC-002-003-----0
  6
CONTINUOUS
  5
6B
 10
34.245728
 20
199.222224
 30
0.0
 11
36.0
 21
185.897205
 31
0.0
  0
LINE
  8
LC-002-003-----0
  6
CONTINUOUS
  5
6C
 10
36.0
 20
185.897205
 30
0.0
 11
37.754272
 21
199.222224
 31
0.0
  0
LINE
  8
LC-002-003-----0
  6
CONTINUOUS
  5
6D
 10
35.195959
 20
199.284506
 30
0.0
 11
36.0
 21
193.177205
 31
0.0
  0
LINE
  8
LC-002-003-----0
  6
CONTINUOUS
  5
6E
 10
36.0
 20
193.177205
 30
0.0
 11
36.804041
 21
199.284506
 31
0.0
  0
LINE
  8
LC-004-003-MTG-0
  6
CONTINUOUS
  5
6F
 10
36.0
 20
124.937205
 30
0.0
 11
36.0
 21
237.099405
 31
0.0
  0
TEXT
  8
LC-002-003-----0
  6
CONTINUOUS
 62
     8
  5
70
 10
28.172446
 20
213.765365
 30
0.0
 40
28.0
  1
7
 50
90.0
 51
15.0
  7
LC-TXTSTYLE-150-400-0-0-D0
  0
ENDBLK
  8
0
  5
71
  0
BLOCK
  8
0
  5
73
  2
*X3
 70
    65
 10
156.418285
 20
150.568526
 30
0.0
  3
*X3
  0
LINE
  8
LC-007-005-----0
  6
CONTINUOUS
  5
75
 10
156.523298
 20
150.866444
 30
0.0
 11
157.494235
 21
151.837381
 31
0.0
  0
LINE
  8
LC-007-005-----0
  6
CONTINUOUS
  5
76
 10
156.965632
 20
154.137205
 30
0.0
 11
157.640909
 21
154.812482
 31
0.0
  0
LINE
  8
LC-007-005-----0
  6
CONTINUOUS
  5
77
 10
156.768563
 20
156.768563
 30
0.0
 11
157.468563
 21
157.468563
 31
0.0
  0
LINE
  8
LC-007-005-----0
  6
CONTINUOUS
  5
78
 10
159.933993
 20
159.933993
 30
0.0
 11
160.971776
 21
160.971776
 31
0.0
  0
LINE
  8
LC-007-005-----0
  6
CONTINUOUS
  5
79
 10
164.385727
 20
164.385727
 30
0.0
 11
164.768563
 21
164.768563
 31
0.0
  0
LINE
  8
LC-007-005-----0
  6
CONTINUOUS
  5
7A
 10
156.805939
 20
159.634366
 30
0.0
 11
157.671402
 21
160.49983
 31
0.0
  0
LINE
  8
LC-007-005-----0
  6
CONTINUOUS
  5
7B
 10
160.368563
 20
163.196991
 30
0.0
 11
161.068563
 21
163.896991
 31
0.0
  0
LINE
  8
LC-007-005-----0
  6
CONTINUOUS
  5
7C
 10
163.568563
 20
166.396991
 30
0.0
 11
164.268563
 21
167.096991
 31
0.0
  0
LINE
  8
LC-007-005-----0
  6
CONTINUOUS
  5
7D
 10
160.368563
 20
166.025418
 30
0.0
 11
161.068563
 21
166.725418
 31
0.0
  0
LINE
  8
LC-007-005-----0
  6
CONTINUOUS
  5
7E
 10
163.568563
 20
169.225418
 30
0.0
 11
164.247449
 21
169.904304
 31
0.0
  0
LINE
  8
LC-007-005-----0
  6
CONTINUOUS
  5
7F
 10
160.368563
 20
168.853845
 30
0.0
 11
161.068563
 21
169.553845
 31
0.0
  0
LINE
  8
LC-007-005-----0
  6
CONTINUOUS
  5
80
 10
162.151924
 20
170.637205
 30
0.0
 11
162.831471
 21
171.316753
 31
0.0
  0
ENDBLK
  8
0
  5
81
  0
BLOCK
  8
0
  5
83
  2
BLK1
 70
    64
 10
0.0
 20
0.0
 30
0.0
  3
BLK1
  0
ENDBLK
  8
0
  5
84
  0
BLOCK
  8
0
  5
86
  2
BLK2
 70
    64
 10
0.0
 20
0.0
 30
0.0
  3
BLK2
  0
ENDBLK
  8
0
  5
87
  0
BLOCK
  8
0
  5
89
  2
BLK3
 70
    64
 10
0.0
 20
0.0
 30
0.0
  3
BLK3
  0
ENDBLK
  8
0
  5
8A
  0
BLOCK
  8
0
  5
8C
  2
BLK4
 70
    64
 10
0.0
 20
0.0
 30
0.0
  3
BLK4
  0
ENDBLK
  8
0
  5
8D
  0
BLOCK
  8
0
  5
8F
  2
BLK5
 70
    64
 10
0.0
 20
0.0
 30
0.0
  3
BLK5
  0
ENDBLK
  8
0
  5
90
  0
BLOCK
  8
0
  5
92
  2
BLK6
 70
    64
 10
0.0
 20
0.0
 30
0.0
  3
BLK6
  0
ENDBLK
  8
0
  5
93
  0
BLOCK
  8
0
  5
95
  2
*X10
 70
    65
 10
68.768324
 20
165.3371
 30
0.0
  3
*X10
  0
LINE
  8
LC-007-005-----0
  6
CONTINUOUS
  5
96
 10
68.768324
 20
165.991063
 30
0.0
 11
69.422287
 21
165.3371
 31
0.0
  0
LINE
  8
LC-007-005-----0
  6
CONTINUOUS
  5
97
 10
68.768324
 20
167.405275
 30
0.0
 11
70.268324
 21
165.905277
 31
0.0
  0
LINE
  8
LC-007-005-----0
  6
CONTINUOUS
  5
98
 10
68.768324
 20
168.819488
 30
0.0
 11
70.268324
 21
167.31949
 31
0.0
  0
LINE
  8
LC-007-005-----0
  6
CONTINUOUS
  5
99
 10
68.914462
 20
170.087563
 30
0.0
 11
70.268324
 21
168.733703
 31
0.0
  0
LINE
  8
LC-007-005-----0
  6
CONTINUOUS
  5
9A
 10
69.518082
 20
170.898156
 30
0.0
 11
70.579139
 21
169.8371
 31
0.0
  0
LINE
  8
LC-007-005-----0
  6
CONTINUOUS
  5
9B
 10
70.510093
 20
171.320359
 30
0.0
 11
71.993354
 21
169.8371
 31
0.0
  0
LINE
  8
LC-007-005-----0
  6
CONTINUOUS
  5
9C
 10
73.768324
 20
168.062132
 30
0.0
 11
74.993358
 21
166.8371
 31
0.0
  0
LINE
  8
LC-007-005-----0
  6
CONTINUOUS
  5
9D
 10
71.907566
 20
171.3371
 30
0.0
 11
73.407568
 21
169.8371
 31
0.0
  0
LINE
  8
LC-007-005-----0
  6
CONTINUOUS
  5
9E
 10
73.768324
 20
169.476345
 30
0.0
 11
75.268324
 21
167.976347
 31
0.0
  0
LINE
  8
LC-007-005-----0
  6
CONTINUOUS
  5
9F
 10
73.321781
 20
171.3371
 30
0.0
 11
75.268324
 21
169.39056
 31
0.0
  0
ENDBLK
  8
0
  5
A0
  0
BLOCK
  8
0
  5
A2
  2
*X11
 70
    65
 10
81.268324
 20
166.8371
 30
0.0
  3
*X11
  0
LINE
  8
LC-007-005-----0
  6
CONTINUOUS
  5
A3
 10
81.268324
 20
167.633205
 30
0.0
 11
82.06443
 21
166.8371
 31
0.0
  0
LINE
  8
LC-007-005-----0
  6
CONTINUOUS
  5
A4
 10
81.268324
 20
169.047418
 30
0.0
 11
82.768324
 21
167.54742
 31
0.0
  0
LINE
  8
LC-007-005-----0
  6
CONTINUOUS
  5
A5
 10
81.364469
 20
170.365486
 30
0.0
 11
82.768324
 21
168.961633
 31
0.0
  0
LINE
  8
LC-007-005-----0
  6
CONTINUOUS
  5
A6
 10
82.011812
 20
171.132357
 30
0.0
 11
83.30707
 21
169.8371
 31
0.0
  0
LINE
  8
LC-007-005-----0
  6
CONTINUOUS
  5
A7
 10
85.768324
 20
167.375849
 30
0.0
 11
86.307074
 21
166.8371
 31
0.0
  0
LINE
  8
LC-007-005-----0
  6
CONTINUOUS
  5
A8
 10
83.221282
 20
171.3371
 30
0.0
 11
84.721284
 21
169.8371
 31
0.0
  0
LINE
  8
LC-007-005-----0
  6
CONTINUOUS
  5
A9
 10
85.768324
 20
168.790062
 30
0.0
 11
87.268324
 21
167.290064
 31
0.0
  0
LINE
  8
LC-007-005-----0
  6
CONTINUOUS
  5
AA
 10
84.635497
 20
171.3371
 30
0.0
 11
87.268324
 21
168.704277
 31
0.0
  0
LINE
  8
LC-007-005-----0
  6
CONTINUOUS
  5
AB
 10
86.083114
 20
171.303698
 30
0.0
 11
87.234921
 21
170.151892
 31
0.0
  0
ENDBLK
  8
0
  5
AC
  0
BLOCK
  8
0
  5
AE
  2
*X12
 70
    65
 10
93.268324
 20
166.8371
 30
0.0
  3
*X12
  0
LINE
  8
LC-007-005-----0
  6
CONTINUOUS
  5
AF
 10
93.268324
 20
166.946922
 30
0.0
 11
93.378146
 21
166.8371
 31
0.0
  0
LINE
  8
LC-007-005-----0
  6
CONTINUOUS
  5
B0
 10
93.268324
 20
168.361135
 30
0.0
 11
94.768324
 21
166.861137
 31
0.0
  0
LINE
  8
LC-007-005-----0
  6
CONTINUOUS
  5
B1
 10
93.268324
 20
169.775348
 30
0.0
 11
94.768324
 21
168.27535
 31
0.0
  0
LINE
  8
LC-007-005-----0
  6
CONTINUOUS
  5
B2
 10
93.636463
 20
170.821422
 30
0.0
 11
94.768324
 21
169.689562
 31
0.0
  0
LINE
  8
LC-007-005-----0
  6
CONTINUOUS
  5
B3
 10
94.550848
 20
171.321251
 30
0.0
 11
96.035
 21
169.8371
 31
0.0
  0
LINE
  8
LC-007-005-----0
  6
CONTINUOUS
  5
B4
 10
97.768324
 20
168.103779
 30
0.0
 11
99.035004
 21
166.8371
 31
0.0
  0
LINE
  8
LC-007-005-----0
  6
CONTINUOUS
  5
B5
 10
95.949213
 20
171.3371
 30
0.0
 11
97.449215
 21
169.8371
 31
0.0
  0
LINE
  8
LC-007-005-----0
  6
CONTINUOUS
  5
B6
 10
97.768324
 20
169.517991
 30
0.0
 11
99.268324
 21
168.017993
 31
0.0
  0
LINE
  8
LC-007-005-----0
  6
CONTINUOUS
  5
B7
 10
97.363427
 20
171.3371
 30
0.0
 11
99.268324
 21
169.432206
 31
0.0
  0
ENDBLK
  8
0
  5
B8
  0
BLOCK
  8
0
  5
BA
  2
*X13
 70
    65
 10
105.268324
 20
166.8371
 30
0.0
  3
*X13
  0
LINE
  8
LC-007-005-----0
  6
CONTINUOUS
  5
BB
 10
105.268324
 20
167.674852
 30
0.0
 11
106.106077
 21
166.8371
 31
0.0
  0
LINE
  8
LC-007-005-----0
  6
CONTINUOUS
  5
BC
 10
105.268324
 20
169.089065
 30
0.0
 11
106.768324
 21
167.589067
 31
0.0
  0
LINE
  8
LC-007-005-----0
  6
CONTINUOUS
  5
BD
 10
105.376126
 20
170.395476
 30
0.0
 11
106.768324
 21
169.003279
 31
0.0
  0
LINE
  8
LC-007-005-----0
  6
CONTINUOUS
  5
BE
 10
106.03833
 20
171.147485
 30
0.0
 11
107.348716
 21
169.8371
 31
0.0
  0
LINE
  8
LC-007-005-----0
  6
CONTINUOUS
  5
BF
 10
107.262929
 20
171.3371
 30
0.0
 11
108.762931
 21
169.8371
 31
0.0
  0
LINE
  8
LC-007-005-----0
  6
CONTINUOUS
  5
C0
 10
108.677143
 20
171.3371
 30
0.0
 11
110.177145
 21
169.8371
 31
0.0
  0
LINE
  8
LC-007-005-----0
  6
CONTINUOUS
  5
C1
 10
110.091358
 20
171.3371
 30
0.0
 11
111.59136
 21
169.8371
 31
0.0
  0
LINE
  8
LC-007-005-----0
  6
CONTINUOUS
  5
C2
 10
111.505572
 20
171.3371
 30
0.0
 11
113.005574
 21
169.8371
 31
0.0
  0
LINE
  8
LC-007-005-----0
  6
CONTINUOUS
  5
C3
 10
112.919787
 20
171.3371
 30
0.0
 11
114.268324
 21
169.988565
 31
0.0
  0
ENDBLK
  8
0
  5
C4
  0
BLOCK
  8
0
  5
C6
  2
*X14
 70
    65
 10
60.568563
 20
150.568526
 30
0.0
  3
*X14
  0
LINE
  8
LC-007-005-----0
  6
CONTINUOUS
  5
C7
 10
71.469453
 20
150.665413
 30
0.0
 11
72.015597
 21
151.211557
 31
0.0
  0
LINE
  8
LC-007-005-----0
  6
CONTINUOUS
  5
C8
 10
70.714698
 20
152.739085
 30
0.0
 11
71.260843
 21
153.285229
 31
0.0
  0
LINE
  8
LC-007-005-----0
  6
CONTINUOUS
  5
C9
 10
71.068563
 20
155.921377
 30
0.0
 11
71.768563
 21
156.621377
 31
0.0
  0
LINE
  8
LC-007-005-----0
  6
CONTINUOUS
  5
CA
 10
71.068563
 20
158.749804
 30
0.0
 11
71.763716
 21
159.444957
 31
0.0
  0
LINE
  8
LC-007-005-----0
  6
CONTINUOUS
  5
CB
 10
69.327537
 20
159.837205
 30
0.0
 11
70.027537
 21
160.537205
 31
0.0
  0
LINE
  8
LC-007-005-----0
  6
CONTINUOUS
  5
CC
 10
67.583819
 20
160.921914
 30
0.0
 11
68.169016
 21
161.507111
 31
0.0
  0
LINE
  8
LC-007-005-----0
  6
CONTINUOUS
  5
CD
 10
67.468563
 20
163.635086
 30
0.0
 11
68.168563
 21
164.335086
 31
0.0
  0
LINE
  8
LC-007-005-----0
  6
CONTINUOUS
  5
CE
 10
67.468563
 20
166.463513
 30
0.0
 11
68.168563
 21
167.163513
 31
0.0
  0
LINE
  8
LC-007-005-----0
  6
CONTINUOUS
  5
CF
 10
64.268556
 20
166.091932
 30
0.0
 11
64.968563
 21
166.79194
 31
0.0
  0
LINE
  8
LC-007-005-----0
  6
CONTINUOUS
  5
D0
 10
67.468563
 20
169.29194
 30
0.0
 11
68.137472
 21
169.960848
 31
0.0
  0
LINE
  8
LC-007-005-----0
  6
CONTINUOUS
  5
D1
 10
64.268563
 20
168.920367
 30
0.0
 11
64.968563
 21
169.620367
 31
0.0
  0
LINE
  8
LC-007-005-----0
  6
CONTINUOUS
  5
D2
 10
65.985402
 20
170.637205
 30
0.0
 11
66.673057
 21
171.324861
 31
0.0
  0
ENDBLK
  8
0
  5
D3
  0
BLOCK
  8
0
  5
D5
  2
BLK7
 70
    64
 10
0.0
 20
0.0
 30
0.0
  3
BLK7
  0
ENDBLK
  8
0
  5
D6
  0
BLOCK
  8
0
  5
D8
  2
BLK8
 70
    64
 10
0.0
 20
0.0
 30
0.0
  3
BLK8
  0
ENDBLK
  8
0
  5
D9
  0
BLOCK
  8
0
  5
DB
  2
*X17
 70
    65
 10
153.26856
 20
165.337175
 30
0.0
  3
*X17
  0
LINE
  8
LC-007-005-----0
  6
CONTINUOUS
  5
DC
 10
153.268561
 20
167.757908
 30
0.0
 11
154.189291
 21
166.837179
 31
0.0
  0
LINE
  8
LC-007-005-----0
  6
CONTINUOUS
  5
DD
 10
153.268562
 20
169.17212
 30
0.0
 11
154.768561
 21
167.672123
 31
0.0
  0
LINE
  8
LC-007-005-----0
  6
CONTINUOUS
  5
DE
 10
153.401142
 20
170.453752
 30
0.0
 11
154.768562
 21
169.086334
 31
0.0
  0
LINE
  8
LC-007-005-----0
  6
CONTINUOUS
  5
DF
 10
158.26856
 20
165.586341
 30
0.0
 11
158.517725
 21
165.337176
 31
0.0
  0
LINE
  8
LC-007-005-----0
  6
CONTINUOUS
  5
E0
 10
154.092781
 20
171.176327
 30
0.0
 11
155.431932
 21
169.837178
 31
0.0
  0
LINE
  8
LC-007-005-----0
  6
CONTINUOUS
  5
E1
 10
158.268561
 20
167.000553
 30
0.0
 11
159.76856
 21
165.500556
 31
0.0
  0
LINE
  8
LC-007-005-----0
  6
CONTINUOUS
  5
E2
 10
155.346144
 20
171.337178
 30
0.0
 11
156.846147
 21
169.837177
 31
0.0
  0
LINE
  8
LC-007-005-----0
  6
CONTINUOUS
  5
E3
 10
158.268561
 20
168.414765
 30
0.0
 11
159.768561
 21
166.914768
 31
0.0
  0
LINE
  8
LC-007-005-----0
  6
CONTINUOUS
  5
E4
 10
156.760359
 20
171.337177
 30
0.0
 11
158.260362
 21
169.837176
 31
0.0
  0
LINE
  8
LC-007-005-----0
  6
CONTINUOUS
  5
E5
 10
158.268562
 20
169.828976
 30
0.0
 11
159.768561
 21
168.328979
 31
0.0
  0
LINE
  8
LC-007-005-----0
  6
CONTINUOUS
  5
E6
 10
158.228079
 20
171.283672
 30
0.0
 11
159.715057
 21
169.796697
 31
0.0
  0
ENDBLK
  8
0
  5
E7
  0
BLOCK
  8
0
  5
E9
  2
*X18
 70
    65
 10
141.26856
 20
166.837184
 30
0.0
  3
*X18
  0
LINE
  8
LC-007-005-----0
  6
CONTINUOUS
  5
EA
 10
141.268561
 20
167.029979
 30
0.0
 11
141.461352
 21
166.837187
 31
0.0
  0
LINE
  8
LC-007-005-----0
  6
CONTINUOUS
  5
EB
 10
141.268562
 20
168.444191
 30
0.0
 11
142.768561
 21
166.944194
 31
0.0
  0
LINE
  8
LC-007-005-----0
  6
CONTINUOUS
  5
EC
 10
141.26871
 20
169.858254
 30
0.0
 11
142.768561
 21
168.358405
 31
0.0
  0
LINE
  8
LC-007-005-----0
  6
CONTINUOUS
  5
ED
 10
141.676108
 20
170.86507
 30
0.0
 11
142.768562
 21
169.772617
 31
0.0
  0
LINE
  8
LC-007-005-----0
  6
CONTINUOUS
  5
EE
 10
142.625083
 20
171.330309
 30
0.0
 11
144.118208
 21
169.837186
 31
0.0
  0
LINE
  8
LC-007-005-----0
  6
CONTINUOUS
  5
EF
 10
145.768561
 20
168.186835
 30
0.0
 11
147.118214
 21
166.837184
 31
0.0
  0
LINE
  8
LC-007-005-----0
  6
CONTINUOUS
  5
F0
 10
144.032421
 20
171.337186
 30
0.0
 11
145.532424
 21
169.837185
 31
0.0
  0
LINE
  8
LC-007-005-----0
  6
CONTINUOUS
  5
F1
 10
145.768562
 20
169.601046
 30
0.0
 11
147.268561
 21
168.101049
 31
0.0
  0
LINE
  8
LC-007-005-----0
  6
CONTINUOUS
  5
F2
 10
145.446636
 20
171.337185
 30
0.0
 11
147.268562
 21
169.515261
 31
0.0
  0
ENDBLK
  8
0
  5
F3
  0
BLOCK
  8
0
  5
F5
  2
*X19
 70
    65
 10
129.26856
 20
166.837191
 30
0.0
  3
*X19
  0
LINE
  8
LC-007-005-----0
  6
CONTINUOUS
  5
F6
 10
129.268561
 20
167.716262
 30
0.0
 11
130.147629
 21
166.837195
 31
0.0
  0
LINE
  8
LC-007-005-----0
  6
CONTINUOUS
  5
F7
 10
129.268562
 20
169.130473
 30
0.0
 11
130.768561
 21
167.630476
 31
0.0
  0
LINE
  8
LC-007-005-----0
  6
CONTINUOUS
  5
F8
 10
129.388447
 20
170.424801
 30
0.0
 11
130.768562
 21
169.044688
 31
0.0
  0
LINE
  8
LC-007-005-----0
  6
CONTINUOUS
  5
F9
 10
130.065329
 20
171.162133
 30
0.0
 11
131.390269
 21
169.837194
 31
0.0
  0
LINE
  8
LC-007-005-----0
  6
CONTINUOUS
  5
FA
 10
133.768561
 20
167.458906
 30
0.0
 11
134.390275
 21
166.837192
 31
0.0
  0
LINE
  8
LC-007-005-----0
  6
CONTINUOUS
  5
FB
 10
131.304482
 20
171.337194
 30
0.0
 11
132.804485
 21
169.837193
 31
0.0
  0
LINE
  8
LC-007-005-----0
  6
CONTINUOUS
  5
FC
 10
133.768562
 20
168.873117
 30
0.0
 11
135.268561
 21
167.37312
 31
0.0
  0
LINE
  8
LC-007-005-----0
  6
CONTINUOUS
  5
FD
 10
132.718697
 20
171.337193
 30
0.0
 11
135.268562
 21
168.787332
 31
0.0
  0
LINE
  8
LC-007-005-----0
  6
CONTINUOUS
  5
FE
 10
134.194724
 20
171.275381
 30
0.0
 11
135.20675
 21
170.263356
 31
0.0
  0
ENDBLK
  8
0
  5
FF
  0
BLOCK
  8
0
  5
101
  2
*X20
 70
    65
 10
114.268562
 20
166.837199
 30
0.0
  3
*X20
  0
LINE
  8
LC-007-005-----0
  6
CONTINUOUS
  5
102
 10
114.268563
 20
169.988327
 30
0.0
 11
114.419684
 21
169.837205
 31
0.0
  0
LINE
  8
LC-007-005-----0
  6
CONTINUOUS
  5
103
 10
114.333897
 20
171.337205
 30
0.0
 11
115.8339
 21
169.837204
 31
0.0
  0
LINE
  8
LC-007-005-----0
  6
CONTINUOUS
  5
104
 10
115.748112
 20
171.337204
 30
0.0
 11
117.248115
 21
169.837203
 31
0.0
  0
LINE
  8
LC-007-005-----0
  6
CONTINUOUS
  5
105
 10
117.162327
 20
171.337203
 30
0.0
 11
118.66233
 21
169.837202
 31
0.0
  0
LINE
  8
LC-007-005-----0
  6
CONTINUOUS
  5
106
 10
118.576543
 20
171.337202
 30
0.0
 11
120.076546
 21
169.837201
 31
0.0
  0
LINE
  8
LC-007-005-----0
  6
CONTINUOUS
  5
107
 10
121.768561
 20
168.145188
 30
0.0
 11
123.076552
 21
166.837199
 31
0.0
  0
LINE
  8
LC-007-005-----0
  6
CONTINUOUS
  5
108
 10
119.990758
 20
171.337201
 30
0.0
 11
121.490761
 21
169.8372
 31
0.0
  0
LINE
  8
LC-007-005-----0
  6
CONTINUOUS
  5
109
 10
121.768562
 20
169.5594
 30
0.0
 11
123.268561
 21
168.059403
 31
0.0
  0
LINE
  8
LC-007-005-----0
  6
CONTINUOUS
  5
10A
 10
121.404974
 20
171.337201
 30
0.0
 11
123.268562
 21
169.473615
 31
0.0
  0
ENDBLK
  8
0
  5
10B
  0
BLOCK
  8
0
  5
10D
  2
BLK9
 70
    64
 10
0.0
 20
0.0
 30
0.0
  3
BLK9
  0
ENDBLK
  8
0
  5
10E
  0
BLOCK
  8
0
  5
110
  2
BLK10
 70
    64
 10
0.0
 20
0.0
 30
0.0
  3
BLK10
  0
ENDBLK
  8
0
  5
111
  0
BLOCK
  8
0
  5
113
  2
BLK11
 70
    64
 10
0.0
 20
0.0
 30
0.0
  3
BLK11
  0
ENDBLK
  8
0
  5
114
  0
BLOCK
  8
0
  5
116
  2
BLK12
 70
    64
 10
0.0
 20
0.0
 30
0.0
  3
BLK12
  0
ENDBLK
  8
0
  5
117
  0
BLOCK
  8
0
  5
119
  2
BLK13
 70
    64
 10
0.0
 20
0.0
 30
0.0
  3
BLK13
  0
ENDBLK
  8
0
  5
11A
  0
BLOCK
  8
0
  5
11C
  2
BLK14
 70
    64
 10
0.0
 20
0.0
 30
0.0
  3
BLK14
  0
ENDBLK
  8
0
  5
11D
  0
BLOCK
  8
0
  5
11F
  2
BLK15
 70
    64
 10
0.0
 20
0.0
 30
0.0
  3
BLK15
  0
ENDBLK
  8
0
  5
120
  0
BLOCK
  8
0
  5
122
  2
BLK16
 70
    64
 10
0.0
 20
0.0
 30
0.0
  3
BLK16
  0
ENDBLK
  8
0
  5
123
  0
BLOCK
  8
0
  5
125
  2
BLK17
 70
    64
 10
0.0
 20
0.0
 30
0.0
  3
BLK17
  0
ENDBLK
  8
0
  5
126
  0
BLOCK
  8
0
  5
128
  2
BLK18
 70
    64
 10
0.0
 20
0.0
 30
0.0
  3
BLK18
  0
ENDBLK
  8
0
  5
129
  0
BLOCK
  8
0
  5
12B
  2
BLK19
 70
    64
 10
0.0
 20
0.0
 30
0.0
  3
BLK19
  0
ENDBLK
  8
0
  5
12C
  0
BLOCK
  8
0
  5
12E
  2
BLK20
 70
    64
 10
0.0
 20
0.0
 30
0.0
  3
BLK20
  0
ENDBLK
  8
0
  5
12F
  0
BLOCK
  8
0
  5
131
  2
BLK21
 70
    64
 10
0.0
 20
0.0
 30
0.0
  3
BLK21
  0
ENDBLK
  8
0
  5
132
  0
BLOCK
  8
0
  5
134
  2
BLK22
 70
    64
 10
0.0
 20
0.0
 30
0.0
  3
BLK22
  0
ENDBLK
  8
0
  5
135
  0
BLOCK
  8
0
  5
137
  2
BLK23
 70
    64
 10
0.0
 20
0.0
 30
0.0
  3
BLK23
  0
ENDBLK
  8
0
  5
138
  0
BLOCK
  8
0
  5
13A
  2
BLK24
 70
    64
 10
0.0
 20
0.0
 30
0.0
  3
BLK24
  0
ENDBLK
  8
0
  5
13B
  0
BLOCK
  8
0
  5
13D
  2
BLK25
 70
    64
 10
0.0
 20
0.0
 30
0.0
  3
BLK25
  0
ENDBLK
  8
0
  5
13E
  0
BLOCK
  8
0
  5
140
  2
BLK26
 70
    64
 10
0.0
 20
0.0
 30
0.0
  3
BLK26
  0
ENDBLK
  8
0
  5
141
  0
BLOCK
  8
0
  5
143
  2
BLK27
 70
    64
 10
0.0
 20
0.0
 30
0.0
  3
BLK27
  0
ENDBLK
  8
0
  5
144
  0
BLOCK
  8
0
  5
146
  2
BLK28
 70
    64
 10
0.0
 20
0.0
 30
0.0
  3
BLK28
  0
ENDBLK
  8
0
  5
147
  0
BLOCK
  8
0
  5
149
  2
BLK29
 70
    64
 10
0.0
 20
0.0
 30
0.0
  3
BLK29
  0
ENDBLK
  8
0
  5
14A
  0
BLOCK
  8
0
  5
14C
  2
BLK30
 70
    64
 10
0.0
 20
0.0
 30
0.0
  3
BLK30
  0
ENDBLK
  8
0
  5
14D
  0
BLOCK
  8
0
  5
14F
  2
BLK31
 70
    64
 10
0.0
 20
0.0
 30
0.0
  3
BLK31
  0
ENDBLK
  8
0
  5
150
  0
BLOCK
  8
0
  5
152
  2
BLK32
 70
    64
 10
0.0
 20
0.0
 30
0.0
  3
BLK32
  0
ENDBLK
  8
0
  5
153
  0
BLOCK
  8
0
  5
155
  2
BLK33
 70
    64
 10
0.0
 20
0.0
 30
0.0
  3
BLK33
  0
ENDBLK
  8
0
  5
156
  0
BLOCK
  8
0
  5
158
  2
BLK34
 70
    64
 10
0.0
 20
0.0
 30
0.0
  3
BLK34
  0
ENDBLK
  8
0
  5
159
  0
BLOCK
  8
0
  5
15B
  2
BLK35
 70
    64
 10
0.0
 20
0.0
 30
0.0
  3
BLK35
  0
ENDBLK
  8
0
  5
15C
  0
BLOCK
  8
0
  5
15E
  2
BLK36
 70
    64
 10
0.0
 20
0.0
 30
0.0
  3
BLK36
  0
ENDBLK
  8
0
  5
15F
  0
BLOCK
  8
0
  5
161
  2
BLK37
 70
    64
 10
0.0
 20
0.0
 30
0.0
  3
BLK37
  0
ENDBLK
  8
0
  5
162
  0
BLOCK
  8
0
  5
164
  2
BLK38
 70
    64
 10
0.0
 20
0.0
 30
0.0
  3
BLK38
  0
ENDBLK
  8
0
  5
165
  0
BLOCK
  8
0
  5
167
  2
BLK39
 70
    64
 10
0.0
 20
0.0
 30
0.0
  3
BLK39
  0
ENDBLK
  8
0
  5
168
  0
BLOCK
  8
0
  5
16A
  2
BLK40
 70
    64
 10
0.0
 20
0.0
 30
0.0
  3
BLK40
  0
ENDBLK
  8
0
  5
16B
  0
BLOCK
  8
0
  5
16D
  2
BLK41
 70
    64
 10
0.0
 20
0.0
 30
0.0
  3
BLK41
  0
ENDBLK
  8
0
  5
16E
  0
BLOCK
  8
0
  5
170
  2
BLK42
 70
    64
 10
0.0
 20
0.0
 30
0.0
  3
BLK42
  0
ENDBLK
  8
0
  5
171
  0
BLOCK
  8
0
  5
173
  2
BLK43
 70
    64
 10
0.0
 20
0.0
 30
0.0
  3
BLK43
  0
ENDBLK
  8
0
  5
174
  0
BLOCK
  8
0
  5
176
  2
BLK44
 70
    64
 10
0.0
 20
0.0
 30
0.0
  3
BLK44
  0
ENDBLK
  8
0
  5
177
  0
BLOCK
  8
0
  5
179
  2
BLK45
 70
    64
 10
0.0
 20
0.0
 30
0.0
  3
BLK45
  0
ENDBLK
  8
0
  5
17A
  0
BLOCK
  8
0
  5
17C
  2
BLK46
 70
    64
 10
0.0
 20
0.0
 30
0.0
  3
BLK46
  0
ENDBLK
  8
0
  5
17D
  0
BLOCK
  8
0
  5
17F
  2
BLK47
 70
    64
 10
0.0
 20
0.0
 30
0.0
  3
BLK47
  0
ENDBLK
  8
0
  5
180
  0
BLOCK
  8
0
  5
182
  2
BLK48
 70
    64
 10
0.0
 20
0.0
 30
0.0
  3
BLK48
  0
ENDBLK
  8
0
  5
183
  0
BLOCK
  8
0
  5
185
  2
BLK49
 70
    64
 10
0.0
 20
0.0
 30
0.0
  3
BLK49
  0
ENDBLK
  8
0
  5
186
  0
BLOCK
  8
0
  5
188
  2
BLK50
 70
    64
 10
0.0
 20
0.0
 30
0.0
  3
BLK50
  0
ENDBLK
  8
0
  5
189
  0
BLOCK
  8
0
  5
18B
  2
BLK51
 70
    64
 10
0.0
 20
0.0
 30
0.0
  3
BLK51
  0
ENDBLK
  8
0
  5
18C
  0
BLOCK
  8
0
  5
18E
  2
BLK52
 70
    64
 10
0.0
 20
0.0
 30
0.0
  3
BLK52
  0
ENDBLK
  8
0
  5
18F
  0
BLOCK
  8
0
  5
191
  2
BLK53
 70
    64
 10
0.0
 20
0.0
 30
0.0
  3
BLK53
  0
ENDBLK
  8
0
  5
192
  0
BLOCK
  8
0
  5
194
  2
BLK54
 70
    64
 10
0.0
 20
0.0
 30
0.0
  3
BLK54
  0
ENDBLK
  8
0
  5
195
  0
BLOCK
  8
0
  5
197
  2
BLK55
 70
    64
 10
0.0
 20
0.0
 30
0.0
  3
BLK55
  0
ENDBLK
  8
0
  5
198
  0
BLOCK
  8
0
  5
19A
  2
BLK56
 70
    64
 10
0.0
 20
0.0
 30
0.0
  3
BLK56
  0
ENDBLK
  8
0
  5
19B
  0
BLOCK
  8
0
  5
19D
  2
BLK57
 70
    64
 10
0.0
 20
0.0
 30
0.0
  3
BLK57
  0
ENDBLK
  8
0
  5
19E
  0
BLOCK
  8
0
  5
1A0
  2
BLK58
 70
    64
 10
0.0
 20
0.0
 30
0.0
  3
BLK58
  0
ENDBLK
  8
0
  5
1A1
  0
BLOCK
  8
0
  5
1A3
  2
BLK59
 70
    64
 10
0.0
 20
0.0
 30
0.0
  3
BLK59
  0
ENDBLK
  8
0
  5
1A4
  0
BLOCK
  8
0
  5
1A6
  2
BLK60
 70
    64
 10
0.0
 20
0.0
 30
0.0
  3
BLK60
  0
ENDBLK
  8
0
  5
1A7
  0
BLOCK
  8
0
  5
1A9
  2
BLK61
 70
    64
 10
0.0
 20
0.0
 30
0.0
  3
BLK61
  0
ENDBLK
  8
0
  5
1AA
  0
BLOCK
  8
0
  5
1AC
  2
BLK62
 70
    64
 10
0.0
 20
0.0
 30
0.0
  3
BLK62
  0
ENDBLK
  8
0
  5
1AD
  0
BLOCK
  8
0
  5
1AF
  2
BLK63
 70
    64
 10
0.0
 20
0.0
 30
0.0
  3
BLK63
  0
ENDBLK
  8
0
  5
1B0
  0
BLOCK
  8
0
  5
1B2
  2
BLK64
 70
    64
 10
0.0
 20
0.0
 30
0.0
  3
BLK64
  0
ENDBLK
  8
0
  5
1B3
  0
BLOCK
  8
0
  5
1B5
  2
BLK65
 70
    64
 10
0.0
 20
0.0
 30
0.0
  3
BLK65
  0
ENDBLK
  8
0
  5
1B6
  0
BLOCK
  8
0
  5
1B8
  2
BLK66
 70
    64
 10
0.0
 20
0.0
 30
0.0
  3
BLK66
  0
ENDBLK
  8
0
  5
1B9
  0
BLOCK
  8
0
  5
1BB
  2
BLK67
 70
    64
 10
0.0
 20
0.0
 30
0.0
  3
BLK67
  0
ENDBLK
  8
0
  5
1BC
  0
BLOCK
  8
0
  5
1BE
  2
BLK68
 70
    64
 10
0.0
 20
0.0
 30
0.0
  3
BLK68
  0
ENDBLK
  8
0
  5
1BF
  0
BLOCK
  8
0
  5
1C1
  2
BLK69
 70
    64
 10
0.0
 20
0.0
 30
0.0
  3
BLK69
  0
ENDBLK
  8
0
  5
1C2
  0
BLOCK
  8
0
  5
1C4
  2
BLK70
 70
    64
 10
0.0
 20
0.0
 30
0.0
  3
BLK70
  0
ENDBLK
  8
0
  5
1C5
  0
BLOCK
  8
0
  5
1C7
  2
BLK71
 70
    64
 10
0.0
 20
0.0
 30
0.0
  3
BLK71
  0
ENDBLK
  8
0
  5
1C8
  0
BLOCK
  8
0
  5
1CA
  2
BLK72
 70
    64
 10
0.0
 20
0.0
 30
0.0
  3
BLK72
  0
ENDBLK
  8
0
  5
1CB
  0
BLOCK
  8
0
  5
1CD
  2
*X85
 70
    65
 10
44.768563
 20
21.337205
 30
0.0
  3
*X85
  0
LINE
  8
LC-007-005-----0
  6
CONTINUOUS
  5
1CE
 10
111.846873
 20
21.337205
 30
0.0
 11
114.268563
 21
23.758895
 31
0.0
  0
LINE
  8
LC-007-005-----0
  6
CONTINUOUS
  5
1CF
 10
106.190019
 20
21.337205
 30
0.0
 11
114.268563
 21
29.41575
 31
0.0
  0
LINE
  8
LC-007-005-----0
  6
CONTINUOUS
  5
1D0
 10
100.533165
 20
21.337205
 30
0.0
 11
114.268563
 21
35.072604
 31
0.0
  0
LINE
  8
LC-007-005-----0
  6
CONTINUOUS
  5
1D1
 10
94.87631
 20
21.337205
 30
0.0
 11
114.268563
 21
40.729458
 31
0.0
  0
LINE
  8
LC-007-005-----0
  6
CONTINUOUS
  5
1D2
 10
89.219456
 20
21.337205
 30
0.0
 11
112.219456
 21
44.337205
 31
0.0
  0
LINE
  8
LC-007-005-----0
  6
CONTINUOUS
  5
1D3
 10
83.562602
 20
21.337205
 30
0.0
 11
106.562602
 21
44.337205
 31
0.0
  0
LINE
  8
LC-007-005-----0
  6
CONTINUOUS
  5
1D4
 10
77.905748
 20
21.337205
 30
0.0
 11
100.905748
 21
44.337205
 31
0.0
  0
LINE
  8
LC-007-005-----0
  6
CONTINUOUS
  5
1D5
 10
72.248893
 20
21.337205
 30
0.0
 11
95.248893
 21
44.337205
 31
0.0
  0
LINE
  8
LC-007-005-----0
  6
CONTINUOUS
  5
1D6
 10
66.592039
 20
21.337205
 30
0.0
 11
89.592039
 21
44.337205
 31
0.0
  0
LINE
  8
LC-007-005-----0
  6
CONTINUOUS
  5
1D7
 10
60.935185
 20
21.337205
 30
0.0
 11
83.935185
 21
44.337205
 31
0.0
  0
LINE
  8
LC-007-005-----0
  6
CONTINUOUS
  5
1D8
 10
55.278331
 20
21.337205
 30
0.0
 11
78.278331
 21
44.337205
 31
0.0
  0
LINE
  8
LC-007-005-----0
  6
CONTINUOUS
  5
1D9
 10
49.621476
 20
21.337205
 30
0.0
 11
72.621476
 21
44.337205
 31
0.0
  0
LINE
  8
LC-007-005-----0
  6
CONTINUOUS
  5
1DA
 10
44.768563
 20
22.141146
 30
0.0
 11
66.964622
 21
44.337205
 31
0.0
  0
LINE
  8
LC-007-005-----0
  6
CONTINUOUS
  5
1DB
 10
44.768563
 20
27.798001
 30
0.0
 11
61.307768
 21
44.337205
 31
0.0
  0
LINE
  8
LC-007-005-----0
  6
CONTINUOUS
  5
1DC
 10
44.768563
 20
33.454855
 30
0.0
 11
55.650914
 21
44.337205
 31
0.0
  0
LINE
  8
LC-007-005-----0
  6
CONTINUOUS
  5
1DD
 10
44.768563
 20
39.111709
 30
0.0
 11
49.994059
 21
44.337205
 31
0.0
  0
LINE
  8
LC-007-005-----0
  6
CONTINUOUS
  5
1DE
 10
114.268563
 20
44.123356
 30
0.0
 11
114.054714
 21
44.337205
 31
0.0
  0
LINE
  8
LC-007-005-----0
  6
CONTINUOUS
  5
1DF
 10
114.268563
 20
38.466501
 30
0.0
 11
108.39786
 21
44.337205
 31
0.0
  0
LINE
  8
LC-007-005-----0
  6
CONTINUOUS
  5
1E0
 10
114.268563
 20
32.809647
 30
0.0
 11
102.741005
 21
44.337205
 31
0.0
  0
LINE
  8
LC-007-005-----0
  6
CONTINUOUS
  5
1E1
 10
114.268563
 20
27.152793
 30
0.0
 11
97.084151
 21
44.337205
 31
0.0
  0
LINE
  8
LC-007-005-----0
  6
CONTINUOUS
  5
1E2
 10
114.268563
 20
21.495939
 30
0.0
 11
91.427297
 21
44.337205
 31
0.0
  0
LINE
  8
LC-007-005-----0
  6
CONTINUOUS
  5
1E3
 10
108.770443
 20
21.337205
 30
0.0
 11
85.770443
 21
44.337205
 31
0.0
  0
LINE
  8
LC-007-005-----0
  6
CONTINUOUS
  5
1E4
 10
103.113588
 20
21.337205
 30
0.0
 11
80.113588
 21
44.337205
 31
0.0
  0
LINE
  8
LC-007-005-----0
  6
CONTINUOUS
  5
1E5
 10
97.456734
 20
21.337205
 30
0.0
 11
74.456734
 21
44.337205
 31
0.0
  0
LINE
  8
LC-007-005-----0
  6
CONTINUOUS
  5
1E6
 10
91.79988
 20
21.337205
 30
0.0
 11
68.79988
 21
44.337205
 31
0.0
  0
LINE
  8
LC-007-005-----0
  6
CONTINUOUS
  5
1E7
 10
86.143026
 20
21.337205
 30
0.0
 11
63.143026
 21
44.337205
 31
0.0
  0
LINE
  8
LC-007-005-----0
  6
CONTINUOUS
  5
1E8
 10
80.486171
 20
21.337205
 30
0.0
 11
57.486171
 21
44.337205
 31
0.0
  0
LINE
  8
LC-007-005-----0
  6
CONTINUOUS
  5
1E9
 10
74.829317
 20
21.337205
 30
0.0
 11
51.829317
 21
44.337205
 31
0.0
  0
LINE
  8
LC-007-005-----0
  6
CONTINUOUS
  5
1EA
 10
69.172463
 20
21.337205
 30
0.0
 11
46.172463
 21
44.337205
 31
0.0
  0
LINE
  8
LC-007-005-----0
  6
CONTINUOUS
  5
1EB
 10
63.515609
 20
21.337205
 30
0.0
 11
44.768563
 21
40.08425
 31
0.0
  0
LINE
  8
LC-007-005-----0
  6
CONTINUOUS
  5
1EC
 10
57.858754
 20
21.337205
 30
0.0
 11
44.768563
 21
34.427396
 31
0.0
  0
LINE
  8
LC-007-005-----0
  6
CONTINUOUS
  5
1ED
 10
52.2019
 20
21.337205
 30
0.0
 11
44.768563
 21
28.770542
 31
0.0
  0
LINE
  8
LC-007-005-----0
  6
CONTINUOUS
  5
1EE
 10
46.545046
 20
21.337205
 30
0.0
 11
44.768563
 21
23.113688
 31
0.0
  0
ENDBLK
  8
0
  5
1EF
  0
BLOCK
  8
0
  5
1F1
  2
*X86
 70
    65
 10
114.268563
 20
21.337205
 30
0.0
  3
*X86
  0
LINE
  8
LC-007-005-----0
  6
CONTINUOUS
  5
1F2
 10
179.729124
 20
21.337205
 30
0.0
 11
183.768563
 21
25.376644
 31
0.0
  0
LINE
  8
LC-007-005-----0
  6
CONTINUOUS
  5
1F3
 10
174.07227
 20
21.337205
 30
0.0
 11
183.768563
 21
31.033499
 31
0.0
  0
LINE
  8
LC-007-005-----0
  6
CONTINUOUS
  5
1F4
 10
168.415416
 20
21.337205
 30
0.0
 11
183.768563
 21
36.690353
 31
0.0
  0
LINE
  8
LC-007-005-----0
  6
CONTINUOUS
  5
1F5
 10
162.758561
 20
21.337205
 30
0.0
 11
183.768563
 21
42.347207
 31
0.0
  0
LINE
  8
LC-007-005-----0
  6
CONTINUOUS
  5
1F6
 10
157.101707
 20
21.337205
 30
0.0
 11
180.101707
 21
44.337205
 31
0.0
  0
LINE
  8
LC-007-005-----0
  6
CONTINUOUS
  5
1F7
 10
151.444853
 20
21.337205
 30
0.0
 11
174.444853
 21
44.337205
 31
0.0
  0
LINE
  8
LC-007-005-----0
  6
CONTINUOUS
  5
1F8
 10
145.787999
 20
21.337205
 30
0.0
 11
168.787999
 21
44.337205
 31
0.0
  0
LINE
  8
LC-007-005-----0
  6
CONTINUOUS
  5
1F9
 10
140.131144
 20
21.337205
 30
0.0
 11
163.131144
 21
44.337205
 31
0.0
  0
LINE
  8
LC-007-005-----0
  6
CONTINUOUS
  5
1FA
 10
134.47429
 20
21.337205
 30
0.0
 11
157.47429
 21
44.337205
 31
0.0
  0
LINE
  8
LC-007-005-----0
  6
CONTINUOUS
  5
1FB
 10
128.817436
 20
21.337205
 30
0.0
 11
151.817436
 21
44.337205
 31
0.0
  0
LINE
  8
LC-007-005-----0
  6
CONTINUOUS
  5
1FC
 10
123.160582
 20
21.337205
 30
0.0
 11
146.160582
 21
44.337205
 31
0.0
  0
LINE
  8
LC-007-005-----0
  6
CONTINUOUS
  5
1FD
 10
117.503727
 20
21.337205
 30
0.0
 11
140.503727
 21
44.337205
 31
0.0
  0
LINE
  8
LC-007-005-----0
  6
CONTINUOUS
  5
1FE
 10
114.268563
 20
23.758895
 30
0.0
 11
134.846873
 21
44.337205
 31
0.0
  0
LINE
  8
LC-007-005-----0
  6
CONTINUOUS
  5
1FF
 10
114.268563
 20
29.41575
 30
0.0
 11
129.190019
 21
44.337205
 31
0.0
  0
LINE
  8
LC-007-005-----0
  6
CONTINUOUS
  5
200
 10
114.268563
 20
35.072604
 30
0.0
 11
123.533165
 21
44.337205
 31
0.0
  0
LINE
  8
LC-007-005-----0
  6
CONTINUOUS
  5
201
 10
114.268563
 20
40.729458
 30
0.0
 11
117.87631
 21
44.337205
 31
0.0
  0
LINE
  8
LC-007-005-----0
  6
CONTINUOUS
  5
202
 10
183.768563
 20
42.505607
 30
0.0
 11
181.936965
 21
44.337205
 31
0.0
  0
LINE
  8
LC-007-005-----0
  6
CONTINUOUS
  5
203
 10
183.768563
 20
36.848752
 30
0.0
 11
176.280111
 21
44.337205
 31
0.0
  0
LINE
  8
LC-007-005-----0
  6
CONTINUOUS
  5
204
 10
183.768563
 20
31.191898
 30
0.0
 11
170.623256
 21
44.337205
 31
0.0
  0
LINE
  8
LC-007-005-----0
  6
CONTINUOUS
  5
205
 10
183.768563
 20
25.535044
 30
0.0
 11
164.966402
 21
44.337205
 31
0.0
  0
LINE
  8
LC-007-005-----0
  6
CONTINUOUS
  5
206
 10
182.309548
 20
21.337205
 30
0.0
 11
159.309548
 21
44.337205
 31
0.0
  0
LINE
  8
LC-007-005-----0
  6
CONTINUOUS
  5
207
 10
176.652694
 20
21.337205
 30
0.0
 11
153.652694
 21
44.337205
 31
0.0
  0
LINE
  8
LC-007-005-----0
  6
CONTINUOUS
  5
208
 10
170.995839
 20
21.337205
 30
0.0
 11
147.995839
 21
44.337205
 31
0.0
  0
LINE
  8
LC-007-005-----0
  6
CONTINUOUS
  5
209
 10
165.338985
 20
21.337205
 30
0.0
 11
142.338985
 21
44.337205
 31
0.0
  0
LINE
  8
LC-007-005-----0
  6
CONTINUOUS
  5
20A
 10
159.682131
 20
21.337205
 30
0.0
 11
136.682131
 21
44.337205
 31
0.0
  0
LINE
  8
LC-007-005-----0
  6
CONTINUOUS
  5
20B
 10
154.025277
 20
21.337205
 30
0.0
 11
131.025277
 21
44.337205
 31
0.0
  0
LINE
  8
LC-007-005-----0
  6
CONTINUOUS
  5
20C
 10
148.368422
 20
21.337205
 30
0.0
 11
125.368422
 21
44.337205
 31
0.0
  0
LINE
  8
LC-007-005-----0
  6
CONTINUOUS
  5
20D
 10
142.711568
 20
21.337205
 30
0.0
 11
119.711568
 21
44.337205
 31
0.0
  0
LINE
  8
LC-007-005-----0
  6
CONTINUOUS
  5
20E
 10
137.054714
 20
21.337205
 30
0.0
 11
114.268563
 21
44.123356
 31
0.0
  0
LINE
  8
LC-007-005-----0
  6
CONTINUOUS
  5
20F
 10
131.39786
 20
21.337205
 30
0.0
 11
114.268563
 21
38.466501
 31
0.0
  0
LINE
  8
LC-007-005-----0
  6
CONTINUOUS
  5
210
 10
125.741005
 20
21.337205
 30
0.0
 11
114.268563
 21
32.809647
 31
0.0
  0
LINE
  8
LC-007-005-----0
  6
CONTINUOUS
  5
211
 10
120.084151
 20
21.337205
 30
0.0
 11
114.268563
 21
27.152793
 31
0.0
  0
LINE
  8
LC-007-005-----0
  6
CONTINUOUS
  5
212
 10
114.427297
 20
21.337205
 30
0.0
 11
114.268563
 21
21.495939
 31
0.0
  0
ENDBLK
  8
0
  5
213
  0
BLOCK
  8
0
  5
215
  2
*D87
 70
    65
 10
0.0
 20
0.0
 30
0.0
  3
*D87
  0
LINE
  8
LC-003-003-MTH-0
  6
CONTINUOUS
  5
216
 10
183.768563
 20
21.337205
 30
0.0
 11
252.0
 21
21.337205
 31
0.0
  0
LINE
  8
LC-003-003-MTH-0
  6
CONTINUOUS
  5
217
 10
183.768563
 20
44.337205
 30
0.0
 11
252.0
 21
44.337205
 31
0.0
  0
LINE
  8
LC-002-003-----0
  6
CONTINUOUS
  5
218
 10
238.854733
 20
-6.423251
 30
0.0
 11
235.2
 21
21.337205
 31
0.0
  0
LINE
  8
LC-002-003-----0
  6
CONTINUOUS
  5
219
 10
235.2
 20
21.337205
 30
0.0
 11
231.545267
 21
-6.423251
 31
0.0
  0
LINE
  8
LC-002-003-----0
  6
CONTINUOUS
  5
21A
 10
231.545267
 20
-6.423251
 30
0.0
 11
238.854733
 21
-6.423251
 31
0.0
  0
LINE
  8
LC-002-003-----0
  6
CONTINUOUS
  5
21B
 10
237.904503
 20
-6.485532
 30
0.0
 11
235.2
 21
14.057205
 31
0.0
  0
LINE
  8
LC-002-003-----0
  6
CONTINUOUS
  5
21C
 10
235.2
 20
14.057205
 30
0.0
 11
232.495497
 21
-6.485532
 31
0.0
  0
LINE
  8
LC-002-003-----0
  6
CONTINUOUS
  5
21D
 10
236.954272
 20
-6.547814
 30
0.0
 11
235.2
 21
6.777205
 31
0.0
  0
LINE
  8
LC-002-003-----0
  6
CONTINUOUS
  5
21E
 10
235.2
 20
6.777205
 30
0.0
 11
233.445728
 21
-6.547814
 31
0.0
  0
LINE
  8
LC-002-003-----0
  6
CONTINUOUS
  5
21F
 10
236.004041
 20
-6.610095
 30
0.0
 11
235.2
 21
-0.502795
 31
0.0
  0
LINE
  8
LC-002-003-----0
  6
CONTINUOUS
  5
220
 10
235.2
 20
-0.502795
 30
0.0
 11
234.395959
 21
-6.610095
 31
0.0
  0
LINE
  8
LC-002-003-----0
  6
CONTINUOUS
  5
221
 10
231.545267
 20
72.097661
 30
0.0
 11
235.2
 21
44.337205
 31
0.0
  0
LINE
  8
LC-002-003-----0
  6
CONTINUOUS
  5
222
 10
235.2
 20
44.337205
 30
0.0
 11
238.854733
 21
72.097661
 31
0.0
  0
LINE
  8
LC-002-003-----0
  6
CONTINUOUS
  5
223
 10
238.854733
 20
72.097661
 30
0.0
 11
231.545267
 21
72.097661
 31
0.0
  0
LINE
  8
LC-002-003-----0
  6
CONTINUOUS
  5
224
 10
232.495497
 20
72.159943
 30
0.0
 11
235.2
 21
51.617205
 31
0.0
  0
LINE
  8
LC-002-003-----0
  6
CONTINUOUS
  5
225
 10
235.2
 20
51.617205
 30
0.0
 11
237.904503
 21
72.159943
 31
0.0
  0
LINE
  8
LC-002-003-----0
  6
CONTINUOUS
  5
226
 10
233.445728
 20
72.222224
 30
0.0
 11
235.2
 21
58.897205
 31
0.0
  0
LINE
  8
LC-002-003-----0
  6
CONTINUOUS
  5
227
 10
235.2
 20
58.897205
 30
0.0
 11
236.954272
 21
72.222224
 31
0.0
  0
LINE
  8
LC-002-003-----0
  6
CONTINUOUS
  5
228
 10
234.395959
 20
72.284506
 30
0.0
 11
235.2
 21
66.177205
 31
0.0
  0
LINE
  8
LC-002-003-----0
  6
CONTINUOUS
  5
229
 10
235.2
 20
66.177205
 30
0.0
 11
236.004041
 21
72.284506
 31
0.0
  0
LINE
  8
LC-004-003-MTG-0
  6
CONTINUOUS
  5
22A
 10
235.2
 20
-17.862795
 30
0.0
 11
235.2
 21
127.701605
 31
0.0
  0
TEXT
  8
LC-002-003-----0
  6
CONTINUOUS
 62
     8
  5
22B
 10
227.372446
 20
86.765365
 30
0.0
 40
28.0
  1
23
 50
90.0
 51
15.0
  7
LC-TXTSTYLE-150-400-0-0-D0
  0
ENDBLK
  8
0
  5
22C
  0
BLOCK
  8
0
  5
22E
  2
*D88
 70
    65
 10
0.0
 20
0.0
 30
0.0
  3
*D88
  0
LINE
  8
LC-003-003-MTH-0
  6
CONTINUOUS
  5
22F
 10
183.768563
 20
44.337205
 30
0.0
 11
291.2
 21
44.337205
 31
0.0
  0
LINE
  8
LC-003-003-MTH-0
  6
CONTINUOUS
  5
230
 10
162.068563
 20
171.337205
 30
0.0
 11
291.2
 21
171.337205
 31
0.0
  0
LINE
  8
LC-004-003-MTG-0
  6
CONTINUOUS
  5
231
 10
274.4
 20
44.337205
 30
0.0
 11
274.4
 21
171.337205
 31
0.0
  0
LINE
  8
LC-002-003-----0
  6
CONTINUOUS
  5
232
 10
270.745267
 20
72.097661
 30
0.0
 11
274.4
 21
44.337205
 31
0.0
  0
LINE
  8
LC-002-003-----0
  6
CONTINUOUS
  5
233
 10
274.4
 20
44.337205
 30
0.0
 11
278.054733
 21
72.097661
 31
0.0
  0
LINE
  8
LC-002-003-----0
  6
CONTINUOUS
  5
234
 10
278.054733
 20
72.097661
 30
0.0
 11
270.745267
 21
72.097661
 31
0.0
  0
LINE
  8
LC-002-003-----0
  6
CONTINUOUS
  5
235
 10
271.695497
 20
72.159943
 30
0.0
 11
274.4
 21
51.617205
 31
0.0
  0
LINE
  8
LC-002-003-----0
  6
CONTINUOUS
  5
236
 10
274.4
 20
51.617205
 30
0.0
 11
277.104503
 21
72.159943
 31
0.0
  0
LINE
  8
LC-002-003-----0
  6
CONTINUOUS
  5
237
 10
272.645728
 20
72.222224
 30
0.0
 11
274.4
 21
58.897205
 31
0.0
  0
LINE
  8
LC-002-003-----0
  6
CONTINUOUS
  5
238
 10
274.4
 20
58.897205
 30
0.0
 11
276.154272
 21
72.222224
 31
0.0
  0
LINE
  8
LC-002-003-----0
  6
CONTINUOUS
  5
239
 10
273.595959
 20
72.284506
 30
0.0
 11
274.4
 21
66.177205
 31
0.0
  0
LINE
  8
LC-002-003-----0
  6
CONTINUOUS
  5
23A
 10
274.4
 20
66.177205
 30
0.0
 11
275.204041
 21
72.284506
 31
0.0
  0
LINE
  8
LC-002-003-----0
  6
CONTINUOUS
  5
23B
 10
278.054733
 20
143.576749
 30
0.0
 11
274.4
 21
171.337205
 31
0.0
  0
LINE
  8
LC-002-003-----0
  6
CONTINUOUS
  5
23C
 10
274.4
 20
171.337205
 30
0.0
 11
270.745267
 21
143.576749
 31
0.0
  0
LINE
  8
LC-002-003-----0
  6
CONTINUOUS
  5
23D
 10
270.745267
 20
143.576749
 30
0.0
 11
278.054733
 21
143.576749
 31
0.0
  0
LINE
  8
LC-002-003-----0
  6
CONTINUOUS
  5
23E
 10
277.104503
 20
143.514468
 30
0.0
 11
274.4
 21
164.057205
 31
0.0
  0
LINE
  8
LC-002-003-----0
  6
CONTINUOUS
  5
23F
 10
274.4
 20
164.057205
 30
0.0
 11
271.695497
 21
143.514468
 31
0.0
  0
LINE
  8
LC-002-003-----0
  6
CONTINUOUS
  5
240
 10
276.154272
 20
143.452186
 30
0.0
 11
274.4
 21
156.777205
 31
0.0
  0
LINE
  8
LC-002-003-----0
  6
CONTINUOUS
  5
241
 10
274.4
 20
156.777205
 30
0.0
 11
272.645728
 21
143.452186
 31
0.0
  0
LINE
  8
LC-002-003-----0
  6
CONTINUOUS
  5
242
 10
275.204041
 20
143.389905
 30
0.0
 11
274.4
 21
149.497205
 31
0.0
  0
LINE
  8
LC-002-003-----0
  6
CONTINUOUS
  5
243
 10
274.4
 20
149.497205
 30
0.0
 11
273.595959
 21
143.389905
 31
0.0
  0
TEXT
  8
LC-002-003-----0
  6
CONTINUOUS
 62
     8
  5
244
 10
266.572446
 20
47.201113
 30
0.0
 40
28.0
  1
12-127
 50
90.0
 51
15.0
  7
LC-TXTSTYLE-150-400-0-0-D0
 72
     1
 11
266.572446
 21
112.185365
 31
0.0
  0
ENDBLK
  8
0
  5
245
  0
ENDSEC
  0
SECTION
  2
ENTITIES
  0
VIEWPORT
  8
LC-000
  5
438
 67
     1
 68
     1
 10
420.0
 20
297.0
 30
0.0
 40
840.0
 41
594.0
 69
     1
1001
ACAD
1000
MVIEW
1002
{
1070
    16
1010
0.0
1020
0.0
1030
0.0
1010
0.0
1020
0.0
1030
1.0
1040
0.0
1040
594.0
1040
420.0
1040
297.0
1040
50.0
1040
0.0
1040
0.0
1070
     0
1070
   100
1070
     1
1070
     1
1070
     0
1070
     0
1070
     0
1070
     0
1040
0.0
1040
0.0
1040
0.0
1040
1.0
1040
1.0
1040
0.0
1040
0.0
1070
     0
1002
{
1002
}
1002
}
  0
VIEWPORT
  8
0
  5
439
 67
     1
 68
     1
 10
0.0
 20
0.0
 30
0.0
 40
0.0
 41
0.0
 69
     1
1001
ACAD
1000
MVIEW
1002
{
1070
    16
1010
0.0
1020
0.0
1030
0.0
1010
0.0
1020
0.0
1030
1.0
1040
0.0
1040
594.0
1040
0.0
1040
0.0
1040
50.0
1040
0.0
1040
0.0
1070
     0
1070
   100
1070
     0
1070
     1
1070
     0
1070
     0
1070
     0
1070
     0
1040
0.0
1040
0.0
1040
0.0
1040
0.5
1040
0.5
1040
0.5
1040
0.5
1070
     0
1002
{
1002
}
1002
}
  0
DIMENSION
  8
0
  5
246
  2
*D0
 10
114.268563
 20
196.0
 30
0.0
 11
114.268563
 21
196.0
 31
0.0
 13
64.268563
 23
169.637205
 33
0.0
 14
164.268563
 24
169.637205
 34
0.0
  3
LC-DIM-L-0140-02-02
  0
DIMENSION
  8
0
  5
247
  2
*D1
 10
114.268563
 20
-39.2
 30
0.0
 11
114.268563
 21
-39.2
 31
0.0
  1
%%c<>
 13
41.768563
 23
25.837205
 33
0.0
 14
186.768563
 24
25.837205
 34
0.0
  3
LC-DIM-L-0140-02-02
  0
DIMENSION
  8
0
  5
248
  2
*D2
 10
36.0
 20
167.737205
 30
0.0
 11
36.0
 21
167.737205
 31
0.0
  1
7
 13
65.968563
 23
171.337205
 33
0.0
 14
63.768563
 24
164.137205
 34
0.0
 50
90.0
  3
LC-DIM-L-0140-02-02
  0
INSERT
  8
0
  5
249
  2
*X3
 10
156.418285
 20
150.568526
 30
0.0
  0
INSERT
  8
0
  5
24B
  2
BLK1
 10
0.0
 20
0.0
 30
0.0
  0
INSERT
  8
0
  5
24C
  2
BLK2
 10
0.0
 20
0.0
 30
0.0
  0
INSERT
  8
0
  5
24D
  2
BLK3
 10
0.0
 20
0.0
 30
0.0
  0
INSERT
  8
0
  5
24E
  2
BLK4
 10
0.0
 20
0.0
 30
0.0
  0
INSERT
  8
0
  5
250
  2
BLK5
 10
0.0
 20
0.0
 30
0.0
  0
INSERT
  8
0
  5
251
  2
BLK6
 10
0.0
 20
0.0
 30
0.0
  0
INSERT
  8
0
  5
252
  2
*X10
 10
68.768324
 20
165.3371
 30
0.0
  0
INSERT
  8
0
  5
253
  2
*X11
 10
81.268324
 20
166.8371
 30
0.0
  0
INSERT
  8
0
  5
254
  2
*X12
 10
93.268324
 20
166.8371
 30
0.0
  0
INSERT
  8
0
  5
255
  2
*X13
 10
105.268324
 20
166.8371
 30
0.0
  0
INSERT
  8
0
  5
256
  2
*X14
 10
60.568563
 20
150.568526
 30
0.0
  0
INSERT
  8
0
  5
257
  2
BLK7
 10
0.0
 20
0.0
 30
0.0
  0
INSERT
  8
0
  5
258
  2
BLK8
 10
0.0
 20
0.0
 30
0.0
  0
INSERT
  8
0
  5
259
  2
*X17
 10
153.26856
 20
165.337175
 30
0.0
  0
INSERT
  8
0
  5
25A
  2
*X18
 10
141.26856
 20
166.837184
 30
0.0
  0
INSERT
  8
0
  5
25B
  2
*X19
 10
129.26856
 20
166.837191
 30
0.0
  0
INSERT
  8
0
  5
25C
  2
*X20
 10
114.268562
 20
166.837199
 30
0.0
  0
INSERT
  8
0
  5
25D
  2
BLK9
 10
0.0
 20
0.0
 30
0.0
  0
INSERT
  8
0
  5
25E
  2
BLK10
 10
0.0
 20
0.0
 30
0.0
  0
INSERT
  8
0
  5
25F
  2
BLK11
 10
0.0
 20
0.0
 30
0.0
  0
INSERT
  8
0
  5
260
  2
BLK12
 10
0.0
 20
0.0
 30
0.0
  0
INSERT
  8
0
  5
261
  2
BLK13
 10
0.0
 20
0.0
 30
0.0
  0
INSERT
  8
0
  5
262
  2
BLK14
 10
0.0
 20
0.0
 30
0.0
  0
INSERT
  8
0
  5
263
  2
BLK15
 10
0.0
 20
0.0
 30
0.0
  0
INSERT
  8
0
  5
264
  2
BLK16
 10
0.0
 20
0.0
 30
0.0
  0
INSERT
  8
0
  5
265
  2
BLK17
 10
0.0
 20
0.0
 30
0.0
  0
INSERT
  8
0
  5
266
  2
BLK18
 10
0.0
 20
0.0
 30
0.0
  0
INSERT
  8
0
  5
267
  2
BLK19
 10
0.0
 20
0.0
 30
0.0
  0
INSERT
  8
0
  5
268
  2
BLK20
 10
0.0
 20
0.0
 30
0.0
  0
INSERT
  8
0
  5
269
  2
BLK21
 10
0.0
 20
0.0
 30
0.0
  0
INSERT
  8
0
  5
26A
  2
BLK22
 10
0.0
 20
0.0
 30
0.0
  0
INSERT
  8
0
  5
26B
  2
BLK23
 10
0.0
 20
0.0
 30
0.0
  0
INSERT
  8
0
  5
26C
  2
BLK24
 10
0.0
 20
0.0
 30
0.0
  0
INSERT
  8
0
  5
26D
  2
BLK25
 10
0.0
 20
0.0
 30
0.0
  0
INSERT
  8
0
  5
26E
  2
BLK26
 10
0.0
 20
0.0
 30
0.0
  0
INSERT
  8
0
  5
26F
  2
BLK27
 10
0.0
 20
0.0
 30
0.0
  0
INSERT
  8
0
  5
270
  2
BLK28
 10
0.0
 20
0.0
 30
0.0
  0
INSERT
  8
0
  5
271
  2
BLK29
 10
0.0
 20
0.0
 30
0.0
  0
INSERT
  8
0
  5
272
  2
BLK30
 10
0.0
 20
0.0
 30
0.0
  0
INSERT
  8
0
  5
273
  2
BLK31
 10
0.0
 20
0.0
 30
0.0
  0
INSERT
  8
0
  5
274
  2
BLK32
 10
0.0
 20
0.0
 30
0.0
  0
INSERT
  8
0
  5
275
  2
BLK33
 10
0.0
 20
0.0
 30
0.0
  0
INSERT
  8
0
  5
276
  2
BLK34
 10
0.0
 20
0.0
 30
0.0
  0
INSERT
  8
0
  5
277
  2
BLK35
 10
0.0
 20
0.0
 30
0.0
  0
INSERT
  8
0
  5
278
  2
BLK36
 10
0.0
 20
0.0
 30
0.0
  0
INSERT
  8
0
  5
279
  2
BLK37
 10
0.0
 20
0.0
 30
0.0
  0
INSERT
  8
0
  5
27A
  2
BLK38
 10
0.0
 20
0.0
 30
0.0
  0
INSERT
  8
0
  5
27B
  2
BLK39
 10
0.0
 20
0.0
 30
0.0
  0
INSERT
  8
0
  5
27C
  2
BLK40
 10
0.0
 20
0.0
 30
0.0
  0
INSERT
  8
0
  5
27D
  2
BLK41
 10
0.0
 20
0.0
 30
0.0
  0
INSERT
  8
0
  5
27E
  2
BLK42
 10
0.0
 20
0.0
 30
0.0
  0
INSERT
  8
0
  5
27F
  2
BLK43
 10
0.0
 20
0.0
 30
0.0
  0
INSERT
  8
0
  5
280
  2
BLK44
 10
0.0
 20
0.0
 30
0.0
  0
INSERT
  8
0
  5
281
  2
BLK45
 10
0.0
 20
0.0
 30
0.0
  0
INSERT
  8
0
  5
282
  2
BLK46
 10
0.0
 20
0.0
 30
0.0
  0
INSERT
  8
0
  5
283
  2
BLK47
 10
0.0
 20
0.0
 30
0.0
  0
INSERT
  8
0
  5
284
  2
BLK48
 10
0.0
 20
0.0
 30
0.0
  0
INSERT
  8
0
  5
285
  2
BLK49
 10
0.0
 20
0.0
 30
0.0
  0
INSERT
  8
0
  5
286
  2
BLK50
 10
0.0
 20
0.0
 30
0.0
  0
INSERT
  8
0
  5
287
  2
BLK51
 10
0.0
 20
0.0
 30
0.0
  0
INSERT
  8
0
  5
288
  2
BLK52
 10
0.0
 20
0.0
 30
0.0
  0
INSERT
  8
0
  5
289
  2
BLK53
 10
0.0
 20
0.0
 30
0.0
  0
INSERT
  8
0
  5
28A
  2
BLK54
 10
0.0
 20
0.0
 30
0.0
  0
INSERT
  8
0
  5
28B
  2
BLK55
 10
0.0
 20
0.0
 30
0.0
  0
INSERT
  8
0
  5
28C
  2
BLK56
 10
0.0
 20
0.0
 30
0.0
  0
INSERT
  8
0
  5
28D
  2
BLK57
 10
0.0
 20
0.0
 30
0.0
  0
INSERT
  8
0
  5
28E
  2
BLK58
 10
0.0
 20
0.0
 30
0.0
  0
INSERT
  8
0
  5
28F
  2
BLK59
 10
0.0
 20
0.0
 30
0.0
  0
INSERT
  8
0
  5
290
  2
BLK60
 10
0.0
 20
0.0
 30
0.0
  0
INSERT
  8
0
  5
291
  2
BLK61
 10
0.0
 20
0.0
 30
0.0
  0
INSERT
  8
0
  5
292
  2
BLK62
 10
0.0
 20
0.0
 30
0.0
  0
INSERT
  8
0
  5
293
  2
BLK63
 10
0.0
 20
0.0
 30
0.0
  0
INSERT
  8
0
  5
294
  2
BLK64
 10
0.0
 20
0.0
 30
0.0
  0
INSERT
  8
0
  5
295
  2
BLK65
 10
0.0
 20
0.0
 30
0.0
  0
INSERT
  8
0
  5
296
  2
BLK66
 10
0.0
 20
0.0
 30
0.0
  0
INSERT
  8
0
  5
297
  2
BLK67
 10
0.0
 20
0.0
 30
0.0
  0
INSERT
  8
0
  5
298
  2
BLK68
 10
0.0
 20
0.0
 30
0.0
  0
INSERT
  8
0
  5
299
  2
BLK69
 10
0.0
 20
0.0
 30
0.0
  0
INSERT
  8
0
  5
29A
  2
BLK70
 10
0.0
 20
0.0
 30
0.0
  0
INSERT
  8
0
  5
29B
  2
BLK71
 10
0.0
 20
0.0
 30
0.0
  0
INSERT
  8
0
  5
29C
  2
BLK72
 10
0.0
 20
0.0
 30
0.0
  0
INSERT
  8
0
  5
29D
  2
*X85
 10
44.768563
 20
21.337205
 30
0.0
  0
INSERT
  8
0
  5
29E
  2
*X86
 10
114.268563
 20
21.337205
 30
0.0
  0
DIMENSION
  8
0
  5
29F
  2
*D87
 10
235.2
 20
32.837205
 30
0.0
 11
235.2
 21
32.837205
 31
0.0
 13
183.768563
 23
21.337205
 33
0.0
 14
183.768563
 24
44.337205
 34
0.0
 50
90.0
  3
LC-DIM-L-0140-02-02
  0
DIMENSION
  8
0
  5
2A0
  2
*D88
 10
274.4
 20
107.837205
 30
0.0
 11
274.4
 21
107.837205
 31
0.0
  1
12-127
 13
183.768563
 23
44.337205
 33
0.0
 14
162.068563
 24
171.337205
 34
0.0
 50
90.0
  3
LC-DIM-L-0140-02-02
  0
LINE
  8
LC-001-002-----0
  6
CONTINUOUS
  5
2A2
 10
183.768563
 20
137.337205
 30
0.0
 11
183.768563
 21
21.337205
 31
0.0
  0
LINE
  8
LC-001-002-----0
  6
CONTINUOUS
  5
2A3
 10
114.268563
 20
150.337205
 30
0.0
 11
158.268563
 21
150.337205
 31
0.0
  0
LINE
  8
LC-001-002-----0
  6
CONTINUOUS
  5
2A4
 10
44.768563
 20
137.337205
 30
0.0
 11
44.768563
 21
21.337205
 31
0.0
  0
LINE
  8
LC-001-002-----0
  6
CONTINUOUS
  5
2A5
 10
114.268563
 20
150.337205
 30
0.0
 11
70.268563
 21
150.337205
 31
0.0
  0
LINE
  8
LC-001-002-----0
  6
CONTINUOUS
  5
2A6
 10
84.263872
 20
150.337205
 30
0.0
 11
66.19675
 21
137.337205
 31
0.0
  0
LINE
  8
LC-001-002-----0
  6
CONTINUOUS
  5
2A7
 10
144.273255
 20
150.337205
 30
0.0
 11
162.340377
 21
137.337205
 31
0.0
  0
LINE
  8
LC-001-002-----0
  6
CONTINUOUS
  5
2A8
 10
349.268563
 20
148.820652
 30
0.0
 11
306.268563
 21
148.820652
 31
0.0
  0
LINE
  8
LC-001-002-----0
  6
CONTINUOUS
 62
     2
  5
2A9
 10
76.759496
 20
221.712
 30
0.0
 11
91.940457
 21
221.712
 31
0.0
  0
LINE
  8
LC-001-002-----0
  6
CONTINUOUS
  5
2AA
 10
303.268563
 20
59.820652
 30
0.0
 11
303.268563
 21
145.820652
 31
0.0
  0
LINE
  8
LC-001-002-----0
  6
CONTINUOUS
  5
2AB
 10
349.268563
 20
148.820652
 30
0.0
 11
392.268563
 21
148.820652
 31
0.0
  0
LINE
  8
LC-001-002-----0
  6
CONTINUOUS
  5
2AC
 10
395.268563
 20
59.820652
 30
0.0
 11
395.268563
 21
145.820652
 31
0.0
  0
LINE
  8
LC-001-002-----0
  6
CONTINUOUS
 62
     2
  5
2AD
 10
76.759496
 20
206.712
 30
0.0
 11
91.940457
 21
206.712
 31
0.0
  0
LINE
  8
LC-001-002-----0
  6
CONTINUOUS
  5
2AE
 10
349.268563
 20
56.820652
 30
0.0
 11
306.268563
 21
56.820652
 31
0.0
  0
LINE
  8
LC-001-002-----0
  6
CONTINUOUS
  5
2AF
 10
349.268563
 20
56.820652
 30
0.0
 11
392.268563
 21
56.820652
 31
0.0
  0
ARC
  8
LC-005-002-RND-0
  6
CONTINUOUS
  5
2B1
 10
392.268563
 20
145.820652
 30
0.0
 40
3.0
 50
0.0
 51
90.0
  0
ARC
  8
LC-005-002-RND-0
  6
CONTINUOUS
  5
2B2
 10
392.268563
 20
59.820652
 30
0.0
 40
3.0
 50
270.0
 51
0.0
  0
LINE
  8
LC-001-002-----0
  6
CONTINUOUS
 62
     2
  5
2B3
 10
91.940457
 20
206.712
 30
0.0
 11
91.940457
 21
221.712
 31
0.0
  0
ARC
  8
LC-005-002-RND-0
  6
CONTINUOUS
  5
2B4
 10
306.268563
 20
59.820652
 30
0.0
 40
3.0
 50
180.0
 51
270.0
  0
ARC
  8
LC-005-002-RND-0
  6
CONTINUOUS
  5
2B5
 10
306.268563
 20
145.820652
 30
0.0
 40
3.0
 50
90.0
 51
180.0
  0
LINE
  8
LC-001-002-----0
  6
CONTINUOUS
 62
     2
  5
2B6
 10
76.759496
 20
221.712
 30
0.0
 11
76.759496
 21
206.712
 31
0.0
  0
LINE
  8
LC-001-002-----0
  6
CONTINUOUS
  5
2B7
 10
70.268563
 20
150.337205
 30
0.0
 11
51.768563
 21
150.337205
 31
0.0
  0
LINE
  8
LC-001-002-----0
  6
CONTINUOUS
  5
2B8
 10
158.064519
 20
159.837205
 30
0.0
 11
161.268563
 21
159.837205
 31
0.0
  0
LINE
  8
LC-001-002-----0
  6
CONTINUOUS
  5
2B9
 10
44.768563
 20
137.337205
 30
0.0
 11
44.768563
 21
143.337205
 31
0.0
  0
LINE
  8
LC-001-002-----0
  6
CONTINUOUS
  5
2BA
 10
158.195317
 20
153.763589
 30
0.0
 11
157.03241
 21
150.568526
 31
0.0
  0
LINE
  8
LC-001-002-----0
  6
CONTINUOUS
  5
2BB
 10
66.468563
 20
171.337205
 30
0.0
 11
162.068563
 21
171.337205
 31
0.0
  0
LINE
  8
LC-001-002-----0
  6
CONTINUOUS
  5
2BC
 10
68.768324
 20
165.3371
 30
0.0
 11
159.768559
 21
165.3371
 31
0.0
  0
ARC
  8
LC-001-002-----0
  6
CONTINUOUS
  5
2BD
 10
375.268563
 20
138.820652
 30
0.0
 40
3.0
 50
270.000117
 51
90.00004
  0
ARC
  8
LC-001-002-----0
  6
CONTINUOUS
  5
2BE
 10
364.268563
 20
126.820652
 30
0.0
 40
3.0
 50
270.000117
 51
90.00004
  0
LINE
  8
LC-001-002-----0
  6
CONTINUOUS
  5
2BF
 10
364.268563
 20
129.820652
 30
0.0
 11
349.268563
 21
129.820652
 31
0.0
  0
LINE
  8
LC-001-002-----0
  6
CONTINUOUS
  5
2C0
 10
364.268563
 20
123.820652
 30
0.0
 11
349.268563
 21
123.820652
 31
0.0
  0
LINE
  8
LC-001-002-----0
  6
CONTINUOUS
  5
2C1
 10
157.586378
 20
154.137205
 30
0.0
 11
156.418285
 21
150.927895
 31
0.0
  0
ARC
  8
LC-001-002-----0
  6
CONTINUOUS
  5
2C2
 10
157.443563
 20
154.037205
 30
0.0
 40
0.8
 50
340.0
 51
88.209215
  0
LINE
  8
LC-006-001-----0
  6
CONTINUOUS
  5
2C4
 10
157.468563
 20
159.337205
 30
0.0
 11
157.468563
 21
154.837205
 31
0.0
  0
LINE
  8
LC-001-002-----0
  6
CONTINUOUS
  5
2C5
 10
375.268563
 20
141.820652
 30
0.0
 11
349.268563
 21
141.820652
 31
0.0
  0
LINE
  8
LC-001-002-----0
  6
CONTINUOUS
  5
2C6
 10
375.268563
 20
135.820652
 30
0.0
 11
349.268563
 21
135.820652
 31
0.0
  0
ARC
  8
LC-001-002-----0
  6
CONTINUOUS
  5
2C7
 10
323.268749
 20
138.820978
 30
0.0
 40
3.0
 50
89.999829
 51
269.999846
  0
ARC
  8
LC-001-002-----0
  6
CONTINUOUS
  5
2C8
 10
334.268741
 20
126.820971
 30
0.0
 40
3.0
 50
89.999829
 51
269.999846
  0
ARC
  8
LC-006-001-----0
  6
CONTINUOUS
  5
2C9
 10
157.968563
 20
159.337205
 30
0.0
 40
0.5
 50
90.0
 51
180.0
  0
LINE
  8
LC-006-001-----0
  6
CONTINUOUS
  5
2CA
 10
159.368563
 20
160.537205
 30
0.0
 11
157.968563
 21
160.537205
 31
0.0
  0
LINE
  8
LC-006-001-----0
  6
CONTINUOUS
  5
2CB
 10
157.968563
 20
159.837205
 30
0.0
 11
161.268563
 21
159.837205
 31
0.0
  0
LINE
  8
LC-001-002-----0
  6
CONTINUOUS
  5
2CC
 10
334.268743
 20
129.820971
 30
0.0
 11
349.268743
 21
129.820961
 31
0.0
  0
LINE
  8
LC-001-002-----0
  6
CONTINUOUS
  5
2CD
 10
334.268739
 20
123.820971
 30
0.0
 11
349.268739
 21
123.820961
 31
0.0
  0
LINE
  8
LC-001-002-----0
  6
CONTINUOUS
  5
2CE
 10
323.268751
 20
141.820978
 30
0.0
 11
349.268751
 21
141.820961
 31
0.0
  0
LINE
  8
LC-001-002-----0
  6
CONTINUOUS
  5
2CF
 10
70.268324
 20
165.3371
 30
0.0
 11
70.268324
 21
169.8371
 31
0.0
  0
ARC
  8
LC-006-001-----0
  6
CONTINUOUS
  5
2D0
 10
159.368563
 20
161.537205
 30
0.0
 40
1.0
 50
270.0
 51
0.0
  0
ARC
  8
LC-006-001-----0
  6
CONTINUOUS
  5
2D1
 10
159.368563
 20
161.537205
 30
0.0
 40
1.7
 50
270.0
 51
0.0
  0
LINE
  8
LC-001-002-----0
  6
CONTINUOUS
  5
2D2
 10
81.268324
 20
166.8371
 30
0.0
 11
82.768324
 21
166.8371
 31
0.0
  0
LINE
  8
LC-001-002-----0
  6
CONTINUOUS
  5
2D3
 10
82.768324
 20
166.8371
 30
0.0
 11
82.768324
 21
169.8371
 31
0.0
  0
LINE
  8
LC-001-002-----0
  6
CONTINUOUS
  5
2D4
 10
82.768324
 20
169.8371
 30
0.0
 11
85.768324
 21
169.8371
 31
0.0
  0
LINE
  8
LC-001-002-----0
  6
CONTINUOUS
  5
2D5
 10
85.768324
 20
169.8371
 30
0.0
 11
85.768324
 21
166.8371
 31
0.0
  0
LINE
  8
LC-001-002-----0
  6
CONTINUOUS
  5
2D6
 10
85.768324
 20
166.8371
 30
0.0
 11
87.268324
 21
166.8371
 31
0.0
  0
ARC
  8
LC-005-002-RND-0
  6
CONTINUOUS
  5
2D7
 10
176.768563
 20
143.337205
 30
0.0
 40
10.0
 50
0.0
 51
90.0
  0
LINE
  8
LC-001-002-----0
  6
CONTINUOUS
  5
2D8
 10
186.768563
 20
143.337205
 30
0.0
 11
186.768563
 21
25.837205
 31
0.0
  0
LINE
  8
LC-001-002-----0
  6
CONTINUOUS
  5
2D9
 10
164.461698
 20
137.337205
 30
0.0
 11
146.423837
 21
150.337205
 31
0.0
  0
LINE
  8
LC-001-002-----0
  6
CONTINUOUS
  5
2DA
 10
75.268324
 20
166.8371
 30
0.0
 11
73.768324
 21
166.8371
 31
0.0
  0
LINE
  8
LC-001-002-----0
  6
CONTINUOUS
  5
2DB
 10
323.268747
 20
135.820978
 30
0.0
 11
349.268747
 21
135.820961
 31
0.0
  0
ARC
  8
LC-005-002-RND-0
  6
CONTINUOUS
  5
2DC
 10
51.768563
 20
143.337205
 30
0.0
 40
10.0
 50
90.0
 51
180.0
  0
LINE
  8
LC-006-001-----0
  6
CONTINUOUS
  5
2DD
 10
157.968563
 20
160.537205
 30
0.0
 11
114.268563
 21
160.537205
 31
0.0
  0
LINE
  8
LC-006-001-----0
  6
CONTINUOUS
  5
2DE
 10
159.368563
 20
164.937205
 30
0.0
 11
114.268563
 21
164.937205
 31
0.0
  0
LINE
  8
LC-006-001-----0
  6
CONTINUOUS
  5
2DF
 10
156.768563
 20
159.337205
 30
0.0
 11
156.768563
 21
154.137205
 31
0.0
  0
LINE
  8
LC-006-001-----0
  6
CONTINUOUS
  5
2E0
 10
160.368563
 20
169.637205
 30
0.0
 11
160.368563
 21
166.637205
 31
0.0
  0
LINE
  8
LC-006-001-----0
  6
CONTINUOUS
  5
2E1
 10
161.068563
 20
169.637205
 30
0.0
 11
161.068563
 21
163.137205
 31
0.0
  0
LINE
  8
LC-007-005-----0
  6
CONTINUOUS
  5
2E2
 10
43.428665
 20
21.337205
 30
0.0
 11
44.768563
 21
22.677104
 31
0.0
  0
LINE
  8
LC-006-001-----0
  6
CONTINUOUS
  5
2E3
 10
161.068563
 20
163.137205
 30
0.0
 11
161.068563
 21
161.537205
 31
0.0
  0
LINE
  8
LC-007-005-----0
  6
CONTINUOUS
  5
2E4
 10
42.472629
 20
23.209596
 30
0.0
 11
44.768563
 21
25.505531
 31
0.0
  0
LINE
  8
LC-007-005-----0
  6
CONTINUOUS
  5
2E5
 10
41.874912
 20
25.440307
 30
0.0
 11
44.768563
 21
28.333958
 31
0.0
  0
LINE
  8
LC-007-005-----0
  6
CONTINUOUS
  5
2E6
 10
41.768563
 20
28.162385
 30
0.0
 11
44.768563
 21
31.162385
 31
0.0
  0
LINE
  8
LC-006-001-----0
  6
CONTINUOUS
  5
2E7
 10
160.368563
 20
166.637205
 30
0.0
 11
160.368563
 21
161.537205
 31
0.0
  0
ARC
  8
LC-006-001-----0
  6
CONTINUOUS
  5
2E8
 10
159.368563
 20
166.637205
 30
0.0
 40
1.7
 50
270.0
 51
306.031879
  0
ARC
  8
LC-001-002-----0
  6
CONTINUOUS
  5
2E9
 10
313.268598
 20
128.8207
 30
0.0
 40
3.0
 50
0.000041
 51
179.999905
  0
ARC
  8
LC-006-001-----0
  6
CONTINUOUS
  5
2EA
 10
157.968563
 20
159.337205
 30
0.0
 40
1.2
 50
90.0
 51
180.0
  0
LINE
  8
LC-007-005-----0
  6
CONTINUOUS
  5
2EB
 10
41.768563
 20
30.990812
 30
0.0
 11
44.768563
 21
33.990812
 31
0.0
  0
LINE
  8
LC-006-001-----0
  6
CONTINUOUS
  5
2EC
 10
162.068563
 20
170.637205
 30
0.0
 11
162.568563
 21
170.637205
 31
0.0
  0
LINE
  8
LC-006-001-----0
  6
CONTINUOUS
  5
2ED
 10
162.068563
 20
171.337205
 30
0.0
 11
162.568563
 21
171.337205
 31
0.0
  0
LINE
  8
LC-006-001-----0
  6
CONTINUOUS
  5
2EE
 10
164.768563
 20
164.137205
 30
0.0
 11
161.068563
 21
164.137205
 31
0.0
  0
ARC
  8
LC-006-001-----0
  6
CONTINUOUS
  5
2EF
 10
162.568563
 20
169.637205
 30
0.0
 40
1.0
 50
0.0
 51
90.0
  0
ARC
  8
LC-006-001-----0
  6
CONTINUOUS
  5
2F0
 10
162.568563
 20
169.637205
 30
0.0
 40
1.7
 50
0.0
 51
90.0
  0
LINE
  8
LC-006-001-----0
  6
CONTINUOUS
  5
2F1
 10
164.268563
 20
169.637205
 30
0.0
 11
164.268563
 21
166.096797
 31
0.0
  0
LINE
  8
LC-006-001-----0
  6
CONTINUOUS
  5
2F2
 10
163.568563
 20
166.096797
 30
0.0
 11
163.568563
 21
169.637205
 31
0.0
  0
ARC
  8
LC-006-001-----0
  6
CONTINUOUS
  5
2F3
 10
162.068563
 20
169.637205
 30
0.0
 40
1.0
 50
90.0
 51
180.0
  0
ARC
  8
LC-006-001-----0
  6
CONTINUOUS
  5
2F4
 10
162.068563
 20
169.637205
 30
0.0
 40
1.0
 50
90.0
 51
180.0
  0
ARC
  8
LC-006-001-----0
  6
CONTINUOUS
  5
2F5
 10
162.068563
 20
169.637205
 30
0.0
 40
1.7
 50
90.0
 51
180.0
  0
LINE
  8
LC-001-002-----0
  6
CONTINUOUS
  5
2F6
 10
41.768563
 20
143.337205
 30
0.0
 11
41.768563
 21
25.837205
 31
0.0
  0
LINE
  8
LC-001-002-----0
  6
CONTINUOUS
  5
2F7
 10
157.03241
 20
150.568526
 30
0.0
 11
156.418285
 21
150.927895
 31
0.0
  0
LINE
  8
LC-001-002-----0
  6
CONTINUOUS
  5
2F8
 10
64.075429
 20
137.337205
 30
0.0
 11
82.11329
 21
150.337205
 31
0.0
  0
LINE
  8
LC-001-002-----0
  6
CONTINUOUS
  5
2F9
 10
73.768324
 20
166.8371
 30
0.0
 11
73.768324
 21
169.8371
 31
0.0
  0
ARC
  8
LC-001-002-----0
  6
CONTINUOUS
  5
2FA
 10
165.768563
 20
166.096797
 30
0.0
 40
2.2
 50
180.0
 51
242.964308
  0
LINE
  8
LC-001-002-----0
  6
CONTINUOUS
  5
2FB
 10
157.586378
 20
154.137205
 30
0.0
 11
156.418285
 21
150.927895
 31
0.0
  0
LINE
  8
LC-007-005-----0
  6
CONTINUOUS
  5
2FC
 10
41.768563
 20
33.819239
 30
0.0
 11
44.768563
 21
36.819239
 31
0.0
  0
LINE
  8
LC-007-005-----0
  6
CONTINUOUS
  5
2FD
 10
41.768563
 20
36.647666
 30
0.0
 11
44.768563
 21
39.647666
 31
0.0
  0
LINE
  8
LC-001-002-----0
  6
CONTINUOUS
  5
2FE
 10
114.268563
 20
154.137205
 30
0.0
 11
157.586378
 21
154.137205
 31
0.0
  0
LINE
  8
LC-001-002-----0
  6
CONTINUOUS
  5
2FF
 10
164.768563
 20
164.978763
 30
0.0
 11
164.768563
 21
164.137205
 31
0.0
  0
LINE
  8
LC-001-002-----0
  6
CONTINUOUS
  5
300
 10
157.03241
 20
150.568526
 30
0.0
 11
114.268563
 21
150.568526
 31
0.0
  0
LINE
  8
LC-007-005-----0
  6
CONTINUOUS
  5
301
 10
41.768563
 20
39.476094
 30
0.0
 11
44.768563
 21
42.476094
 31
0.0
  0
LINE
  8
LC-006-001-----0
  6
CONTINUOUS
  5
302
 10
70.568563
 20
160.537205
 30
0.0
 11
114.268563
 21
160.537205
 31
0.0
  0
LINE
  8
LC-001-002-----0
  6
CONTINUOUS
  5
303
 10
156.418285
 20
150.927895
 30
0.0
 11
114.268563
 21
150.927895
 31
0.0
  0
LINE
  8
LC-006-001-----0
  6
CONTINUOUS
  5
304
 10
69.168563
 20
164.937205
 30
0.0
 11
114.268563
 21
164.937205
 31
0.0
  0
LINE
  8
LC-006-001-----0
  6
CONTINUOUS
  5
305
 10
71.068563
 20
159.337205
 30
0.0
 11
71.068563
 21
154.837205
 31
0.0
  0
LINE
  8
LC-006-001-----0
  6
CONTINUOUS
  5
306
 10
71.768563
 20
159.337205
 30
0.0
 11
71.768563
 21
154.137205
 31
0.0
  0
LINE
  8
LC-006-001-----0
  6
CONTINUOUS
  5
307
 10
68.168563
 20
169.637205
 30
0.0
 11
68.168563
 21
166.637205
 31
0.0
  0
LINE
  8
LC-006-001-----0
  6
CONTINUOUS
  5
308
 10
67.468563
 20
169.637205
 30
0.0
 11
67.468563
 21
163.137205
 31
0.0
  0
ARC
  8
LC-006-001-----0
  6
CONTINUOUS
  5
309
 10
70.568563
 20
159.337205
 30
0.0
 40
0.5
 50
0.0
 51
90.0
  0
LINE
  8
LC-006-001-----0
  6
CONTINUOUS
  5
30A
 10
70.568563
 20
159.837205
 30
0.0
 11
67.268563
 21
159.837205
 31
0.0
  0
LINE
  8
LC-007-005-----0
  6
CONTINUOUS
  5
30B
 10
41.768563
 20
42.304521
 30
0.0
 11
44.768563
 21
45.304521
 31
0.0
  0
ARC
  8
LC-001-002-----0
  6
CONTINUOUS
  5
30C
 10
165.768563
 20
166.096797
 30
0.0
 40
1.5
 50
180.0
 51
228.189685
  0
LINE
  8
LC-001-002-----0
  6
CONTINUOUS
  5
30D
 10
161.268563
 20
153.337205
 30
0.0
 11
176.768563
 21
153.337205
 31
0.0
  0
LINE
  8
LC-006-001-----0
  6
CONTINUOUS
  5
30E
 10
67.468563
 20
163.137205
 30
0.0
 11
67.468563
 21
161.537205
 31
0.0
  0
LINE
  8
LC-001-002-----0
  6
CONTINUOUS
  5
30F
 10
73.768324
 20
169.8371
 30
0.0
 11
70.768324
 21
169.8371
 31
0.0
  0
LINE
  8
LC-001-002-----0
  6
CONTINUOUS
  5
310
 10
70.768324
 20
169.8371
 30
0.0
 11
70.268324
 21
169.8371
 31
0.0
  0
LINE
  8
LC-001-002-----0
  6
CONTINUOUS
  5
311
 10
157.518563
 20
158.337205
 30
0.0
 11
158.064519
 21
159.837205
 31
0.0
  0
ARC
  8
LC-006-001-----0
  6
CONTINUOUS
  5
312
 10
69.168563
 20
161.537205
 30
0.0
 40
1.0
 50
180.0
 51
270.0
  0
LINE
  8
LC-001-002-----0
  6
CONTINUOUS
  5
313
 10
93.268324
 20
166.8371
 30
0.0
 11
94.768324
 21
166.8371
 31
0.0
  0
LINE
  8
LC-007-005-----0
  6
CONTINUOUS
  5
314
 10
41.768563
 20
45.132948
 30
0.0
 11
44.768563
 21
48.132948
 31
0.0
  0
LINE
  8
LC-007-005-----0
  6
CONTINUOUS
  5
315
 10
41.768563
 20
47.961375
 30
0.0
 11
44.768563
 21
50.961375
 31
0.0
  0
LINE
  8
LC-001-002-----0
  6
CONTINUOUS
  5
316
 10
186.768563
 20
25.837205
 30
0.0
 11
185.562792
 21
21.337205
 31
0.0
  0
LINE
  8
LC-001-002-----0
  6
CONTINUOUS
  5
317
 10
157.518563
 20
156.087205
 30
0.0
 11
157.518563
 21
158.337205
 31
0.0
  0
LINE
  8
LC-006-001-----0
  6
CONTINUOUS
  5
318
 10
69.168563
 20
159.837205
 30
0.0
 11
70.568563
 21
159.837205
 31
0.0
  0
LINE
  8
LC-006-001-----0
  6
CONTINUOUS
  5
319
 10
69.168563
 20
160.537205
 30
0.0
 11
70.568563
 21
160.537205
 31
0.0
  0
LINE
  8
LC-006-001-----0
  6
CONTINUOUS
  5
31A
 10
68.168563
 20
166.637205
 30
0.0
 11
68.168563
 21
161.537205
 31
0.0
  0
ARC
  8
LC-006-001-----0
  6
CONTINUOUS
  5
31B
 10
69.168563
 20
166.637205
 30
0.0
 40
1.7
 50
233.968121
 51
270.0
  0
LINE
  8
LC-001-002-----0
  6
CONTINUOUS
  5
31C
 10
157.518563
 20
156.087205
 30
0.0
 11
158.268563
 21
155.337205
 31
0.0
  0
LINE
  8
LC-001-002-----0
  6
CONTINUOUS
  5
31D
 10
158.268563
 20
155.337205
 30
0.0
 11
158.268563
 21
150.337205
 31
0.0
  0
ARC
  8
LC-001-002-----0
  6
CONTINUOUS
  5
31E
 10
325.268583
 20
117.820684
 30
0.0
 40
3.0
 50
0.000041
 51
179.999905
  0
ARC
  8
LC-006-001-----0
  6
CONTINUOUS
  5
31F
 10
70.568563
 20
159.337205
 30
0.0
 40
1.2
 50
360.0
 51
90.0
  0
ARC
  8
LC-006-001-----0
  6
CONTINUOUS
  5
320
 10
69.168563
 20
161.537205
 30
0.0
 40
1.7
 50
180.0
 51
270.0
  0
LINE
  8
LC-001-002-----0
  6
CONTINUOUS
  5
321
 10
94.768324
 20
166.8371
 30
0.0
 11
94.768324
 21
169.8371
 31
0.0
  0
LINE
  8
LC-001-002-----0
  6
CONTINUOUS
  5
322
 10
94.768324
 20
169.8371
 30
0.0
 11
97.768324
 21
169.8371
 31
0.0
  0
LINE
  8
LC-006-001-----0
  6
CONTINUOUS
  5
323
 10
66.468563
 20
170.637205
 30
0.0
 11
65.968563
 21
170.637205
 31
0.0
  0
LINE
  8
LC-001-002-----0
  6
CONTINUOUS
  5
324
 10
97.768324
 20
169.8371
 30
0.0
 11
97.768324
 21
166.8371
 31
0.0
  0
LINE
  8
LC-001-002-----0
  6
CONTINUOUS
  5
325
 10
97.768324
 20
166.8371
 30
0.0
 11
99.268324
 21
166.8371
 31
0.0
  0
LINE
  8
LC-001-002-----0
  6
CONTINUOUS
  5
326
 10
105.268324
 20
166.8371
 30
0.0
 11
106.768324
 21
166.8371
 31
0.0
  0
LINE
  8
LC-001-002-----0
  6
CONTINUOUS
  5
327
 10
106.768324
 20
166.8371
 30
0.0
 11
106.768324
 21
169.8371
 31
0.0
  0
LINE
  8
LC-001-002-----0
  6
CONTINUOUS
  5
328
 10
106.768324
 20
169.8371
 30
0.0
 11
114.453784
 21
169.8371
 31
0.0
  0
LINE
  8
LC-001-002-----0
  6
CONTINUOUS
  5
329
 10
75.268324
 20
166.8371
 30
0.0
 11
81.268324
 21
166.8371
 31
0.0
  0
LINE
  8
LC-001-002-----0
  6
CONTINUOUS
  5
32A
 10
87.268324
 20
166.8371
 30
0.0
 11
93.268324
 21
166.8371
 31
0.0
  0
LINE
  8
LC-001-002-----0
  6
CONTINUOUS
  5
32B
 10
99.268324
 20
166.8371
 30
0.0
 11
105.268324
 21
166.8371
 31
0.0
  0
LINE
  8
LC-001-002-----0
  6
CONTINUOUS
  5
32C
 10
82.768324
 20
166.8371
 30
0.0
 11
85.768324
 21
166.8371
 31
0.0
  0
LINE
  8
LC-001-002-----0
  6
CONTINUOUS
  5
32D
 10
94.768324
 20
166.8371
 30
0.0
 11
97.768324
 21
166.8371
 31
0.0
  0
LINE
  8
LC-001-002-----0
  6
CONTINUOUS
  5
32E
 10
106.768324
 20
166.8371
 30
0.0
 11
114.268324
 21
166.8371
 31
0.0
  0
LINE
  8
LC-001-002-----0
  6
CONTINUOUS
  5
32F
 10
68.768324
 20
165.3371
 30
0.0
 11
68.768324
 21
169.3371
 31
0.0
  0
ARC
  8
LC-001-002-----0
  6
CONTINUOUS
  5
330
 10
70.768324
 20
169.3371
 30
0.0
 40
2.0
 50
89.999981
 51
180.0
  0
ARC
  8
LC-001-002-----0
  6
CONTINUOUS
  5
331
 10
337.268568
 20
106.320668
 30
0.0
 40
3.0
 50
0.000041
 51
179.999905
  0
ARC
  8
LC-001-002-----0
  6
CONTINUOUS
  5
332
 10
73.768324
 20
169.8371
 30
0.0
 40
1.5
 50
0.0
 51
90.0
  0
LINE
  8
LC-001-002-----0
  6
CONTINUOUS
  5
333
 10
75.268324
 20
169.8371
 30
0.0
 11
75.268324
 21
166.8371
 31
0.0
  0
LINE
  8
LC-001-002-----0
  6
CONTINUOUS
  5
334
 10
340.268568
 20
106.320664
 30
0.0
 11
340.268563
 21
102.820664
 31
0.0
  0
LINE
  8
LC-001-002-----0
  6
CONTINUOUS
  5
335
 10
81.268324
 20
169.8371
 30
0.0
 11
81.268324
 21
166.8371
 31
0.0
  0
ARC
  8
LC-001-002-----0
  6
CONTINUOUS
  5
336
 10
82.768324
 20
169.8371
 30
0.0
 40
1.5
 50
89.999981
 51
180.0
  0
LINE
  8
LC-001-002-----0
  6
CONTINUOUS
  5
337
 10
87.268324
 20
166.8371
 30
0.0
 11
87.268324
 21
169.8371
 31
0.0
  0
ARC
  8
LC-001-002-----0
  6
CONTINUOUS
  5
338
 10
85.768324
 20
169.8371
 30
0.0
 40
1.5
 50
0.0
 51
89.999981
  0
LINE
  8
LC-001-002-----0
  6
CONTINUOUS
  5
339
 10
334.268568
 20
106.320672
 30
0.0
 11
334.268563
 21
102.820672
 31
0.0
  0
LINE
  8
LC-001-002-----0
  6
CONTINUOUS
  5
33A
 10
322.268583
 20
117.820688
 30
0.0
 11
322.268563
 21
102.820688
 31
0.0
  0
LINE
  8
LC-001-002-----0
  6
CONTINUOUS
  5
33B
 10
93.268324
 20
169.8371
 30
0.0
 11
93.268324
 21
166.8371
 31
0.0
  0
ARC
  8
LC-001-002-----0
  6
CONTINUOUS
  5
33C
 10
94.768324
 20
169.8371
 30
0.0
 40
1.5
 50
89.999981
 51
180.0
  0
LINE
  8
LC-001-002-----0
  6
CONTINUOUS
  5
33D
 10
328.268583
 20
117.82068
 30
0.0
 11
328.268563
 21
102.82068
 31
0.0
  0
LINE
  8
LC-007-005-----0
  6
CONTINUOUS
  5
33E
 10
41.768563
 20
50.789802
 30
0.0
 11
44.768563
 21
53.789802
 31
0.0
  0
LINE
  8
LC-007-005-----0
  6
CONTINUOUS
  5
33F
 10
41.768563
 20
53.618229
 30
0.0
 11
44.768563
 21
56.618229
 31
0.0
  0
LINE
  8
LC-001-002-----0
  6
CONTINUOUS
  5
340
 10
105.268324
 20
169.8371
 30
0.0
 11
105.268324
 21
166.8371
 31
0.0
  0
ARC
  8
LC-001-002-----0
  6
CONTINUOUS
  5
341
 10
106.768324
 20
169.8371
 30
0.0
 40
1.5
 50
89.999981
 51
180.0
  0
LINE
  8
LC-007-005-----0
  6
CONTINUOUS
  5
342
 10
41.768563
 20
56.446656
 30
0.0
 11
44.768563
 21
59.446656
 31
0.0
  0
LINE
  8
LC-001-002-----0
  6
CONTINUOUS
  5
343
 10
310.268598
 20
128.820703
 30
0.0
 11
310.268563
 21
102.820703
 31
0.0
  0
LINE
  8
LC-001-002-----0
  6
CONTINUOUS
  5
344
 10
316.268598
 20
128.820696
 30
0.0
 11
316.268563
 21
102.820696
 31
0.0
  0
LINE
  8
LC-006-001-----0
  6
CONTINUOUS
  5
345
 10
66.468563
 20
171.337205
 30
0.0
 11
65.968563
 21
171.337205
 31
0.0
  0
LINE
  8
LC-006-001-----0
  6
CONTINUOUS
  5
346
 10
63.768563
 20
164.137205
 30
0.0
 11
67.468563
 21
164.137205
 31
0.0
  0
LINE
  8
LC-007-005-----0
  6
CONTINUOUS
  5
347
 10
41.768563
 20
59.275083
 30
0.0
 11
44.768563
 21
62.275083
 31
0.0
  0
LINE
  8
LC-007-005-----0
  6
CONTINUOUS
  5
348
 10
41.768563
 20
62.103511
 30
0.0
 11
44.768563
 21
65.103511
 31
0.0
  0
ARC
  8
LC-001-002-----0
  6
CONTINUOUS
  5
349
 10
97.768324
 20
169.8371
 30
0.0
 40
1.5
 50
0.0
 51
90.0
  0
LINE
  8
LC-007-005-----0
  6
CONTINUOUS
  5
34A
 10
41.768563
 20
64.931938
 30
0.0
 11
44.768563
 21
67.931938
 31
0.0
  0
CIRCLE
  8
LC-001-002-----0
  6
CONTINUOUS
  5
34B
 10
349.268563
 20
102.820652
 30
0.0
 40
72.5
  0
LINE
  8
LC-007-005-----0
  6
CONTINUOUS
  5
34C
 10
41.768563
 20
67.760365
 30
0.0
 11
44.768563
 21
70.760365
 31
0.0
  0
LINE
  8
LC-007-005-----0
  6
CONTINUOUS
  5
34D
 10
41.768563
 20
70.588792
 30
0.0
 11
44.768563
 21
73.588792
 31
0.0
  0
LINE
  8
LC-007-005-----0
  6
CONTINUOUS
  5
34E
 10
41.768563
 20
73.417219
 30
0.0
 11
44.768563
 21
76.417219
 31
0.0
  0
LINE
  8
LC-007-005-----0
  6
CONTINUOUS
  5
34F
 10
41.768563
 20
76.245646
 30
0.0
 11
44.768563
 21
79.245646
 31
0.0
  0
LINE
  8
LC-007-005-----0
  6
CONTINUOUS
  5
350
 10
41.768563
 20
79.074073
 30
0.0
 11
44.768563
 21
82.074073
 31
0.0
  0
LINE
  8
LC-007-005-----0
  6
CONTINUOUS
  5
351
 10
41.768563
 20
81.9025
 30
0.0
 11
44.768563
 21
84.9025
 31
0.0
  0
LINE
  8
LC-007-005-----0
  6
CONTINUOUS
  5
352
 10
41.768563
 20
84.730928
 30
0.0
 11
44.768563
 21
87.730928
 31
0.0
  0
LINE
  8
LC-007-005-----0
  6
CONTINUOUS
  5
353
 10
41.768563
 20
87.559355
 30
0.0
 11
44.768563
 21
90.559355
 31
0.0
  0
LINE
  8
LC-007-005-----0
  6
CONTINUOUS
  5
354
 10
41.768563
 20
90.387782
 30
0.0
 11
44.768563
 21
93.387782
 31
0.0
  0
LINE
  8
LC-007-005-----0
  6
CONTINUOUS
  5
355
 10
41.768563
 20
93.216209
 30
0.0
 11
44.768563
 21
96.216209
 31
0.0
  0
LINE
  8
LC-007-005-----0
  6
CONTINUOUS
  5
356
 10
41.768563
 20
96.044636
 30
0.0
 11
44.768563
 21
99.044636
 31
0.0
  0
LINE
  8
LC-007-005-----0
  6
CONTINUOUS
  5
357
 10
41.768563
 20
98.873063
 30
0.0
 11
44.768563
 21
101.873063
 31
0.0
  0
LINE
  8
LC-007-005-----0
  6
CONTINUOUS
  5
358
 10
41.768563
 20
101.70149
 30
0.0
 11
44.768563
 21
104.70149
 31
0.0
  0
LINE
  8
LC-007-005-----0
  6
CONTINUOUS
  5
359
 10
41.768563
 20
104.529917
 30
0.0
 11
44.768563
 21
107.529917
 31
0.0
  0
LINE
  8
LC-007-005-----0
  6
CONTINUOUS
  5
35A
 10
41.768563
 20
107.358345
 30
0.0
 11
44.768563
 21
110.358345
 31
0.0
  0
LINE
  8
LC-007-005-----0
  6
CONTINUOUS
  5
35B
 10
41.768563
 20
110.186772
 30
0.0
 11
44.768563
 21
113.186772
 31
0.0
  0
LINE
  8
LC-007-005-----0
  6
CONTINUOUS
  5
35C
 10
41.768563
 20
113.015199
 30
0.0
 11
44.768563
 21
116.015199
 31
0.0
  0
ARC
  8
LC-006-001-----0
  6
CONTINUOUS
  5
35D
 10
65.968563
 20
169.637205
 30
0.0
 40
1.0
 50
90.0
 51
180.0
  0
LINE
  8
LC-001-002-----0
  6
CONTINUOUS
  5
35E
 10
158.268563
 20
150.337205
 30
0.0
 11
183.768563
 21
137.337205
 31
0.0
  0
LINE
  8
LC-007-005-----0
  6
CONTINUOUS
  5
35F
 10
41.768563
 20
115.843626
 30
0.0
 11
44.768563
 21
118.843626
 31
0.0
  0
LINE
  8
LC-001-002-----0
  6
CONTINUOUS
  5
360
 10
162.340377
 20
137.337205
 30
0.0
 11
164.461698
 21
137.337205
 31
0.0
  0
LINE
  8
LC-001-002-----0
  6
CONTINUOUS
  5
361
 10
164.461698
 20
137.337205
 30
0.0
 11
164.461698
 21
143.337205
 31
0.0
  0
ARC
  8
LC-005-002-RND-0
  6
CONTINUOUS
  5
362
 10
157.461698
 20
143.337205
 30
0.0
 40
7.0
 50
0.0
 51
43.593564
  0
LINE
  8
LC-007-005-----0
  6
CONTINUOUS
  5
363
 10
41.768563
 20
118.672053
 30
0.0
 11
44.768563
 21
121.672053
 31
0.0
  0
ARC
  8
LC-006-001-----0
  6
CONTINUOUS
  5
364
 10
65.968563
 20
169.637205
 30
0.0
 40
1.7
 50
90.0
 51
180.0
  0
LINE
  8
LC-006-001-----0
  6
CONTINUOUS
  5
365
 10
64.268563
 20
169.637205
 30
0.0
 11
64.268563
 21
166.096797
 31
0.0
  0
LINE
  8
LC-006-001-----0
  6
CONTINUOUS
  5
366
 10
64.968563
 20
166.096797
 30
0.0
 11
64.968563
 21
169.637205
 31
0.0
  0
ARC
  8
LC-006-001-----0
  6
CONTINUOUS
  5
367
 10
66.468563
 20
169.637205
 30
0.0
 40
1.0
 50
0.0
 51
90.0
  0
ARC
  8
LC-006-001-----0
  6
CONTINUOUS
  5
368
 10
66.468563
 20
169.637205
 30
0.0
 40
1.0
 50
0.0
 51
90.0
  0
ARC
  8
LC-006-001-----0
  6
CONTINUOUS
  5
369
 10
66.468563
 20
169.637205
 30
0.0
 40
1.7
 50
360.0
 51
90.0
  0
LINE
  8
LC-001-002-----0
  6
CONTINUOUS
  5
36A
 10
71.504717
 20
150.568526
 30
0.0
 11
72.118842
 21
150.927895
 31
0.0
  0
ARC
  8
LC-001-002-----0
  6
CONTINUOUS
  5
36B
 10
62.768563
 20
166.096797
 30
0.0
 40
2.2
 50
297.035692
 51
360.0
  0
LINE
  8
LC-001-002-----0
  6
CONTINUOUS
  5
36C
 10
70.950749
 20
154.137205
 30
0.0
 11
72.118842
 21
150.927895
 31
0.0
  0
LINE
  8
LC-001-002-----0
  6
CONTINUOUS
  5
36D
 10
99.268324
 20
166.8371
 30
0.0
 11
99.268324
 21
169.8371
 31
0.0
  0
ARC
  8
LC-001-002-----0
  6
CONTINUOUS
  5
36E
 10
313.268203
 20
76.820885
 30
0.0
 40
3.0
 50
179.999964
 51
359.99977
  0
LINE
  8
LC-007-005-----0
  6
CONTINUOUS
  5
36F
 10
41.768563
 20
121.50048
 30
0.0
 11
44.768563
 21
124.50048
 31
0.0
  0
LINE
  8
LC-007-005-----0
  6
CONTINUOUS
  5
370
 10
41.768563
 20
124.328907
 30
0.0
 11
44.768563
 21
127.328907
 31
0.0
  0
LINE
  8
LC-007-005-----0
  6
CONTINUOUS
  5
371
 10
67.776861
 20
150.337205
 30
0.0
 11
70.268563
 21
152.828907
 31
0.0
  0
ARC
  8
LC-001-002-----0
  6
CONTINUOUS
  5
372
 10
325.268225
 20
87.820861
 30
0.0
 40
3.0
 50
179.999964
 51
359.99977
  0
ARC
  8
LC-001-002-----0
  6
CONTINUOUS
  5
373
 10
337.268247
 20
99.320838
 30
0.0
 40
3.0
 50
179.999964
 51
359.99977
  0
LINE
  8
LC-007-005-----0
  6
CONTINUOUS
  5
374
 10
41.768563
 20
127.157334
 30
0.0
 11
44.768563
 21
130.157334
 31
0.0
  0
LINE
  8
LC-007-005-----0
  6
CONTINUOUS
  5
375
 10
64.948434
 20
150.337205
 30
0.0
 11
71.018563
 21
156.407334
 31
0.0
  0
LINE
  8
LC-007-005-----0
  6
CONTINUOUS
  5
376
 10
41.768563
 20
129.985761
 30
0.0
 11
44.768563
 21
132.985761
 31
0.0
  0
LINE
  8
LC-001-002-----0
  6
CONTINUOUS
  5
377
 10
340.268247
 20
99.320832
 30
0.0
 11
340.268254
 21
102.820832
 31
0.0
  0
LINE
  8
LC-007-005-----0
  6
CONTINUOUS
  5
378
 10
62.120007
 20
150.337205
 30
0.0
 11
65.120007
 21
153.337205
 31
0.0
  0
LINE
  8
LC-007-005-----0
  6
CONTINUOUS
  5
379
 10
67.268563
 20
155.485761
 30
0.0
 11
70.778787
 21
158.995985
 31
0.0
  0
LINE
  8
LC-006-001-----0
  6
CONTINUOUS
  5
37A
 10
298.768563
 20
147.320652
 30
0.0
 11
298.768563
 21
58.320652
 31
0.0
  0
LINE
  8
LC-001-002-----0
  6
CONTINUOUS
  5
37B
 10
393.768563
 20
152.820652
 30
0.0
 11
304.768563
 21
152.820652
 31
0.0
  0
LINE
  8
LC-006-001-----0
  6
CONTINUOUS
  5
37C
 10
399.768563
 20
58.320652
 30
0.0
 11
399.768563
 21
147.320652
 31
0.0
  0
ARC
  8
LC-001-002-----0
  6
CONTINUOUS
  5
37D
 10
304.768563
 20
147.320652
 30
0.0
 40
5.5
 50
90.0
 51
180.0
  0
LINE
  8
LC-001-002-----0
  6
CONTINUOUS
  5
37E
 10
161.268563
 20
159.837205
 30
0.0
 11
161.268563
 21
153.337205
 31
0.0
  0
LINE
  8
LC-001-002-----0
  6
CONTINUOUS
  5
37F
 10
334.268247
 20
99.320844
 30
0.0
 11
334.268254
 21
102.820844
 31
0.0
  0
LINE
  8
LC-007-005-----0
  6
CONTINUOUS
  5
380
 10
41.768563
 20
132.814189
 30
0.0
 11
44.768563
 21
135.814189
 31
0.0
  0
LINE
  8
LC-001-002-----0
  6
CONTINUOUS
  5
381
 10
322.268225
 20
87.820867
 30
0.0
 11
322.268254
 21
102.820867
 31
0.0
  0
LINE
  8
LC-007-005-----0
  6
CONTINUOUS
  5
382
 10
59.29158
 20
150.337205
 30
0.0
 11
62.29158
 21
153.337205
 31
0.0
  0
LINE
  8
LC-001-002-----0
  6
CONTINUOUS
  5
383
 10
328.268225
 20
87.820855
 30
0.0
 11
328.268254
 21
102.820855
 31
0.0
  0
LINE
  8
LC-006-001-----0
  6
CONTINUOUS
  5
384
 10
304.768563
 20
52.320652
 30
0.0
 11
393.768563
 21
52.320652
 31
0.0
  0
LINE
  8
LC-001-002-----0
  6
CONTINUOUS
  5
385
 10
299.268563
 20
147.320652
 30
0.0
 11
299.268563
 21
58.320652
 31
0.0
  0
LINE
  8
LC-001-002-----0
  6
CONTINUOUS
  5
386
 10
114.268563
 20
154.137205
 30
0.0
 11
70.950749
 21
154.137205
 31
0.0
  0
LINE
  8
LC-001-002-----0
  6
CONTINUOUS
  5
387
 10
63.768563
 20
164.978763
 30
0.0
 11
63.768563
 21
164.137205
 31
0.0
  0
LINE
  8
LC-001-002-----0
  6
CONTINUOUS
  5
388
 10
71.504717
 20
150.568526
 30
0.0
 11
114.268563
 21
150.568526
 31
0.0
  0
LINE
  8
LC-001-002-----0
  6
CONTINUOUS
  5
389
 10
70.341809
 20
153.763589
 30
0.0
 11
71.504717
 21
150.568526
 31
0.0
  0
LINE
  8
LC-001-002-----0
  6
CONTINUOUS
  5
38A
 10
72.118842
 20
150.927895
 30
0.0
 11
114.268563
 21
150.927895
 31
0.0
  0
ARC
  8
LC-001-002-----0
  6
CONTINUOUS
  5
38B
 10
71.093563
 20
154.037205
 30
0.0
 40
0.8
 50
91.790785
 51
200.0
  0
ARC
  8
LC-001-002-----0
  6
CONTINUOUS
  5
38C
 10
62.768563
 20
166.096797
 30
0.0
 40
1.5
 50
311.810315
 51
360.0
  0
LINE
  8
LC-001-002-----0
  6
CONTINUOUS
  5
38D
 10
67.268563
 20
153.337205
 30
0.0
 11
51.768563
 21
153.337205
 31
0.0
  0
LINE
  8
LC-001-002-----0
  6
CONTINUOUS
  5
38E
 10
71.018563
 20
158.337205
 30
0.0
 11
70.472608
 21
159.837205
 31
0.0
  0
LINE
  8
LC-010-006-MLN-0
  6
DASHDOT
  5
392
 10
114.268563
 20
162.833469
 30
0.0
 11
114.268563
 21
11.337205
 31
0.0
  0
LINE
  8
LC-001-002-----0
  6
CONTINUOUS
  5
393
 10
310.268203
 20
76.820891
 30
0.0
 11
310.268254
 21
102.820891
 31
0.0
  0
LINE
  8
LC-001-002-----0
  6
CONTINUOUS
  5
394
 10
71.268563
 20
159.837205
 30
0.0
 11
71.268563
 21
159.837205
 31
0.0
  0
LINE
  8
LC-001-002-----0
  6
CONTINUOUS
  5
395
 10
41.768563
 20
25.837205
 30
0.0
 11
42.974335
 21
21.337205
 31
0.0
  0
ARC
  8
LC-001-002-----0
  6
CONTINUOUS
  5
396
 10
304.768563
 20
58.320652
 30
0.0
 40
5.5
 50
180.0
 51
270.0
  0
ARC
  8
LC-006-001-----0
  6
CONTINUOUS
  5
397
 10
304.768563
 20
58.320652
 30
0.0
 40
6.0
 50
180.0
 51
270.0
  0
LINE
  8
LC-001-002-----0
  6
CONTINUOUS
  5
398
 10
316.268203
 20
76.820879
 30
0.0
 11
316.268254
 21
102.820879
 31
0.0
  0
ARC
  8
LC-006-001-----0
  6
CONTINUOUS
  5
399
 10
393.768563
 20
58.320652
 30
0.0
 40
6.0
 50
270.0
 51
0.0
  0
LINE
  8
LC-001-002-----0
  6
CONTINUOUS
  5
39A
 10
304.768563
 20
52.820652
 30
0.0
 11
393.768563
 21
52.820652
 31
0.0
  0
ARC
  8
LC-001-002-----0
  6
CONTINUOUS
  5
39B
 10
375.268282
 20
66.820257
 30
0.0
 40
3.0
 50
269.999829
 51
89.999694
  0
ARC
  8
LC-001-002-----0
  6
CONTINUOUS
  5
39C
 10
393.768563
 20
58.320652
 30
0.0
 40
5.5
 50
270.0
 51
0.0
  0
LINE
  8
LC-006-001-----0
  6
CONTINUOUS
  5
39D
 10
393.768563
 20
153.320652
 30
0.0
 11
304.768563
 21
153.320652
 31
0.0
  0
ARC
  8
LC-001-002-----0
  6
CONTINUOUS
  5
39E
 10
364.268322
 20
78.820293
 30
0.0
 40
3.0
 50
269.999829
 51
89.999694
  0
ARC
  8
LC-006-001-----0
  6
CONTINUOUS
  5
39F
 10
304.768563
 20
147.320652
 30
0.0
 40
6.0
 50
90.0
 51
180.0
  0
LINE
  8
LC-001-002-----0
  6
CONTINUOUS
  5
3A0
 10
399.268563
 20
58.320652
 30
0.0
 11
399.268563
 21
147.320652
 31
0.0
  0
LINE
  8
LC-001-002-----0
  6
CONTINUOUS
  5
3A1
 10
364.268312
 20
75.820293
 30
0.0
 11
349.268312
 21
75.820343
 31
0.0
  0
ARC
  8
LC-006-001-----0
  6
CONTINUOUS
  5
3A2
 10
393.768563
 20
147.320652
 30
0.0
 40
6.0
 50
360.0
 51
90.0
  0
ARC
  8
LC-001-002-----0
  6
CONTINUOUS
  5
3A3
 10
393.768563
 20
147.320652
 30
0.0
 40
5.5
 50
0.0
 51
90.0
  0
LINE
  8
LC-001-002-----0
  6
CONTINUOUS
  5
3A4
 10
158.268559
 20
165.337176
 30
0.0
 11
158.268562
 21
169.837176
 31
0.0
  0
LINE
  8
LC-007-005-----0
  6
CONTINUOUS
  5
3A5
 10
67.268563
 20
158.314189
 30
0.0
 11
68.79158
 21
159.837205
 31
0.0
  0
LINE
  8
LC-007-005-----0
  6
CONTINUOUS
  5
3A6
 10
41.768563
 20
135.642616
 30
0.0
 11
44.768563
 21
138.642616
 31
0.0
  0
LINE
  8
LC-001-002-----0
  6
CONTINUOUS
  5
3A7
 10
147.26856
 20
166.837184
 30
0.0
 11
145.76856
 21
166.837185
 31
0.0
  0
LINE
  8
LC-001-002-----0
  6
CONTINUOUS
  5
3A8
 10
145.76856
 20
166.837185
 30
0.0
 11
145.768562
 21
169.837185
 31
0.0
  0
LINE
  8
LC-001-002-----0
  6
CONTINUOUS
  5
3A9
 10
145.768562
 20
169.837185
 30
0.0
 11
142.768562
 21
169.837187
 31
0.0
  0
LINE
  8
LC-001-002-----0
  6
CONTINUOUS
  5
3AA
 10
142.768562
 20
169.837187
 30
0.0
 11
142.76856
 21
166.837187
 31
0.0
  0
LINE
  8
LC-001-002-----0
  6
CONTINUOUS
  5
3AB
 10
142.76856
 20
166.837187
 30
0.0
 11
141.26856
 21
166.837188
 31
0.0
  0
LINE
  8
LC-001-002-----0
  6
CONTINUOUS
  5
3AC
 10
153.26856
 20
166.83718
 30
0.0
 11
154.76856
 21
166.837179
 31
0.0
  0
LINE
  8
LC-001-002-----0
  6
CONTINUOUS
  5
3AD
 10
154.76856
 20
166.837179
 30
0.0
 11
154.768562
 21
169.837179
 31
0.0
  0
LINE
  8
LC-001-002-----0
  6
CONTINUOUS
  5
3AE
 10
154.768562
 20
169.837179
 30
0.0
 11
157.768562
 21
169.837177
 31
0.0
  0
LINE
  8
LC-001-002-----0
  6
CONTINUOUS
  5
3AF
 10
157.768562
 20
169.837177
 30
0.0
 11
158.268562
 21
169.837176
 31
0.0
  0
LINE
  8
LC-001-002-----0
  6
CONTINUOUS
  5
3B0
 10
135.26856
 20
166.837191
 30
0.0
 11
133.76856
 21
166.837192
 31
0.0
  0
LINE
  8
LC-001-002-----0
  6
CONTINUOUS
  5
3B1
 10
133.76856
 20
166.837192
 30
0.0
 11
133.768562
 21
169.837192
 31
0.0
  0
LINE
  8
LC-007-005-----0
  6
CONTINUOUS
  5
3B2
 10
41.768563
 20
138.471043
 30
0.0
 11
44.768563
 21
141.471043
 31
0.0
  0
LINE
  8
LC-007-005-----0
  6
CONTINUOUS
  5
3B3
 10
41.768563
 20
141.29947
 30
0.0
 11
44.846243
 21
144.37715
 31
0.0
  0
LINE
  8
LC-001-002-----0
  6
CONTINUOUS
  5
3B4
 10
133.768562
 20
169.837192
 30
0.0
 11
130.768562
 21
169.837194
 31
0.0
  0
LINE
  8
LC-001-002-----0
  6
CONTINUOUS
  5
3B5
 10
130.768562
 20
169.837194
 30
0.0
 11
130.76856
 21
166.837194
 31
0.0
  0
LINE
  8
LC-001-002-----0
  6
CONTINUOUS
  5
3B6
 10
130.76856
 20
166.837194
 30
0.0
 11
129.26856
 21
166.837195
 31
0.0
  0
LINE
  8
LC-001-002-----0
  6
CONTINUOUS
  5
3B7
 10
123.26856
 20
166.837199
 30
0.0
 11
121.76856
 21
166.8372
 31
0.0
  0
LINE
  8
LC-001-002-----0
  6
CONTINUOUS
  5
3B8
 10
121.76856
 20
166.8372
 30
0.0
 11
121.768562
 21
169.8372
 31
0.0
  0
LINE
  8
LC-001-002-----0
  6
CONTINUOUS
  5
3B9
 10
121.768562
 20
169.8372
 30
0.0
 11
114.083103
 21
169.837205
 31
0.0
  0
LINE
  8
LC-001-002-----0
  6
CONTINUOUS
  5
3BA
 10
153.26856
 20
166.83718
 30
0.0
 11
147.26856
 21
166.837184
 31
0.0
  0
LINE
  8
LC-001-002-----0
  6
CONTINUOUS
  5
3BB
 10
141.26856
 20
166.837188
 30
0.0
 11
135.26856
 21
166.837191
 31
0.0
  0
LINE
  8
LC-001-002-----0
  6
CONTINUOUS
  5
3BC
 10
129.26856
 20
166.837195
 30
0.0
 11
123.26856
 21
166.837199
 31
0.0
  0
LINE
  8
LC-001-002-----0
  6
CONTINUOUS
  5
3BD
 10
71.018563
 20
156.087205
 30
0.0
 11
71.018563
 21
158.337205
 31
0.0
  0
LINE
  8
LC-001-002-----0
  6
CONTINUOUS
  5
3BE
 10
71.018563
 20
156.087205
 30
0.0
 11
70.268563
 21
155.337205
 31
0.0
  0
LINE
  8
LC-007-005-----0
  6
CONTINUOUS
  5
3BF
 10
41.802633
 20
144.161967
 30
0.0
 11
50.943802
 21
153.303136
 31
0.0
  0
LINE
  8
LC-007-005-----0
  6
CONTINUOUS
  5
3C0
 10
43.053774
 20
148.241535
 30
0.0
 11
46.864233
 21
152.051994
 31
0.0
  0
LINE
  8
LC-001-002-----0
  6
CONTINUOUS
  5
3C1
 10
145.76856
 20
166.837185
 30
0.0
 11
142.76856
 21
166.837187
 31
0.0
  0
LINE
  8
LC-001-002-----0
  6
CONTINUOUS
  5
3C2
 10
70.268563
 20
155.337205
 30
0.0
 11
70.268563
 21
150.337205
 31
0.0
  0
LINE
  8
LC-001-002-----0
  6
CONTINUOUS
  5
3C3
 10
70.268563
 20
150.337205
 30
0.0
 11
44.768563
 21
137.337205
 31
0.0
  0
LINE
  8
LC-001-002-----0
  6
CONTINUOUS
  5
3C4
 10
133.76856
 20
166.837192
 30
0.0
 11
130.76856
 21
166.837194
 31
0.0
  0
LINE
  8
LC-001-002-----0
  6
CONTINUOUS
  5
3C5
 10
121.76856
 20
166.8372
 30
0.0
 11
114.26856
 21
166.837205
 31
0.0
  0
LINE
  8
LC-007-005-----0
  6
CONTINUOUS
  5
3C6
 10
184.850021
 20
21.337205
 30
0.0
 11
185.823684
 21
22.310868
 31
0.0
  0
LINE
  8
LC-001-002-----0
  6
CONTINUOUS
  5
3C7
 10
66.19675
 20
137.337205
 30
0.0
 11
64.075429
 21
137.337205
 31
0.0
  0
LINE
  8
LC-001-002-----0
  6
CONTINUOUS
  5
3C8
 10
159.768559
 20
165.337175
 30
0.0
 11
159.768562
 21
169.337175
 31
0.0
  0
ARC
  8
LC-001-002-----0
  6
CONTINUOUS
  5
3C9
 10
157.768562
 20
169.337177
 30
0.0
 40
2.0
 50
359.999963
 51
89.999888
  0
LINE
  8
LC-001-002-----0
  6
CONTINUOUS
  5
3CA
 10
364.268332
 20
81.820293
 30
0.0
 11
349.268332
 21
81.820343
 31
0.0
  0
ARC
  8
LC-001-002-----0
  6
CONTINUOUS
  5
3CB
 10
154.768562
 20
169.837179
 30
0.0
 40
1.5
 50
89.999963
 51
179.999944
  0
LINE
  8
LC-001-002-----0
  6
CONTINUOUS
  5
3CC
 10
153.268562
 20
169.83718
 30
0.0
 11
153.26856
 21
166.83718
 31
0.0
  0
LINE
  8
LC-001-002-----0
  6
CONTINUOUS
  5
3CD
 10
375.268272
 20
63.820257
 30
0.0
 11
349.268272
 21
63.820343
 31
0.0
  0
LINE
  8
LC-001-002-----0
  6
CONTINUOUS
  5
3CE
 10
375.268292
 20
69.820257
 30
0.0
 11
349.268292
 21
69.820343
 31
0.0
  0
ARC
  8
LC-001-002-----0
  6
CONTINUOUS
  5
3CF
 10
323.268468
 20
66.820721
 30
0.0
 40
3.0
 50
89.999965
 51
269.999829
  0
LINE
  8
LC-001-002-----0
  6
CONTINUOUS
  5
3D0
 10
64.075429
 20
137.337205
 30
0.0
 11
64.075429
 21
143.337205
 31
0.0
  0
LINE
  8
LC-001-002-----0
  6
CONTINUOUS
  5
3D1
 10
147.268562
 20
169.837184
 30
0.0
 11
147.26856
 21
166.837184
 31
0.0
  0
ARC
  8
LC-001-002-----0
  6
CONTINUOUS
  5
3D2
 10
145.768562
 20
169.837185
 30
0.0
 40
1.5
 50
359.999963
 51
89.999888
  0
LINE
  8
LC-001-002-----0
  6
CONTINUOUS
  5
3D3
 10
141.26856
 20
166.837188
 30
0.0
 11
141.268562
 21
169.837188
 31
0.0
  0
ARC
  8
LC-001-002-----0
  6
CONTINUOUS
  5
3D4
 10
142.768562
 20
169.837187
 30
0.0
 40
1.5
 50
89.999963
 51
179.999963
  0
ARC
  8
LC-001-002-----0
  6
CONTINUOUS
  5
3D5
 10
334.2685
 20
78.820692
 30
0.0
 40
3.0
 50
89.999965
 51
269.999829
  0
LINE
  8
LC-001-002-----0
  6
CONTINUOUS
  5
3D6
 10
334.268492
 20
75.820692
 30
0.0
 11
349.268492
 21
75.820652
 31
0.0
  0
LINE
  8
LC-001-002-----0
  6
CONTINUOUS
  5
3D7
 10
135.268562
 20
169.837191
 30
0.0
 11
135.26856
 21
166.837191
 31
0.0
  0
ARC
  8
LC-001-002-----0
  6
CONTINUOUS
  5
3D8
 10
133.768562
 20
169.837192
 30
0.0
 40
1.5
 50
359.999963
 51
89.999888
  0
LINE
  8
LC-001-002-----0
  6
CONTINUOUS
  5
3D9
 10
334.268508
 20
81.820692
 30
0.0
 11
349.268508
 21
81.820652
 31
0.0
  0
ARC
  8
LC-005-002-RND-0
  6
CONTINUOUS
  5
3DA
 10
71.075429
 20
143.337205
 30
0.0
 40
7.0
 50
136.406436
 51
180.0
  0
LINE
  8
LC-001-002-----0
  6
CONTINUOUS
  5
3DB
 10
67.268563
 20
159.837205
 30
0.0
 11
67.268563
 21
153.337205
 31
0.0
  0
LINE
  8
LC-001-002-----0
  6
CONTINUOUS
  5
3DC
 10
323.26846
 20
63.820721
 30
0.0
 11
349.26846
 21
63.820652
 31
0.0
  0
LINE
  8
LC-007-005-----0
  6
CONTINUOUS
  5
3DD
 10
183.768563
 20
23.084175
 30
0.0
 11
186.768563
 21
26.084175
 31
0.0
  0
LINE
  8
LC-001-002-----0
  6
CONTINUOUS
  5
3DE
 10
123.268562
 20
169.837199
 30
0.0
 11
123.26856
 21
166.837199
 31
0.0
  0
LINE
  8
LC-007-005-----0
  6
CONTINUOUS
  5
3DF
 10
183.768563
 20
25.912602
 30
0.0
 11
186.768563
 21
28.912602
 31
0.0
  0
ARC
  8
LC-001-002-----0
  6
CONTINUOUS
  5
3E0
 10
121.768562
 20
169.8372
 30
0.0
 40
1.5
 50
359.999963
 51
89.999888
  0
LINE
  8
LC-001-002-----0
  6
CONTINUOUS
  5
3E1
 10
323.268476
 20
69.820721
 30
0.0
 11
349.268476
 21
69.820652
 31
0.0
  0
ARC
  8
LC-001-002-----0
  6
CONTINUOUS
  5
3E2
 10
385.268993
 20
128.820323
 30
0.0
 40
3.0
 50
359.999734
 51
179.999618
  0
ARC
  8
LC-001-002-----0
  6
CONTINUOUS
  5
3E3
 10
130.768562
 20
169.837194
 30
0.0
 40
1.5
 50
89.999963
 51
179.999944
  0
LINE
  8
LC-001-002-----0
  6
CONTINUOUS
  5
3E4
 10
129.26856
 20
166.837195
 30
0.0
 11
129.268562
 21
169.837195
 31
0.0
  0
ARC
  8
LC-001-002-----0
  6
CONTINUOUS
  5
3E5
 10
373.268942
 20
117.820378
 30
0.0
 40
3.0
 50
359.999734
 51
179.999618
  0
ARC
  8
LC-001-002-----0
  6
CONTINUOUS
  5
3E6
 10
361.268889
 20
106.320434
 30
0.0
 40
3.0
 50
359.999734
 51
179.999618
  0
LINE
  8
LC-001-002-----0
  6
CONTINUOUS
  5
3E7
 10
358.268889
 20
106.320448
 30
0.0
 11
358.268872
 21
102.820448
 31
0.0
  0
LINE
  8
LC-001-002-----0
  6
CONTINUOUS
  5
3E8
 10
364.268889
 20
106.32042
 30
0.0
 11
364.268872
 21
102.82042
 31
0.0
  0
LINE
  8
LC-001-002-----0
  6
CONTINUOUS
  5
3E9
 10
376.268942
 20
117.820364
 30
0.0
 11
376.268872
 21
102.820364
 31
0.0
  0
LINE
  8
LC-001-002-----0
  6
CONTINUOUS
  5
3EA
 10
370.268942
 20
117.820392
 30
0.0
 11
370.268872
 21
102.820392
 31
0.0
  0
LINE
  8
LC-001-002-----0
  6
CONTINUOUS
  5
3EB
 10
388.268993
 20
128.820309
 30
0.0
 11
388.268872
 21
102.820309
 31
0.0
  0
LINE
  8
LC-001-002-----0
  6
CONTINUOUS
  5
3EC
 10
185.562792
 20
21.337205
 30
0.0
 11
42.974335
 21
21.337205
 31
0.0
  0
LINE
  8
LC-007-005-----0
  6
CONTINUOUS
  5
3ED
 10
183.768563
 20
28.741029
 30
0.0
 11
186.768563
 21
31.741029
 31
0.0
  0
LINE
  8
LC-007-005-----0
  6
CONTINUOUS
  5
3EE
 10
183.768563
 20
31.569456
 30
0.0
 11
186.768563
 21
34.569456
 31
0.0
  0
LINE
  8
LC-007-005-----0
  6
CONTINUOUS
  5
3EF
 10
183.768563
 20
34.397883
 30
0.0
 11
186.768563
 21
37.397883
 31
0.0
  0
LINE
  8
LC-007-005-----0
  6
CONTINUOUS
  5
3F0
 10
183.768563
 20
37.22631
 30
0.0
 11
186.768563
 21
40.22631
 31
0.0
  0
LINE
  8
LC-007-005-----0
  6
CONTINUOUS
  5
3F1
 10
183.768563
 20
40.054737
 30
0.0
 11
186.768563
 21
43.054737
 31
0.0
  0
LINE
  8
LC-007-005-----0
  6
CONTINUOUS
  5
3F2
 10
183.768563
 20
42.883164
 30
0.0
 11
186.768563
 21
45.883164
 31
0.0
  0
LINE
  8
LC-007-005-----0
  6
CONTINUOUS
  5
3F3
 10
183.768563
 20
45.711592
 30
0.0
 11
186.768563
 21
48.711592
 31
0.0
  0
LINE
  8
LC-007-005-----0
  6
CONTINUOUS
  5
3F4
 10
183.768563
 20
48.540019
 30
0.0
 11
186.768563
 21
51.540019
 31
0.0
  0
LINE
  8
LC-007-005-----0
  6
CONTINUOUS
  5
3F5
 10
183.768563
 20
51.368446
 30
0.0
 11
186.768563
 21
54.368446
 31
0.0
  0
LINE
  8
LC-007-005-----0
  6
CONTINUOUS
  5
3F6
 10
183.768563
 20
54.196873
 30
0.0
 11
186.768563
 21
57.196873
 31
0.0
  0
LINE
  8
LC-007-005-----0
  6
CONTINUOUS
  5
3F7
 10
183.768563
 20
57.0253
 30
0.0
 11
186.768563
 21
60.0253
 31
0.0
  0
LINE
  8
LC-007-005-----0
  6
CONTINUOUS
  5
3F8
 10
183.768563
 20
59.853727
 30
0.0
 11
186.768563
 21
62.853727
 31
0.0
  0
LINE
  8
LC-007-005-----0
  6
CONTINUOUS
  5
3F9
 10
183.768563
 20
62.682154
 30
0.0
 11
186.768563
 21
65.682154
 31
0.0
  0
LINE
  8
LC-007-005-----0
  6
CONTINUOUS
  5
3FA
 10
183.768563
 20
65.510581
 30
0.0
 11
186.768563
 21
68.510581
 31
0.0
  0
LINE
  8
LC-007-005-----0
  6
CONTINUOUS
  5
3FB
 10
183.768563
 20
68.339009
 30
0.0
 11
186.768563
 21
71.339009
 31
0.0
  0
LINE
  8
LC-007-005-----0
  6
CONTINUOUS
  5
3FC
 10
183.768563
 20
71.167436
 30
0.0
 11
186.768563
 21
74.167436
 31
0.0
  0
LINE
  8
LC-007-005-----0
  6
CONTINUOUS
  5
3FD
 10
183.768563
 20
73.995863
 30
0.0
 11
186.768563
 21
76.995863
 31
0.0
  0
LINE
  8
LC-007-005-----0
  6
CONTINUOUS
  5
3FE
 10
183.768563
 20
76.82429
 30
0.0
 11
186.768563
 21
79.82429
 31
0.0
  0
LINE
  8
LC-007-005-----0
  6
CONTINUOUS
  5
3FF
 10
183.768563
 20
79.652717
 30
0.0
 11
186.768563
 21
82.652717
 31
0.0
  0
LINE
  8
LC-007-005-----0
  6
CONTINUOUS
  5
400
 10
183.768563
 20
82.481144
 30
0.0
 11
186.768563
 21
85.481144
 31
0.0
  0
LINE
  8
LC-007-005-----0
  6
CONTINUOUS
  5
401
 10
183.768563
 20
85.309571
 30
0.0
 11
186.768563
 21
88.309571
 31
0.0
  0
LINE
  8
LC-007-005-----0
  6
CONTINUOUS
  5
402
 10
183.768563
 20
88.137998
 30
0.0
 11
186.768563
 21
91.137998
 31
0.0
  0
LINE
  8
LC-007-005-----0
  6
CONTINUOUS
  5
403
 10
183.768563
 20
90.966426
 30
0.0
 11
186.768563
 21
93.966426
 31
0.0
  0
LINE
  8
LC-007-005-----0
  6
CONTINUOUS
  5
404
 10
183.768563
 20
93.794853
 30
0.0
 11
186.768563
 21
96.794853
 31
0.0
  0
LINE
  8
LC-007-005-----0
  6
CONTINUOUS
  5
405
 10
183.768563
 20
96.62328
 30
0.0
 11
186.768563
 21
99.62328
 31
0.0
  0
LINE
  8
LC-007-005-----0
  6
CONTINUOUS
  5
406
 10
183.768563
 20
99.451707
 30
0.0
 11
186.768563
 21
102.451707
 31
0.0
  0
LINE
  8
LC-007-005-----0
  6
CONTINUOUS
  5
407
 10
183.768563
 20
102.280134
 30
0.0
 11
186.768563
 21
105.280134
 31
0.0
  0
LINE
  8
LC-007-005-----0
  6
CONTINUOUS
  5
408
 10
183.768563
 20
105.108561
 30
0.0
 11
186.768563
 21
108.108561
 31
0.0
  0
LINE
  8
LC-007-005-----0
  6
CONTINUOUS
  5
409
 10
183.768563
 20
107.936988
 30
0.0
 11
186.768563
 21
110.936988
 31
0.0
  0
LINE
  8
LC-007-005-----0
  6
CONTINUOUS
  5
40A
 10
183.768563
 20
110.765415
 30
0.0
 11
186.768563
 21
113.765415
 31
0.0
  0
LINE
  8
LC-007-005-----0
  6
CONTINUOUS
  5
40B
 10
183.768563
 20
113.593843
 30
0.0
 11
186.768563
 21
116.593843
 31
0.0
  0
LINE
  8
LC-007-005-----0
  6
CONTINUOUS
  5
40C
 10
183.768563
 20
116.42227
 30
0.0
 11
186.768563
 21
119.42227
 31
0.0
  0
LINE
  8
LC-007-005-----0
  6
CONTINUOUS
  5
40D
 10
183.768563
 20
119.250697
 30
0.0
 11
186.768563
 21
122.250697
 31
0.0
  0
LINE
  8
LC-007-005-----0
  6
CONTINUOUS
  5
40E
 10
183.768563
 20
122.079124
 30
0.0
 11
186.768563
 21
125.079124
 31
0.0
  0
LINE
  8
LC-007-005-----0
  6
CONTINUOUS
  5
40F
 10
183.768563
 20
124.907551
 30
0.0
 11
186.768563
 21
127.907551
 31
0.0
  0
LINE
  8
LC-007-005-----0
  6
CONTINUOUS
  5
410
 10
183.768563
 20
127.735978
 30
0.0
 11
186.768563
 21
130.735978
 31
0.0
  0
LINE
  8
LC-007-005-----0
  6
CONTINUOUS
  5
411
 10
183.768563
 20
130.564405
 30
0.0
 11
186.768563
 21
133.564405
 31
0.0
  0
LINE
  8
LC-007-005-----0
  6
CONTINUOUS
  5
412
 10
183.768563
 20
133.392832
 30
0.0
 11
186.768563
 21
136.392832
 31
0.0
  0
LINE
  8
LC-007-005-----0
  6
CONTINUOUS
  5
413
 10
183.768563
 20
136.22126
 30
0.0
 11
186.768563
 21
139.22126
 31
0.0
  0
LINE
  8
LC-007-005-----0
  6
CONTINUOUS
  5
414
 10
183.768563
 20
139.049687
 30
0.0
 11
186.768563
 21
142.049687
 31
0.0
  0
LINE
  8
LC-007-005-----0
  6
CONTINUOUS
  5
415
 10
183.768563
 20
141.878114
 30
0.0
 11
186.664761
 21
144.774311
 31
0.0
  0
LINE
  8
LC-007-005-----0
  6
CONTINUOUS
  5
416
 10
183.655002
 20
144.592979
 30
0.0
 11
186.070336
 21
147.008313
 31
0.0
  0
LINE
  8
LC-007-005-----0
  6
CONTINUOUS
  5
417
 10
182.916983
 20
146.683388
 30
0.0
 11
185.100545
 21
148.86695
 31
0.0
  0
LINE
  8
LC-007-005-----0
  6
CONTINUOUS
  5
418
 10
181.705199
 20
148.30003
 30
0.0
 11
183.826524
 21
150.421356
 31
0.0
  0
LINE
  8
LC-007-005-----0
  6
CONTINUOUS
  5
419
 10
180.080747
 20
149.504006
 30
0.0
 11
182.266772
 21
151.690031
 31
0.0
  0
LINE
  8
LC-007-005-----0
  6
CONTINUOUS
  5
41A
 10
177.979911
 20
150.231597
 30
0.0
 11
180.402051
 21
152.653737
 31
0.0
  0
LINE
  8
LC-007-005-----0
  6
CONTINUOUS
  5
41B
 10
175.257092
 20
150.337205
 30
0.0
 11
178.159837
 21
153.23995
 31
0.0
  0
LINE
  8
LC-007-005-----0
  6
CONTINUOUS
  5
41C
 10
172.428665
 20
150.337205
 30
0.0
 11
175.428665
 21
153.337205
 31
0.0
  0
LINE
  8
LC-007-005-----0
  6
CONTINUOUS
  5
41D
 10
169.600238
 20
150.337205
 30
0.0
 11
172.600238
 21
153.337205
 31
0.0
  0
LINE
  8
LC-007-005-----0
  6
CONTINUOUS
  5
41E
 10
166.771811
 20
150.337205
 30
0.0
 11
169.771811
 21
153.337205
 31
0.0
  0
LINE
  8
LC-007-005-----0
  6
CONTINUOUS
  5
41F
 10
163.943384
 20
150.337205
 30
0.0
 11
166.943384
 21
153.337205
 31
0.0
  0
LINE
  8
LC-007-005-----0
  6
CONTINUOUS
  5
420
 10
161.114956
 20
150.337205
 30
0.0
 11
164.114956
 21
153.337205
 31
0.0
  0
LINE
  8
LC-007-005-----0
  6
CONTINUOUS
  5
421
 10
158.280463
 20
150.331139
 30
0.0
 11
161.286529
 21
153.337205
 31
0.0
  0
LINE
  8
LC-007-005-----0
  6
CONTINUOUS
  5
422
 10
158.268563
 20
153.147666
 30
0.0
 11
161.268563
 21
156.147666
 31
0.0
  0
LINE
  8
LC-007-005-----0
  6
CONTINUOUS
  5
423
 10
157.949119
 20
155.656649
 30
0.0
 11
161.268563
 21
158.976094
 31
0.0
  0
LINE
  8
LC-007-005-----0
  6
CONTINUOUS
  5
424
 10
157.518563
 20
158.054521
 30
0.0
 11
159.301248
 21
159.837205
 31
0.0
  0
ARC
  8
LC-005-002-RND-0
  6
CONTINUOUS
  5
425
 10
51.768563
 20
143.337205
 30
0.0
 40
7.0
 50
90.0
 51
180.0
  0
LINE
  8
LC-007-005-----0
  6
CONTINUOUS
  5
426
 10
56.463153
 20
150.337205
 30
0.0
 11
59.463153
 21
153.337205
 31
0.0
  0
LINE
  8
LC-007-005-----0
  6
CONTINUOUS
  5
427
 10
53.634726
 20
150.337205
 30
0.0
 11
56.634726
 21
153.337205
 31
0.0
  0
LINE
  8
LC-007-005-----0
  6
CONTINUOUS
  5
428
 10
50.806299
 20
150.337205
 30
0.0
 11
53.806299
 21
153.337205
 31
0.0
  0
LINE
  8
LC-001-002-----0
  6
CONTINUOUS
  5
429
 10
158.286529
 20
150.337205
 30
0.0
 11
176.768563
 21
150.337205
 31
0.0
  0
LINE
  8
LC-001-002-----0
  6
CONTINUOUS
  5
42A
 10
183.768563
 20
137.337205
 30
0.0
 11
183.768563
 21
143.337205
 31
0.0
  0
ARC
  8
LC-005-002-RND-0
  6
CONTINUOUS
  5
42B
 10
176.768563
 20
143.337205
 30
0.0
 40
7.0
 50
0.0
 51
90.0
  0
LINE
  8
LC-001-002-----0
  6
CONTINUOUS
  5
42C
 10
382.268993
 20
128.820337
 30
0.0
 11
382.268872
 21
102.820337
 31
0.0
  0
LINE
  8
LC-001-002-----0
  6
CONTINUOUS
  5
42D
 10
358.268549
 20
99.320616
 30
0.0
 11
358.268563
 21
102.820616
 31
0.0
  0
ARC
  8
LC-001-002-----0
  6
CONTINUOUS
  5
42E
 10
361.268549
 20
99.320604
 30
0.0
 40
3.0
 50
179.999889
 51
359.999734
  0
LINE
  8
LC-001-002-----0
  6
CONTINUOUS
  5
42F
 10
364.268549
 20
99.320592
 30
0.0
 11
364.268563
 21
102.820592
 31
0.0
  0
LINE
  8
LC-001-002-----0
  6
CONTINUOUS
  5
430
 10
370.268504
 20
87.820568
 30
0.0
 11
370.268563
 21
102.820568
 31
0.0
  0
ARC
  8
LC-001-002-----0
  6
CONTINUOUS
  5
431
 10
373.268504
 20
87.820556
 30
0.0
 40
3.0
 50
179.999889
 51
359.999734
  0
LINE
  8
LC-001-002-----0
  6
CONTINUOUS
  5
432
 10
376.268504
 20
87.820544
 30
0.0
 11
376.268563
 21
102.820544
 31
0.0
  0
LINE
  8
LC-001-002-----0
  6
CONTINUOUS
  5
433
 10
382.26846
 20
76.82052
 30
0.0
 11
382.268563
 21
102.82052
 31
0.0
  0
ARC
  8
LC-001-002-----0
  6
CONTINUOUS
  5
434
 10
385.26846
 20
76.820508
 30
0.0
 40
3.0
 50
179.999889
 51
359.999734
  0
LINE
  8
LC-001-002-----0
  6
CONTINUOUS
  5
435
 10
388.26846
 20
76.820497
 30
0.0
 11
388.268563
 21
102.820497
 31
0.0
  0
LINE
  8
LC-001-002-----0
  6
CONTINUOUS
 62
     2
  5
436
 10
183.768563
 20
44.337205
 30
0.0
 11
44.768563
 21
44.337205
 31
0.0
  0
ENDSEC
  0
EOF
