  0
SECTION
  2
HEADER
  9
$ACADVER
  1
AC1009
  9
$INSBASE
 10
0.0
 20
0.0
 30
0.0
  9
$EXTMIN
 10
0.0
 20
0.0
 30
0.0
  9
$EXTMAX
 10
840.0
 20
594.0
 30
0.0
  9
$LIMMIN
 10
0.0
 20
0.0
  9
$LIMMAX
 10
840.0
 20
594.0
  9
$ORTHOMODE
 70
     0
  9
$REGENMODE
 70
     1
  9
$FILLMODE
 70
     1
  9
$QTEXTMODE
 70
     0
  9
$MIRRTEXT
 70
     1
  9
$DRAGMODE
 70
     2
  9
$LTSCALE
 40
2.0
  9
$OSMODE
 70
     0
  9
$ATTMODE
 70
     1
  9
$TEXTSIZE
 40
0.2
  9
$TRACEWID
 40
0.05
  9
$TEXTSTYLE
  7
STANDARD
  9
$CLAYER
  8
0
  9
$CELTYPE
  6
BYLAYER
  9
$CECOLOR
 62
     7
  9
$DIMSCALE
 40
2.0
  9
$DIMASZ
 40
3.5
  9
$DIMEXO
 40
0.0625
  9
$DIMDLI
 40
0.38
  9
$DIMRND
 40
0.0
  9
$DIMDLE
 40
0.0
  9
$DIMEXE
 40
0.18
  9
$DIMTP
 40
0.0
  9
$DIMTM
 40
0.0
  9
$DIMTXT
 40
3.5
  9
$DIMCEN
 40
0.09
  9
$DIMTSZ
 40
0.0
  9
$DIMTOL
 70
     0
  9
$DIMLIM
 70
     0
  9
$DIMTIH
 70
     1
  9
$DIMTOH
 70
     1
  9
$DIMSE1
 70
     0
  9
$DIMSE2
 70
     0
  9
$DIMTAD
 70
     1
  9
$DIMZIN
 70
     0
  9
$DIMBLK
  1

  9
$DIMASO
 70
     1
  9
$DIMSHO
 70
     1
  9
$DIMPOST
  1

  9
$DIMAPOST
  1

  9
$DIMALT
 70
     0
  9
$DIMALTD
 70
     2
  9
$DIMALTF
 40
25.4
  9
$DIMLFAC
 40
1.0
  9
$DIMTOFL
 70
     0
  9
$DIMTVP
 40
0.0
  9
$DIMTIX
 70
     0
  9
$DIMSOXD
 70
     0
  9
$DIMSAH
 70
     0
  9
$DIMBLK1
  1

  9
$DIMBLK2
  1

  9
$DIMSTYLE
  2
STANDARD
  9
$DIMCLRD
 70
     0
  9
$DIMCLRE
 70
     0
  9
$DIMCLRT
 70
     0
  9
$DIMTFAC
 40
1.0
  9
$DIMGAP
 40
0.09
  9
$LUNITS
 70
     2
  9
$LUPREC
 70
     2
  9
$AXISMODE
 70
     0
  9
$AXISUNIT
 10
0.0
 20
0.0
  9
$SKETCHINC
 40
0.1
  9
$FILLETRAD
 40
0.0
  9
$AUNITS
 70
     0
  9
$AUPREC
 70
     0
  9
$MENU
  1
acad
  9
$ELEVATION
 40
0.0
  9
$PELEVATION
 40
0.0
  9
$THICKNESS
 40
0.0
  9
$LIMCHECK
 70
     0
  9
$BLIPMODE
 70
     1
  9
$CHAMFERA
 40
0.0
  9
$CHAMFERB
 40
0.0
  9
$SKPOLY
 70
     0
  9
$TDCREATE
 40
0.000000000
  9
$TDUPDATE
 40
0.000000000
  9
$TDINDWG
 40
0.0000000000
  9
$TDUSRTIMER
 40
0.0000000000
  9
$USRTIMER
 70
     1
  9
$ANGBASE
 50
0.0
  9
$ANGDIR
 70
     0
  9
$PDMODE
 70
     0
  9
$PDSIZE
 40
0.0
  9
$PLINEWID
 40
0.0
  9
$COORDS
 70
     0
  9
$SPLFRAME
 70
     0
  9
$SPLINETYPE
 70
     6
  9
$SPLINESEGS
 70
     8
  9
$ATTDIA
 70
     0
  9
$ATTREQ
 70
     1
  9
$HANDLING
 70
     1
  9
$HANDSEED
  5
2F1
  9
$SURFTAB1
 70
     6
  9
$SURFTAB2
 70
     6
  9
$SURFTYPE
 70
     6
  9
$SURFU
 70
     6
  9
$SURFV
 70
     6
  9
$UCSNAME
  2

  9
$UCSORG
 10
0.0
 20
0.0
 30
0.0
  9
$UCSXDIR
 10
1.0
 20
0.0
 30
0.0
  9
$UCSYDIR
 10
0.0
 20
1.0
 30
0.0
  9
$PUCSNAME
  2

  9
$PUCSORG
 10
0.0
 20
0.0
 30
0.0
  9
$PUCSXDIR
 10
1.0
 20
0.0
 30
0.0
  9
$PUCSYDIR
 10
0.0
 20
1.0
 30
0.0
  9
$USERI1
 70
     0
  9
$USERI2
 70
     0
  9
$USERI3
 70
     0
  9
$USERI4
 70
     0
  9
$USERI5
 70
     0
  9
$USERR1
 40
0.0
  9
$USERR2
 40
0.0
  9
$USERR3
 40
0.0
  9
$USERR4
 40
0.0
  9
$USERR5
 40
0.0
  9
$WORLDVIEW
 70
     1
  9
$SHADEDGE
 70
     3
  9
$SHADEDIF
 70
    70
  9
$TILEMODE
 70
     1
  9
$MAXACTVP
 70
    16
  9
$PINSBASE
 10
0.0
 20
0.0
 30
0.0
  9
$PLIMCHECK
 70
     0
  9
$PEXTMIN
 10
1.000000E+20
 20
1.000000E+20
 30
1.000000E+20
  9
$PEXTMAX
 10
-1.000000E+20
 20
-1.000000E+20
 30
-1.000000E+20
  9
$PLIMMIN
 10
0.0
 20
0.0
  9
$PLIMMAX
 10
840.0
 20
594.0
  9
$UNITMODE
 70
     0
  9
$VISRETAIN
 70
     0
  9
$PLINEGEN
 70
     1
  9
$PSLTSCALE
 70
     0
  9
$TREEDEPTH
 70
  3020
  9
$DWGCODEPAGE
  3
dos850
  0
ENDSEC
  0
SECTION
  2
TABLES
  0
TABLE
  2
VPORT
 70
     1
  0
VPORT
  2
*ACTIVE
 70
     0
 10
0.0
 20
0.0
 11
1.0
 21
1.0
 12
420.0
 22
297.0
 13
0.0
 23
0.0
 14
1.0
 24
1.0
 15
0.0
 25
0.0
 16
0.0
 26
0.0
 36
1.0
 17
0.0
 27
0.0
 37
0.0
 40
594.0
 41
1.604229
 42
50.0
 43
0.0
 44
0.0
 50
0.0
 51
0.0
 71
     0
 72
   100
 73
     1
 74
     1
 75
     0
 76
     0
 77
     0
 78
     0
  0
ENDTAB
  0
TABLE
  2
LTYPE
 70
     2
  0
LTYPE
  2
CONTINUOUS
 70
    64
  3
Solid line
 72
    65
 73
     0
 40
0.0
  0
LTYPE
  2
DASHDOT
 70
    64
  3
__ . __ . __ . __ . __
 72
    65
 73
     4
 40
7.5
 49
5.0
 49
-1.25
 49
0.0
 49
-1.25
  0
ENDTAB
  0
TABLE
  2
LAYER
 70
    11
  0
LAYER
  2
0
 70
     0
 62
     7
  6
CONTINUOUS
  0
LAYER
  2
LC-INFO-1-2-MM-A3-0
 70
     1
 62
    -1
  6
CONTINUOUS
  0
LAYER
  2
LC-002-005-----0
 70
     0
 62
     2
  6
CONTINUOUS
  0
LAYER
  2
LC-005-003-MTH-0
 70
     0
 62
     2
  6
CONTINUOUS
  0
LAYER
  2
LC-004-003-----0
 70
     0
 62
     2
  6
CONTINUOUS
  0
LAYER
  2
LC-006-003-MTG-0
 70
     0
 62
     2
  6
CONTINUOUS
  0
LAYER
  2
LC-007-000-----0
 70
     0
 62
     7
  6
CONTINUOUS
  0
LAYER
  2
LC-008-000-----0
 70
     0
 62
     7
  6
CONTINUOUS
  0
LAYER
  2
LC-001-002-----0
 70
     0
 62
     1
  6
CONTINUOUS
  0
LAYER
  2
LC-003-002-RND-0
 70
     0
 62
     1
  6
CONTINUOUS
  0
LAYER
  2
LC-000
 70
     0
 62
     7
  6
CONTINUOUS
  0
ENDTAB
  0
TABLE
  2
STYLE
 70
     4
  0
STYLE
  2
STANDARD
 70
     0
 40
0.0
 41
1.0
 50
0.0
 71
     0
 42
0.0
  3
txt
  4

  0
STYLE
  2
LC-STANDARD
 70
    64
 40
0.0
 41
1.0
 50
0.0
 71
     0
 42
3.5
  3
MONOTXT
  4

  0
STYLE
  2
LC-TXTSTYLE-150-400-0-0-A2
 70
    64
 40
0.0
 41
1.0
 50
15.0
 71
     0
 42
3.5
  3
MONOTXT
  4

  0
STYLE
  2
LC-TXTSTYLE-150-400-0-0-D3
 70
    64
 40
0.0
 41
1.0
 50
15.0
 71
     0
 42
3.5
  3
LC-STANDARD
  4

  0
ENDTAB
  0
TABLE
  2
VIEW
 70
     0
  0
ENDTAB
  0
TABLE
  2
UCS
 70
     0
  0
ENDTAB
  0
TABLE
  2
APPID
 70
     1
  0
APPID
  2
ACAD
 70
     0
  0
ENDTAB
  0
TABLE
  2
DIMSTYLE
 70
     3
  0
DIMSTYLE
  2
STANDARD
 70
     0
  3

  4

  5

  6

  7

 40
1.0
 41
0.18
 42
0.0625
 43
0.38
 44
0.18
 45
0.0
 46
0.0
 47
0.0
 48
0.0
 71
     0
 72
     0
 73
     1
 74
     1
 75
     0
 76
     0
 77
     0
 78
     0
140
0.18
141
0.09
142
0.0
143
25.4
144
1.0
145
0.0
146
1.0
147
0.09
170
     0
171
     2
172
     0
173
     0
174
     0
175
     0
176
     0
177
     0
178
     0
  0
DIMSTYLE
  2
LC-STANDARD
 70
     0
  3

  4

  5

  6

  7

 40
1.0
 41
3.5
 42
0.0
 43
7.5
 44
1.8
 45
0.0
 46
0.0
 47
0.0
 48
0.0
 71
     0
 72
     0
 73
     0
 74
     0
 75
     0
 76
     0
 77
     1
 78
     8
140
3.5
141
0.0
142
0.0
143
25.4
144
1.0
145
0.0
146
0.71
147
1.5
170
     0
171
     2
172
     1
173
     0
174
     0
175
     0
176
     0
177
     0
178
     3
  0
DIMSTYLE
  2
LC-DIM-L-0140-02-02
 70
     0
  3

  4

  5

  6

  7

 40
2.0
 41
3.5
 42
0.0
 43
7.5
 44
1.8
 45
0.0
 46
0.0
 47
0.0
 48
0.0
 71
     0
 72
     0
 73
     0
 74
     0
 75
     0
 76
     0
 77
     1
 78
     8
140
14.0
141
0.0
142
0.0
143
25.4
144
1.0
145
0.0
146
0.71
147
1.5
170
     0
171
     2
172
     0
173
     0
174
     0
175
     0
176
     2
177
     2
178
     8
  0
ENDTAB
  0
ENDSEC
  0
SECTION
  2
BLOCKS
  0
BLOCK
  8
0
  5
23
  2
*X0
 70
    65
 10
291.883328
 20
397.408217
 30
0.0
  3
*X0
  0
LINE
  8
LC-002-005-----0
  6
CONTINUOUS
  5
25
 10
298.413268
 20
397.408217
 30
0.0
 11
300.883328
 21
399.878278
 31
0.0
  0
LINE
  8
LC-002-005-----0
  6
CONTINUOUS
  5
26
 10
295.58484
 20
397.408217
 30
0.0
 11
300.58484
 21
402.408217
 31
0.0
  0
LINE
  8
LC-002-005-----0
  6
CONTINUOUS
  5
27
 10
292.756413
 20
397.408217
 30
0.0
 11
297.756413
 21
402.408217
 31
0.0
  0
LINE
  8
LC-002-005-----0
  6
CONTINUOUS
  5
28
 10
291.883328
 20
399.363559
 30
0.0
 11
294.927986
 21
402.408217
 31
0.0
  0
LINE
  8
LC-002-005-----0
  6
CONTINUOUS
  5
29
 10
291.883328
 20
402.191986
 30
0.0
 11
292.099559
 21
402.408217
 31
0.0
  0
ENDBLK
  8
0
  5
2A
  0
BLOCK
  8
0
  5
2C
  2
*X1
 70
    65
 10
307.883328
 20
397.408217
 30
0.0
  3
*X1
  0
LINE
  8
LC-002-005-----0
  6
CONTINUOUS
  5
2D
 10
326.697539
 20
397.408217
 30
0.0
 11
328.383328
 21
399.094006
 31
0.0
  0
LINE
  8
LC-002-005-----0
  6
CONTINUOUS
  5
2E
 10
323.869112
 20
397.408217
 30
0.0
 11
328.383328
 21
401.922433
 31
0.0
  0
LINE
  8
LC-002-005-----0
  6
CONTINUOUS
  5
2F
 10
321.040685
 20
397.408217
 30
0.0
 11
326.040685
 21
402.408217
 31
0.0
  0
LINE
  8
LC-002-005-----0
  6
CONTINUOUS
  5
30
 10
318.212257
 20
397.408217
 30
0.0
 11
323.212257
 21
402.408217
 31
0.0
  0
LINE
  8
LC-002-005-----0
  6
CONTINUOUS
  5
31
 10
315.38383
 20
397.408217
 30
0.0
 11
320.38383
 21
402.408217
 31
0.0
  0
LINE
  8
LC-002-005-----0
  6
CONTINUOUS
  5
32
 10
312.555403
 20
397.408217
 30
0.0
 11
317.555403
 21
402.408217
 31
0.0
  0
LINE
  8
LC-002-005-----0
  6
CONTINUOUS
  5
33
 10
309.726976
 20
397.408217
 30
0.0
 11
314.726976
 21
402.408217
 31
0.0
  0
LINE
  8
LC-002-005-----0
  6
CONTINUOUS
  5
34
 10
307.883328
 20
398.392996
 30
0.0
 11
311.898549
 21
402.408217
 31
0.0
  0
LINE
  8
LC-002-005-----0
  6
CONTINUOUS
  5
35
 10
307.883328
 20
401.221423
 30
0.0
 11
309.070122
 21
402.408217
 31
0.0
  0
ENDBLK
  8
0
  5
36
  0
BLOCK
  8
0
  5
38
  2
*X2
 70
    65
 10
328.383328
 20
397.408217
 30
0.0
  3
*X2
  0
LINE
  8
LC-002-005-----0
  6
CONTINUOUS
  5
39
 10
346.496529
 20
397.408217
 30
0.0
 11
348.883328
 21
399.795016
 31
0.0
  0
LINE
  8
LC-002-005-----0
  6
CONTINUOUS
  5
3A
 10
343.668102
 20
397.408217
 30
0.0
 11
348.668102
 21
402.408217
 31
0.0
  0
LINE
  8
LC-002-005-----0
  6
CONTINUOUS
  5
3B
 10
340.839674
 20
397.408217
 30
0.0
 11
345.839674
 21
402.408217
 31
0.0
  0
LINE
  8
LC-002-005-----0
  6
CONTINUOUS
  5
3C
 10
338.011247
 20
397.408217
 30
0.0
 11
343.011247
 21
402.408217
 31
0.0
  0
LINE
  8
LC-002-005-----0
  6
CONTINUOUS
  5
3D
 10
335.18282
 20
397.408217
 30
0.0
 11
340.18282
 21
402.408217
 31
0.0
  0
LINE
  8
LC-002-005-----0
  6
CONTINUOUS
  5
3E
 10
332.354393
 20
397.408217
 30
0.0
 11
337.354393
 21
402.408217
 31
0.0
  0
LINE
  8
LC-002-005-----0
  6
CONTINUOUS
  5
3F
 10
329.525966
 20
397.408217
 30
0.0
 11
334.525966
 21
402.408217
 31
0.0
  0
LINE
  8
LC-002-005-----0
  6
CONTINUOUS
  5
40
 10
328.383328
 20
399.094006
 30
0.0
 11
331.697539
 21
402.408217
 31
0.0
  0
LINE
  8
LC-002-005-----0
  6
CONTINUOUS
  5
41
 10
328.383328
 20
401.922433
 30
0.0
 11
328.869112
 21
402.408217
 31
0.0
  0
ENDBLK
  8
0
  5
42
  0
BLOCK
  8
0
  5
44
  2
*D3
 70
    65
 10
0.0
 20
0.0
 30
0.0
  3
*D3
  0
LINE
  8
LC-005-003-MTH-0
  6
CONTINUOUS
  5
46
 10
251.883328
 20
387.708217
 30
0.0
 11
199.2
 21
387.708217
 31
0.0
  0
LINE
  8
LC-005-003-MTH-0
  6
CONTINUOUS
  5
47
 10
256.90812
 20
402.708217
 30
0.0
 11
199.2
 21
402.708217
 31
0.0
  0
LINE
  8
LC-004-003-----0
  6
CONTINUOUS
  5
49
 10
219.654733
 20
359.947761
 30
0.0
 11
216.0
 21
387.708217
 31
0.0
  0
LINE
  8
LC-004-003-----0
  6
CONTINUOUS
  5
4A
 10
216.0
 20
387.708217
 30
0.0
 11
212.345267
 21
359.947761
 31
0.0
  0
LINE
  8
LC-004-003-----0
  6
CONTINUOUS
  5
4B
 10
212.345267
 20
359.947761
 30
0.0
 11
219.654733
 21
359.947761
 31
0.0
  0
LINE
  8
LC-004-003-----0
  6
CONTINUOUS
  5
4C
 10
218.704503
 20
359.885479
 30
0.0
 11
216.0
 21
380.428217
 31
0.0
  0
LINE
  8
LC-004-003-----0
  6
CONTINUOUS
  5
4D
 10
216.0
 20
380.428217
 30
0.0
 11
213.295497
 21
359.885479
 31
0.0
  0
LINE
  8
LC-004-003-----0
  6
CONTINUOUS
  5
4E
 10
217.754272
 20
359.823198
 30
0.0
 11
216.0
 21
373.148217
 31
0.0
  0
LINE
  8
LC-004-003-----0
  6
CONTINUOUS
  5
4F
 10
216.0
 20
373.148217
 30
0.0
 11
214.245728
 21
359.823198
 31
0.0
  0
LINE
  8
LC-004-003-----0
  6
CONTINUOUS
  5
50
 10
216.804041
 20
359.760917
 30
0.0
 11
216.0
 21
365.868217
 31
0.0
  0
LINE
  8
LC-004-003-----0
  6
CONTINUOUS
  5
51
 10
216.0
 20
365.868217
 30
0.0
 11
215.195959
 21
359.760917
 31
0.0
  0
LINE
  8
LC-004-003-----0
  6
CONTINUOUS
  5
52
 10
212.345267
 20
430.468673
 30
0.0
 11
216.0
 21
402.708217
 31
0.0
  0
LINE
  8
LC-004-003-----0
  6
CONTINUOUS
  5
53
 10
216.0
 20
402.708217
 30
0.0
 11
219.654733
 21
430.468673
 31
0.0
  0
LINE
  8
LC-004-003-----0
  6
CONTINUOUS
  5
54
 10
219.654733
 20
430.468673
 30
0.0
 11
212.345267
 21
430.468673
 31
0.0
  0
LINE
  8
LC-004-003-----0
  6
CONTINUOUS
  5
55
 10
213.295497
 20
430.530954
 30
0.0
 11
216.0
 21
409.988217
 31
0.0
  0
LINE
  8
LC-004-003-----0
  6
CONTINUOUS
  5
56
 10
216.0
 20
409.988217
 30
0.0
 11
218.704503
 21
430.530954
 31
0.0
  0
LINE
  8
LC-004-003-----0
  6
CONTINUOUS
  5
57
 10
214.245728
 20
430.593236
 30
0.0
 11
216.0
 21
417.268217
 31
0.0
  0
LINE
  8
LC-004-003-----0
  6
CONTINUOUS
  5
58
 10
216.0
 20
417.268217
 30
0.0
 11
217.754272
 21
430.593236
 31
0.0
  0
LINE
  8
LC-004-003-----0
  6
CONTINUOUS
  5
59
 10
215.195959
 20
430.655517
 30
0.0
 11
216.0
 21
424.548217
 31
0.0
  0
LINE
  8
LC-004-003-----0
  6
CONTINUOUS
  5
5A
 10
216.0
 20
424.548217
 30
0.0
 11
216.804041
 21
430.655517
 31
0.0
  0
LINE
  8
LC-006-003-MTG-0
  6
CONTINUOUS
  5
5C
 10
216.0
 20
348.508217
 30
0.0
 11
216.0
 21
486.072617
 31
0.0
  0
TEXT
  8
LC-004-003-----0
  6
CONTINUOUS
 62
     8
  5
5E
 10
208.172446
 20
445.136377
 30
0.0
 40
28.0
  1
15
 50
90.0
 41
0.9
 51
15.0
  7
LC-TXTSTYLE-150-400-0-0-D0
  0
ENDBLK
  8
0
  5
5F
  0
BLOCK
  8
0
  5
61
  2
BLK1
 70
    64
 10
0.0
 20
0.0
 30
0.0
  3
BLK1
  0
ENDBLK
  8
0
  5
62
  0
BLOCK
  8
0
  5
64
  2
BLK2
 70
    64
 10
0.0
 20
0.0
 30
0.0
  3
BLK2
  0
ENDBLK
  8
0
  5
65
  0
BLOCK
  8
0
  5
67
  2
*D6
 70
    65
 10
0.0
 20
0.0
 30
0.0
  3
*D6
  0
LINE
  8
LC-005-003-MTH-0
  6
CONTINUOUS
  5
68
 10
255.883328
 20
206.208217
 30
0.0
 11
255.883328
 21
140.0
 31
0.0
  0
LINE
  8
LC-005-003-MTH-0
  6
CONTINUOUS
  5
69
 10
400.883328
 20
206.208217
 30
0.0
 11
400.883328
 21
140.0
 31
0.0
  0
LINE
  8
LC-006-003-MTG-0
  6
CONTINUOUS
  5
6A
 10
255.883328
 20
156.8
 30
0.0
 11
400.883328
 21
156.8
 31
0.0
  0
LINE
  8
LC-004-003-----0
  6
CONTINUOUS
  5
6B
 10
283.643784
 20
160.454733
 30
0.0
 11
255.883328
 21
156.8
 31
0.0
  0
LINE
  8
LC-004-003-----0
  6
CONTINUOUS
  5
6C
 10
255.883328
 20
156.8
 30
0.0
 11
283.643784
 21
153.145267
 31
0.0
  0
LINE
  8
LC-004-003-----0
  6
CONTINUOUS
  5
6D
 10
283.643784
 20
153.145267
 30
0.0
 11
283.643784
 21
160.454733
 31
0.0
  0
LINE
  8
LC-004-003-----0
  6
CONTINUOUS
  5
6E
 10
283.706066
 20
159.504503
 30
0.0
 11
263.163328
 21
156.8
 31
0.0
  0
LINE
  8
LC-004-003-----0
  6
CONTINUOUS
  5
6F
 10
263.163328
 20
156.8
 30
0.0
 11
283.706066
 21
154.095497
 31
0.0
  0
LINE
  8
LC-004-003-----0
  6
CONTINUOUS
  5
70
 10
283.768347
 20
158.554272
 30
0.0
 11
270.443328
 21
156.8
 31
0.0
  0
LINE
  8
LC-004-003-----0
  6
CONTINUOUS
  5
71
 10
270.443328
 20
156.8
 30
0.0
 11
283.768347
 21
155.045728
 31
0.0
  0
LINE
  8
LC-004-003-----0
  6
CONTINUOUS
  5
72
 10
283.830629
 20
157.604041
 30
0.0
 11
277.723328
 21
156.8
 31
0.0
  0
LINE
  8
LC-004-003-----0
  6
CONTINUOUS
  5
73
 10
277.723328
 20
156.8
 30
0.0
 11
283.830629
 21
155.995959
 31
0.0
  0
LINE
  8
LC-004-003-----0
  6
CONTINUOUS
  5
74
 10
373.122872
 20
153.145267
 30
0.0
 11
400.883328
 21
156.8
 31
0.0
  0
LINE
  8
LC-004-003-----0
  6
CONTINUOUS
  5
75
 10
400.883328
 20
156.8
 30
0.0
 11
373.122872
 21
160.454733
 31
0.0
  0
LINE
  8
LC-004-003-----0
  6
CONTINUOUS
  5
76
 10
373.122872
 20
160.454733
 30
0.0
 11
373.122872
 21
153.145267
 31
0.0
  0
LINE
  8
LC-004-003-----0
  6
CONTINUOUS
  5
77
 10
373.060591
 20
154.095497
 30
0.0
 11
393.603328
 21
156.8
 31
0.0
  0
LINE
  8
LC-004-003-----0
  6
CONTINUOUS
  5
78
 10
393.603328
 20
156.8
 30
0.0
 11
373.060591
 21
159.504503
 31
0.0
  0
LINE
  8
LC-004-003-----0
  6
CONTINUOUS
  5
79
 10
372.998309
 20
155.045728
 30
0.0
 11
386.323328
 21
156.8
 31
0.0
  0
LINE
  8
LC-004-003-----0
  6
CONTINUOUS
  5
7A
 10
386.323328
 20
156.8
 30
0.0
 11
372.998309
 21
158.554272
 31
0.0
  0
LINE
  8
LC-004-003-----0
  6
CONTINUOUS
  5
7B
 10
372.936028
 20
155.995959
 30
0.0
 11
379.043328
 21
156.8
 31
0.0
  0
LINE
  8
LC-004-003-----0
  6
CONTINUOUS
  5
7C
 10
379.043328
 20
156.8
 30
0.0
 11
372.936028
 21
157.604041
 31
0.0
  0
TEXT
  8
LC-004-003-----0
  6
CONTINUOUS
 62
     8
  5
7D
 10
294.63385
 20
164.627554
 30
0.0
 40
28.0
  1
Ø145
 51
15.0
  7
LC-TXTSTYLE-150-400-0-0-D0
 72
     1
 11
332.731488
 21
164.627554
 31
0.0
  0
ENDBLK
  8
0
  5
7E
  0
BLOCK
  8
0
  5
80
  2
*X7
 70
    65
 10
275.883328
 20
397.408217
 30
0.0
  3
*X7
  0
LINE
  8
LC-002-005-----0
  6
CONTINUOUS
  5
81
 10
284.271132
 20
397.408217
 30
0.0
 11
284.883328
 21
398.020413
 31
0.0
  0
LINE
  8
LC-002-005-----0
  6
CONTINUOUS
  5
82
 10
281.442705
 20
397.408217
 30
0.0
 11
284.883328
 21
400.84884
 31
0.0
  0
LINE
  8
LC-002-005-----0
  6
CONTINUOUS
  5
83
 10
278.614278
 20
397.408217
 30
0.0
 11
283.614278
 21
402.408217
 31
0.0
  0
LINE
  8
LC-002-005-----0
  6
CONTINUOUS
  5
84
 10
275.883328
 20
397.505695
 30
0.0
 11
280.785851
 21
402.408217
 31
0.0
  0
LINE
  8
LC-002-005-----0
  6
CONTINUOUS
  5
85
 10
275.883328
 20
400.334122
 30
0.0
 11
277.957423
 21
402.408217
 31
0.0
  0
ENDBLK
  8
0
  5
86
  0
BLOCK
  8
0
  5
88
  2
*X8
 70
    65
 10
259.383328
 20
397.408217
 30
0.0
  3
*X8
  0
LINE
  8
LC-002-005-----0
  6
CONTINUOUS
  5
89
 10
267.300569
 20
397.408217
 30
0.0
 11
268.883328
 21
398.990976
 31
0.0
  0
LINE
  8
LC-002-005-----0
  6
CONTINUOUS
  5
8A
 10
264.472142
 20
397.408217
 30
0.0
 11
268.883328
 21
401.819403
 31
0.0
  0
LINE
  8
LC-002-005-----0
  6
CONTINUOUS
  5
8B
 10
261.643715
 20
397.408217
 30
0.0
 11
266.643715
 21
402.408217
 31
0.0
  0
LINE
  8
LC-002-005-----0
  6
CONTINUOUS
  5
8C
 10
259.383328
 20
397.976257
 30
0.0
 11
263.815288
 21
402.408217
 31
0.0
  0
LINE
  8
LC-002-005-----0
  6
CONTINUOUS
  5
8D
 10
259.383328
 20
400.804684
 30
0.0
 11
260.986861
 21
402.408217
 31
0.0
  0
ENDBLK
  8
0
  5
8E
  0
BLOCK
  8
0
  5
90
  2
*X9
 70
    65
 10
355.883328
 20
397.408217
 30
0.0
  3
*X9
  0
LINE
  8
LC-002-005-----0
  6
CONTINUOUS
  5
91
 10
363.467091
 20
397.408217
 30
0.0
 11
364.883328
 21
398.824454
 31
0.0
  0
LINE
  8
LC-002-005-----0
  6
CONTINUOUS
  5
92
 10
360.638664
 20
397.408217
 30
0.0
 11
364.883328
 21
401.652881
 31
0.0
  0
LINE
  8
LC-002-005-----0
  6
CONTINUOUS
  5
93
 10
357.810237
 20
397.408217
 30
0.0
 11
362.810237
 21
402.408217
 31
0.0
  0
LINE
  8
LC-002-005-----0
  6
CONTINUOUS
  5
94
 10
355.883328
 20
398.309735
 30
0.0
 11
359.98181
 21
402.408217
 31
0.0
  0
LINE
  8
LC-002-005-----0
  6
CONTINUOUS
  5
95
 10
355.883328
 20
401.138162
 30
0.0
 11
357.153383
 21
402.408217
 31
0.0
  0
ENDBLK
  8
0
  5
96
  0
BLOCK
  8
0
  5
98
  2
*X10
 70
    65
 10
371.883328
 20
397.408217
 30
0.0
  3
*X10
  0
LINE
  8
LC-002-005-----0
  6
CONTINUOUS
  5
99
 10
380.437654
 20
397.408217
 30
0.0
 11
380.883328
 21
397.853891
 31
0.0
  0
LINE
  8
LC-002-005-----0
  6
CONTINUOUS
  5
9A
 10
377.609227
 20
397.408217
 30
0.0
 11
380.883328
 21
400.682318
 31
0.0
  0
LINE
  8
LC-002-005-----0
  6
CONTINUOUS
  5
9B
 10
374.7808
 20
397.408217
 30
0.0
 11
379.7808
 21
402.408217
 31
0.0
  0
LINE
  8
LC-002-005-----0
  6
CONTINUOUS
  5
9C
 10
371.952373
 20
397.408217
 30
0.0
 11
376.952373
 21
402.408217
 31
0.0
  0
LINE
  8
LC-002-005-----0
  6
CONTINUOUS
  5
9D
 10
371.883328
 20
400.167599
 30
0.0
 11
374.123946
 21
402.408217
 31
0.0
  0
ENDBLK
  8
0
  5
9E
  0
BLOCK
  8
0
  5
A0
  2
*X11
 70
    65
 10
387.883328
 20
397.408217
 30
0.0
  3
*X11
  0
LINE
  8
LC-002-005-----0
  6
CONTINUOUS
  5
A1
 10
394.57979
 20
397.408217
 30
0.0
 11
397.383328
 21
400.211755
 31
0.0
  0
LINE
  8
LC-002-005-----0
  6
CONTINUOUS
  5
A2
 10
391.751363
 20
397.408217
 30
0.0
 11
396.751363
 21
402.408217
 31
0.0
  0
LINE
  8
LC-002-005-----0
  6
CONTINUOUS
  5
A3
 10
388.922936
 20
397.408217
 30
0.0
 11
393.922936
 21
402.408217
 31
0.0
  0
LINE
  8
LC-002-005-----0
  6
CONTINUOUS
  5
A4
 10
387.883328
 20
399.197037
 30
0.0
 11
391.094508
 21
402.408217
 31
0.0
  0
LINE
  8
LC-002-005-----0
  6
CONTINUOUS
  5
A5
 10
387.883328
 20
402.025464
 30
0.0
 11
388.266081
 21
402.408217
 31
0.0
  0
ENDBLK
  8
0
  5
A6
  0
BLOCK
  8
0
  5
A8
  2
*D12
 70
    65
 10
0.0
 20
0.0
 30
0.0
  3
*D12
  0
LINE
  8
LC-005-003-MTH-0
  6
CONTINUOUS
  5
A9
 10
252.883328
 20
400.208217
 30
0.0
 11
252.883328
 21
448.0
 31
0.0
  0
LINE
  8
LC-005-003-MTH-0
  6
CONTINUOUS
  5
AA
 10
403.883328
 20
398.683425
 30
0.0
 11
403.883328
 21
448.0
 31
0.0
  0
LINE
  8
LC-006-003-MTG-0
  6
CONTINUOUS
  5
AB
 10
252.883328
 20
431.2
 30
0.0
 11
403.883328
 21
431.2
 31
0.0
  0
LINE
  8
LC-004-003-----0
  6
CONTINUOUS
  5
AC
 10
280.643784
 20
434.854733
 30
0.0
 11
252.883328
 21
431.2
 31
0.0
  0
LINE
  8
LC-004-003-----0
  6
CONTINUOUS
  5
AD
 10
252.883328
 20
431.2
 30
0.0
 11
280.643784
 21
427.545267
 31
0.0
  0
LINE
  8
LC-004-003-----0
  6
CONTINUOUS
  5
AE
 10
280.643784
 20
427.545267
 30
0.0
 11
280.643784
 21
434.854733
 31
0.0
  0
LINE
  8
LC-004-003-----0
  6
CONTINUOUS
  5
AF
 10
280.706066
 20
433.904503
 30
0.0
 11
260.163328
 21
431.2
 31
0.0
  0
LINE
  8
LC-004-003-----0
  6
CONTINUOUS
  5
B0
 10
260.163328
 20
431.2
 30
0.0
 11
280.706066
 21
428.495497
 31
0.0
  0
LINE
  8
LC-004-003-----0
  6
CONTINUOUS
  5
B1
 10
280.768347
 20
432.954272
 30
0.0
 11
267.443328
 21
431.2
 31
0.0
  0
LINE
  8
LC-004-003-----0
  6
CONTINUOUS
  5
B2
 10
267.443328
 20
431.2
 30
0.0
 11
280.768347
 21
429.445728
 31
0.0
  0
LINE
  8
LC-004-003-----0
  6
CONTINUOUS
  5
B3
 10
280.830629
 20
432.004041
 30
0.0
 11
274.723328
 21
431.2
 31
0.0
  0
LINE
  8
LC-004-003-----0
  6
CONTINUOUS
  5
B4
 10
274.723328
 20
431.2
 30
0.0
 11
280.830629
 21
430.395959
 31
0.0
  0
LINE
  8
LC-004-003-----0
  6
CONTINUOUS
  5
B5
 10
376.122872
 20
427.545267
 30
0.0
 11
403.883328
 21
431.2
 31
0.0
  0
LINE
  8
LC-004-003-----0
  6
CONTINUOUS
  5
B6
 10
403.883328
 20
431.2
 30
0.0
 11
376.122872
 21
434.854733
 31
0.0
  0
LINE
  8
LC-004-003-----0
  6
CONTINUOUS
  5
B7
 10
376.122872
 20
434.854733
 30
0.0
 11
376.122872
 21
427.545267
 31
0.0
  0
LINE
  8
LC-004-003-----0
  6
CONTINUOUS
  5
B8
 10
376.060591
 20
428.495497
 30
0.0
 11
396.603328
 21
431.2
 31
0.0
  0
LINE
  8
LC-004-003-----0
  6
CONTINUOUS
  5
B9
 10
396.603328
 20
431.2
 30
0.0
 11
376.060591
 21
433.904503
 31
0.0
  0
LINE
  8
LC-004-003-----0
  6
CONTINUOUS
  5
BA
 10
375.998309
 20
429.445728
 30
0.0
 11
389.323328
 21
431.2
 31
0.0
  0
LINE
  8
LC-004-003-----0
  6
CONTINUOUS
  5
BB
 10
389.323328
 20
431.2
 30
0.0
 11
375.998309
 21
432.954272
 31
0.0
  0
LINE
  8
LC-004-003-----0
  6
CONTINUOUS
  5
BC
 10
375.936028
 20
430.395959
 30
0.0
 11
382.043328
 21
431.2
 31
0.0
  0
LINE
  8
LC-004-003-----0
  6
CONTINUOUS
  5
BD
 10
382.043328
 20
431.2
 30
0.0
 11
375.936028
 21
432.004041
 31
0.0
  0
TEXT
  8
LC-004-003-----0
  6
CONTINUOUS
 62
     8
  5
BE
 10
302.967709
 20
439.027554
 30
0.0
 40
28.0
  1
150
 51
15.0
  7
LC-TXTSTYLE-150-400-0-0-D0
 72
     1
 11
332.731488
 21
439.027554
 31
0.0
  0
ENDBLK
  8
0
  5
BF
  0
BLOCK
  8
0
  5
C1
  2
BLK3
 70
    64
 10
0.0
 20
0.0
 30
0.0
  3
BLK3
  0
ENDBLK
  8
0
  5
C2
  0
BLOCK
  8
0
  5
C4
  2
BLK4
 70
    64
 10
0.0
 20
0.0
 30
0.0
  3
BLK4
  0
ENDBLK
  8
0
  5
C5
  0
BLOCK
  8
0
  5
C7
  2
BLK5
 70
    64
 10
0.0
 20
0.0
 30
0.0
  3
BLK5
  0
ENDBLK
  8
0
  5
C8
  0
BLOCK
  8
0
  5
CA
  2
BLK6
 70
    64
 10
0.0
 20
0.0
 30
0.0
  3
BLK6
  0
ENDBLK
  8
0
  5
CB
  0
BLOCK
  8
0
  5
CD
  2
BLK7
 70
    64
 10
0.0
 20
0.0
 30
0.0
  3
BLK7
  0
ENDBLK
  8
0
  5
CE
  0
BLOCK
  8
0
  5
D0
  2
BLK8
 70
    64
 10
0.0
 20
0.0
 30
0.0
  3
BLK8
  0
ENDBLK
  8
0
  5
D1
  0
BLOCK
  8
0
  5
D3
  2
BLK9
 70
    64
 10
0.0
 20
0.0
 30
0.0
  3
BLK9
  0
ENDBLK
  8
0
  5
D4
  0
BLOCK
  8
0
  5
D6
  2
BLK10
 70
    64
 10
0.0
 20
0.0
 30
0.0
  3
BLK10
  0
ENDBLK
  8
0
  5
D7
  0
BLOCK
  8
0
  5
D9
  2
BLK11
 70
    64
 10
0.0
 20
0.0
 30
0.0
  3
BLK11
  0
ENDBLK
  8
0
  5
DA
  0
BLOCK
  8
0
  5
DC
  2
BLK12
 70
    64
 10
0.0
 20
0.0
 30
0.0
  3
BLK12
  0
ENDBLK
  8
0
  5
DD
  0
BLOCK
  8
0
  5
DF
  2
BLK13
 70
    64
 10
0.0
 20
0.0
 30
0.0
  3
BLK13
  0
ENDBLK
  8
0
  5
E0
  0
BLOCK
  8
0
  5
E2
  2
*X24
 70
    65
 10
258.883328
 20
200.208217
 30
0.0
  3
*X24
  0
LINE
  8
LC-002-005-----0
  6
CONTINUOUS
  5
E3
 10
324.65901
 20
200.208217
 30
0.0
 11
328.383328
 21
203.932535
 31
0.0
  0
LINE
  8
LC-002-005-----0
  6
CONTINUOUS
  5
E4
 10
319.002156
 20
200.208217
 30
0.0
 11
328.383328
 21
209.589389
 31
0.0
  0
LINE
  8
LC-002-005-----0
  6
CONTINUOUS
  5
E5
 10
313.345302
 20
200.208217
 30
0.0
 11
328.383328
 21
215.246243
 31
0.0
  0
LINE
  8
LC-002-005-----0
  6
CONTINUOUS
  5
E6
 10
307.688448
 20
200.208217
 30
0.0
 11
328.383328
 21
220.903097
 31
0.0
  0
LINE
  8
LC-002-005-----0
  6
CONTINUOUS
  5
E7
 10
302.031593
 20
200.208217
 30
0.0
 11
325.031593
 21
223.208217
 31
0.0
  0
LINE
  8
LC-002-005-----0
  6
CONTINUOUS
  5
E8
 10
296.374739
 20
200.208217
 30
0.0
 11
319.374739
 21
223.208217
 31
0.0
  0
LINE
  8
LC-002-005-----0
  6
CONTINUOUS
  5
E9
 10
290.717885
 20
200.208217
 30
0.0
 11
313.717885
 21
223.208217
 31
0.0
  0
LINE
  8
LC-002-005-----0
  6
CONTINUOUS
  5
EA
 10
285.061031
 20
200.208217
 30
0.0
 11
308.061031
 21
223.208217
 31
0.0
  0
LINE
  8
LC-002-005-----0
  6
CONTINUOUS
  5
EB
 10
279.404176
 20
200.208217
 30
0.0
 11
302.404176
 21
223.208217
 31
0.0
  0
LINE
  8
LC-002-005-----0
  6
CONTINUOUS
  5
EC
 10
273.747322
 20
200.208217
 30
0.0
 11
296.747322
 21
223.208217
 31
0.0
  0
LINE
  8
LC-002-005-----0
  6
CONTINUOUS
  5
ED
 10
268.090468
 20
200.208217
 30
0.0
 11
291.090468
 21
223.208217
 31
0.0
  0
LINE
  8
LC-002-005-----0
  6
CONTINUOUS
  5
EE
 10
262.433614
 20
200.208217
 30
0.0
 11
285.433614
 21
223.208217
 31
0.0
  0
LINE
  8
LC-002-005-----0
  6
CONTINUOUS
  5
EF
 10
258.883328
 20
202.314786
 30
0.0
 11
279.776759
 21
223.208217
 31
0.0
  0
LINE
  8
LC-002-005-----0
  6
CONTINUOUS
  5
F0
 10
258.883328
 20
207.97164
 30
0.0
 11
274.119905
 21
223.208217
 31
0.0
  0
LINE
  8
LC-002-005-----0
  6
CONTINUOUS
  5
F1
 10
258.883328
 20
213.628494
 30
0.0
 11
268.463051
 21
223.208217
 31
0.0
  0
LINE
  8
LC-002-005-----0
  6
CONTINUOUS
  5
F2
 10
258.883328
 20
219.285348
 30
0.0
 11
262.806197
 21
223.208217
 31
0.0
  0
LINE
  8
LC-002-005-----0
  6
CONTINUOUS
  5
F3
 10
328.383328
 20
220.331534
 30
0.0
 11
325.506645
 21
223.208217
 31
0.0
  0
LINE
  8
LC-002-005-----0
  6
CONTINUOUS
  5
F4
 10
328.383328
 20
214.67468
 30
0.0
 11
319.849791
 21
223.208217
 31
0.0
  0
LINE
  8
LC-002-005-----0
  6
CONTINUOUS
  5
F5
 10
328.383328
 20
209.017825
 30
0.0
 11
314.192937
 21
223.208217
 31
0.0
  0
LINE
  8
LC-002-005-----0
  6
CONTINUOUS
  5
F6
 10
328.383328
 20
203.360971
 30
0.0
 11
308.536083
 21
223.208217
 31
0.0
  0
LINE
  8
LC-002-005-----0
  6
CONTINUOUS
  5
F7
 10
325.879228
 20
200.208217
 30
0.0
 11
302.879228
 21
223.208217
 31
0.0
  0
LINE
  8
LC-002-005-----0
  6
CONTINUOUS
  5
F8
 10
320.222374
 20
200.208217
 30
0.0
 11
297.222374
 21
223.208217
 31
0.0
  0
LINE
  8
LC-002-005-----0
  6
CONTINUOUS
  5
F9
 10
314.56552
 20
200.208217
 30
0.0
 11
291.56552
 21
223.208217
 31
0.0
  0
LINE
  8
LC-002-005-----0
  6
CONTINUOUS
  5
FA
 10
308.908666
 20
200.208217
 30
0.0
 11
285.908666
 21
223.208217
 31
0.0
  0
LINE
  8
LC-002-005-----0
  6
CONTINUOUS
  5
FB
 10
303.251811
 20
200.208217
 30
0.0
 11
280.251811
 21
223.208217
 31
0.0
  0
LINE
  8
LC-002-005-----0
  6
CONTINUOUS
  5
FC
 10
297.594957
 20
200.208217
 30
0.0
 11
274.594957
 21
223.208217
 31
0.0
  0
LINE
  8
LC-002-005-----0
  6
CONTINUOUS
  5
FD
 10
291.938103
 20
200.208217
 30
0.0
 11
268.938103
 21
223.208217
 31
0.0
  0
LINE
  8
LC-002-005-----0
  6
CONTINUOUS
  5
FE
 10
286.281249
 20
200.208217
 30
0.0
 11
263.281249
 21
223.208217
 31
0.0
  0
LINE
  8
LC-002-005-----0
  6
CONTINUOUS
  5
FF
 10
280.624394
 20
200.208217
 30
0.0
 11
258.883328
 21
221.949283
 31
0.0
  0
LINE
  8
LC-002-005-----0
  6
CONTINUOUS
  5
100
 10
274.96754
 20
200.208217
 30
0.0
 11
258.883328
 21
216.292429
 31
0.0
  0
LINE
  8
LC-002-005-----0
  6
CONTINUOUS
  5
101
 10
269.310686
 20
200.208217
 30
0.0
 11
258.883328
 21
210.635575
 31
0.0
  0
LINE
  8
LC-002-005-----0
  6
CONTINUOUS
  5
102
 10
263.653832
 20
200.208217
 30
0.0
 11
258.883328
 21
204.97872
 31
0.0
  0
ENDBLK
  8
0
  5
103
  0
BLOCK
  8
0
  5
105
  2
*X25
 70
    65
 10
328.383328
 20
200.208217
 30
0.0
  3
*X25
  0
LINE
  8
LC-002-005-----0
  6
CONTINUOUS
  5
106
 10
392.541261
 20
200.208217
 30
0.0
 11
397.883328
 21
205.550284
 31
0.0
  0
LINE
  8
LC-002-005-----0
  6
CONTINUOUS
  5
107
 10
386.884407
 20
200.208217
 30
0.0
 11
397.883328
 21
211.207138
 31
0.0
  0
LINE
  8
LC-002-005-----0
  6
CONTINUOUS
  5
108
 10
381.227553
 20
200.208217
 30
0.0
 11
397.883328
 21
216.863992
 31
0.0
  0
LINE
  8
LC-002-005-----0
  6
CONTINUOUS
  5
109
 10
375.570699
 20
200.208217
 30
0.0
 11
397.883328
 21
222.520846
 31
0.0
  0
LINE
  8
LC-002-005-----0
  6
CONTINUOUS
  5
10A
 10
369.913844
 20
200.208217
 30
0.0
 11
392.913844
 21
223.208217
 31
0.0
  0
LINE
  8
LC-002-005-----0
  6
CONTINUOUS
  5
10B
 10
364.25699
 20
200.208217
 30
0.0
 11
387.25699
 21
223.208217
 31
0.0
  0
LINE
  8
LC-002-005-----0
  6
CONTINUOUS
  5
10C
 10
358.600136
 20
200.208217
 30
0.0
 11
381.600136
 21
223.208217
 31
0.0
  0
LINE
  8
LC-002-005-----0
  6
CONTINUOUS
  5
10D
 10
352.943282
 20
200.208217
 30
0.0
 11
375.943282
 21
223.208217
 31
0.0
  0
LINE
  8
LC-002-005-----0
  6
CONTINUOUS
  5
10E
 10
347.286427
 20
200.208217
 30
0.0
 11
370.286427
 21
223.208217
 31
0.0
  0
LINE
  8
LC-002-005-----0
  6
CONTINUOUS
  5
10F
 10
341.629573
 20
200.208217
 30
0.0
 11
364.629573
 21
223.208217
 31
0.0
  0
LINE
  8
LC-002-005-----0
  6
CONTINUOUS
  5
110
 10
335.972719
 20
200.208217
 30
0.0
 11
358.972719
 21
223.208217
 31
0.0
  0
LINE
  8
LC-002-005-----0
  6
CONTINUOUS
  5
111
 10
330.315865
 20
200.208217
 30
0.0
 11
353.315865
 21
223.208217
 31
0.0
  0
LINE
  8
LC-002-005-----0
  6
CONTINUOUS
  5
112
 10
328.383328
 20
203.932535
 30
0.0
 11
347.65901
 21
223.208217
 31
0.0
  0
LINE
  8
LC-002-005-----0
  6
CONTINUOUS
  5
113
 10
328.383328
 20
209.589389
 30
0.0
 11
342.002156
 21
223.208217
 31
0.0
  0
LINE
  8
LC-002-005-----0
  6
CONTINUOUS
  5
114
 10
328.383328
 20
215.246243
 30
0.0
 11
336.345302
 21
223.208217
 31
0.0
  0
LINE
  8
LC-002-005-----0
  6
CONTINUOUS
  5
115
 10
328.383328
 20
220.903097
 30
0.0
 11
330.688448
 21
223.208217
 31
0.0
  0
LINE
  8
LC-002-005-----0
  6
CONTINUOUS
  5
116
 10
397.883328
 20
218.713785
 30
0.0
 11
393.388896
 21
223.208217
 31
0.0
  0
LINE
  8
LC-002-005-----0
  6
CONTINUOUS
  5
117
 10
397.883328
 20
213.056931
 30
0.0
 11
387.732042
 21
223.208217
 31
0.0
  0
LINE
  8
LC-002-005-----0
  6
CONTINUOUS
  5
118
 10
397.883328
 20
207.400076
 30
0.0
 11
382.075188
 21
223.208217
 31
0.0
  0
LINE
  8
LC-002-005-----0
  6
CONTINUOUS
  5
119
 10
397.883328
 20
201.743222
 30
0.0
 11
376.418334
 21
223.208217
 31
0.0
  0
LINE
  8
LC-002-005-----0
  6
CONTINUOUS
  5
11A
 10
393.761479
 20
200.208217
 30
0.0
 11
370.761479
 21
223.208217
 31
0.0
  0
LINE
  8
LC-002-005-----0
  6
CONTINUOUS
  5
11B
 10
388.104625
 20
200.208217
 30
0.0
 11
365.104625
 21
223.208217
 31
0.0
  0
LINE
  8
LC-002-005-----0
  6
CONTINUOUS
  5
11C
 10
382.447771
 20
200.208217
 30
0.0
 11
359.447771
 21
223.208217
 31
0.0
  0
LINE
  8
LC-002-005-----0
  6
CONTINUOUS
  5
11D
 10
376.790917
 20
200.208217
 30
0.0
 11
353.790917
 21
223.208217
 31
0.0
  0
LINE
  8
LC-002-005-----0
  6
CONTINUOUS
  5
11E
 10
371.134062
 20
200.208217
 30
0.0
 11
348.134062
 21
223.208217
 31
0.0
  0
LINE
  8
LC-002-005-----0
  6
CONTINUOUS
  5
11F
 10
365.477208
 20
200.208217
 30
0.0
 11
342.477208
 21
223.208217
 31
0.0
  0
LINE
  8
LC-002-005-----0
  6
CONTINUOUS
  5
120
 10
359.820354
 20
200.208217
 30
0.0
 11
336.820354
 21
223.208217
 31
0.0
  0
LINE
  8
LC-002-005-----0
  6
CONTINUOUS
  5
121
 10
354.1635
 20
200.208217
 30
0.0
 11
331.1635
 21
223.208217
 31
0.0
  0
LINE
  8
LC-002-005-----0
  6
CONTINUOUS
  5
122
 10
348.506645
 20
200.208217
 30
0.0
 11
328.383328
 21
220.331534
 31
0.0
  0
LINE
  8
LC-002-005-----0
  6
CONTINUOUS
  5
123
 10
342.849791
 20
200.208217
 30
0.0
 11
328.383328
 21
214.67468
 31
0.0
  0
LINE
  8
LC-002-005-----0
  6
CONTINUOUS
  5
124
 10
337.192937
 20
200.208217
 30
0.0
 11
328.383328
 21
209.017825
 31
0.0
  0
LINE
  8
LC-002-005-----0
  6
CONTINUOUS
  5
125
 10
331.536083
 20
200.208217
 30
0.0
 11
328.383328
 21
203.360971
 31
0.0
  0
ENDBLK
  8
0
  5
126
  0
BLOCK
  8
0
  5
128
  2
*D26
 70
    65
 10
0.0
 20
0.0
 30
0.0
  3
*D26
  0
LINE
  8
LC-005-003-MTH-0
  6
CONTINUOUS
  5
129
 10
397.883328
 20
223.208217
 30
0.0
 11
487.2
 21
223.208217
 31
0.0
  0
LINE
  8
LC-005-003-MTH-0
  6
CONTINUOUS
  5
12A
 10
399.858536
 20
402.708217
 30
0.0
 11
487.2
 21
402.708217
 31
0.0
  0
LINE
  8
LC-006-003-MTG-0
  6
CONTINUOUS
  5
12B
 10
470.4
 20
223.208217
 30
0.0
 11
470.4
 21
402.708217
 31
0.0
  0
LINE
  8
LC-004-003-----0
  6
CONTINUOUS
  5
12C
 10
466.745267
 20
250.968673
 30
0.0
 11
470.4
 21
223.208217
 31
0.0
  0
LINE
  8
LC-004-003-----0
  6
CONTINUOUS
  5
12D
 10
470.4
 20
223.208217
 30
0.0
 11
474.054733
 21
250.968673
 31
0.0
  0
LINE
  8
LC-004-003-----0
  6
CONTINUOUS
  5
12E
 10
474.054733
 20
250.968673
 30
0.0
 11
466.745267
 21
250.968673
 31
0.0
  0
LINE
  8
LC-004-003-----0
  6
CONTINUOUS
  5
12F
 10
467.695497
 20
251.030954
 30
0.0
 11
470.4
 21
230.488217
 31
0.0
  0
LINE
  8
LC-004-003-----0
  6
CONTINUOUS
  5
130
 10
470.4
 20
230.488217
 30
0.0
 11
473.104503
 21
251.030954
 31
0.0
  0
LINE
  8
LC-004-003-----0
  6
CONTINUOUS
  5
131
 10
468.645728
 20
251.093236
 30
0.0
 11
470.4
 21
237.768217
 31
0.0
  0
LINE
  8
LC-004-003-----0
  6
CONTINUOUS
  5
132
 10
470.4
 20
237.768217
 30
0.0
 11
472.154272
 21
251.093236
 31
0.0
  0
LINE
  8
LC-004-003-----0
  6
CONTINUOUS
  5
133
 10
469.595959
 20
251.155517
 30
0.0
 11
470.4
 21
245.048217
 31
0.0
  0
LINE
  8
LC-004-003-----0
  6
CONTINUOUS
  5
134
 10
470.4
 20
245.048217
 30
0.0
 11
471.204041
 21
251.155517
 31
0.0
  0
LINE
  8
LC-004-003-----0
  6
CONTINUOUS
  5
135
 10
474.054733
 20
374.947761
 30
0.0
 11
470.4
 21
402.708217
 31
0.0
  0
LINE
  8
LC-004-003-----0
  6
CONTINUOUS
  5
136
 10
470.4
 20
402.708217
 30
0.0
 11
466.745267
 21
374.947761
 31
0.0
  0
LINE
  8
LC-004-003-----0
  6
CONTINUOUS
  5
137
 10
466.745267
 20
374.947761
 30
0.0
 11
474.054733
 21
374.947761
 31
0.0
  0
LINE
  8
LC-004-003-----0
  6
CONTINUOUS
  5
138
 10
473.104503
 20
374.885479
 30
0.0
 11
470.4
 21
395.428217
 31
0.0
  0
LINE
  8
LC-004-003-----0
  6
CONTINUOUS
  5
139
 10
470.4
 20
395.428217
 30
0.0
 11
467.695497
 21
374.885479
 31
0.0
  0
LINE
  8
LC-004-003-----0
  6
CONTINUOUS
  5
13A
 10
472.154272
 20
374.823198
 30
0.0
 11
470.4
 21
388.148217
 31
0.0
  0
LINE
  8
LC-004-003-----0
  6
CONTINUOUS
  5
13B
 10
470.4
 20
388.148217
 30
0.0
 11
468.645728
 21
374.823198
 31
0.0
  0
LINE
  8
LC-004-003-----0
  6
CONTINUOUS
  5
13C
 10
471.204041
 20
374.760917
 30
0.0
 11
470.4
 21
380.868217
 31
0.0
  0
LINE
  8
LC-004-003-----0
  6
CONTINUOUS
  5
13D
 10
470.4
 20
380.868217
 30
0.0
 11
469.595959
 21
374.760917
 31
0.0
  0
TEXT
  8
LC-004-003-----0
  6
CONTINUOUS
 62
     8
  5
13E
 10
462.572446
 20
252.322125
 30
0.0
 40
28.0
  1
10-180
 50
90.0
 51
15.0
  7
LC-TXTSTYLE-150-400-0-0-D0
 72
     1
 11
462.572446
 21
317.306377
 31
0.0
  0
ENDBLK
  8
0
  5
13F
  0
BLOCK
  8
0
  5
141
  2
*D27
 70
    65
 10
0.0
 20
0.0
 30
0.0
  3
*D27
  0
LINE
  8
LC-005-003-MTH-0
  6
CONTINUOUS
  5
142
 10
397.883328
 20
200.208217
 30
0.0
 11
448.0
 21
200.208217
 31
0.0
  0
LINE
  8
LC-005-003-MTH-0
  6
CONTINUOUS
  5
143
 10
397.883328
 20
223.208217
 30
0.0
 11
448.0
 21
223.208217
 31
0.0
  0
LINE
  8
LC-004-003-----0
  6
CONTINUOUS
  5
144
 10
434.854733
 20
172.447761
 30
0.0
 11
431.2
 21
200.208217
 31
0.0
  0
LINE
  8
LC-004-003-----0
  6
CONTINUOUS
  5
145
 10
431.2
 20
200.208217
 30
0.0
 11
427.545267
 21
172.447761
 31
0.0
  0
LINE
  8
LC-004-003-----0
  6
CONTINUOUS
  5
146
 10
427.545267
 20
172.447761
 30
0.0
 11
434.854733
 21
172.447761
 31
0.0
  0
LINE
  8
LC-004-003-----0
  6
CONTINUOUS
  5
147
 10
433.904503
 20
172.385479
 30
0.0
 11
431.2
 21
192.928217
 31
0.0
  0
LINE
  8
LC-004-003-----0
  6
CONTINUOUS
  5
148
 10
431.2
 20
192.928217
 30
0.0
 11
428.495497
 21
172.385479
 31
0.0
  0
LINE
  8
LC-004-003-----0
  6
CONTINUOUS
  5
149
 10
432.954272
 20
172.323198
 30
0.0
 11
431.2
 21
185.648217
 31
0.0
  0
LINE
  8
LC-004-003-----0
  6
CONTINUOUS
  5
14A
 10
431.2
 20
185.648217
 30
0.0
 11
429.445728
 21
172.323198
 31
0.0
  0
LINE
  8
LC-004-003-----0
  6
CONTINUOUS
  5
14B
 10
432.004041
 20
172.260917
 30
0.0
 11
431.2
 21
178.368217
 31
0.0
  0
LINE
  8
LC-004-003-----0
  6
CONTINUOUS
  5
14C
 10
431.2
 20
178.368217
 30
0.0
 11
430.395959
 21
172.260917
 31
0.0
  0
LINE
  8
LC-004-003-----0
  6
CONTINUOUS
  5
14D
 10
427.545267
 20
250.968673
 30
0.0
 11
431.2
 21
223.208217
 31
0.0
  0
LINE
  8
LC-004-003-----0
  6
CONTINUOUS
  5
14E
 10
431.2
 20
223.208217
 30
0.0
 11
434.854733
 21
250.968673
 31
0.0
  0
LINE
  8
LC-004-003-----0
  6
CONTINUOUS
  5
14F
 10
434.854733
 20
250.968673
 30
0.0
 11
427.545267
 21
250.968673
 31
0.0
  0
LINE
  8
LC-004-003-----0
  6
CONTINUOUS
  5
150
 10
428.495497
 20
251.030954
 30
0.0
 11
431.2
 21
230.488217
 31
0.0
  0
LINE
  8
LC-004-003-----0
  6
CONTINUOUS
  5
151
 10
431.2
 20
230.488217
 30
0.0
 11
433.904503
 21
251.030954
 31
0.0
  0
LINE
  8
LC-004-003-----0
  6
CONTINUOUS
  5
152
 10
429.445728
 20
251.093236
 30
0.0
 11
431.2
 21
237.768217
 31
0.0
  0
LINE
  8
LC-004-003-----0
  6
CONTINUOUS
  5
153
 10
431.2
 20
237.768217
 30
0.0
 11
432.954272
 21
251.093236
 31
0.0
  0
LINE
  8
LC-004-003-----0
  6
CONTINUOUS
  5
154
 10
430.395959
 20
251.155517
 30
0.0
 11
431.2
 21
245.048217
 31
0.0
  0
LINE
  8
LC-004-003-----0
  6
CONTINUOUS
  5
155
 10
431.2
 20
245.048217
 30
0.0
 11
432.004041
 21
251.155517
 31
0.0
  0
LINE
  8
LC-006-003-MTG-0
  6
CONTINUOUS
  5
156
 10
431.2
 20
161.008217
 30
0.0
 11
431.2
 21
306.572617
 31
0.0
  0
TEXT
  8
LC-004-003-----0
  6
CONTINUOUS
 62
     8
  5
157
 10
428.972446
 20
265.636377
 30
0.0
 40
28.0
  1
23
 50
90.0
 51
15.0
  7
LC-TXTSTYLE-150-400-0-0-D0
  0
ENDBLK
  8
0
  5
158
  0
ENDSEC
  0
SECTION
  2
ENTITIES
  0
VIEWPORT
  8
LC-000
  5
2E0
 67
     1
 68
     1
 10
420.0
 20
297.0
 30
0.0
 40
840.0
 41
594.0
 69
     1
1001
ACAD
1000
MVIEW
1002
{
1070
    16
1010
0.0
1020
0.0
1030
0.0
1010
0.0
1020
0.0
1030
1.0
1040
0.0
1040
594.0
1040
420.0
1040
297.0
1040
50.0
1040
0.0
1040
0.0
1070
     0
1070
   100
1070
     1
1070
     1
1070
     0
1070
     0
1070
     0
1070
     0
1040
0.0
1040
0.0
1040
0.0
1040
1.0
1040
1.0
1040
0.0
1040
0.0
1070
     0
1002
{
1002
}
1002
}
  0
VIEWPORT
  8
0
  5
2E1
 67
     1
 68
     1
 10
0.0
 20
0.0
 30
0.0
 40
0.0
 41
0.0
 69
     1
1001
ACAD
1000
MVIEW
1002
{
1070
    16
1010
0.0
1020
0.0
1030
0.0
1010
0.0
1020
0.0
1030
1.0
1040
0.0
1040
594.0
1040
0.0
1040
0.0
1040
50.0
1040
0.0
1040
0.0
1070
     0
1070
   100
1070
     0
1070
     1
1070
     0
1070
     0
1070
     0
1070
     0
1040
0.0
1040
0.0
1040
0.0
1040
0.5
1040
0.5
1040
0.5
1040
0.5
1070
     0
1002
{
1002
}
1002
}
  0
INSERT
  8
0
  5
159
  2
*X0
 10
291.883328
 20
397.408217
 30
0.0
  0
INSERT
  8
0
  5
15A
  2
*X1
 10
307.883328
 20
397.408217
 30
0.0
  0
INSERT
  8
0
  5
15B
  2
*X2
 10
328.383328
 20
397.408217
 30
0.0
  0
DIMENSION
  8
0
  5
15C
  2
*D3
 10
216.0
 20
395.208217
 30
0.0
 11
216.0
 21
395.208217
 31
0.0
 13
256.90812
 23
402.708217
 33
0.0
 14
251.883328
 24
387.708217
 34
0.0
 50
90.0
  3
LC-DIM-L-0140-02-02
  0
INSERT
  8
0
  5
15E
  2
BLK1
 10
0.0
 20
0.0
 30
0.0
  0
INSERT
  8
0
  5
15F
  2
BLK2
 10
0.0
 20
0.0
 30
0.0
  0
DIMENSION
  8
0
  5
160
  2
*D6
 10
328.383328
 20
156.8
 30
0.0
 11
328.383328
 21
156.8
 31
0.0
  1
%%c<>
 13
255.883328
 23
206.208217
 33
0.0
 14
400.883328
 24
206.208217
 34
0.0
  3
LC-DIM-L-0140-02-02
  0
INSERT
  8
0
  5
161
  2
*X7
 10
275.883328
 20
397.408217
 30
0.0
  0
INSERT
  8
0
  5
162
  2
*X8
 10
259.383328
 20
397.408217
 30
0.0
  0
INSERT
  8
0
  5
163
  2
*X9
 10
355.883328
 20
397.408217
 30
0.0
  0
INSERT
  8
0
  5
164
  2
*X10
 10
371.883328
 20
397.408217
 30
0.0
  0
INSERT
  8
0
  5
165
  2
*X11
 10
387.883328
 20
397.408217
 30
0.0
  0
DIMENSION
  8
0
  5
166
  2
*D12
 10
328.383328
 20
431.2
 30
0.0
 11
328.383328
 21
431.2
 31
0.0
  1
150
 13
252.883328
 23
400.208217
 33
0.0
 14
403.883328
 24
398.683425
 34
0.0
  3
LC-DIM-L-0140-02-02
  0
INSERT
  8
0
  5
168
  2
BLK3
 10
0.0
 20
0.0
 30
0.0
  0
INSERT
  8
0
  5
169
  2
BLK4
 10
0.0
 20
0.0
 30
0.0
  0
INSERT
  8
0
  5
16A
  2
BLK5
 10
0.0
 20
0.0
 30
0.0
  0
INSERT
  8
0
  5
16B
  2
BLK6
 10
0.0
 20
0.0
 30
0.0
  0
INSERT
  8
0
  5
16C
  2
BLK7
 10
0.0
 20
0.0
 30
0.0
  0
INSERT
  8
0
  5
16D
  2
BLK8
 10
0.0
 20
0.0
 30
0.0
  0
INSERT
  8
0
  5
16E
  2
BLK9
 10
0.0
 20
0.0
 30
0.0
  0
INSERT
  8
0
  5
16F
  2
BLK10
 10
0.0
 20
0.0
 30
0.0
  0
INSERT
  8
0
  5
170
  2
BLK11
 10
0.0
 20
0.0
 30
0.0
  0
INSERT
  8
0
  5
171
  2
BLK12
 10
0.0
 20
0.0
 30
0.0
  0
INSERT
  8
0
  5
172
  2
BLK13
 10
0.0
 20
0.0
 30
0.0
  0
INSERT
  8
0
  5
173
  2
*X24
 10
258.883328
 20
200.208217
 30
0.0
  0
INSERT
  8
0
  5
174
  2
*X25
 10
328.383328
 20
200.208217
 30
0.0
  0
DIMENSION
  8
0
  5
175
  2
*D26
 10
470.4
 20
312.958217
 30
0.0
 11
470.4
 21
312.958217
 31
0.0
  1
10-180
 13
397.883328
 23
223.208217
 33
0.0
 14
399.858536
 24
402.708217
 34
0.0
 50
90.0
  3
LC-DIM-L-0140-02-02
  0
DIMENSION
  8
0
  5
176
  2
*D27
 10
431.2
 20
211.708217
 30
0.0
 11
431.2
 21
211.708217
 31
0.0
 13
397.883328
 23
223.208217
 33
0.0
 14
397.883328
 24
200.208217
 34
0.0
 50
90.0
  3
LC-DIM-L-0140-02-02
  0
LINE
  8
LC-001-002-----0
  6
CONTINUOUS
  5
178
 10
348.883328
 20
397.408217
 30
0.0
 11
348.883328
 21
402.408217
 31
0.0
  0
LINE
  8
LC-001-002-----0
  6
CONTINUOUS
  5
179
 10
307.883328
 20
397.408217
 30
0.0
 11
307.883328
 21
402.408217
 31
0.0
  0
LINE
  8
LC-001-002-----0
  6
CONTINUOUS
  5
17A
 10
300.883328
 20
397.408217
 30
0.0
 11
300.883328
 21
402.408217
 31
0.0
  0
LINE
  8
LC-001-002-----0
  6
CONTINUOUS
  5
17B
 10
291.883328
 20
397.408217
 30
0.0
 11
291.883328
 21
402.408217
 31
0.0
  0
LINE
  8
LC-001-002-----0
  6
CONTINUOUS
  5
17C
 10
275.883328
 20
397.408217
 30
0.0
 11
275.883328
 21
402.408217
 31
0.0
  0
CIRCLE
  8
LC-001-002-----0
  6
CONTINUOUS
  5
17D
 10
517.383328
 20
242.458217
 30
0.0
 40
4.5
  0
LINE
  8
LC-001-002-----0
  6
CONTINUOUS
  5
17E
 10
514.883328
 20
241.958219
 30
0.0
 11
514.883329
 21
242.958219
 31
0.0
  0
LINE
  8
LC-001-002-----0
  6
CONTINUOUS
  5
17F
 10
514.883329
 20
242.958219
 30
0.0
 11
516.883329
 21
242.958217
 31
0.0
  0
LINE
  8
LC-001-002-----0
  6
CONTINUOUS
  5
180
 10
519.883329
 20
242.958215
 30
0.0
 11
519.883328
 21
241.958215
 31
0.0
  0
LINE
  8
LC-001-002-----0
  6
CONTINUOUS
  5
181
 10
519.883328
 20
241.958215
 30
0.0
 11
517.883328
 21
241.958217
 31
0.0
  0
LINE
  8
LC-001-002-----0
  6
CONTINUOUS
  5
182
 10
516.883327
 20
239.958217
 30
0.0
 11
517.883327
 21
239.958217
 31
0.0
  0
LINE
  8
LC-001-002-----0
  6
CONTINUOUS
  5
183
 10
517.883327
 20
239.958217
 30
0.0
 11
517.883328
 21
241.958217
 31
0.0
  0
LINE
  8
LC-001-002-----0
  6
CONTINUOUS
  5
184
 10
517.88333
 20
244.958217
 30
0.0
 11
516.88333
 21
244.958217
 31
0.0
  0
LINE
  8
LC-001-002-----0
  6
CONTINUOUS
  5
185
 10
516.88333
 20
244.958217
 30
0.0
 11
516.883329
 21
242.958217
 31
0.0
  0
LINE
  8
LC-001-002-----0
  6
CONTINUOUS
  5
186
 10
516.883328
 20
241.958217
 30
0.0
 11
516.883327
 21
239.958217
 31
0.0
  0
LINE
  8
LC-001-002-----0
  6
CONTINUOUS
  5
187
 10
516.883328
 20
241.958217
 30
0.0
 11
514.883328
 21
241.958219
 31
0.0
  0
LINE
  8
LC-001-002-----0
  6
CONTINUOUS
  5
188
 10
517.883329
 20
242.958217
 30
0.0
 11
519.883329
 21
242.958215
 31
0.0
  0
LINE
  8
LC-001-002-----0
  6
CONTINUOUS
  5
189
 10
517.883329
 20
242.958217
 30
0.0
 11
517.88333
 21
244.958217
 31
0.0
  0
CIRCLE
  8
LC-001-002-----0
  6
CONTINUOUS
  5
18A
 10
635.383328
 20
360.458217
 30
0.0
 40
4.5
  0
LINE
  8
LC-001-002-----0
  6
CONTINUOUS
  5
18B
 10
635.883327
 20
362.958217
 30
0.0
 11
634.883327
 21
362.958217
 31
0.0
  0
LINE
  8
LC-001-002-----0
  6
CONTINUOUS
  5
18C
 10
634.883327
 20
362.958217
 30
0.0
 11
634.883328
 21
360.958217
 31
0.0
  0
LINE
  8
LC-001-002-----0
  6
CONTINUOUS
  5
18D
 10
634.88333
 20
357.958217
 30
0.0
 11
635.88333
 21
357.958217
 31
0.0
  0
LINE
  8
LC-001-002-----0
  6
CONTINUOUS
  5
18E
 10
635.88333
 20
357.958217
 30
0.0
 11
635.883329
 21
359.958217
 31
0.0
  0
LINE
  8
LC-001-002-----0
  6
CONTINUOUS
  5
18F
 10
637.883328
 20
360.958219
 30
0.0
 11
637.883329
 21
359.958219
 31
0.0
  0
LINE
  8
LC-001-002-----0
  6
CONTINUOUS
  5
190
 10
637.883329
 20
359.958219
 30
0.0
 11
635.883329
 21
359.958217
 31
0.0
  0
LINE
  8
LC-001-002-----0
  6
CONTINUOUS
  5
191
 10
632.883329
 20
359.958215
 30
0.0
 11
632.883328
 21
360.958215
 31
0.0
  0
LINE
  8
LC-001-002-----0
  6
CONTINUOUS
  5
192
 10
632.883328
 20
360.958215
 30
0.0
 11
634.883328
 21
360.958217
 31
0.0
  0
LINE
  8
LC-001-002-----0
  6
CONTINUOUS
  5
193
 10
635.883328
 20
360.958217
 30
0.0
 11
637.883328
 21
360.958219
 31
0.0
  0
LINE
  8
LC-001-002-----0
  6
CONTINUOUS
  5
194
 10
635.883328
 20
360.958217
 30
0.0
 11
635.883327
 21
362.958217
 31
0.0
  0
LINE
  8
LC-001-002-----0
  6
CONTINUOUS
  5
195
 10
634.883329
 20
359.958217
 30
0.0
 11
634.88333
 21
357.958217
 31
0.0
  0
LINE
  8
LC-001-002-----0
  6
CONTINUOUS
  5
196
 10
634.883329
 20
359.958217
 30
0.0
 11
632.883329
 21
359.958215
 31
0.0
  0
LINE
  8
LC-001-002-----0
  6
CONTINUOUS
  5
197
 10
567.883328
 20
321.936217
 30
0.0
 11
584.883328
 21
321.936217
 31
0.0
  0
ARC
  8
LC-003-002-RND-0
  6
CONTINUOUS
  5
199
 10
511.195328
 20
366.646217
 30
0.0
 40
3.79
 50
90.0
 51
180.0
  0
ARC
  8
LC-003-002-RND-0
  6
CONTINUOUS
  5
19A
 10
511.195328
 20
236.270217
 30
0.0
 40
3.79
 50
180.0
 51
270.0
  0
ARC
  8
LC-003-002-RND-0
  6
CONTINUOUS
  5
19B
 10
641.571328
 20
236.270217
 30
0.0
 40
3.79
 50
270.0
 51
0.0
  0
ARC
  8
LC-003-002-RND-0
  6
CONTINUOUS
  5
19C
 10
641.571328
 20
366.646217
 30
0.0
 40
3.79
 50
0.0
 51
90.0
  0
ARC
  8
LC-001-002-----0
  6
CONTINUOUS
  5
19D
 10
616.883328
 20
245.480217
 30
0.0
 40
3.5
 50
270.0
 51
90.0
  0
ARC
  8
LC-001-002-----0
  6
CONTINUOUS
  5
19E
 10
535.883328
 20
245.480217
 30
0.0
 40
3.5
 50
90.0
 51
270.0
  0
LINE
  8
LC-001-002-----0
  6
CONTINUOUS
  5
19F
 10
616.883328
 20
241.980217
 30
0.0
 11
535.883328
 21
241.980217
 31
0.0
  0
LINE
  8
LC-001-002-----0
  6
CONTINUOUS
  5
1A0
 10
616.883328
 20
248.980217
 30
0.0
 11
535.883328
 21
248.980217
 31
0.0
  0
ARC
  8
LC-001-002-----0
  6
CONTINUOUS
  5
1A1
 10
600.883328
 20
261.480217
 30
0.0
 40
3.5
 50
270.0
 51
90.0
  0
ARC
  8
LC-001-002-----0
  6
CONTINUOUS
  5
1A2
 10
551.883328
 20
261.480217
 30
0.0
 40
3.5
 50
90.0
 51
270.0
  0
LINE
  8
LC-001-002-----0
  6
CONTINUOUS
  5
1A3
 10
600.883328
 20
257.980217
 30
0.0
 11
551.883328
 21
257.980217
 31
0.0
  0
LINE
  8
LC-001-002-----0
  6
CONTINUOUS
  5
1A4
 10
600.883328
 20
264.980217
 30
0.0
 11
551.883328
 21
264.980217
 31
0.0
  0
ARC
  8
LC-001-002-----0
  6
CONTINUOUS
  5
1A5
 10
584.883328
 20
277.480217
 30
0.0
 40
3.5
 50
270.0
 51
90.0
  0
ARC
  8
LC-001-002-----0
  6
CONTINUOUS
  5
1A6
 10
567.883328
 20
277.480217
 30
0.0
 40
3.5
 50
90.0
 51
270.0
  0
LINE
  8
LC-001-002-----0
  6
CONTINUOUS
  5
1A7
 10
584.883328
 20
273.980217
 30
0.0
 11
567.883328
 21
273.980217
 31
0.0
  0
LINE
  8
LC-001-002-----0
  6
CONTINUOUS
  5
1A8
 10
584.883328
 20
280.980217
 30
0.0
 11
567.883328
 21
280.980217
 31
0.0
  0
ARC
  8
LC-001-002-----0
  6
CONTINUOUS
  5
1A9
 10
632.361328
 20
341.958217
 30
0.0
 40
3.5
 50
0.0
 51
180.0
  0
ARC
  8
LC-001-002-----0
  6
CONTINUOUS
  5
1AA
 10
632.361328
 20
260.958217
 30
0.0
 40
3.5
 50
180.0
 51
0.0
  0
ARC
  8
LC-001-002-----0
  6
CONTINUOUS
  5
1AB
 10
520.405328
 20
260.958217
 30
0.0
 40
3.5
 50
180.0
 51
0.0
  0
ARC
  8
LC-001-002-----0
  6
CONTINUOUS
  5
1AC
 10
520.405328
 20
341.958217
 30
0.0
 40
3.5
 50
0.0
 51
180.0
  0
LINE
  8
LC-001-002-----0
  6
CONTINUOUS
  5
1AD
 10
516.905328
 20
260.958217
 30
0.0
 11
516.905328
 21
341.958217
 31
0.0
  0
LINE
  8
LC-001-002-----0
  6
CONTINUOUS
  5
1AE
 10
523.905328
 20
260.958217
 30
0.0
 11
523.905328
 21
341.958217
 31
0.0
  0
LINE
  8
LC-001-002-----0
  6
CONTINUOUS
  5
1AF
 10
635.861328
 20
341.958217
 30
0.0
 11
635.861328
 21
260.958217
 31
0.0
  0
LINE
  8
LC-002-005-----0
  6
CONTINUOUS
  5
1B0
 10
402.883328
 20
399.682868
 30
0.0
 11
400.85798
 21
401.708217
 31
0.0
  0
LINE
  8
LC-002-005-----0
  6
CONTINUOUS
  5
1B1
 10
402.883328
 20
396.147335
 30
0.0
 11
398.883328
 21
400.147335
 31
0.0
  0
LINE
  8
LC-002-005-----0
  6
CONTINUOUS
  5
1B2
 10
404.883328
 20
390.611801
 30
0.0
 11
403.883328
 21
391.611801
 31
0.0
  0
LINE
  8
LC-002-005-----0
  6
CONTINUOUS
  5
1B3
 10
402.883328
 20
392.611801
 30
0.0
 11
398.883328
 21
396.611801
 31
0.0
  0
LINE
  8
LC-002-005-----0
  6
CONTINUOUS
  5
1B4
 10
404.251378
 20
387.708217
 30
0.0
 11
398.883328
 21
393.076267
 31
0.0
  0
LINE
  8
LC-002-005-----0
  6
CONTINUOUS
  5
1B5
 10
400.883328
 20
387.540733
 30
0.0
 11
398.883328
 21
389.540733
 31
0.0
  0
LINE
  8
LC-002-005-----0
  6
CONTINUOUS
  5
1B6
 10
400.883328
 20
384.005199
 30
0.0
 11
398.883328
 21
386.005199
 31
0.0
  0
LINE
  8
LC-002-005-----0
  6
CONTINUOUS
  5
1B7
 10
400.883328
 20
380.469665
 30
0.0
 11
398.883328
 21
382.469665
 31
0.0
  0
LINE
  8
LC-002-005-----0
  6
CONTINUOUS
  5
1B8
 10
400.883328
 20
376.934131
 30
0.0
 11
397.883328
 21
379.934131
 31
0.0
  0
LINE
  8
LC-002-005-----0
  6
CONTINUOUS
  5
1B9
 10
400.883328
 20
373.398597
 30
0.0
 11
397.883328
 21
376.398597
 31
0.0
  0
LINE
  8
LC-002-005-----0
  6
CONTINUOUS
  5
1BA
 10
400.883328
 20
369.863063
 30
0.0
 11
397.883328
 21
372.863063
 31
0.0
  0
LINE
  8
LC-002-005-----0
  6
CONTINUOUS
  5
1BB
 10
400.883328
 20
366.327529
 30
0.0
 11
397.883328
 21
369.327529
 31
0.0
  0
LINE
  8
LC-002-005-----0
  6
CONTINUOUS
  5
1BC
 10
400.883328
 20
362.791995
 30
0.0
 11
397.883328
 21
365.791995
 31
0.0
  0
LINE
  8
LC-002-005-----0
  6
CONTINUOUS
  5
1BD
 10
400.883328
 20
359.256462
 30
0.0
 11
397.883328
 21
362.256462
 31
0.0
  0
LINE
  8
LC-002-005-----0
  6
CONTINUOUS
  5
1BE
 10
400.883328
 20
355.720928
 30
0.0
 11
397.883328
 21
358.720928
 31
0.0
  0
LINE
  8
LC-002-005-----0
  6
CONTINUOUS
  5
1BF
 10
400.883328
 20
352.185394
 30
0.0
 11
397.883328
 21
355.185394
 31
0.0
  0
LINE
  8
LC-002-005-----0
  6
CONTINUOUS
  5
1C0
 10
400.883328
 20
348.64986
 30
0.0
 11
397.883328
 21
351.64986
 31
0.0
  0
LINE
  8
LC-002-005-----0
  6
CONTINUOUS
  5
1C1
 10
400.883328
 20
345.114326
 30
0.0
 11
397.883328
 21
348.114326
 31
0.0
  0
LINE
  8
LC-002-005-----0
  6
CONTINUOUS
  5
1C2
 10
400.883328
 20
341.578792
 30
0.0
 11
397.883328
 21
344.578792
 31
0.0
  0
LINE
  8
LC-002-005-----0
  6
CONTINUOUS
  5
1C3
 10
400.883328
 20
338.043258
 30
0.0
 11
397.883328
 21
341.043258
 31
0.0
  0
LINE
  8
LC-002-005-----0
  6
CONTINUOUS
  5
1C4
 10
400.883328
 20
334.507724
 30
0.0
 11
397.883328
 21
337.507724
 31
0.0
  0
LINE
  8
LC-002-005-----0
  6
CONTINUOUS
  5
1C5
 10
400.883328
 20
330.97219
 30
0.0
 11
397.883328
 21
333.97219
 31
0.0
  0
LINE
  8
LC-002-005-----0
  6
CONTINUOUS
  5
1C6
 10
400.883328
 20
327.436656
 30
0.0
 11
397.883328
 21
330.436656
 31
0.0
  0
LINE
  8
LC-002-005-----0
  6
CONTINUOUS
  5
1C7
 10
400.883328
 20
323.901123
 30
0.0
 11
397.883328
 21
326.901123
 31
0.0
  0
LINE
  8
LC-002-005-----0
  6
CONTINUOUS
  5
1C8
 10
400.883328
 20
320.365589
 30
0.0
 11
397.883328
 21
323.365589
 31
0.0
  0
LINE
  8
LC-002-005-----0
  6
CONTINUOUS
  5
1C9
 10
400.883328
 20
316.830055
 30
0.0
 11
397.883328
 21
319.830055
 31
0.0
  0
LINE
  8
LC-002-005-----0
  6
CONTINUOUS
  5
1CA
 10
400.883328
 20
313.294521
 30
0.0
 11
397.883328
 21
316.294521
 31
0.0
  0
LINE
  8
LC-002-005-----0
  6
CONTINUOUS
  5
1CB
 10
400.883328
 20
309.758987
 30
0.0
 11
397.883328
 21
312.758987
 31
0.0
  0
LINE
  8
LC-002-005-----0
  6
CONTINUOUS
  5
1CC
 10
400.883328
 20
306.223453
 30
0.0
 11
397.883328
 21
309.223453
 31
0.0
  0
LINE
  8
LC-002-005-----0
  6
CONTINUOUS
  5
1CD
 10
400.883328
 20
302.687919
 30
0.0
 11
397.883328
 21
305.687919
 31
0.0
  0
LINE
  8
LC-002-005-----0
  6
CONTINUOUS
  5
1CE
 10
400.883328
 20
299.152385
 30
0.0
 11
397.883328
 21
302.152385
 31
0.0
  0
LINE
  8
LC-002-005-----0
  6
CONTINUOUS
  5
1CF
 10
400.883328
 20
295.616851
 30
0.0
 11
397.883328
 21
298.616851
 31
0.0
  0
LINE
  8
LC-002-005-----0
  6
CONTINUOUS
  5
1D0
 10
400.883328
 20
292.081317
 30
0.0
 11
397.883328
 21
295.081317
 31
0.0
  0
LINE
  8
LC-002-005-----0
  6
CONTINUOUS
  5
1D1
 10
400.883328
 20
288.545783
 30
0.0
 11
397.883328
 21
291.545783
 31
0.0
  0
LINE
  8
LC-002-005-----0
  6
CONTINUOUS
  5
1D2
 10
400.883328
 20
285.01025
 30
0.0
 11
397.883328
 21
288.01025
 31
0.0
  0
LINE
  8
LC-002-005-----0
  6
CONTINUOUS
  5
1D3
 10
400.883328
 20
281.474716
 30
0.0
 11
397.883328
 21
284.474716
 31
0.0
  0
LINE
  8
LC-002-005-----0
  6
CONTINUOUS
  5
1D4
 10
400.883328
 20
277.939182
 30
0.0
 11
397.883328
 21
280.939182
 31
0.0
  0
LINE
  8
LC-002-005-----0
  6
CONTINUOUS
  5
1D5
 10
400.883328
 20
274.403648
 30
0.0
 11
397.883328
 21
277.403648
 31
0.0
  0
LINE
  8
LC-002-005-----0
  6
CONTINUOUS
  5
1D6
 10
400.883328
 20
270.868114
 30
0.0
 11
397.883328
 21
273.868114
 31
0.0
  0
LINE
  8
LC-002-005-----0
  6
CONTINUOUS
  5
1D7
 10
400.883328
 20
267.33258
 30
0.0
 11
397.883328
 21
270.33258
 31
0.0
  0
LINE
  8
LC-002-005-----0
  6
CONTINUOUS
  5
1D8
 10
400.883328
 20
263.797046
 30
0.0
 11
397.883328
 21
266.797046
 31
0.0
  0
LINE
  8
LC-002-005-----0
  6
CONTINUOUS
  5
1D9
 10
400.883328
 20
260.261512
 30
0.0
 11
397.883328
 21
263.261512
 31
0.0
  0
LINE
  8
LC-002-005-----0
  6
CONTINUOUS
  5
1DA
 10
400.883328
 20
256.725978
 30
0.0
 11
397.883328
 21
259.725978
 31
0.0
  0
LINE
  8
LC-002-005-----0
  6
CONTINUOUS
  5
1DB
 10
400.883328
 20
253.190444
 30
0.0
 11
397.883328
 21
256.190444
 31
0.0
  0
LINE
  8
LC-002-005-----0
  6
CONTINUOUS
  5
1DC
 10
400.883328
 20
249.65491
 30
0.0
 11
397.883328
 21
252.65491
 31
0.0
  0
LINE
  8
LC-002-005-----0
  6
CONTINUOUS
  5
1DD
 10
400.883328
 20
246.119377
 30
0.0
 11
397.883328
 21
249.119377
 31
0.0
  0
LINE
  8
LC-002-005-----0
  6
CONTINUOUS
  5
1DE
 10
400.883328
 20
242.583843
 30
0.0
 11
397.883328
 21
245.583843
 31
0.0
  0
LINE
  8
LC-002-005-----0
  6
CONTINUOUS
  5
1DF
 10
400.883328
 20
239.048309
 30
0.0
 11
397.883328
 21
242.048309
 31
0.0
  0
LINE
  8
LC-002-005-----0
  6
CONTINUOUS
  5
1E0
 10
400.883328
 20
235.512775
 30
0.0
 11
397.883328
 21
238.512775
 31
0.0
  0
LINE
  8
LC-002-005-----0
  6
CONTINUOUS
  5
1E1
 10
400.883328
 20
231.977241
 30
0.0
 11
397.883328
 21
234.977241
 31
0.0
  0
LINE
  8
LC-002-005-----0
  6
CONTINUOUS
  5
1E2
 10
400.883328
 20
228.441707
 30
0.0
 11
397.883328
 21
231.441707
 31
0.0
  0
LINE
  8
LC-002-005-----0
  6
CONTINUOUS
  5
1E3
 10
400.883328
 20
224.906173
 30
0.0
 11
397.883328
 21
227.906173
 31
0.0
  0
LINE
  8
LC-002-005-----0
  6
CONTINUOUS
  5
1E4
 10
400.883328
 20
221.370639
 30
0.0
 11
397.883328
 21
224.370639
 31
0.0
  0
LINE
  8
LC-002-005-----0
  6
CONTINUOUS
  5
1E5
 10
400.883328
 20
217.835105
 30
0.0
 11
397.883328
 21
220.835105
 31
0.0
  0
LINE
  8
LC-002-005-----0
  6
CONTINUOUS
  5
1E6
 10
400.883328
 20
214.299571
 30
0.0
 11
397.883328
 21
217.299571
 31
0.0
  0
LINE
  8
LC-002-005-----0
  6
CONTINUOUS
  5
1E7
 10
400.883328
 20
210.764038
 30
0.0
 11
397.883328
 21
213.764038
 31
0.0
  0
LINE
  8
LC-002-005-----0
  6
CONTINUOUS
  5
1E8
 10
400.883328
 20
207.228504
 30
0.0
 11
397.883328
 21
210.228504
 31
0.0
  0
LINE
  8
LC-002-005-----0
  6
CONTINUOUS
  5
1E9
 10
400.351794
 20
204.224504
 30
0.0
 11
397.883328
 21
206.69297
 31
0.0
  0
LINE
  8
LC-002-005-----0
  6
CONTINUOUS
  5
1EA
 10
399.604648
 20
201.436116
 30
0.0
 11
397.883328
 21
203.157436
 31
0.0
  0
LINE
  8
LC-002-005-----0
  6
CONTINUOUS
  5
1EB
 10
257.883328
 20
399.725978
 30
0.0
 11
255.90109
 21
401.708217
 31
0.0
  0
LINE
  8
LC-002-005-----0
  6
CONTINUOUS
  5
1EC
 10
257.883328
 20
396.190444
 30
0.0
 11
253.883328
 21
400.190444
 31
0.0
  0
LINE
  8
LC-002-005-----0
  6
CONTINUOUS
  5
1ED
 10
257.883328
 20
392.65491
 30
0.0
 11
253.883328
 21
396.65491
 31
0.0
  0
LINE
  8
LC-002-005-----0
  6
CONTINUOUS
  5
1EE
 10
257.883328
 20
389.119377
 30
0.0
 11
253.883328
 21
393.119377
 31
0.0
  0
LINE
  8
LC-002-005-----0
  6
CONTINUOUS
  5
1EF
 10
257.883328
 20
385.583843
 30
0.0
 11
251.883328
 21
391.583843
 31
0.0
  0
LINE
  8
LC-002-005-----0
  6
CONTINUOUS
  5
1F0
 10
258.883328
 20
381.048309
 30
0.0
 11
258.22342
 21
381.708217
 31
0.0
  0
LINE
  8
LC-002-005-----0
  6
CONTINUOUS
  5
1F1
 10
257.883328
 20
382.048309
 30
0.0
 11
255.883328
 21
384.048309
 31
0.0
  0
LINE
  8
LC-002-005-----0
  6
CONTINUOUS
  5
1F2
 10
252.22342
 20
387.708217
 30
0.0
 11
251.883328
 21
388.048309
 31
0.0
  0
LINE
  8
LC-002-005-----0
  6
CONTINUOUS
  5
1F3
 10
258.883328
 20
377.512775
 30
0.0
 11
255.883328
 21
380.512775
 31
0.0
  0
LINE
  8
LC-001-002-----0
  6
CONTINUOUS
  5
1F4
 10
628.861328
 20
341.958217
 30
0.0
 11
628.861328
 21
260.958217
 31
0.0
  0
ARC
  8
LC-001-002-----0
  6
CONTINUOUS
  5
1F5
 10
536.405328
 20
276.958217
 30
0.0
 40
3.5
 50
180.0
 51
0.0
  0
LINE
  8
LC-002-005-----0
  6
CONTINUOUS
  5
1F6
 10
258.883328
 20
373.977241
 30
0.0
 11
255.883328
 21
376.977241
 31
0.0
  0
LINE
  8
LC-002-005-----0
  6
CONTINUOUS
  5
1F7
 10
258.883328
 20
370.441707
 30
0.0
 11
255.883328
 21
373.441707
 31
0.0
  0
LINE
  8
LC-002-005-----0
  6
CONTINUOUS
  5
1F8
 10
258.883328
 20
366.906173
 30
0.0
 11
255.883328
 21
369.906173
 31
0.0
  0
LINE
  8
LC-002-005-----0
  6
CONTINUOUS
  5
1F9
 10
258.883328
 20
363.370639
 30
0.0
 11
255.883328
 21
366.370639
 31
0.0
  0
LINE
  8
LC-002-005-----0
  6
CONTINUOUS
  5
1FA
 10
258.883328
 20
359.835105
 30
0.0
 11
255.883328
 21
362.835105
 31
0.0
  0
LINE
  8
LC-002-005-----0
  6
CONTINUOUS
  5
1FB
 10
258.883328
 20
356.299571
 30
0.0
 11
255.883328
 21
359.299571
 31
0.0
  0
LINE
  8
LC-002-005-----0
  6
CONTINUOUS
  5
1FC
 10
258.883328
 20
352.764038
 30
0.0
 11
255.883328
 21
355.764038
 31
0.0
  0
LINE
  8
LC-002-005-----0
  6
CONTINUOUS
  5
1FD
 10
258.883328
 20
349.228504
 30
0.0
 11
255.883328
 21
352.228504
 31
0.0
  0
LINE
  8
LC-002-005-----0
  6
CONTINUOUS
  5
1FE
 10
258.883328
 20
345.69297
 30
0.0
 11
255.883328
 21
348.69297
 31
0.0
  0
LINE
  8
LC-002-005-----0
  6
CONTINUOUS
  5
1FF
 10
258.883328
 20
342.157436
 30
0.0
 11
255.883328
 21
345.157436
 31
0.0
  0
LINE
  8
LC-002-005-----0
  6
CONTINUOUS
  5
200
 10
258.883328
 20
338.621902
 30
0.0
 11
255.883328
 21
341.621902
 31
0.0
  0
LINE
  8
LC-002-005-----0
  6
CONTINUOUS
  5
201
 10
258.883328
 20
335.086368
 30
0.0
 11
255.883328
 21
338.086368
 31
0.0
  0
LINE
  8
LC-002-005-----0
  6
CONTINUOUS
  5
202
 10
258.883328
 20
331.550834
 30
0.0
 11
255.883328
 21
334.550834
 31
0.0
  0
LINE
  8
LC-002-005-----0
  6
CONTINUOUS
  5
203
 10
258.883328
 20
328.0153
 30
0.0
 11
255.883328
 21
331.0153
 31
0.0
  0
LINE
  8
LC-002-005-----0
  6
CONTINUOUS
  5
204
 10
258.883328
 20
324.479766
 30
0.0
 11
255.883328
 21
327.479766
 31
0.0
  0
LINE
  8
LC-002-005-----0
  6
CONTINUOUS
  5
205
 10
258.883328
 20
320.944232
 30
0.0
 11
255.883328
 21
323.944232
 31
0.0
  0
ARC
  8
LC-001-002-----0
  6
CONTINUOUS
  5
206
 10
536.405328
 20
325.958217
 30
0.0
 40
3.5
 50
0.0
 51
180.0
  0
LINE
  8
LC-001-002-----0
  6
CONTINUOUS
  5
207
 10
532.905328
 20
276.958217
 30
0.0
 11
532.905328
 21
325.958217
 31
0.0
  0
LINE
  8
LC-001-002-----0
  6
CONTINUOUS
  5
208
 10
539.905328
 20
276.958217
 30
0.0
 11
539.905328
 21
325.958217
 31
0.0
  0
ARC
  8
LC-001-002-----0
  6
CONTINUOUS
  5
209
 10
616.361328
 20
325.958217
 30
0.0
 40
3.5
 50
0.0
 51
180.0
  0
LINE
  8
LC-002-005-----0
  6
CONTINUOUS
  5
20A
 10
258.883328
 20
317.408698
 30
0.0
 11
255.883328
 21
320.408698
 31
0.0
  0
LINE
  8
LC-002-005-----0
  6
CONTINUOUS
  5
20B
 10
258.883328
 20
313.873165
 30
0.0
 11
255.883328
 21
316.873165
 31
0.0
  0
LINE
  8
LC-002-005-----0
  6
CONTINUOUS
  5
20C
 10
258.883328
 20
310.337631
 30
0.0
 11
255.883328
 21
313.337631
 31
0.0
  0
ARC
  8
LC-001-002-----0
  6
CONTINUOUS
  5
20D
 10
616.361328
 20
276.958217
 30
0.0
 40
3.5
 50
180.0
 51
0.0
  0
LINE
  8
LC-001-002-----0
  6
CONTINUOUS
  5
20E
 10
619.861328
 20
325.958217
 30
0.0
 11
619.861328
 21
276.958217
 31
0.0
  0
LINE
  8
LC-001-002-----0
  6
CONTINUOUS
  5
20F
 10
612.861328
 20
325.958217
 30
0.0
 11
612.861328
 21
276.958217
 31
0.0
  0
ARC
  8
LC-001-002-----0
  6
CONTINUOUS
  5
210
 10
552.405328
 20
292.958217
 30
0.0
 40
3.5
 50
180.0
 51
0.0
  0
ARC
  8
LC-001-002-----0
  6
CONTINUOUS
  5
211
 10
552.405328
 20
309.958217
 30
0.0
 40
3.5
 50
0.0
 51
180.0
  0
LINE
  8
LC-001-002-----0
  6
CONTINUOUS
  5
212
 10
548.905328
 20
292.958217
 30
0.0
 11
548.905328
 21
309.958217
 31
0.0
  0
LINE
  8
LC-001-002-----0
  6
CONTINUOUS
  5
213
 10
641.571328
 20
232.480217
 30
0.0
 11
511.195328
 21
232.480217
 31
0.0
  0
LINE
  8
LC-001-002-----0
  6
CONTINUOUS
  5
214
 10
507.405328
 20
236.270217
 30
0.0
 11
507.405328
 21
366.646217
 31
0.0
  0
LINE
  8
LC-001-002-----0
  6
CONTINUOUS
  5
215
 10
511.195328
 20
370.436217
 30
0.0
 11
641.571328
 21
370.436217
 31
0.0
  0
LINE
  8
LC-001-002-----0
  6
CONTINUOUS
  5
216
 10
645.361328
 20
366.646217
 30
0.0
 11
645.361328
 21
236.270217
 31
0.0
  0
LINE
  8
LC-001-002-----0
  6
CONTINUOUS
  5
217
 10
555.905328
 20
292.958217
 30
0.0
 11
555.905328
 21
309.958217
 31
0.0
  0
ARC
  8
LC-001-002-----0
  6
CONTINUOUS
  5
218
 10
600.361328
 20
309.958217
 30
0.0
 40
3.5
 50
0.0
 51
180.0
  0
ARC
  8
LC-001-002-----0
  6
CONTINUOUS
  5
219
 10
600.361328
 20
292.958217
 30
0.0
 40
3.5
 50
180.0
 51
0.0
  0
LINE
  8
LC-001-002-----0
  6
CONTINUOUS
  5
21A
 10
603.861328
 20
309.958217
 30
0.0
 11
603.861328
 21
292.958217
 31
0.0
  0
LINE
  8
LC-001-002-----0
  6
CONTINUOUS
  5
21B
 10
596.861328
 20
309.958217
 30
0.0
 11
596.861328
 21
292.958217
 31
0.0
  0
ARC
  8
LC-001-002-----0
  6
CONTINUOUS
  5
21C
 10
535.883328
 20
357.436217
 30
0.0
 40
3.5
 50
90.0
 51
270.0
  0
ARC
  8
LC-001-002-----0
  6
CONTINUOUS
  5
21D
 10
616.883328
 20
357.436217
 30
0.0
 40
3.5
 50
270.0
 51
90.0
  0
LINE
  8
LC-001-002-----0
  6
CONTINUOUS
  5
21E
 10
535.883328
 20
360.936217
 30
0.0
 11
616.883328
 21
360.936217
 31
0.0
  0
LINE
  8
LC-001-002-----0
  6
CONTINUOUS
  5
21F
 10
535.883328
 20
353.936217
 30
0.0
 11
616.883328
 21
353.936217
 31
0.0
  0
ARC
  8
LC-001-002-----0
  6
CONTINUOUS
  5
220
 10
551.883328
 20
341.436217
 30
0.0
 40
3.5
 50
90.0
 51
270.0
  0
ARC
  8
LC-001-002-----0
  6
CONTINUOUS
  5
221
 10
600.883328
 20
341.436217
 30
0.0
 40
3.5
 50
270.0
 51
90.0
  0
LINE
  8
LC-001-002-----0
  6
CONTINUOUS
  5
222
 10
551.883328
 20
344.936217
 30
0.0
 11
600.883328
 21
344.936217
 31
0.0
  0
LINE
  8
LC-001-002-----0
  6
CONTINUOUS
  5
223
 10
551.883328
 20
337.936217
 30
0.0
 11
600.883328
 21
337.936217
 31
0.0
  0
ARC
  8
LC-001-002-----0
  6
CONTINUOUS
  5
224
 10
567.883328
 20
325.436217
 30
0.0
 40
3.5
 50
90.0
 51
270.0
  0
ARC
  8
LC-001-002-----0
  6
CONTINUOUS
  5
225
 10
584.883328
 20
325.436217
 30
0.0
 40
3.5
 50
270.0
 51
90.0
  0
LINE
  8
LC-001-002-----0
  6
CONTINUOUS
  5
226
 10
567.883328
 20
328.936217
 30
0.0
 11
584.883328
 21
328.936217
 31
0.0
  0
ARC
  8
LC-003-002-RND-0
  6
CONTINUOUS
  5
227
 10
509.883328
 20
367.958217
 30
0.0
 40
3.0
 50
90.0
 51
180.0
  0
ARC
  8
LC-003-002-RND-0
  6
CONTINUOUS
  5
228
 10
509.883328
 20
234.958217
 30
0.0
 40
3.0
 50
180.0
 51
270.0
  0
ARC
  8
LC-003-002-RND-0
  6
CONTINUOUS
  5
229
 10
642.883328
 20
234.958217
 30
0.0
 40
3.0
 50
270.0
 51
0.0
  0
ARC
  8
LC-003-002-RND-0
  6
CONTINUOUS
  5
22A
 10
642.883328
 20
367.958217
 30
0.0
 40
3.0
 50
0.0
 51
90.0
  0
LINE
  8
LC-001-002-----0
  6
CONTINUOUS
  5
22B
 10
500.883328
 20
373.958217
 30
0.0
 11
500.883328
 21
228.958217
 31
0.0
  0
LINE
  8
LC-001-002-----0
  6
CONTINUOUS
  5
22C
 10
503.883328
 20
225.958217
 30
0.0
 11
648.883328
 21
225.958217
 31
0.0
  0
LINE
  8
LC-001-002-----0
  6
CONTINUOUS
  5
22D
 10
651.883328
 20
228.958217
 30
0.0
 11
651.883328
 21
373.958217
 31
0.0
  0
LINE
  8
LC-001-002-----0
  6
CONTINUOUS
  5
22E
 10
648.883328
 20
376.958217
 30
0.0
 11
503.883328
 21
376.958217
 31
0.0
  0
LINE
  8
LC-001-002-----0
  6
CONTINUOUS
  5
22F
 10
506.883328
 20
367.958217
 30
0.0
 11
506.883328
 21
234.958217
 31
0.0
  0
LINE
  8
LC-001-002-----0
  6
CONTINUOUS
  5
230
 10
509.883328
 20
231.958217
 30
0.0
 11
642.883328
 21
231.958217
 31
0.0
  0
LINE
  8
LC-001-002-----0
  6
CONTINUOUS
  5
231
 10
645.883328
 20
234.958217
 30
0.0
 11
645.883328
 21
367.958217
 31
0.0
  0
LINE
  8
LC-001-002-----0
  6
CONTINUOUS
  5
232
 10
642.883328
 20
370.958217
 30
0.0
 11
509.883328
 21
370.958217
 31
0.0
  0
ARC
  8
LC-003-002-RND-0
  6
CONTINUOUS
  5
233
 10
648.883328
 20
373.958217
 30
0.0
 40
3.0
 50
0.0
 51
90.0
  0
ARC
  8
LC-003-002-RND-0
  6
CONTINUOUS
  5
234
 10
503.883328
 20
373.958217
 30
0.0
 40
3.0
 50
90.0
 51
180.0
  0
ARC
  8
LC-003-002-RND-0
  6
CONTINUOUS
  5
235
 10
503.883328
 20
228.958217
 30
0.0
 40
3.0
 50
180.0
 51
270.0
  0
ARC
  8
LC-003-002-RND-0
  6
CONTINUOUS
  5
236
 10
648.883328
 20
228.958217
 30
0.0
 40
3.0
 50
270.0
 51
0.0
  0
LINE
  8
LC-002-005-----0
  6
CONTINUOUS
  5
237
 10
258.883328
 20
306.802097
 30
0.0
 11
255.883328
 21
309.802097
 31
0.0
  0
LINE
  8
LC-002-005-----0
  6
CONTINUOUS
  5
238
 10
258.883328
 20
303.266563
 30
0.0
 11
255.883328
 21
306.266563
 31
0.0
  0
LINE
  8
LC-002-005-----0
  6
CONTINUOUS
  5
239
 10
258.883328
 20
299.731029
 30
0.0
 11
255.883328
 21
302.731029
 31
0.0
  0
LINE
  8
LC-002-005-----0
  6
CONTINUOUS
  5
23A
 10
258.883328
 20
296.195495
 30
0.0
 11
255.883328
 21
299.195495
 31
0.0
  0
LINE
  8
LC-002-005-----0
  6
CONTINUOUS
  5
23B
 10
258.883328
 20
292.659961
 30
0.0
 11
255.883328
 21
295.659961
 31
0.0
  0
LINE
  8
LC-001-002-----0
  6
CONTINUOUS
  5
23C
 10
284.883328
 20
397.408217
 30
0.0
 11
284.883328
 21
402.408217
 31
0.0
  0
LINE
  8
LC-001-002-----0
  6
CONTINUOUS
  5
23D
 10
268.883328
 20
397.408217
 30
0.0
 11
268.883328
 21
402.408217
 31
0.0
  0
LINE
  8
LC-001-002-----0
  6
CONTINUOUS
  5
23E
 10
355.883328
 20
397.408217
 30
0.0
 11
355.883328
 21
402.408217
 31
0.0
  0
LINE
  8
LC-001-002-----0
  6
CONTINUOUS
  5
23F
 10
364.883328
 20
397.408217
 30
0.0
 11
364.883328
 21
402.408217
 31
0.0
  0
LINE
  8
LC-001-002-----0
  6
CONTINUOUS
  5
240
 10
371.883328
 20
397.408217
 30
0.0
 11
371.883328
 21
402.408217
 31
0.0
  0
LINE
  8
LC-001-002-----0
  6
CONTINUOUS
  5
241
 10
380.883328
 20
397.408217
 30
0.0
 11
380.883328
 21
402.408217
 31
0.0
  0
LINE
  8
LC-001-002-----0
  6
CONTINUOUS
  5
242
 10
387.883328
 20
397.408217
 30
0.0
 11
387.883328
 21
402.408217
 31
0.0
  0
LINE
  8
LC-002-005-----0
  6
CONTINUOUS
  5
243
 10
258.883328
 20
289.124427
 30
0.0
 11
255.883328
 21
292.124427
 31
0.0
  0
LINE
  8
LC-002-005-----0
  6
CONTINUOUS
  5
244
 10
258.883328
 20
285.588893
 30
0.0
 11
255.883328
 21
288.588893
 31
0.0
  0
LINE
  8
LC-002-005-----0
  6
CONTINUOUS
  5
245
 10
258.883328
 20
282.053359
 30
0.0
 11
255.883328
 21
285.053359
 31
0.0
  0
LINE
  8
LC-002-005-----0
  6
CONTINUOUS
  5
246
 10
258.883328
 20
278.517825
 30
0.0
 11
255.883328
 21
281.517825
 31
0.0
  0
LINE
  8
LC-001-002-----0
  6
CONTINUOUS
 62
     2
  5
247
 10
288.743471
 20
444.538675
 30
0.0
 11
303.743471
 21
444.538675
 31
0.0
  0
LINE
  8
LC-001-002-----0
  6
CONTINUOUS
 62
     2
  5
248
 10
303.743471
 20
444.538675
 30
0.0
 11
303.743471
 21
459.538675
 31
0.0
  0
LINE
  8
LC-001-002-----0
  6
CONTINUOUS
 62
     2
  5
249
 10
288.743471
 20
459.538675
 30
0.0
 11
303.743471
 21
459.538675
 31
0.0
  0
LINE
  8
LC-001-002-----0
  6
CONTINUOUS
 62
     2
  5
24A
 10
288.743471
 20
444.538675
 30
0.0
 11
288.743471
 21
459.538675
 31
0.0
  0
LINE
  8
LC-001-002-----0
  6
DASHDOT
 62
     2
  5
24C
 10
328.383328
 20
402.708217
 30
0.0
 11
328.383328
 21
200.208217
 31
0.0
  0
ARC
  8
LC-003-002-RND-0
  6
CONTINUOUS
  5
24D
 10
292.142231
 20
395.208217
 30
0.0
 40
1.5
 50
90.0
 51
180.0
  0
ARC
  8
LC-003-002-RND-0
  6
CONTINUOUS
  5
24E
 10
364.624426
 20
395.208217
 30
0.0
 40
1.5
 50
0.0
 51
90.0
  0
LINE
  8
LC-002-005-----0
  6
CONTINUOUS
  5
24F
 10
398.231119
 20
381.708217
 30
0.0
 11
397.883328
 21
382.056008
 31
0.0
  0
LINE
  8
LC-002-005-----0
  6
CONTINUOUS
  5
250
 10
398.883328
 20
383.884435
 30
0.0
 11
397.883328
 21
384.884435
 31
0.0
  0
LINE
  8
LC-002-005-----0
  6
CONTINUOUS
  5
251
 10
398.883328
 20
386.712862
 30
0.0
 11
397.883328
 21
387.712862
 31
0.0
  0
LINE
  8
LC-002-005-----0
  6
CONTINUOUS
  5
252
 10
398.883328
 20
389.54129
 30
0.0
 11
397.883328
 21
390.54129
 31
0.0
  0
LINE
  8
LC-002-005-----0
  6
CONTINUOUS
  5
253
 10
398.883328
 20
392.369717
 30
0.0
 11
397.883328
 21
393.369717
 31
0.0
  0
LINE
  8
LC-002-005-----0
  6
CONTINUOUS
  5
254
 10
398.883328
 20
395.198144
 30
0.0
 11
397.883328
 21
396.198144
 31
0.0
  0
LINE
  8
LC-002-005-----0
  6
CONTINUOUS
  5
255
 10
403.883328
 20
393.026571
 30
0.0
 11
402.883328
 21
394.026571
 31
0.0
  0
LINE
  8
LC-002-005-----0
  6
CONTINUOUS
  5
256
 10
398.883328
 20
398.026571
 30
0.0
 11
397.883328
 21
399.026571
 31
0.0
  0
LINE
  8
LC-002-005-----0
  6
CONTINUOUS
  5
257
 10
403.883328
 20
395.854998
 30
0.0
 11
402.883328
 21
396.854998
 31
0.0
  0
LINE
  8
LC-002-005-----0
  6
CONTINUOUS
  5
258
 10
258.883328
 20
274.982292
 30
0.0
 11
255.883328
 21
277.982292
 31
0.0
  0
LINE
  8
LC-001-002-----0
  6
CONTINUOUS
  5
259
 10
400.883328
 20
376.208217
 30
0.0
 11
400.883328
 21
206.208217
 31
0.0
  0
LINE
  8
LC-001-002-----0
  6
CONTINUOUS
  5
25A
 10
397.883328
 20
381.708217
 30
0.0
 11
397.883328
 21
200.208217
 31
0.0
  0
LINE
  8
LC-001-002-----0
  6
CONTINUOUS
  5
25B
 10
399.275633
 20
200.208217
 30
0.0
 11
328.383328
 21
200.208217
 31
0.0
  0
LINE
  8
LC-002-005-----0
  6
CONTINUOUS
  5
25C
 10
258.535537
 20
381.708217
 30
0.0
 11
258.883328
 21
382.056008
 31
0.0
  0
LINE
  8
LC-002-005-----0
  6
CONTINUOUS
  5
25D
 10
257.883328
 20
383.884435
 30
0.0
 11
258.883328
 21
384.884435
 31
0.0
  0
LINE
  8
LC-002-005-----0
  6
CONTINUOUS
  5
25E
 10
257.883328
 20
386.712862
 30
0.0
 11
258.883328
 21
387.712862
 31
0.0
  0
LINE
  8
LC-002-005-----0
  6
CONTINUOUS
  5
25F
 10
257.883328
 20
389.54129
 30
0.0
 11
258.883328
 21
390.54129
 31
0.0
  0
LINE
  8
LC-002-005-----0
  6
CONTINUOUS
  5
260
 10
257.883328
 20
392.369717
 30
0.0
 11
258.883328
 21
393.369717
 31
0.0
  0
LINE
  8
LC-002-005-----0
  6
CONTINUOUS
  5
261
 10
257.883328
 20
395.198144
 30
0.0
 11
258.883328
 21
396.198144
 31
0.0
  0
LINE
  8
LC-002-005-----0
  6
CONTINUOUS
  5
262
 10
252.883328
 20
393.026571
 30
0.0
 11
253.883328
 21
394.026571
 31
0.0
  0
LINE
  8
LC-002-005-----0
  6
CONTINUOUS
  5
263
 10
257.883328
 20
398.026571
 30
0.0
 11
258.883328
 21
399.026571
 31
0.0
  0
LINE
  8
LC-002-005-----0
  6
CONTINUOUS
  5
264
 10
252.883328
 20
395.854998
 30
0.0
 11
253.883328
 21
396.854998
 31
0.0
  0
LINE
  8
LC-001-002-----0
  6
CONTINUOUS
  5
265
 10
255.883328
 20
376.208217
 30
0.0
 11
255.883328
 21
206.208217
 31
0.0
  0
LINE
  8
LC-001-002-----0
  6
CONTINUOUS
  5
266
 10
258.883328
 20
381.708217
 30
0.0
 11
258.883328
 21
200.208217
 31
0.0
  0
LINE
  8
LC-001-002-----0
  6
CONTINUOUS
  5
267
 10
257.491023
 20
200.208217
 30
0.0
 11
328.383328
 21
200.208217
 31
0.0
  0
LINE
  8
LC-001-002-----0
  6
CONTINUOUS
  5
268
 10
255.883328
 20
206.208217
 30
0.0
 11
257.491023
 21
200.208217
 31
0.0
  0
LINE
  8
LC-002-005-----0
  6
CONTINUOUS
  5
269
 10
257.781022
 20
400.752692
 30
0.0
 11
258.525456
 21
401.497126
 31
0.0
  0
LINE
  8
LC-002-005-----0
  6
CONTINUOUS
  5
26A
 10
252.883328
 20
398.683425
 30
0.0
 11
253.883328
 21
399.683425
 31
0.0
  0
LINE
  8
LC-002-005-----0
  6
CONTINUOUS
  5
26B
 10
255.90812
 20
401.708217
 30
0.0
 11
256.861889
 21
402.661985
 31
0.0
  0
LINE
  8
LC-001-002-----0
  6
CONTINUOUS
  5
26C
 10
400.883328
 20
206.208217
 30
0.0
 11
399.275633
 21
200.208217
 31
0.0
  0
LINE
  8
LC-001-002-----0
  6
CONTINUOUS
  5
26D
 10
255.883328
 20
401.708217
 30
0.0
 11
255.883328
 21
401.708217
 31
0.0
  0
LINE
  8
LC-001-002-----0
  6
CONTINUOUS
  5
26E
 10
259.383328
 20
397.408217
 30
0.0
 11
270.196403
 21
397.408217
 31
0.0
  0
LINE
  8
LC-001-002-----0
  6
CONTINUOUS
  5
26F
 10
397.383328
 20
397.408217
 30
0.0
 11
397.383328
 21
402.408217
 31
0.0
  0
LINE
  8
LC-001-002-----0
  6
CONTINUOUS
  5
270
 10
397.383328
 20
402.408217
 30
0.0
 11
389.883328
 21
402.408217
 31
0.0
  0
LINE
  8
LC-001-002-----0
  6
CONTINUOUS
  5
271
 10
259.383328
 20
402.408217
 30
0.0
 11
259.383328
 21
397.408217
 31
0.0
  0
LINE
  8
LC-001-002-----0
  6
CONTINUOUS
  5
272
 10
252.883328
 20
391.208217
 30
0.0
 11
253.883328
 21
391.208217
 31
0.0
  0
LINE
  8
LC-001-002-----0
  6
CONTINUOUS
  5
273
 10
253.883328
 20
400.208217
 30
0.0
 11
253.883328
 21
391.208217
 31
0.0
  0
LINE
  8
LC-001-002-----0
  6
CONTINUOUS
  5
274
 10
252.883328
 20
392.708217
 30
0.0
 11
252.883328
 21
391.208217
 31
0.0
  0
LINE
  8
LC-001-002-----0
  6
CONTINUOUS
  5
275
 10
251.883328
 20
392.708217
 30
0.0
 11
252.883328
 21
392.708217
 31
0.0
  0
LINE
  8
LC-001-002-----0
  6
CONTINUOUS
  5
276
 10
251.883328
 20
392.708217
 30
0.0
 11
251.883328
 21
387.708217
 31
0.0
  0
LINE
  8
LC-001-002-----0
  6
CONTINUOUS
  5
277
 10
251.883328
 20
387.708217
 30
0.0
 11
255.883328
 21
387.708217
 31
0.0
  0
LINE
  8
LC-002-005-----0
  6
CONTINUOUS
  5
278
 10
258.883328
 20
271.446758
 30
0.0
 11
255.883328
 21
274.446758
 31
0.0
  0
LINE
  8
LC-002-005-----0
  6
CONTINUOUS
  5
279
 10
258.883328
 20
267.911224
 30
0.0
 11
255.883328
 21
270.911224
 31
0.0
  0
LINE
  8
LC-002-005-----0
  6
CONTINUOUS
  5
27A
 10
398.985635
 20
400.752692
 30
0.0
 11
398.2412
 21
401.497126
 31
0.0
  0
ARC
  8
LC-003-002-RND-0
  6
CONTINUOUS
  5
27B
 10
256.383328
 20
400.208217
 30
0.0
 40
1.5
 50
0.0
 51
90.0
  0
LINE
  8
LC-002-005-----0
  6
CONTINUOUS
  5
27C
 10
403.883328
 20
398.683425
 30
0.0
 11
402.883328
 21
399.683425
 31
0.0
  0
ARC
  8
LC-003-002-RND-0
  6
CONTINUOUS
  5
27D
 10
255.383328
 20
400.208217
 30
0.0
 40
1.5
 50
90.0
 51
180.0
  0
LINE
  8
LC-001-002-----0
  6
CONTINUOUS
  5
27E
 10
269.883328
 20
402.408217
 30
0.0
 11
259.383328
 21
402.408217
 31
0.0
  0
LINE
  8
LC-001-002-----0
  6
CONTINUOUS
  5
27F
 10
266.883328
 20
402.408217
 30
0.0
 11
266.883328
 21
402.408217
 31
0.0
  0
LINE
  8
LC-002-005-----0
  6
CONTINUOUS
  5
280
 10
400.858536
 20
401.708217
 30
0.0
 11
399.904768
 21
402.661985
 31
0.0
  0
LINE
  8
LC-001-002-----0
  6
CONTINUOUS
  5
281
 10
400.883328
 20
401.708217
 30
0.0
 11
400.883328
 21
401.708217
 31
0.0
  0
LINE
  8
LC-001-002-----0
  6
CONTINUOUS
  5
282
 10
403.883328
 20
391.208217
 30
0.0
 11
402.883328
 21
391.208217
 31
0.0
  0
LINE
  8
LC-001-002-----0
  6
CONTINUOUS
  5
283
 10
402.883328
 20
400.208217
 30
0.0
 11
402.883328
 21
391.208217
 31
0.0
  0
LINE
  8
LC-001-002-----0
  6
CONTINUOUS
  5
284
 10
390.742914
 20
402.408217
 30
0.0
 11
369.883328
 21
402.408217
 31
0.0
  0
LINE
  8
LC-001-002-----0
  6
CONTINUOUS
  5
285
 10
403.883328
 20
392.708217
 30
0.0
 11
403.883328
 21
391.208217
 31
0.0
  0
LINE
  8
LC-001-002-----0
  6
CONTINUOUS
  5
286
 10
309.883328
 20
402.408217
 30
0.0
 11
289.883328
 21
402.408217
 31
0.0
  0
LINE
  8
LC-001-002-----0
  6
CONTINUOUS
  5
287
 10
309.883328
 20
397.408217
 30
0.0
 11
330.024129
 21
397.408217
 31
0.0
  0
LINE
  8
LC-001-002-----0
  6
CONTINUOUS
  5
288
 10
349.883328
 20
397.408217
 30
0.0
 11
370.349823
 21
397.408217
 31
0.0
  0
LINE
  8
LC-001-002-----0
  6
CONTINUOUS
  5
289
 10
389.883328
 20
397.408217
 30
0.0
 11
397.383328
 21
397.408217
 31
0.0
  0
LINE
  8
LC-001-002-----0
  6
CONTINUOUS
  5
28A
 10
269.883328
 20
397.408217
 30
0.0
 11
290.230548
 21
397.408217
 31
0.0
  0
LINE
  8
LC-001-002-----0
  6
CONTINUOUS
  5
28B
 10
269.883328
 20
402.408217
 30
0.0
 11
269.883328
 21
402.408217
 31
0.0
  0
LINE
  8
LC-001-002-----0
  6
CONTINUOUS
  5
28C
 10
289.883328
 20
402.408217
 30
0.0
 11
269.883328
 21
402.408217
 31
0.0
  0
LINE
  8
LC-001-002-----0
  6
CONTINUOUS
  5
28D
 10
289.883328
 20
397.408217
 30
0.0
 11
310.335266
 21
397.408217
 31
0.0
  0
LINE
  8
LC-001-002-----0
  6
CONTINUOUS
  5
28E
 10
404.883328
 20
392.708217
 30
0.0
 11
403.883328
 21
392.708217
 31
0.0
  0
LINE
  8
LC-001-002-----0
  6
CONTINUOUS
  5
28F
 10
404.883328
 20
392.708217
 30
0.0
 11
404.883328
 21
387.708217
 31
0.0
  0
LINE
  8
LC-001-002-----0
  6
CONTINUOUS
  5
290
 10
404.883328
 20
387.708217
 30
0.0
 11
400.883328
 21
387.708217
 31
0.0
  0
LINE
  8
LC-002-005-----0
  6
CONTINUOUS
  5
291
 10
258.883328
 20
264.37569
 30
0.0
 11
255.883328
 21
267.37569
 31
0.0
  0
LINE
  8
LC-002-005-----0
  6
CONTINUOUS
  5
292
 10
258.883328
 20
260.840156
 30
0.0
 11
255.883328
 21
263.840156
 31
0.0
  0
LINE
  8
LC-002-005-----0
  6
CONTINUOUS
  5
293
 10
258.883328
 20
257.304622
 30
0.0
 11
255.883328
 21
260.304622
 31
0.0
  0
ARC
  8
LC-003-002-RND-0
  6
CONTINUOUS
  5
294
 10
400.383328
 20
400.208217
 30
0.0
 40
1.5
 50
90.0
 51
180.0
  0
LINE
  8
LC-002-005-----0
  6
CONTINUOUS
  5
295
 10
258.883328
 20
253.769088
 30
0.0
 11
255.883328
 21
256.769088
 31
0.0
  0
LINE
  8
LC-001-002-----0
  6
CONTINUOUS
  5
296
 10
258.883328
 20
381.708217
 30
0.0
 11
258.883328
 21
381.708217
 31
0.0
  0
LINE
  8
LC-001-002-----0
  6
CONTINUOUS
  5
297
 10
255.883328
 20
387.708217
 30
0.0
 11
255.883328
 21
376.208217
 31
0.0
  0
ARC
  8
LC-003-002-RND-0
  6
CONTINUOUS
  5
298
 10
401.383328
 20
400.208217
 30
0.0
 40
1.5
 50
0.0
 51
90.0
  0
LINE
  8
LC-001-002-----0
  6
CONTINUOUS
  5
299
 10
397.883328
 20
381.708217
 30
0.0
 11
397.883328
 21
381.708217
 31
0.0
  0
LINE
  8
LC-001-002-----0
  6
CONTINUOUS
  5
29A
 10
252.883328
 20
391.208217
 30
0.0
 11
252.883328
 21
400.208217
 31
0.0
  0
LINE
  8
LC-001-002-----0
  6
CONTINUOUS
  5
29B
 10
256.383328
 20
402.708217
 30
0.0
 11
328.383328
 21
402.708217
 31
0.0
  0
LINE
  8
LC-001-002-----0
  6
CONTINUOUS
  5
29C
 10
400.883328
 20
387.708217
 30
0.0
 11
400.883328
 21
376.208217
 31
0.0
  0
LINE
  8
LC-001-002-----0
  6
CONTINUOUS
  5
29D
 10
255.383328
 20
401.708217
 30
0.0
 11
256.383328
 21
401.708217
 31
0.0
  0
LINE
  8
LC-001-002-----0
  6
CONTINUOUS
  5
29E
 10
403.883328
 20
391.208217
 30
0.0
 11
403.883328
 21
400.208217
 31
0.0
  0
LINE
  8
LC-001-002-----0
  6
CONTINUOUS
  5
29F
 10
253.883328
 20
391.208217
 30
0.0
 11
253.883328
 21
400.208217
 31
0.0
  0
LINE
  8
LC-001-002-----0
  6
CONTINUOUS
  5
2A0
 10
252.883328
 20
391.208217
 30
0.0
 11
253.883328
 21
391.208217
 31
0.0
  0
LINE
  8
LC-001-002-----0
  6
CONTINUOUS
  5
2A1
 10
259.883328
 20
396.708217
 30
0.0
 11
328.383328
 21
396.708217
 31
0.0
  0
LINE
  8
LC-001-002-----0
  6
CONTINUOUS
  5
2A2
 10
258.883328
 20
381.708217
 30
0.0
 11
258.883328
 21
400.208217
 31
0.0
  0
LINE
  8
LC-001-002-----0
  6
CONTINUOUS
  5
2A3
 10
257.883328
 20
381.708217
 30
0.0
 11
257.883328
 21
400.208217
 31
0.0
  0
LINE
  8
LC-001-002-----0
  6
CONTINUOUS
  5
2A4
 10
257.883328
 20
381.708217
 30
0.0
 11
258.883328
 21
381.708217
 31
0.0
  0
LINE
  8
LC-001-002-----0
  6
CONTINUOUS
  5
2A5
 10
258.883328
 20
381.708217
 30
0.0
 11
328.383328
 21
381.708217
 31
0.0
  0
LINE
  8
LC-001-002-----0
  6
CONTINUOUS
  5
2A6
 10
290.642231
 20
395.208217
 30
0.0
 11
290.642231
 21
394.708217
 31
0.0
  0
ARC
  8
LC-003-002-RND-0
  6
CONTINUOUS
  5
2A7
 10
255.383328
 20
400.208217
 30
0.0
 40
1.5
 50
90.0
 51
180.0
  0
LINE
  8
LC-001-002-----0
  6
CONTINUOUS
  5
2A8
 10
289.883328
 20
402.408217
 30
0.0
 11
289.883328
 21
402.408217
 31
0.0
  0
LINE
  8
LC-002-005-----0
  6
CONTINUOUS
  5
2A9
 10
258.883328
 20
250.233554
 30
0.0
 11
255.883328
 21
253.233554
 31
0.0
  0
LINE
  8
LC-002-005-----0
  6
CONTINUOUS
  5
2AA
 10
258.883328
 20
246.69802
 30
0.0
 11
255.883328
 21
249.69802
 31
0.0
  0
ARC
  8
LC-003-002-RND-0
  6
CONTINUOUS
  5
2AB
 10
256.383328
 20
400.208217
 30
0.0
 40
1.5
 50
0.0
 51
90.0
  0
ARC
  8
LC-003-002-RND-0
  6
CONTINUOUS
  5
2AC
 10
255.383328
 20
400.208217
 30
0.0
 40
2.5
 50
90.0
 51
180.0
  0
ARC
  8
LC-003-002-RND-0
  6
CONTINUOUS
  5
2AD
 10
256.383328
 20
400.208217
 30
0.0
 40
2.5
 50
0.0
 51
90.0
  0
LINE
  8
LC-001-002-----0
  6
CONTINUOUS
  5
2AE
 10
269.429027
 20
394.708217
 30
0.0
 11
269.429027
 21
395.208217
 31
0.0
  0
LINE
  8
LC-001-002-----0
  6
CONTINUOUS
  5
2AF
 10
290.642231
 20
394.708217
 30
0.0
 11
269.429027
 21
394.708217
 31
0.0
  0
LINE
  8
LC-001-002-----0
  6
CONTINUOUS
  5
2B0
 10
400.383328
 20
402.708217
 30
0.0
 11
328.383328
 21
402.708217
 31
0.0
  0
LINE
  8
LC-001-002-----0
  6
CONTINUOUS
  5
2B1
 10
401.383328
 20
401.708217
 30
0.0
 11
400.383328
 21
401.708217
 31
0.0
  0
LINE
  8
LC-001-002-----0
  6
CONTINUOUS
  5
2B2
 10
402.883328
 20
391.208217
 30
0.0
 11
402.883328
 21
400.208217
 31
0.0
  0
LINE
  8
LC-001-002-----0
  6
CONTINUOUS
  5
2B3
 10
403.883328
 20
391.208217
 30
0.0
 11
402.883328
 21
391.208217
 31
0.0
  0
LINE
  8
LC-001-002-----0
  6
CONTINUOUS
  5
2B4
 10
396.883328
 20
396.708217
 30
0.0
 11
328.383328
 21
396.708217
 31
0.0
  0
LINE
  8
LC-001-002-----0
  6
CONTINUOUS
  5
2B5
 10
397.883328
 20
381.708217
 30
0.0
 11
397.883328
 21
400.208217
 31
0.0
  0
LINE
  8
LC-001-002-----0
  6
CONTINUOUS
  5
2B6
 10
398.883328
 20
381.708217
 30
0.0
 11
398.883328
 21
400.208217
 31
0.0
  0
LINE
  8
LC-001-002-----0
  6
CONTINUOUS
  5
2B7
 10
370.349823
 20
402.408217
 30
0.0
 11
349.883328
 21
402.408217
 31
0.0
  0
LINE
  8
LC-001-002-----0
  6
CONTINUOUS
  5
2B8
 10
369.883328
 20
397.408217
 30
0.0
 11
389.920612
 21
397.408217
 31
0.0
  0
LINE
  8
LC-001-002-----0
  6
CONTINUOUS
  5
2B9
 10
350.779033
 20
402.408217
 30
0.0
 11
309.883328
 21
402.408217
 31
0.0
  0
LINE
  8
LC-001-002-----0
  6
CONTINUOUS
  5
2BA
 10
329.883328
 20
397.408217
 30
0.0
 11
350.121192
 21
397.408217
 31
0.0
  0
LINE
  8
LC-001-002-----0
  6
CONTINUOUS
  5
2BB
 10
398.883328
 20
381.708217
 30
0.0
 11
397.883328
 21
381.708217
 31
0.0
  0
LINE
  8
LC-001-002-----0
  6
CONTINUOUS
  5
2BC
 10
397.883328
 20
381.708217
 30
0.0
 11
328.383328
 21
381.708217
 31
0.0
  0
LINE
  8
LC-001-002-----0
  6
CONTINUOUS
  5
2BD
 10
366.124426
 20
395.208217
 30
0.0
 11
366.124426
 21
394.708217
 31
0.0
  0
LINE
  8
LC-001-002-----0
  6
CONTINUOUS
  5
2BE
 10
255.383328
 20
402.708217
 30
0.0
 11
256.383328
 21
402.708217
 31
0.0
  0
ARC
  8
LC-003-002-RND-0
  6
CONTINUOUS
  5
2BF
 10
401.383328
 20
400.208217
 30
0.0
 40
1.5
 50
0.0
 51
90.0
  0
ARC
  8
LC-003-002-RND-0
  6
CONTINUOUS
  5
2C0
 10
400.383328
 20
400.208217
 30
0.0
 40
1.5
 50
90.0
 51
180.0
  0
ARC
  8
LC-003-002-RND-0
  6
CONTINUOUS
  5
2C1
 10
259.883328
 20
397.708217
 30
0.0
 40
1.0
 50
180.0
 51
270.0
  0
ARC
  8
LC-003-002-RND-0
  6
CONTINUOUS
  5
2C2
 10
401.383328
 20
400.208217
 30
0.0
 40
2.5
 50
0.0
 51
90.0
  0
ARC
  8
LC-003-002-RND-0
  6
CONTINUOUS
  5
2C3
 10
400.383328
 20
400.208217
 30
0.0
 40
2.5
 50
90.0
 51
180.0
  0
LINE
  8
LC-001-002-----0
  6
CONTINUOUS
  5
2C4
 10
387.337629
 20
394.708217
 30
0.0
 11
387.337629
 21
395.208217
 31
0.0
  0
ARC
  8
LC-003-002-RND-0
  6
CONTINUOUS
  5
2C5
 10
267.929027
 20
395.208217
 30
0.0
 40
1.5
 50
0.0
 51
90.0
  0
LINE
  8
LC-001-002-----0
  6
CONTINUOUS
  5
2C6
 10
366.124426
 20
394.708217
 30
0.0
 11
387.337629
 21
394.708217
 31
0.0
  0
LINE
  8
LC-001-002-----0
  6
CONTINUOUS
  5
2C7
 10
401.383328
 20
402.708217
 30
0.0
 11
400.383328
 21
402.708217
 31
0.0
  0
ARC
  8
LC-003-002-RND-0
  6
CONTINUOUS
  5
2C8
 10
396.883328
 20
397.708217
 30
0.0
 40
1.0
 50
270.0
 51
0.0
  0
ARC
  8
LC-003-002-RND-0
  6
CONTINUOUS
  5
2C9
 10
388.837629
 20
395.208217
 30
0.0
 40
1.5
 50
90.0
 51
180.0
  0
LINE
  8
LC-001-002-----0
  6
CONTINUOUS
  5
2CA
 10
398.883328
 20
381.708217
 30
0.0
 11
398.883328
 21
400.208217
 31
0.0
  0
LINE
  8
LC-001-002-----0
  6
CONTINUOUS
  5
2CB
 10
398.883328
 20
381.708217
 30
0.0
 11
397.883328
 21
381.708217
 31
0.0
  0
LINE
  8
LC-001-002-----0
  6
CONTINUOUS
  5
2CC
 10
328.383328
 20
381.708217
 30
0.0
 11
397.883328
 21
381.708217
 31
0.0
  0
LINE
  8
LC-001-002-----0
  6
CONTINUOUS
  5
2CD
 10
257.883328
 20
381.708217
 30
0.0
 11
257.883328
 21
400.208217
 31
0.0
  0
LINE
  8
LC-001-002-----0
  6
CONTINUOUS
  5
2CE
 10
257.883328
 20
381.708217
 30
0.0
 11
258.883328
 21
381.708217
 31
0.0
  0
LINE
  8
LC-001-002-----0
  6
CONTINUOUS
  5
2CF
 10
328.383328
 20
381.708217
 30
0.0
 11
258.883328
 21
381.708217
 31
0.0
  0
LINE
  8
LC-002-005-----0
  6
CONTINUOUS
  5
2D0
 10
258.883328
 20
243.162486
 30
0.0
 11
255.883328
 21
246.162486
 31
0.0
  0
LINE
  8
LC-002-005-----0
  6
CONTINUOUS
  5
2D1
 10
258.883328
 20
239.626953
 30
0.0
 11
255.883328
 21
242.626953
 31
0.0
  0
LINE
  8
LC-002-005-----0
  6
CONTINUOUS
  5
2D2
 10
258.883328
 20
236.091419
 30
0.0
 11
255.883328
 21
239.091419
 31
0.0
  0
LINE
  8
LC-002-005-----0
  6
CONTINUOUS
  5
2D3
 10
258.883328
 20
232.555885
 30
0.0
 11
255.883328
 21
235.555885
 31
0.0
  0
LINE
  8
LC-002-005-----0
  6
CONTINUOUS
  5
2D4
 10
258.883328
 20
229.020351
 30
0.0
 11
255.883328
 21
232.020351
 31
0.0
  0
LINE
  8
LC-002-005-----0
  6
CONTINUOUS
  5
2D5
 10
258.883328
 20
225.484817
 30
0.0
 11
255.883328
 21
228.484817
 31
0.0
  0
LINE
  8
LC-002-005-----0
  6
CONTINUOUS
  5
2D6
 10
258.883328
 20
221.949283
 30
0.0
 11
255.883328
 21
224.949283
 31
0.0
  0
LINE
  8
LC-002-005-----0
  6
CONTINUOUS
  5
2D7
 10
258.883328
 20
218.413749
 30
0.0
 11
255.883328
 21
221.413749
 31
0.0
  0
LINE
  8
LC-002-005-----0
  6
CONTINUOUS
  5
2D8
 10
258.883328
 20
214.878215
 30
0.0
 11
255.883328
 21
217.878215
 31
0.0
  0
LINE
  8
LC-002-005-----0
  6
CONTINUOUS
  5
2D9
 10
258.883328
 20
211.342681
 30
0.0
 11
255.883328
 21
214.342681
 31
0.0
  0
LINE
  8
LC-002-005-----0
  6
CONTINUOUS
  5
2DA
 10
258.883328
 20
207.807147
 30
0.0
 11
255.883328
 21
210.807147
 31
0.0
  0
LINE
  8
LC-002-005-----0
  6
CONTINUOUS
  5
2DB
 10
258.883328
 20
204.271613
 30
0.0
 11
255.883328
 21
207.271613
 31
0.0
  0
LINE
  8
LC-002-005-----0
  6
CONTINUOUS
  5
2DC
 10
258.883328
 20
200.73608
 30
0.0
 11
256.788193
 21
202.831214
 31
0.0
  0
LINE
  8
LC-002-005-----0
  6
CONTINUOUS
 62
     4
  5
2DD
 10
362.383328
 20
402.330264
 30
0.0
 11
362.466478
 21
402.413414
 31
0.0
  0
LINE
  8
LC-001-002-----0
  6
CONTINUOUS
 62
     2
  5
2DE
 10
258.883328
 20
223.208217
 30
0.0
 11
397.883328
 21
223.208217
 31
0.0
  0
ENDSEC
  0
EOF
