  0
SECTION
  2
HEADER
  9
$ACADVER
  1
AC1009
  9
$INSBASE
 10
0.0
 20
0.0
 30
0.0
  9
$EXTMIN
 10
0.0
 20
0.0
 30
0.0
  9
$EXTMAX
 10
840.0
 20
594.0
 30
0.0
  9
$LIMMIN
 10
0.0
 20
0.0
  9
$LIMMAX
 10
840.0
 20
594.0
  9
$ORTHOMODE
 70
     0
  9
$REGENMODE
 70
     1
  9
$FILLMODE
 70
     1
  9
$QTEXTMODE
 70
     0
  9
$MIRRTEXT
 70
     1
  9
$DRAGMODE
 70
     2
  9
$LTSCALE
 40
2.0
  9
$OSMODE
 70
     0
  9
$ATTMODE
 70
     1
  9
$TEXTSIZE
 40
0.2
  9
$TRACEWID
 40
0.05
  9
$TEXTSTYLE
  7
STANDARD
  9
$CLAYER
  8
0
  9
$CELTYPE
  6
BYLAYER
  9
$CECOLOR
 62
     7
  9
$DIMSCALE
 40
2.0
  9
$DIMASZ
 40
3.5
  9
$DIMEXO
 40
0.0625
  9
$DIMDLI
 40
0.38
  9
$DIMRND
 40
0.0
  9
$DIMDLE
 40
0.0
  9
$DIMEXE
 40
0.18
  9
$DIMTP
 40
0.0
  9
$DIMTM
 40
0.0
  9
$DIMTXT
 40
3.5
  9
$DIMCEN
 40
0.09
  9
$DIMTSZ
 40
0.0
  9
$DIMTOL
 70
     0
  9
$DIMLIM
 70
     0
  9
$DIMTIH
 70
     1
  9
$DIMTOH
 70
     1
  9
$DIMSE1
 70
     0
  9
$DIMSE2
 70
     0
  9
$DIMTAD
 70
     1
  9
$DIMZIN
 70
     0
  9
$DIMBLK
  1

  9
$DIMASO
 70
     1
  9
$DIMSHO
 70
     1
  9
$DIMPOST
  1

  9
$DIMAPOST
  1

  9
$DIMALT
 70
     0
  9
$DIMALTD
 70
     2
  9
$DIMALTF
 40
25.4
  9
$DIMLFAC
 40
1.0
  9
$DIMTOFL
 70
     0
  9
$DIMTVP
 40
0.0
  9
$DIMTIX
 70
     0
  9
$DIMSOXD
 70
     0
  9
$DIMSAH
 70
     0
  9
$DIMBLK1
  1

  9
$DIMBLK2
  1

  9
$DIMSTYLE
  2
STANDARD
  9
$DIMCLRD
 70
     0
  9
$DIMCLRE
 70
     0
  9
$DIMCLRT
 70
     0
  9
$DIMTFAC
 40
1.0
  9
$DIMGAP
 40
0.09
  9
$LUNITS
 70
     2
  9
$LUPREC
 70
     2
  9
$AXISMODE
 70
     0
  9
$AXISUNIT
 10
0.0
 20
0.0
  9
$SKETCHINC
 40
0.1
  9
$FILLETRAD
 40
0.0
  9
$AUNITS
 70
     0
  9
$AUPREC
 70
     0
  9
$MENU
  1
acad
  9
$ELEVATION
 40
0.0
  9
$PELEVATION
 40
0.0
  9
$THICKNESS
 40
0.0
  9
$LIMCHECK
 70
     0
  9
$BLIPMODE
 70
     1
  9
$CHAMFERA
 40
0.0
  9
$CHAMFERB
 40
0.0
  9
$SKPOLY
 70
     0
  9
$TDCREATE
 40
0.000000000
  9
$TDUPDATE
 40
0.000000000
  9
$TDINDWG
 40
0.0000000000
  9
$TDUSRTIMER
 40
0.0000000000
  9
$USRTIMER
 70
     1
  9
$ANGBASE
 50
0.0
  9
$ANGDIR
 70
     0
  9
$PDMODE
 70
     0
  9
$PDSIZE
 40
0.0
  9
$PLINEWID
 40
0.0
  9
$COORDS
 70
     0
  9
$SPLFRAME
 70
     0
  9
$SPLINETYPE
 70
     6
  9
$SPLINESEGS
 70
     8
  9
$ATTDIA
 70
     0
  9
$ATTREQ
 70
     1
  9
$HANDLING
 70
     1
  9
$HANDSEED
  5
2BA
  9
$SURFTAB1
 70
     6
  9
$SURFTAB2
 70
     6
  9
$SURFTYPE
 70
     6
  9
$SURFU
 70
     6
  9
$SURFV
 70
     6
  9
$UCSNAME
  2

  9
$UCSORG
 10
0.0
 20
0.0
 30
0.0
  9
$UCSXDIR
 10
1.0
 20
0.0
 30
0.0
  9
$UCSYDIR
 10
0.0
 20
1.0
 30
0.0
  9
$PUCSNAME
  2

  9
$PUCSORG
 10
0.0
 20
0.0
 30
0.0
  9
$PUCSXDIR
 10
1.0
 20
0.0
 30
0.0
  9
$PUCSYDIR
 10
0.0
 20
1.0
 30
0.0
  9
$USERI1
 70
     0
  9
$USERI2
 70
     0
  9
$USERI3
 70
     0
  9
$USERI4
 70
     0
  9
$USERI5
 70
     0
  9
$USERR1
 40
0.0
  9
$USERR2
 40
0.0
  9
$USERR3
 40
0.0
  9
$USERR4
 40
0.0
  9
$USERR5
 40
0.0
  9
$WORLDVIEW
 70
     1
  9
$SHADEDGE
 70
     3
  9
$SHADEDIF
 70
    70
  9
$TILEMODE
 70
     1
  9
$MAXACTVP
 70
    16
  9
$PINSBASE
 10
0.0
 20
0.0
 30
0.0
  9
$PLIMCHECK
 70
     0
  9
$PEXTMIN
 10
1.000000E+20
 20
1.000000E+20
 30
1.000000E+20
  9
$PEXTMAX
 10
-1.000000E+20
 20
-1.000000E+20
 30
-1.000000E+20
  9
$PLIMMIN
 10
0.0
 20
0.0
  9
$PLIMMAX
 10
840.0
 20
594.0
  9
$UNITMODE
 70
     0
  9
$VISRETAIN
 70
     0
  9
$PLINEGEN
 70
     1
  9
$PSLTSCALE
 70
     0
  9
$TREEDEPTH
 70
  3020
  9
$DWGCODEPAGE
  3
dos850
  0
ENDSEC
  0
SECTION
  2
TABLES
  0
TABLE
  2
VPORT
 70
     1
  0
VPORT
  2
*ACTIVE
 70
     0
 10
0.0
 20
0.0
 11
1.0
 21
1.0
 12
420.0
 22
297.0
 13
0.0
 23
0.0
 14
1.0
 24
1.0
 15
0.0
 25
0.0
 16
0.0
 26
0.0
 36
1.0
 17
0.0
 27
0.0
 37
0.0
 40
594.0
 41
1.604229
 42
50.0
 43
0.0
 44
0.0
 50
0.0
 51
0.0
 71
     0
 72
   100
 73
     1
 74
     1
 75
     0
 76
     0
 77
     0
 78
     0
  0
ENDTAB
  0
TABLE
  2
LTYPE
 70
     2
  0
LTYPE
  2
CONTINUOUS
 70
    64
  3
Solid line
 72
    65
 73
     0
 40
0.0
  0
LTYPE
  2
DASHDOT
 70
    64
  3
__ . __ . __ . __ . __
 72
    65
 73
     4
 40
7.5
 49
5.0
 49
-1.25
 49
0.0
 49
-1.25
  0
ENDTAB
  0
TABLE
  2
LAYER
 70
    10
  0
LAYER
  2
0
 70
     0
 62
     7
  6
CONTINUOUS
  0
LAYER
  2
LC-INFO-1-2-MM-A3-0
 70
     1
 62
    -1
  6
CONTINUOUS
  0
LAYER
  2
LC-003-003-MTH-0
 70
     0
 62
     2
  6
CONTINUOUS
  0
LAYER
  2
LC-002-003-----0
 70
     0
 62
     2
  6
CONTINUOUS
  0
LAYER
  2
LC-004-003-MTG-0
 70
     0
 62
     2
  6
CONTINUOUS
  0
LAYER
  2
LC-005-005-----0
 70
     0
 62
     2
  6
CONTINUOUS
  0
LAYER
  2
LC-007-000-----0
 70
     0
 62
     7
  6
CONTINUOUS
  0
LAYER
  2
LC-001-002-----0
 70
     0
 62
     1
  6
CONTINUOUS
  0
LAYER
  2
LC-006-001-----0
 70
     0
 62
     1
  6
CONTINUOUS
  0
LAYER
  2
LC-000
 70
     0
 62
     7
  6
CONTINUOUS
  0
ENDTAB
  0
TABLE
  2
STYLE
 70
     4
  0
STYLE
  2
STANDARD
 70
     0
 40
0.0
 41
1.0
 50
0.0
 71
     0
 42
0.0
  3
txt
  4

  0
STYLE
  2
LC-STANDARD
 70
    64
 40
0.0
 41
1.0
 50
0.0
 71
     0
 42
3.5
  3
MONOTXT
  4

  0
STYLE
  2
LC-TXTSTYLE-150-400-0-0-A2
 70
    64
 40
0.0
 41
1.0
 50
15.0
 71
     0
 42
3.5
  3
MONOTXT
  4

  0
STYLE
  2
LC-TXTSTYLE-150-400-0-0-D3
 70
    64
 40
0.0
 41
1.0
 50
15.0
 71
     0
 42
3.5
  3
LC-STANDARD
  4

  0
ENDTAB
  0
TABLE
  2
VIEW
 70
     0
  0
ENDTAB
  0
TABLE
  2
UCS
 70
     0
  0
ENDTAB
  0
TABLE
  2
APPID
 70
     1
  0
APPID
  2
ACAD
 70
     0
  0
ENDTAB
  0
TABLE
  2
DIMSTYLE
 70
     3
  0
DIMSTYLE
  2
STANDARD
 70
     0
  3

  4

  5

  6

  7

 40
1.0
 41
0.18
 42
0.0625
 43
0.38
 44
0.18
 45
0.0
 46
0.0
 47
0.0
 48
0.0
 71
     0
 72
     0
 73
     1
 74
     1
 75
     0
 76
     0
 77
     0
 78
     0
140
0.18
141
0.09
142
0.0
143
25.4
144
1.0
145
0.0
146
1.0
147
0.09
170
     0
171
     2
172
     0
173
     0
174
     0
175
     0
176
     0
177
     0
178
     0
  0
DIMSTYLE
  2
LC-STANDARD
 70
     0
  3

  4

  5

  6

  7

 40
1.0
 41
3.5
 42
0.0
 43
7.5
 44
1.8
 45
0.0
 46
0.0
 47
0.0
 48
0.0
 71
     0
 72
     0
 73
     0
 74
     0
 75
     0
 76
     0
 77
     1
 78
     8
140
3.5
141
0.0
142
0.0
143
25.4
144
1.0
145
0.0
146
0.71
147
1.5
170
     0
171
     2
172
     1
173
     0
174
     0
175
     0
176
     0
177
     0
178
     3
  0
DIMSTYLE
  2
LC-DIM-L-0140-02-02
 70
     0
  3

  4

  5

  6

  7

 40
2.0
 41
3.5
 42
0.0
 43
7.5
 44
1.8
 45
0.0
 46
0.0
 47
0.0
 48
0.0
 71
     0
 72
     0
 73
     0
 74
     0
 75
     0
 76
     0
 77
     1
 78
     8
140
14.0
141
0.0
142
0.0
143
25.4
144
1.0
145
0.0
146
0.71
147
1.5
170
     0
171
     2
172
     0
173
     0
174
     0
175
     0
176
     2
177
     2
178
     8
  0
ENDTAB
  0
ENDSEC
  0
SECTION
  2
BLOCKS
  0
BLOCK
  8
0
  5
23
  2
*D0
 70
    65
 10
0.0
 20
0.0
 30
0.0
  3
*D0
  0
LINE
  8
LC-003-003-MTH-0
  6
CONTINUOUS
  5
25
 10
207.335736
 20
436.763743
 30
0.0
 11
179.2
 21
436.763743
 31
0.0
  0
LINE
  8
LC-003-003-MTH-0
  6
CONTINUOUS
  5
26
 10
212.388995
 20
451.763697
 30
0.0
 11
179.2
 21
451.763697
 31
0.0
  0
LINE
  8
LC-002-003-----0
  6
CONTINUOUS
  5
28
 10
199.654733
 20
409.003287
 30
0.0
 11
196.0
 21
436.763743
 31
0.0
  0
LINE
  8
LC-002-003-----0
  6
CONTINUOUS
  5
29
 10
196.0
 20
436.763743
 30
0.0
 11
192.345267
 21
409.003287
 31
0.0
  0
LINE
  8
LC-002-003-----0
  6
CONTINUOUS
  5
2A
 10
192.345267
 20
409.003287
 30
0.0
 11
199.654733
 21
409.003287
 31
0.0
  0
LINE
  8
LC-002-003-----0
  6
CONTINUOUS
  5
2B
 10
198.704503
 20
408.941005
 30
0.0
 11
196.0
 21
429.483743
 31
0.0
  0
LINE
  8
LC-002-003-----0
  6
CONTINUOUS
  5
2C
 10
196.0
 20
429.483743
 30
0.0
 11
193.295497
 21
408.941005
 31
0.0
  0
LINE
  8
LC-002-003-----0
  6
CONTINUOUS
  5
2D
 10
197.754272
 20
408.878724
 30
0.0
 11
196.0
 21
422.203743
 31
0.0
  0
LINE
  8
LC-002-003-----0
  6
CONTINUOUS
  5
2E
 10
196.0
 20
422.203743
 30
0.0
 11
194.245728
 21
408.878724
 31
0.0
  0
LINE
  8
LC-002-003-----0
  6
CONTINUOUS
  5
2F
 10
196.804041
 20
408.816442
 30
0.0
 11
196.0
 21
414.923743
 31
0.0
  0
LINE
  8
LC-002-003-----0
  6
CONTINUOUS
  5
30
 10
196.0
 20
414.923743
 30
0.0
 11
195.195959
 21
408.816442
 31
0.0
  0
LINE
  8
LC-002-003-----0
  6
CONTINUOUS
  5
31
 10
192.345267
 20
479.524153
 30
0.0
 11
196.0
 21
451.763697
 31
0.0
  0
LINE
  8
LC-002-003-----0
  6
CONTINUOUS
  5
32
 10
196.0
 20
451.763697
 30
0.0
 11
199.654733
 21
479.524153
 31
0.0
  0
LINE
  8
LC-002-003-----0
  6
CONTINUOUS
  5
33
 10
199.654733
 20
479.524153
 30
0.0
 11
192.345267
 21
479.524153
 31
0.0
  0
LINE
  8
LC-002-003-----0
  6
CONTINUOUS
  5
34
 10
193.295497
 20
479.586435
 30
0.0
 11
196.0
 21
459.043697
 31
0.0
  0
LINE
  8
LC-002-003-----0
  6
CONTINUOUS
  5
35
 10
196.0
 20
459.043697
 30
0.0
 11
198.704503
 21
479.586435
 31
0.0
  0
LINE
  8
LC-002-003-----0
  6
CONTINUOUS
  5
36
 10
194.245728
 20
479.648716
 30
0.0
 11
196.0
 21
466.323697
 31
0.0
  0
LINE
  8
LC-002-003-----0
  6
CONTINUOUS
  5
37
 10
196.0
 20
466.323697
 30
0.0
 11
197.754272
 21
479.648716
 31
0.0
  0
LINE
  8
LC-002-003-----0
  6
CONTINUOUS
  5
38
 10
195.195959
 20
479.710998
 30
0.0
 11
196.0
 21
473.603697
 31
0.0
  0
LINE
  8
LC-002-003-----0
  6
CONTINUOUS
  5
39
 10
196.0
 20
473.603697
 30
0.0
 11
196.804041
 21
479.710998
 31
0.0
  0
LINE
  8
LC-004-003-MTG-0
  6
CONTINUOUS
  5
3B
 10
196.0
 20
353.399343
 30
0.0
 11
196.0
 21
490.963697
 31
0.0
  0
TEXT
  8
LC-002-003-----0
  6
CONTINUOUS
 62
     8
  5
3D
 10
188.172446
 20
366.124816
 30
0.0
 40
28.0
  1
15
 50
90.0
 41
0.9
 51
15.0
  7
LC-TXTSTYLE-150-400-0-0-D0
 72
     2
 11
188.172446
 21
403.031903
 31
0.0
  0
ENDBLK
  8
0
  5
3E
  0
BLOCK
  8
0
  5
40
  2
*X1
 70
    65
 10
207.335736
 20
246.563
 30
0.0
  3
*X1
  0
LINE
  8
LC-005-005-----0
  6
CONTINUOUS
  5
42
 10
213.335736
 20
448.516211
 30
0.0
 11
211.088315
 21
450.763632
 31
0.0
  0
LINE
  8
LC-005-005-----0
  6
CONTINUOUS
  5
43
 10
213.335736
 20
445.687784
 30
0.0
 11
209.835736
 21
449.187784
 31
0.0
  0
LINE
  8
LC-005-005-----0
  6
CONTINUOUS
  5
44
 10
213.335736
 20
442.859357
 30
0.0
 11
209.835736
 21
446.359357
 31
0.0
  0
LINE
  8
LC-005-005-----0
  6
CONTINUOUS
  5
45
 10
213.335736
 20
440.03093
 30
0.0
 11
209.835736
 21
443.53093
 31
0.0
  0
LINE
  8
LC-005-005-----0
  6
CONTINUOUS
  5
46
 10
213.335736
 20
437.202502
 30
0.0
 11
209.835736
 21
440.702502
 31
0.0
  0
LINE
  8
LC-005-005-----0
  6
CONTINUOUS
  5
47
 10
213.335736
 20
434.374075
 30
0.0
 11
211.335906
 21
436.373905
 31
0.0
  0
LINE
  8
LC-005-005-----0
  6
CONTINUOUS
  5
48
 10
210.946069
 20
436.763743
 30
0.0
 11
209.44618
 21
438.263632
 31
0.0
  0
LINE
  8
LC-005-005-----0
  6
CONTINUOUS
  5
49
 10
208.835736
 20
438.874075
 30
0.0
 11
207.831736
 21
439.878075
 31
0.0
  0
LINE
  8
LC-005-005-----0
  6
CONTINUOUS
  5
4A
 10
213.335736
 20
431.545648
 30
0.0
 11
211.335906
 21
433.545478
 31
0.0
  0
LINE
  8
LC-005-005-----0
  6
CONTINUOUS
  5
4B
 10
208.117642
 20
436.763743
 30
0.0
 11
207.335736
 21
437.545648
 31
0.0
  0
LINE
  8
LC-005-005-----0
  6
CONTINUOUS
  5
4C
 10
213.335736
 20
428.717221
 30
0.0
 11
211.335906
 21
430.717051
 31
0.0
  0
LINE
  8
LC-005-005-----0
  6
CONTINUOUS
  5
4D
 10
214.335736
 20
424.888794
 30
0.0
 11
213.398317
 21
425.826214
 31
0.0
  0
LINE
  8
LC-005-005-----0
  6
CONTINUOUS
  5
4E
 10
212.69121
 20
426.53332
 30
0.0
 11
211.335906
 21
427.888624
 31
0.0
  0
LINE
  8
LC-005-005-----0
  6
CONTINUOUS
  5
4F
 10
214.335736
 20
422.060367
 30
0.0
 11
211.335906
 21
425.060197
 31
0.0
  0
LINE
  8
LC-005-005-----0
  6
CONTINUOUS
  5
50
 10
214.335736
 20
419.23194
 30
0.0
 11
211.335906
 21
422.23177
 31
0.0
  0
LINE
  8
LC-005-005-----0
  6
CONTINUOUS
  5
51
 10
214.335736
 20
416.403513
 30
0.0
 11
211.335906
 21
419.403343
 31
0.0
  0
LINE
  8
LC-005-005-----0
  6
CONTINUOUS
  5
52
 10
214.335736
 20
413.575085
 30
0.0
 11
211.335906
 21
416.574916
 31
0.0
  0
LINE
  8
LC-005-005-----0
  6
CONTINUOUS
  5
53
 10
214.335736
 20
410.746658
 30
0.0
 11
211.335906
 21
413.746488
 31
0.0
  0
LINE
  8
LC-005-005-----0
  6
CONTINUOUS
  5
54
 10
214.335736
 20
407.918231
 30
0.0
 11
211.335906
 21
410.918061
 31
0.0
  0
LINE
  8
LC-005-005-----0
  6
CONTINUOUS
  5
55
 10
214.335736
 20
405.089804
 30
0.0
 11
211.335906
 21
408.089634
 31
0.0
  0
LINE
  8
LC-005-005-----0
  6
CONTINUOUS
  5
56
 10
214.335736
 20
402.261377
 30
0.0
 11
211.335906
 21
405.261207
 31
0.0
  0
LINE
  8
LC-005-005-----0
  6
CONTINUOUS
  5
57
 10
214.335736
 20
399.43295
 30
0.0
 11
211.335906
 21
402.43278
 31
0.0
  0
LINE
  8
LC-005-005-----0
  6
CONTINUOUS
  5
58
 10
214.335736
 20
396.604523
 30
0.0
 11
211.335906
 21
399.604353
 31
0.0
  0
LINE
  8
LC-005-005-----0
  6
CONTINUOUS
  5
59
 10
214.335736
 20
393.776096
 30
0.0
 11
211.335906
 21
396.775926
 31
0.0
  0
LINE
  8
LC-005-005-----0
  6
CONTINUOUS
  5
5A
 10
214.335736
 20
390.947668
 30
0.0
 11
211.335906
 21
393.947499
 31
0.0
  0
LINE
  8
LC-005-005-----0
  6
CONTINUOUS
  5
5B
 10
214.335736
 20
388.119241
 30
0.0
 11
211.335906
 21
391.119071
 31
0.0
  0
LINE
  8
LC-005-005-----0
  6
CONTINUOUS
  5
5C
 10
214.335736
 20
385.290814
 30
0.0
 11
211.335906
 21
388.290644
 31
0.0
  0
LINE
  8
LC-005-005-----0
  6
CONTINUOUS
  5
5D
 10
214.335736
 20
382.462387
 30
0.0
 11
211.335906
 21
385.462217
 31
0.0
  0
LINE
  8
LC-005-005-----0
  6
CONTINUOUS
  5
5E
 10
214.335736
 20
379.63396
 30
0.0
 11
211.335906
 21
382.63379
 31
0.0
  0
LINE
  8
LC-005-005-----0
  6
CONTINUOUS
  5
5F
 10
214.335736
 20
376.805533
 30
0.0
 11
211.335906
 21
379.805363
 31
0.0
  0
LINE
  8
LC-005-005-----0
  6
CONTINUOUS
  5
60
 10
214.335736
 20
373.977106
 30
0.0
 11
211.335906
 21
376.976936
 31
0.0
  0
LINE
  8
LC-005-005-----0
  6
CONTINUOUS
  5
61
 10
214.335736
 20
371.148679
 30
0.0
 11
211.335906
 21
374.148509
 31
0.0
  0
LINE
  8
LC-005-005-----0
  6
CONTINUOUS
  5
62
 10
214.335736
 20
368.320251
 30
0.0
 11
211.335906
 21
371.320082
 31
0.0
  0
LINE
  8
LC-005-005-----0
  6
CONTINUOUS
  5
63
 10
214.335736
 20
365.491824
 30
0.0
 11
211.335906
 21
368.491654
 31
0.0
  0
LINE
  8
LC-005-005-----0
  6
CONTINUOUS
  5
64
 10
214.335736
 20
362.663397
 30
0.0
 11
211.335906
 21
365.663227
 31
0.0
  0
LINE
  8
LC-005-005-----0
  6
CONTINUOUS
  5
65
 10
214.335736
 20
359.83497
 30
0.0
 11
211.335906
 21
362.8348
 31
0.0
  0
LINE
  8
LC-005-005-----0
  6
CONTINUOUS
  5
66
 10
214.335736
 20
357.006543
 30
0.0
 11
211.335906
 21
360.006373
 31
0.0
  0
LINE
  8
LC-005-005-----0
  6
CONTINUOUS
  5
67
 10
214.335736
 20
354.178116
 30
0.0
 11
211.335906
 21
357.177946
 31
0.0
  0
LINE
  8
LC-005-005-----0
  6
CONTINUOUS
  5
68
 10
214.335736
 20
351.349689
 30
0.0
 11
211.335906
 21
354.349519
 31
0.0
  0
LINE
  8
LC-005-005-----0
  6
CONTINUOUS
  5
69
 10
214.335736
 20
348.521262
 30
0.0
 11
211.335906
 21
351.521092
 31
0.0
  0
LINE
  8
LC-005-005-----0
  6
CONTINUOUS
  5
6A
 10
214.335736
 20
345.692834
 30
0.0
 11
211.335906
 21
348.692665
 31
0.0
  0
LINE
  8
LC-005-005-----0
  6
CONTINUOUS
  5
6B
 10
214.335736
 20
342.864407
 30
0.0
 11
211.335906
 21
345.864237
 31
0.0
  0
LINE
  8
LC-005-005-----0
  6
CONTINUOUS
  5
6C
 10
214.335736
 20
340.03598
 30
0.0
 11
211.335906
 21
343.03581
 31
0.0
  0
LINE
  8
LC-005-005-----0
  6
CONTINUOUS
  5
6D
 10
214.335736
 20
337.207553
 30
0.0
 11
211.335906
 21
340.207383
 31
0.0
  0
LINE
  8
LC-005-005-----0
  6
CONTINUOUS
  5
6E
 10
214.335736
 20
334.379126
 30
0.0
 11
211.335906
 21
337.378956
 31
0.0
  0
LINE
  8
LC-005-005-----0
  6
CONTINUOUS
  5
6F
 10
214.335736
 20
331.550699
 30
0.0
 11
211.335906
 21
334.550529
 31
0.0
  0
LINE
  8
LC-005-005-----0
  6
CONTINUOUS
  5
70
 10
214.335736
 20
328.722272
 30
0.0
 11
211.335906
 21
331.722102
 31
0.0
  0
LINE
  8
LC-005-005-----0
  6
CONTINUOUS
  5
71
 10
214.335736
 20
325.893845
 30
0.0
 11
211.335906
 21
328.893675
 31
0.0
  0
LINE
  8
LC-005-005-----0
  6
CONTINUOUS
  5
72
 10
214.335736
 20
323.065417
 30
0.0
 11
211.335906
 21
326.065248
 31
0.0
  0
LINE
  8
LC-005-005-----0
  6
CONTINUOUS
  5
73
 10
214.335736
 20
320.23699
 30
0.0
 11
211.335906
 21
323.23682
 31
0.0
  0
LINE
  8
LC-005-005-----0
  6
CONTINUOUS
  5
74
 10
214.335736
 20
317.408563
 30
0.0
 11
211.335906
 21
320.408393
 31
0.0
  0
LINE
  8
LC-005-005-----0
  6
CONTINUOUS
  5
75
 10
214.335736
 20
314.580136
 30
0.0
 11
211.335906
 21
317.579966
 31
0.0
  0
LINE
  8
LC-005-005-----0
  6
CONTINUOUS
  5
76
 10
214.335736
 20
311.751709
 30
0.0
 11
211.335906
 21
314.751539
 31
0.0
  0
LINE
  8
LC-005-005-----0
  6
CONTINUOUS
  5
77
 10
214.335736
 20
308.923282
 30
0.0
 11
211.335906
 21
311.923112
 31
0.0
  0
LINE
  8
LC-005-005-----0
  6
CONTINUOUS
  5
78
 10
214.335736
 20
306.094855
 30
0.0
 11
211.335906
 21
309.094685
 31
0.0
  0
LINE
  8
LC-005-005-----0
  6
CONTINUOUS
  5
79
 10
214.335736
 20
303.266428
 30
0.0
 11
211.335906
 21
306.266258
 31
0.0
  0
LINE
  8
LC-005-005-----0
  6
CONTINUOUS
  5
7A
 10
214.335736
 20
300.438001
 30
0.0
 11
211.335906
 21
303.437831
 31
0.0
  0
LINE
  8
LC-005-005-----0
  6
CONTINUOUS
  5
7B
 10
214.335736
 20
297.609573
 30
0.0
 11
211.335906
 21
300.609403
 31
0.0
  0
LINE
  8
LC-005-005-----0
  6
CONTINUOUS
  5
7C
 10
214.335736
 20
294.781146
 30
0.0
 11
211.335906
 21
297.780976
 31
0.0
  0
LINE
  8
LC-005-005-----0
  6
CONTINUOUS
  5
7D
 10
214.335736
 20
291.952719
 30
0.0
 11
211.335906
 21
294.952549
 31
0.0
  0
LINE
  8
LC-005-005-----0
  6
CONTINUOUS
  5
7E
 10
214.335736
 20
289.124292
 30
0.0
 11
211.335906
 21
292.124122
 31
0.0
  0
LINE
  8
LC-005-005-----0
  6
CONTINUOUS
  5
7F
 10
214.335736
 20
286.295865
 30
0.0
 11
211.335906
 21
289.295695
 31
0.0
  0
LINE
  8
LC-005-005-----0
  6
CONTINUOUS
  5
80
 10
214.335736
 20
283.467438
 30
0.0
 11
211.335906
 21
286.467268
 31
0.0
  0
LINE
  8
LC-005-005-----0
  6
CONTINUOUS
  5
81
 10
214.335736
 20
280.639011
 30
0.0
 11
211.335906
 21
283.638841
 31
0.0
  0
LINE
  8
LC-005-005-----0
  6
CONTINUOUS
  5
82
 10
214.335736
 20
277.810584
 30
0.0
 11
211.335906
 21
280.810414
 31
0.0
  0
LINE
  8
LC-005-005-----0
  6
CONTINUOUS
  5
83
 10
214.335736
 20
274.982156
 30
0.0
 11
211.335906
 21
277.981986
 31
0.0
  0
LINE
  8
LC-005-005-----0
  6
CONTINUOUS
  5
84
 10
214.335736
 20
272.153729
 30
0.0
 11
211.335906
 21
275.153559
 31
0.0
  0
LINE
  8
LC-005-005-----0
  6
CONTINUOUS
  5
85
 10
214.335736
 20
269.325302
 30
0.0
 11
211.335906
 21
272.325132
 31
0.0
  0
LINE
  8
LC-005-005-----0
  6
CONTINUOUS
  5
86
 10
214.335736
 20
266.496875
 30
0.0
 11
211.335906
 21
269.496705
 31
0.0
  0
LINE
  8
LC-005-005-----0
  6
CONTINUOUS
  5
87
 10
214.335736
 20
263.668448
 30
0.0
 11
211.335906
 21
266.668278
 31
0.0
  0
LINE
  8
LC-005-005-----0
  6
CONTINUOUS
  5
88
 10
214.335736
 20
260.840021
 30
0.0
 11
211.335906
 21
263.839851
 31
0.0
  0
LINE
  8
LC-005-005-----0
  6
CONTINUOUS
  5
89
 10
214.335736
 20
258.011594
 30
0.0
 11
211.335906
 21
261.011424
 31
0.0
  0
LINE
  8
LC-005-005-----0
  6
CONTINUOUS
  5
8A
 10
214.335736
 20
255.183167
 30
0.0
 11
211.335906
 21
258.182997
 31
0.0
  0
LINE
  8
LC-005-005-----0
  6
CONTINUOUS
  5
8B
 10
214.335736
 20
252.354739
 30
0.0
 11
211.335906
 21
255.354569
 31
0.0
  0
LINE
  8
LC-005-005-----0
  6
CONTINUOUS
  5
8C
 10
214.335736
 20
249.526312
 30
0.0
 11
211.335906
 21
252.526142
 31
0.0
  0
LINE
  8
LC-005-005-----0
  6
CONTINUOUS
  5
8D
 10
214.335736
 20
246.697885
 30
0.0
 11
212.018648
 21
249.014974
 31
0.0
  0
ENDBLK
  8
0
  5
8E
  0
BLOCK
  8
0
  5
90
  2
*X2
 70
    65
 10
208.835736
 20
425.263634
 30
0.0
  3
*X2
  0
LINE
  8
LC-005-005-----0
  6
CONTINUOUS
  5
91
 10
213.335736
 20
428.296198
 30
0.0
 11
214.335736
 21
429.296198
 31
0.0
  0
LINE
  8
LC-005-005-----0
  6
CONTINUOUS
  5
92
 10
213.335736
 20
431.124625
 30
0.0
 11
214.335736
 21
432.124625
 31
0.0
  0
LINE
  8
LC-005-005-----0
  6
CONTINUOUS
  5
93
 10
213.335736
 20
433.953052
 30
0.0
 11
214.335736
 21
434.953052
 31
0.0
  0
LINE
  8
LC-005-005-----0
  6
CONTINUOUS
  5
94
 10
213.335736
 20
436.781479
 30
0.0
 11
214.335736
 21
437.781479
 31
0.0
  0
LINE
  8
LC-005-005-----0
  6
CONTINUOUS
  5
95
 10
213.335736
 20
439.609906
 30
0.0
 11
214.335736
 21
440.609906
 31
0.0
  0
LINE
  8
LC-005-005-----0
  6
CONTINUOUS
  5
96
 10
209.161035
 20
438.263632
 30
0.0
 11
209.835736
 21
438.938333
 31
0.0
  0
LINE
  8
LC-005-005-----0
  6
CONTINUOUS
  5
97
 10
213.335736
 20
442.438333
 30
0.0
 11
214.335736
 21
443.438333
 31
0.0
  0
LINE
  8
LC-005-005-----0
  6
CONTINUOUS
  5
98
 10
208.835736
 20
440.76676
 30
0.0
 11
209.835736
 21
441.76676
 31
0.0
  0
LINE
  8
LC-005-005-----0
  6
CONTINUOUS
  5
99
 10
213.335736
 20
445.26676
 30
0.0
 11
214.335736
 21
446.26676
 31
0.0
  0
LINE
  8
LC-005-005-----0
  6
CONTINUOUS
  5
9A
 10
208.835736
 20
443.595188
 30
0.0
 11
209.835736
 21
444.595188
 31
0.0
  0
LINE
  8
LC-005-005-----0
  6
CONTINUOUS
  5
9B
 10
213.335736
 20
448.095188
 30
0.0
 11
214.335736
 21
449.095188
 31
0.0
  0
LINE
  8
LC-005-005-----0
  6
CONTINUOUS
  5
9C
 10
208.835736
 20
446.423615
 30
0.0
 11
209.835736
 21
447.423615
 31
0.0
  0
LINE
  8
LC-005-005-----0
  6
CONTINUOUS
  5
9D
 10
212.958313
 20
450.546191
 30
0.0
 11
213.667694
 21
451.255573
 31
0.0
  0
LINE
  8
LC-005-005-----0
  6
CONTINUOUS
  5
9E
 10
208.835736
 20
449.252042
 30
0.0
 11
211.347326
 21
451.763632
 31
0.0
  0
ENDBLK
  8
0
  5
9F
  0
BLOCK
  8
0
  5
A1
  2
*X3
 70
    65
 10
353.336076
 20
425.263634
 30
0.0
  3
*X3
  0
LINE
  8
LC-005-005-----0
  6
CONTINUOUS
  5
A2
 10
354.694516
 20
425.405194
 30
0.0
 11
355.401623
 21
426.112301
 31
0.0
  0
LINE
  8
LC-005-005-----0
  6
CONTINUOUS
  5
A3
 10
353.336076
 20
426.875181
 30
0.0
 11
354.336076
 21
427.875181
 31
0.0
  0
LINE
  8
LC-005-005-----0
  6
CONTINUOUS
  5
A4
 10
353.336076
 20
429.703608
 30
0.0
 11
354.336076
 21
430.703608
 31
0.0
  0
LINE
  8
LC-005-005-----0
  6
CONTINUOUS
  5
A5
 10
353.336076
 20
432.532035
 30
0.0
 11
354.336076
 21
433.532035
 31
0.0
  0
LINE
  8
LC-005-005-----0
  6
CONTINUOUS
  5
A6
 10
353.336076
 20
435.360463
 30
0.0
 11
354.336076
 21
436.360463
 31
0.0
  0
LINE
  8
LC-005-005-----0
  6
CONTINUOUS
  5
A7
 10
357.836076
 20
439.860463
 30
0.0
 11
358.836076
 21
440.860463
 31
0.0
  0
LINE
  8
LC-005-005-----0
  6
CONTINUOUS
  5
A8
 10
353.336076
 20
438.18889
 30
0.0
 11
354.336076
 21
439.18889
 31
0.0
  0
LINE
  8
LC-005-005-----0
  6
CONTINUOUS
  5
A9
 10
357.836076
 20
442.68889
 30
0.0
 11
358.836076
 21
443.68889
 31
0.0
  0
LINE
  8
LC-005-005-----0
  6
CONTINUOUS
  5
AA
 10
353.336076
 20
441.017317
 30
0.0
 11
354.336076
 21
442.017317
 31
0.0
  0
LINE
  8
LC-005-005-----0
  6
CONTINUOUS
  5
AB
 10
357.836076
 20
445.517317
 30
0.0
 11
358.836076
 21
446.517317
 31
0.0
  0
LINE
  8
LC-005-005-----0
  6
CONTINUOUS
  5
AC
 10
353.336076
 20
443.845744
 30
0.0
 11
354.336076
 21
444.845744
 31
0.0
  0
LINE
  8
LC-005-005-----0
  6
CONTINUOUS
  5
AD
 10
357.836076
 20
448.345744
 30
0.0
 11
358.836076
 21
449.345744
 31
0.0
  0
LINE
  8
LC-005-005-----0
  6
CONTINUOUS
  5
AE
 10
353.336076
 20
446.674171
 30
0.0
 11
354.336076
 21
447.674171
 31
0.0
  0
LINE
  8
LC-005-005-----0
  6
CONTINUOUS
  5
AF
 10
357.307463
 20
450.645558
 30
0.0
 11
358.030044
 21
451.368139
 31
0.0
  0
LINE
  8
LC-005-005-----0
  6
CONTINUOUS
  5
B0
 10
353.336076
 20
449.502598
 30
0.0
 11
355.59711
 21
451.763632
 31
0.0
  0
ENDBLK
  8
0
  5
B1
  0
BLOCK
  8
0
  5
B3
  2
*X4
 70
    65
 10
353.336076
 20
246.563
 30
0.0
  3
*X4
  0
LINE
  8
LC-005-005-----0
  6
CONTINUOUS
  5
B4
 10
357.836076
 20
448.265655
 30
0.0
 11
355.338099
 21
450.763632
 31
0.0
  0
LINE
  8
LC-005-005-----0
  6
CONTINUOUS
  5
B5
 10
357.836076
 20
445.437227
 30
0.0
 11
354.336076
 21
448.937227
 31
0.0
  0
LINE
  8
LC-005-005-----0
  6
CONTINUOUS
  5
B6
 10
357.836076
 20
442.6088
 30
0.0
 11
354.336076
 21
446.1088
 31
0.0
  0
LINE
  8
LC-005-005-----0
  6
CONTINUOUS
  5
B7
 10
360.336076
 20
437.280373
 30
0.0
 11
358.836076
 21
438.780373
 31
0.0
  0
LINE
  8
LC-005-005-----0
  6
CONTINUOUS
  5
B8
 10
357.836076
 20
439.780373
 30
0.0
 11
354.336076
 21
443.280373
 31
0.0
  0
LINE
  8
LC-005-005-----0
  6
CONTINUOUS
  5
B9
 10
358.024279
 20
436.763743
 30
0.0
 11
354.336076
 21
440.451946
 31
0.0
  0
LINE
  8
LC-005-005-----0
  6
CONTINUOUS
  5
BA
 10
356.335906
 20
435.623689
 30
0.0
 11
354.336076
 21
437.623519
 31
0.0
  0
LINE
  8
LC-005-005-----0
  6
CONTINUOUS
  5
BB
 10
356.335906
 20
432.795262
 30
0.0
 11
354.336076
 21
434.795092
 31
0.0
  0
LINE
  8
LC-005-005-----0
  6
CONTINUOUS
  5
BC
 10
356.335906
 20
429.966835
 30
0.0
 11
354.336076
 21
431.966665
 31
0.0
  0
LINE
  8
LC-005-005-----0
  6
CONTINUOUS
  5
BD
 10
356.335906
 20
427.138407
 30
0.0
 11
354.336076
 21
429.138238
 31
0.0
  0
LINE
  8
LC-005-005-----0
  6
CONTINUOUS
  5
BE
 10
356.335906
 20
424.30998
 30
0.0
 11
355.109164
 21
425.536722
 31
0.0
  0
LINE
  8
LC-005-005-----0
  6
CONTINUOUS
  5
BF
 10
356.335906
 20
421.481553
 30
0.0
 11
353.336076
 21
424.481383
 31
0.0
  0
LINE
  8
LC-005-005-----0
  6
CONTINUOUS
  5
C0
 10
356.335906
 20
418.653126
 30
0.0
 11
353.336076
 21
421.652956
 31
0.0
  0
LINE
  8
LC-005-005-----0
  6
CONTINUOUS
  5
C1
 10
356.335906
 20
415.824699
 30
0.0
 11
353.336076
 21
418.824529
 31
0.0
  0
LINE
  8
LC-005-005-----0
  6
CONTINUOUS
  5
C2
 10
356.335906
 20
412.996272
 30
0.0
 11
353.336076
 21
415.996102
 31
0.0
  0
LINE
  8
LC-005-005-----0
  6
CONTINUOUS
  5
C3
 10
356.335906
 20
410.167845
 30
0.0
 11
353.336076
 21
413.167675
 31
0.0
  0
LINE
  8
LC-005-005-----0
  6
CONTINUOUS
  5
C4
 10
356.335906
 20
407.339418
 30
0.0
 11
353.336076
 21
410.339248
 31
0.0
  0
LINE
  8
LC-005-005-----0
  6
CONTINUOUS
  5
C5
 10
356.335906
 20
404.51099
 30
0.0
 11
353.336076
 21
407.510821
 31
0.0
  0
LINE
  8
LC-005-005-----0
  6
CONTINUOUS
  5
C6
 10
356.335906
 20
401.682563
 30
0.0
 11
353.336076
 21
404.682393
 31
0.0
  0
LINE
  8
LC-005-005-----0
  6
CONTINUOUS
  5
C7
 10
356.335906
 20
398.854136
 30
0.0
 11
353.336076
 21
401.853966
 31
0.0
  0
LINE
  8
LC-005-005-----0
  6
CONTINUOUS
  5
C8
 10
356.335906
 20
396.025709
 30
0.0
 11
353.336076
 21
399.025539
 31
0.0
  0
LINE
  8
LC-005-005-----0
  6
CONTINUOUS
  5
C9
 10
356.335906
 20
393.197282
 30
0.0
 11
353.336076
 21
396.197112
 31
0.0
  0
LINE
  8
LC-005-005-----0
  6
CONTINUOUS
  5
CA
 10
356.335906
 20
390.368855
 30
0.0
 11
353.336076
 21
393.368685
 31
0.0
  0
LINE
  8
LC-005-005-----0
  6
CONTINUOUS
  5
CB
 10
356.335906
 20
387.540428
 30
0.0
 11
353.336076
 21
390.540258
 31
0.0
  0
LINE
  8
LC-005-005-----0
  6
CONTINUOUS
  5
CC
 10
356.335906
 20
384.712001
 30
0.0
 11
353.336076
 21
387.711831
 31
0.0
  0
LINE
  8
LC-005-005-----0
  6
CONTINUOUS
  5
CD
 10
356.335906
 20
381.883573
 30
0.0
 11
353.336076
 21
384.883404
 31
0.0
  0
LINE
  8
LC-005-005-----0
  6
CONTINUOUS
  5
CE
 10
356.335906
 20
379.055146
 30
0.0
 11
353.336076
 21
382.054976
 31
0.0
  0
LINE
  8
LC-005-005-----0
  6
CONTINUOUS
  5
CF
 10
356.335906
 20
376.226719
 30
0.0
 11
353.336076
 21
379.226549
 31
0.0
  0
LINE
  8
LC-005-005-----0
  6
CONTINUOUS
  5
D0
 10
356.335906
 20
373.398292
 30
0.0
 11
353.336076
 21
376.398122
 31
0.0
  0
LINE
  8
LC-005-005-----0
  6
CONTINUOUS
  5
D1
 10
356.335906
 20
370.569865
 30
0.0
 11
353.336076
 21
373.569695
 31
0.0
  0
LINE
  8
LC-005-005-----0
  6
CONTINUOUS
  5
D2
 10
356.335906
 20
367.741438
 30
0.0
 11
353.336076
 21
370.741268
 31
0.0
  0
LINE
  8
LC-005-005-----0
  6
CONTINUOUS
  5
D3
 10
356.335906
 20
364.913011
 30
0.0
 11
353.336076
 21
367.912841
 31
0.0
  0
LINE
  8
LC-005-005-----0
  6
CONTINUOUS
  5
D4
 10
356.335906
 20
362.084584
 30
0.0
 11
353.336076
 21
365.084414
 31
0.0
  0
LINE
  8
LC-005-005-----0
  6
CONTINUOUS
  5
D5
 10
356.335906
 20
359.256156
 30
0.0
 11
353.336076
 21
362.255987
 31
0.0
  0
LINE
  8
LC-005-005-----0
  6
CONTINUOUS
  5
D6
 10
356.335906
 20
356.427729
 30
0.0
 11
353.336076
 21
359.427559
 31
0.0
  0
LINE
  8
LC-005-005-----0
  6
CONTINUOUS
  5
D7
 10
356.335906
 20
353.599302
 30
0.0
 11
353.336076
 21
356.599132
 31
0.0
  0
LINE
  8
LC-005-005-----0
  6
CONTINUOUS
  5
D8
 10
356.335906
 20
350.770875
 30
0.0
 11
353.336076
 21
353.770705
 31
0.0
  0
LINE
  8
LC-005-005-----0
  6
CONTINUOUS
  5
D9
 10
356.335906
 20
347.942448
 30
0.0
 11
353.336076
 21
350.942278
 31
0.0
  0
LINE
  8
LC-005-005-----0
  6
CONTINUOUS
  5
DA
 10
356.335906
 20
345.114021
 30
0.0
 11
353.336076
 21
348.113851
 31
0.0
  0
LINE
  8
LC-005-005-----0
  6
CONTINUOUS
  5
DB
 10
356.335906
 20
342.285594
 30
0.0
 11
353.336076
 21
345.285424
 31
0.0
  0
LINE
  8
LC-005-005-----0
  6
CONTINUOUS
  5
DC
 10
356.335906
 20
339.457167
 30
0.0
 11
353.336076
 21
342.456997
 31
0.0
  0
LINE
  8
LC-005-005-----0
  6
CONTINUOUS
  5
DD
 10
356.335906
 20
336.628739
 30
0.0
 11
353.336076
 21
339.62857
 31
0.0
  0
LINE
  8
LC-005-005-----0
  6
CONTINUOUS
  5
DE
 10
356.335906
 20
333.800312
 30
0.0
 11
353.336076
 21
336.800142
 31
0.0
  0
LINE
  8
LC-005-005-----0
  6
CONTINUOUS
  5
DF
 10
356.335906
 20
330.971885
 30
0.0
 11
353.336076
 21
333.971715
 31
0.0
  0
LINE
  8
LC-005-005-----0
  6
CONTINUOUS
  5
E0
 10
356.335906
 20
328.143458
 30
0.0
 11
353.336076
 21
331.143288
 31
0.0
  0
LINE
  8
LC-005-005-----0
  6
CONTINUOUS
  5
E1
 10
356.335906
 20
325.315031
 30
0.0
 11
353.336076
 21
328.314861
 31
0.0
  0
LINE
  8
LC-005-005-----0
  6
CONTINUOUS
  5
E2
 10
356.335906
 20
322.486604
 30
0.0
 11
353.336076
 21
325.486434
 31
0.0
  0
LINE
  8
LC-005-005-----0
  6
CONTINUOUS
  5
E3
 10
356.335906
 20
319.658177
 30
0.0
 11
353.336076
 21
322.658007
 31
0.0
  0
LINE
  8
LC-005-005-----0
  6
CONTINUOUS
  5
E4
 10
356.335906
 20
316.82975
 30
0.0
 11
353.336076
 21
319.82958
 31
0.0
  0
LINE
  8
LC-005-005-----0
  6
CONTINUOUS
  5
E5
 10
356.335906
 20
314.001322
 30
0.0
 11
353.336076
 21
317.001153
 31
0.0
  0
LINE
  8
LC-005-005-----0
  6
CONTINUOUS
  5
E6
 10
356.335906
 20
311.172895
 30
0.0
 11
353.336076
 21
314.172725
 31
0.0
  0
LINE
  8
LC-005-005-----0
  6
CONTINUOUS
  5
E7
 10
356.335906
 20
308.344468
 30
0.0
 11
353.336076
 21
311.344298
 31
0.0
  0
LINE
  8
LC-005-005-----0
  6
CONTINUOUS
  5
E8
 10
356.335906
 20
305.516041
 30
0.0
 11
353.336076
 21
308.515871
 31
0.0
  0
LINE
  8
LC-005-005-----0
  6
CONTINUOUS
  5
E9
 10
356.335906
 20
302.687614
 30
0.0
 11
353.336076
 21
305.687444
 31
0.0
  0
LINE
  8
LC-005-005-----0
  6
CONTINUOUS
  5
EA
 10
356.335906
 20
299.859187
 30
0.0
 11
353.336076
 21
302.859017
 31
0.0
  0
LINE
  8
LC-005-005-----0
  6
CONTINUOUS
  5
EB
 10
356.335906
 20
297.03076
 30
0.0
 11
353.336076
 21
300.03059
 31
0.0
  0
LINE
  8
LC-005-005-----0
  6
CONTINUOUS
  5
EC
 10
356.335906
 20
294.202333
 30
0.0
 11
353.336076
 21
297.202163
 31
0.0
  0
LINE
  8
LC-005-005-----0
  6
CONTINUOUS
  5
ED
 10
356.335906
 20
291.373905
 30
0.0
 11
353.336076
 21
294.373736
 31
0.0
  0
LINE
  8
LC-005-005-----0
  6
CONTINUOUS
  5
EE
 10
356.335906
 20
288.545478
 30
0.0
 11
353.336076
 21
291.545308
 31
0.0
  0
LINE
  8
LC-005-005-----0
  6
CONTINUOUS
  5
EF
 10
356.335906
 20
285.717051
 30
0.0
 11
353.336076
 21
288.716881
 31
0.0
  0
LINE
  8
LC-005-005-----0
  6
CONTINUOUS
  5
F0
 10
356.335906
 20
282.888624
 30
0.0
 11
353.336076
 21
285.888454
 31
0.0
  0
LINE
  8
LC-005-005-----0
  6
CONTINUOUS
  5
F1
 10
356.335906
 20
280.060197
 30
0.0
 11
353.336076
 21
283.060027
 31
0.0
  0
LINE
  8
LC-005-005-----0
  6
CONTINUOUS
  5
F2
 10
356.335906
 20
277.23177
 30
0.0
 11
353.336076
 21
280.2316
 31
0.0
  0
LINE
  8
LC-005-005-----0
  6
CONTINUOUS
  5
F3
 10
356.335906
 20
274.403343
 30
0.0
 11
353.336076
 21
277.403173
 31
0.0
  0
LINE
  8
LC-005-005-----0
  6
CONTINUOUS
  5
F4
 10
356.335906
 20
271.574916
 30
0.0
 11
353.336076
 21
274.574746
 31
0.0
  0
LINE
  8
LC-005-005-----0
  6
CONTINUOUS
  5
F5
 10
356.335906
 20
268.746488
 30
0.0
 11
353.336076
 21
271.746319
 31
0.0
  0
LINE
  8
LC-005-005-----0
  6
CONTINUOUS
  5
F6
 10
356.335906
 20
265.918061
 30
0.0
 11
353.336076
 21
268.917891
 31
0.0
  0
LINE
  8
LC-005-005-----0
  6
CONTINUOUS
  5
F7
 10
356.335906
 20
263.089634
 30
0.0
 11
353.336076
 21
266.089464
 31
0.0
  0
LINE
  8
LC-005-005-----0
  6
CONTINUOUS
  5
F8
 10
356.335906
 20
260.261207
 30
0.0
 11
353.336076
 21
263.261037
 31
0.0
  0
LINE
  8
LC-005-005-----0
  6
CONTINUOUS
  5
F9
 10
356.335906
 20
257.43278
 30
0.0
 11
353.336076
 21
260.43261
 31
0.0
  0
LINE
  8
LC-005-005-----0
  6
CONTINUOUS
  5
FA
 10
356.335906
 20
254.604353
 30
0.0
 11
353.336076
 21
257.604183
 31
0.0
  0
LINE
  8
LC-005-005-----0
  6
CONTINUOUS
  5
FB
 10
356.335906
 20
251.775926
 30
0.0
 11
353.336076
 21
254.775756
 31
0.0
  0
LINE
  8
LC-005-005-----0
  6
CONTINUOUS
  5
FC
 10
355.783186
 20
249.500219
 30
0.0
 11
353.336076
 21
251.947329
 31
0.0
  0
LINE
  8
LC-005-005-----0
  6
CONTINUOUS
  5
FD
 10
355.185469
 20
247.269509
 30
0.0
 11
353.336076
 21
249.118902
 31
0.0
  0
ENDBLK
  8
0
  5
FE
  0
BLOCK
  8
0
  5
100
  2
*D5
 70
    65
 10
0.0
 20
0.0
 30
0.0
  3
*D5
  0
LINE
  8
LC-003-003-MTH-0
  6
CONTINUOUS
  5
101
 10
211.335906
 20
251.563
 30
0.0
 11
211.335906
 21
183.2
 31
0.0
  0
LINE
  8
LC-003-003-MTH-0
  6
CONTINUOUS
  5
102
 10
356.335906
 20
251.563
 30
0.0
 11
356.335906
 21
183.2
 31
0.0
  0
LINE
  8
LC-004-003-MTG-0
  6
CONTINUOUS
  5
103
 10
211.335906
 20
200.0
 30
0.0
 11
356.335906
 21
200.0
 31
0.0
  0
LINE
  8
LC-002-003-----0
  6
CONTINUOUS
  5
104
 10
239.096362
 20
203.654733
 30
0.0
 11
211.335906
 21
200.0
 31
0.0
  0
LINE
  8
LC-002-003-----0
  6
CONTINUOUS
  5
105
 10
211.335906
 20
200.0
 30
0.0
 11
239.096362
 21
196.345267
 31
0.0
  0
LINE
  8
LC-002-003-----0
  6
CONTINUOUS
  5
106
 10
239.096362
 20
196.345267
 30
0.0
 11
239.096362
 21
203.654733
 31
0.0
  0
LINE
  8
LC-002-003-----0
  6
CONTINUOUS
  5
107
 10
239.158644
 20
202.704503
 30
0.0
 11
218.615906
 21
200.0
 31
0.0
  0
LINE
  8
LC-002-003-----0
  6
CONTINUOUS
  5
108
 10
218.615906
 20
200.0
 30
0.0
 11
239.158644
 21
197.295497
 31
0.0
  0
LINE
  8
LC-002-003-----0
  6
CONTINUOUS
  5
109
 10
239.220925
 20
201.754272
 30
0.0
 11
225.895906
 21
200.0
 31
0.0
  0
LINE
  8
LC-002-003-----0
  6
CONTINUOUS
  5
10A
 10
225.895906
 20
200.0
 30
0.0
 11
239.220925
 21
198.245728
 31
0.0
  0
LINE
  8
LC-002-003-----0
  6
CONTINUOUS
  5
10B
 10
239.283206
 20
200.804041
 30
0.0
 11
233.175906
 21
200.0
 31
0.0
  0
LINE
  8
LC-002-003-----0
  6
CONTINUOUS
  5
10C
 10
233.175906
 20
200.0
 30
0.0
 11
239.283206
 21
199.195959
 31
0.0
  0
LINE
  8
LC-002-003-----0
  6
CONTINUOUS
  5
10D
 10
328.57545
 20
196.345267
 30
0.0
 11
356.335906
 21
200.0
 31
0.0
  0
LINE
  8
LC-002-003-----0
  6
CONTINUOUS
  5
10E
 10
356.335906
 20
200.0
 30
0.0
 11
328.57545
 21
203.654733
 31
0.0
  0
LINE
  8
LC-002-003-----0
  6
CONTINUOUS
  5
10F
 10
328.57545
 20
203.654733
 30
0.0
 11
328.57545
 21
196.345267
 31
0.0
  0
LINE
  8
LC-002-003-----0
  6
CONTINUOUS
  5
110
 10
328.513169
 20
197.295497
 30
0.0
 11
349.055906
 21
200.0
 31
0.0
  0
LINE
  8
LC-002-003-----0
  6
CONTINUOUS
  5
111
 10
349.055906
 20
200.0
 30
0.0
 11
328.513169
 21
202.704503
 31
0.0
  0
LINE
  8
LC-002-003-----0
  6
CONTINUOUS
  5
112
 10
328.450887
 20
198.245728
 30
0.0
 11
341.775906
 21
200.0
 31
0.0
  0
LINE
  8
LC-002-003-----0
  6
CONTINUOUS
  5
113
 10
341.775906
 20
200.0
 30
0.0
 11
328.450887
 21
201.754272
 31
0.0
  0
LINE
  8
LC-002-003-----0
  6
CONTINUOUS
  5
114
 10
328.388606
 20
199.195959
 30
0.0
 11
334.495906
 21
200.0
 31
0.0
  0
LINE
  8
LC-002-003-----0
  6
CONTINUOUS
  5
115
 10
334.495906
 20
200.0
 30
0.0
 11
328.388606
 21
200.804041
 31
0.0
  0
TEXT
  8
LC-002-003-----0
  6
CONTINUOUS
 62
     8
  5
116
 10
250.086428
 20
207.827554
 30
0.0
 40
28.0
  1
Ø145
 51
15.0
  7
LC-TXTSTYLE-150-400-0-0-D0
 72
     1
 11
288.184066
 21
207.827554
 31
0.0
  0
ENDBLK
  8
0
  5
117
  0
BLOCK
  8
0
  5
119
  2
*D6
 70
    65
 10
0.0
 20
0.0
 30
0.0
  3
*D6
  0
LINE
  8
LC-003-003-MTH-0
  6
CONTINUOUS
  5
11A
 10
208.835736
 20
449.763632
 30
0.0
 11
208.835736
 21
496.8
 31
0.0
  0
LINE
  8
LC-003-003-MTH-0
  6
CONTINUOUS
  5
11B
 10
358.782818
 20
449.763696
 30
0.0
 11
358.782818
 21
496.8
 31
0.0
  0
LINE
  8
LC-004-003-MTG-0
  6
CONTINUOUS
  5
11C
 10
208.835736
 20
480.0
 30
0.0
 11
358.782818
 21
480.0
 31
0.0
  0
LINE
  8
LC-002-003-----0
  6
CONTINUOUS
  5
11D
 10
236.596192
 20
483.654733
 30
0.0
 11
208.835736
 21
480.0
 31
0.0
  0
LINE
  8
LC-002-003-----0
  6
CONTINUOUS
  5
11E
 10
208.835736
 20
480.0
 30
0.0
 11
236.596192
 21
476.345267
 31
0.0
  0
LINE
  8
LC-002-003-----0
  6
CONTINUOUS
  5
11F
 10
236.596192
 20
476.345267
 30
0.0
 11
236.596192
 21
483.654733
 31
0.0
  0
LINE
  8
LC-002-003-----0
  6
CONTINUOUS
  5
120
 10
236.658474
 20
482.704503
 30
0.0
 11
216.115736
 21
480.0
 31
0.0
  0
LINE
  8
LC-002-003-----0
  6
CONTINUOUS
  5
121
 10
216.115736
 20
480.0
 30
0.0
 11
236.658474
 21
477.295497
 31
0.0
  0
LINE
  8
LC-002-003-----0
  6
CONTINUOUS
  5
122
 10
236.720755
 20
481.754272
 30
0.0
 11
223.395736
 21
480.0
 31
0.0
  0
LINE
  8
LC-002-003-----0
  6
CONTINUOUS
  5
123
 10
223.395736
 20
480.0
 30
0.0
 11
236.720755
 21
478.245728
 31
0.0
  0
LINE
  8
LC-002-003-----0
  6
CONTINUOUS
  5
124
 10
236.783037
 20
480.804041
 30
0.0
 11
230.675736
 21
480.0
 31
0.0
  0
LINE
  8
LC-002-003-----0
  6
CONTINUOUS
  5
125
 10
230.675736
 20
480.0
 30
0.0
 11
236.783037
 21
479.195959
 31
0.0
  0
LINE
  8
LC-002-003-----0
  6
CONTINUOUS
  5
126
 10
331.022362
 20
476.345267
 30
0.0
 11
358.782818
 21
480.0
 31
0.0
  0
LINE
  8
LC-002-003-----0
  6
CONTINUOUS
  5
127
 10
358.782818
 20
480.0
 30
0.0
 11
331.022362
 21
483.654733
 31
0.0
  0
LINE
  8
LC-002-003-----0
  6
CONTINUOUS
  5
128
 10
331.022362
 20
483.654733
 30
0.0
 11
331.022362
 21
476.345267
 31
0.0
  0
LINE
  8
LC-002-003-----0
  6
CONTINUOUS
  5
129
 10
330.960081
 20
477.295497
 30
0.0
 11
351.502818
 21
480.0
 31
0.0
  0
LINE
  8
LC-002-003-----0
  6
CONTINUOUS
  5
12A
 10
351.502818
 20
480.0
 30
0.0
 11
330.960081
 21
482.704503
 31
0.0
  0
LINE
  8
LC-002-003-----0
  6
CONTINUOUS
  5
12B
 10
330.897799
 20
478.245728
 30
0.0
 11
344.222818
 21
480.0
 31
0.0
  0
LINE
  8
LC-002-003-----0
  6
CONTINUOUS
  5
12C
 10
344.222818
 20
480.0
 30
0.0
 11
330.897799
 21
481.754272
 31
0.0
  0
LINE
  8
LC-002-003-----0
  6
CONTINUOUS
  5
12D
 10
330.835518
 20
479.195959
 30
0.0
 11
336.942818
 21
480.0
 31
0.0
  0
LINE
  8
LC-002-003-----0
  6
CONTINUOUS
  5
12E
 10
336.942818
 20
480.0
 30
0.0
 11
330.835518
 21
480.804041
 31
0.0
  0
TEXT
  8
LC-002-003-----0
  6
CONTINUOUS
 62
     8
  5
12F
 10
257.806292
 20
487.827554
 30
0.0
 40
28.0
  1
150
 51
15.0
  7
LC-TXTSTYLE-150-400-0-0-D0
 72
     1
 11
287.570071
 21
487.827554
 31
0.0
  0
ENDBLK
  8
0
  5
130
  0
BLOCK
  8
0
  5
132
  2
BLK1
 70
    64
 10
0.0
 20
0.0
 30
0.0
  3
BLK1
  0
ENDBLK
  8
0
  5
133
  0
BLOCK
  8
0
  5
135
  2
BLK2
 70
    64
 10
0.0
 20
0.0
 30
0.0
  3
BLK2
  0
ENDBLK
  8
0
  5
136
  0
BLOCK
  8
0
  5
138
  2
BLK3
 70
    64
 10
0.0
 20
0.0
 30
0.0
  3
BLK3
  0
ENDBLK
  8
0
  5
139
  0
BLOCK
  8
0
  5
13B
  2
BLK4
 70
    64
 10
0.0
 20
0.0
 30
0.0
  3
BLK4
  0
ENDBLK
  8
0
  5
13C
  0
BLOCK
  8
0
  5
13E
  2
BLK5
 70
    64
 10
0.0
 20
0.0
 30
0.0
  3
BLK5
  0
ENDBLK
  8
0
  5
13F
  0
BLOCK
  8
0
  5
141
  2
BLK6
 70
    64
 10
0.0
 20
0.0
 30
0.0
  3
BLK6
  0
ENDBLK
  8
0
  5
142
  0
BLOCK
  8
0
  5
144
  2
BLK7
 70
    64
 10
0.0
 20
0.0
 30
0.0
  3
BLK7
  0
ENDBLK
  8
0
  5
145
  0
BLOCK
  8
0
  5
147
  2
BLK8
 70
    64
 10
0.0
 20
0.0
 30
0.0
  3
BLK8
  0
ENDBLK
  8
0
  5
148
  0
BLOCK
  8
0
  5
14A
  2
BLK9
 70
    64
 10
0.0
 20
0.0
 30
0.0
  3
BLK9
  0
ENDBLK
  8
0
  5
14B
  0
BLOCK
  8
0
  5
14D
  2
BLK10
 70
    64
 10
0.0
 20
0.0
 30
0.0
  3
BLK10
  0
ENDBLK
  8
0
  5
14E
  0
BLOCK
  8
0
  5
150
  2
BLK11
 70
    64
 10
0.0
 20
0.0
 30
0.0
  3
BLK11
  0
ENDBLK
  8
0
  5
151
  0
BLOCK
  8
0
  5
153
  2
BLK12
 70
    64
 10
0.0
 20
0.0
 30
0.0
  3
BLK12
  0
ENDBLK
  8
0
  5
154
  0
BLOCK
  8
0
  5
156
  2
BLK13
 70
    64
 10
0.0
 20
0.0
 30
0.0
  3
BLK13
  0
ENDBLK
  8
0
  5
157
  0
BLOCK
  8
0
  5
159
  2
BLK14
 70
    64
 10
0.0
 20
0.0
 30
0.0
  3
BLK14
  0
ENDBLK
  8
0
  5
15A
  0
BLOCK
  8
0
  5
15C
  2
BLK15
 70
    64
 10
0.0
 20
0.0
 30
0.0
  3
BLK15
  0
ENDBLK
  8
0
  5
15D
  0
BLOCK
  8
0
  5
15F
  2
BLK16
 70
    64
 10
0.0
 20
0.0
 30
0.0
  3
BLK16
  0
ENDBLK
  8
0
  5
160
  0
BLOCK
  8
0
  5
162
  2
BLK17
 70
    64
 10
0.0
 20
0.0
 30
0.0
  3
BLK17
  0
ENDBLK
  8
0
  5
163
  0
BLOCK
  8
0
  5
165
  2
BLK18
 70
    64
 10
0.0
 20
0.0
 30
0.0
  3
BLK18
  0
ENDBLK
  8
0
  5
166
  0
BLOCK
  8
0
  5
168
  2
BLK19
 70
    64
 10
0.0
 20
0.0
 30
0.0
  3
BLK19
  0
ENDBLK
  8
0
  5
169
  0
BLOCK
  8
0
  5
16B
  2
BLK20
 70
    64
 10
0.0
 20
0.0
 30
0.0
  3
BLK20
  0
ENDBLK
  8
0
  5
16C
  0
BLOCK
  8
0
  5
16E
  2
BLK21
 70
    64
 10
0.0
 20
0.0
 30
0.0
  3
BLK21
  0
ENDBLK
  8
0
  5
16F
  0
BLOCK
  8
0
  5
171
  2
BLK22
 70
    64
 10
0.0
 20
0.0
 30
0.0
  3
BLK22
  0
ENDBLK
  8
0
  5
172
  0
BLOCK
  8
0
  5
174
  2
BLK23
 70
    64
 10
0.0
 20
0.0
 30
0.0
  3
BLK23
  0
ENDBLK
  8
0
  5
175
  0
BLOCK
  8
0
  5
177
  2
BLK24
 70
    64
 10
0.0
 20
0.0
 30
0.0
  3
BLK24
  0
ENDBLK
  8
0
  5
178
  0
BLOCK
  8
0
  5
17A
  2
BLK25
 70
    64
 10
0.0
 20
0.0
 30
0.0
  3
BLK25
  0
ENDBLK
  8
0
  5
17B
  0
BLOCK
  8
0
  5
17D
  2
BLK26
 70
    64
 10
0.0
 20
0.0
 30
0.0
  3
BLK26
  0
ENDBLK
  8
0
  5
17E
  0
BLOCK
  8
0
  5
180
  2
BLK27
 70
    64
 10
0.0
 20
0.0
 30
0.0
  3
BLK27
  0
ENDBLK
  8
0
  5
181
  0
BLOCK
  8
0
  5
183
  2
BLK28
 70
    64
 10
0.0
 20
0.0
 30
0.0
  3
BLK28
  0
ENDBLK
  8
0
  5
184
  0
BLOCK
  8
0
  5
186
  2
BLK29
 70
    64
 10
0.0
 20
0.0
 30
0.0
  3
BLK29
  0
ENDBLK
  8
0
  5
187
  0
BLOCK
  8
0
  5
189
  2
BLK30
 70
    64
 10
0.0
 20
0.0
 30
0.0
  3
BLK30
  0
ENDBLK
  8
0
  5
18A
  0
BLOCK
  8
0
  5
18C
  2
BLK31
 70
    64
 10
0.0
 20
0.0
 30
0.0
  3
BLK31
  0
ENDBLK
  8
0
  5
18D
  0
BLOCK
  8
0
  5
18F
  2
BLK32
 70
    64
 10
0.0
 20
0.0
 30
0.0
  3
BLK32
  0
ENDBLK
  8
0
  5
190
  0
BLOCK
  8
0
  5
192
  2
BLK33
 70
    64
 10
0.0
 20
0.0
 30
0.0
  3
BLK33
  0
ENDBLK
  8
0
  5
193
  0
BLOCK
  8
0
  5
195
  2
BLK34
 70
    64
 10
0.0
 20
0.0
 30
0.0
  3
BLK34
  0
ENDBLK
  8
0
  5
196
  0
BLOCK
  8
0
  5
198
  2
BLK35
 70
    64
 10
0.0
 20
0.0
 30
0.0
  3
BLK35
  0
ENDBLK
  8
0
  5
199
  0
BLOCK
  8
0
  5
19B
  2
BLK36
 70
    64
 10
0.0
 20
0.0
 30
0.0
  3
BLK36
  0
ENDBLK
  8
0
  5
19C
  0
BLOCK
  8
0
  5
19E
  2
BLK37
 70
    64
 10
0.0
 20
0.0
 30
0.0
  3
BLK37
  0
ENDBLK
  8
0
  5
19F
  0
BLOCK
  8
0
  5
1A1
  2
*X44
 70
    65
 10
283.835906
 20
246.563
 30
0.0
  3
*X44
  0
LINE
  8
LC-005-005-----0
  6
CONTINUOUS
  5
1A2
 10
348.386376
 20
246.563
 30
0.0
 11
353.335906
 21
251.51253
 31
0.0
  0
LINE
  8
LC-005-005-----0
  6
CONTINUOUS
  5
1A3
 10
342.729522
 20
246.563
 30
0.0
 11
353.335906
 21
257.169384
 31
0.0
  0
LINE
  8
LC-005-005-----0
  6
CONTINUOUS
  5
1A4
 10
337.072668
 20
246.563
 30
0.0
 11
353.335906
 21
262.826238
 31
0.0
  0
LINE
  8
LC-005-005-----0
  6
CONTINUOUS
  5
1A5
 10
331.415814
 20
246.563
 30
0.0
 11
353.335906
 21
268.483092
 31
0.0
  0
LINE
  8
LC-005-005-----0
  6
CONTINUOUS
  5
1A6
 10
325.758959
 20
246.563
 30
0.0
 11
348.758959
 21
269.563
 31
0.0
  0
LINE
  8
LC-005-005-----0
  6
CONTINUOUS
  5
1A7
 10
320.102105
 20
246.563
 30
0.0
 11
343.102105
 21
269.563
 31
0.0
  0
LINE
  8
LC-005-005-----0
  6
CONTINUOUS
  5
1A8
 10
314.445251
 20
246.563
 30
0.0
 11
337.445251
 21
269.563
 31
0.0
  0
LINE
  8
LC-005-005-----0
  6
CONTINUOUS
  5
1A9
 10
308.788397
 20
246.563
 30
0.0
 11
331.788397
 21
269.563
 31
0.0
  0
LINE
  8
LC-005-005-----0
  6
CONTINUOUS
  5
1AA
 10
303.131542
 20
246.563
 30
0.0
 11
326.131542
 21
269.563
 31
0.0
  0
LINE
  8
LC-005-005-----0
  6
CONTINUOUS
  5
1AB
 10
297.474688
 20
246.563
 30
0.0
 11
320.474688
 21
269.563
 31
0.0
  0
LINE
  8
LC-005-005-----0
  6
CONTINUOUS
  5
1AC
 10
291.817834
 20
246.563
 30
0.0
 11
314.817834
 21
269.563
 31
0.0
  0
LINE
  8
LC-005-005-----0
  6
CONTINUOUS
  5
1AD
 10
286.16098
 20
246.563
 30
0.0
 11
309.16098
 21
269.563
 31
0.0
  0
LINE
  8
LC-005-005-----0
  6
CONTINUOUS
  5
1AE
 10
283.835906
 20
249.894781
 30
0.0
 11
303.504125
 21
269.563
 31
0.0
  0
LINE
  8
LC-005-005-----0
  6
CONTINUOUS
  5
1AF
 10
283.835906
 20
255.551635
 30
0.0
 11
297.847271
 21
269.563
 31
0.0
  0
LINE
  8
LC-005-005-----0
  6
CONTINUOUS
  5
1B0
 10
283.835906
 20
261.208489
 30
0.0
 11
292.190417
 21
269.563
 31
0.0
  0
LINE
  8
LC-005-005-----0
  6
CONTINUOUS
  5
1B1
 10
283.835906
 20
266.865343
 30
0.0
 11
286.533563
 21
269.563
 31
0.0
  0
LINE
  8
LC-005-005-----0
  6
CONTINUOUS
  5
1B2
 10
353.335906
 20
268.918061
 30
0.0
 11
352.690968
 21
269.563
 31
0.0
  0
LINE
  8
LC-005-005-----0
  6
CONTINUOUS
  5
1B3
 10
353.335906
 20
263.261207
 30
0.0
 11
347.034113
 21
269.563
 31
0.0
  0
LINE
  8
LC-005-005-----0
  6
CONTINUOUS
  5
1B4
 10
353.335906
 20
257.604353
 30
0.0
 11
341.377259
 21
269.563
 31
0.0
  0
LINE
  8
LC-005-005-----0
  6
CONTINUOUS
  5
1B5
 10
353.335906
 20
251.947499
 30
0.0
 11
335.720405
 21
269.563
 31
0.0
  0
LINE
  8
LC-005-005-----0
  6
CONTINUOUS
  5
1B6
 10
353.063551
 20
246.563
 30
0.0
 11
330.063551
 21
269.563
 31
0.0
  0
LINE
  8
LC-005-005-----0
  6
CONTINUOUS
  5
1B7
 10
347.406696
 20
246.563
 30
0.0
 11
324.406696
 21
269.563
 31
0.0
  0
LINE
  8
LC-005-005-----0
  6
CONTINUOUS
  5
1B8
 10
341.749842
 20
246.563
 30
0.0
 11
318.749842
 21
269.563
 31
0.0
  0
LINE
  8
LC-005-005-----0
  6
CONTINUOUS
  5
1B9
 10
336.092988
 20
246.563
 30
0.0
 11
313.092988
 21
269.563
 31
0.0
  0
LINE
  8
LC-005-005-----0
  6
CONTINUOUS
  5
1BA
 10
330.436134
 20
246.563
 30
0.0
 11
307.436134
 21
269.563
 31
0.0
  0
LINE
  8
LC-005-005-----0
  6
CONTINUOUS
  5
1BB
 10
324.779279
 20
246.563
 30
0.0
 11
301.779279
 21
269.563
 31
0.0
  0
LINE
  8
LC-005-005-----0
  6
CONTINUOUS
  5
1BC
 10
319.122425
 20
246.563
 30
0.0
 11
296.122425
 21
269.563
 31
0.0
  0
LINE
  8
LC-005-005-----0
  6
CONTINUOUS
  5
1BD
 10
313.465571
 20
246.563
 30
0.0
 11
290.465571
 21
269.563
 31
0.0
  0
LINE
  8
LC-005-005-----0
  6
CONTINUOUS
  5
1BE
 10
307.808717
 20
246.563
 30
0.0
 11
284.808717
 21
269.563
 31
0.0
  0
LINE
  8
LC-005-005-----0
  6
CONTINUOUS
  5
1BF
 10
302.151862
 20
246.563
 30
0.0
 11
283.835906
 21
264.878956
 31
0.0
  0
LINE
  8
LC-005-005-----0
  6
CONTINUOUS
  5
1C0
 10
296.495008
 20
246.563
 30
0.0
 11
283.835906
 21
259.222102
 31
0.0
  0
LINE
  8
LC-005-005-----0
  6
CONTINUOUS
  5
1C1
 10
290.838154
 20
246.563
 30
0.0
 11
283.835906
 21
253.565248
 31
0.0
  0
LINE
  8
LC-005-005-----0
  6
CONTINUOUS
  5
1C2
 10
285.1813
 20
246.563
 30
0.0
 11
283.835906
 21
247.908393
 31
0.0
  0
ENDBLK
  8
0
  5
1C3
  0
BLOCK
  8
0
  5
1C5
  2
*X45
 70
    65
 10
214.335906
 20
246.563
 30
0.0
  3
*X45
  0
LINE
  8
LC-005-005-----0
  6
CONTINUOUS
  5
1C6
 10
280.504125
 20
246.563
 30
0.0
 11
283.835906
 21
249.894781
 31
0.0
  0
LINE
  8
LC-005-005-----0
  6
CONTINUOUS
  5
1C7
 10
274.847271
 20
246.563
 30
0.0
 11
283.835906
 21
255.551635
 31
0.0
  0
LINE
  8
LC-005-005-----0
  6
CONTINUOUS
  5
1C8
 10
269.190417
 20
246.563
 30
0.0
 11
283.835906
 21
261.208489
 31
0.0
  0
LINE
  8
LC-005-005-----0
  6
CONTINUOUS
  5
1C9
 10
263.533563
 20
246.563
 30
0.0
 11
283.835906
 21
266.865343
 31
0.0
  0
LINE
  8
LC-005-005-----0
  6
CONTINUOUS
  5
1CA
 10
257.876708
 20
246.563
 30
0.0
 11
280.876708
 21
269.563
 31
0.0
  0
LINE
  8
LC-005-005-----0
  6
CONTINUOUS
  5
1CB
 10
252.219854
 20
246.563
 30
0.0
 11
275.219854
 21
269.563
 31
0.0
  0
LINE
  8
LC-005-005-----0
  6
CONTINUOUS
  5
1CC
 10
246.563
 20
246.563
 30
0.0
 11
269.563
 21
269.563
 31
0.0
  0
LINE
  8
LC-005-005-----0
  6
CONTINUOUS
  5
1CD
 10
240.906146
 20
246.563
 30
0.0
 11
263.906146
 21
269.563
 31
0.0
  0
LINE
  8
LC-005-005-----0
  6
CONTINUOUS
  5
1CE
 10
235.249291
 20
246.563
 30
0.0
 11
258.249291
 21
269.563
 31
0.0
  0
LINE
  8
LC-005-005-----0
  6
CONTINUOUS
  5
1CF
 10
229.592437
 20
246.563
 30
0.0
 11
252.592437
 21
269.563
 31
0.0
  0
LINE
  8
LC-005-005-----0
  6
CONTINUOUS
  5
1D0
 10
223.935583
 20
246.563
 30
0.0
 11
246.935583
 21
269.563
 31
0.0
  0
LINE
  8
LC-005-005-----0
  6
CONTINUOUS
  5
1D1
 10
218.278729
 20
246.563
 30
0.0
 11
241.278729
 21
269.563
 31
0.0
  0
LINE
  8
LC-005-005-----0
  6
CONTINUOUS
  5
1D2
 10
214.335906
 20
248.277032
 30
0.0
 11
235.621874
 21
269.563
 31
0.0
  0
LINE
  8
LC-005-005-----0
  6
CONTINUOUS
  5
1D3
 10
214.335906
 20
253.933886
 30
0.0
 11
229.96502
 21
269.563
 31
0.0
  0
LINE
  8
LC-005-005-----0
  6
CONTINUOUS
  5
1D4
 10
214.335906
 20
259.59074
 30
0.0
 11
224.308166
 21
269.563
 31
0.0
  0
LINE
  8
LC-005-005-----0
  6
CONTINUOUS
  5
1D5
 10
214.335906
 20
265.247594
 30
0.0
 11
218.651312
 21
269.563
 31
0.0
  0
LINE
  8
LC-005-005-----0
  6
CONTINUOUS
  5
1D6
 10
283.835906
 20
264.878956
 30
0.0
 11
279.151862
 21
269.563
 31
0.0
  0
LINE
  8
LC-005-005-----0
  6
CONTINUOUS
  5
1D7
 10
283.835906
 20
259.222102
 30
0.0
 11
273.495008
 21
269.563
 31
0.0
  0
LINE
  8
LC-005-005-----0
  6
CONTINUOUS
  5
1D8
 10
283.835906
 20
253.565248
 30
0.0
 11
267.838154
 21
269.563
 31
0.0
  0
LINE
  8
LC-005-005-----0
  6
CONTINUOUS
  5
1D9
 10
283.835906
 20
247.908393
 30
0.0
 11
262.1813
 21
269.563
 31
0.0
  0
LINE
  8
LC-005-005-----0
  6
CONTINUOUS
  5
1DA
 10
279.524445
 20
246.563
 30
0.0
 11
256.524445
 21
269.563
 31
0.0
  0
LINE
  8
LC-005-005-----0
  6
CONTINUOUS
  5
1DB
 10
273.867591
 20
246.563
 30
0.0
 11
250.867591
 21
269.563
 31
0.0
  0
LINE
  8
LC-005-005-----0
  6
CONTINUOUS
  5
1DC
 10
268.210737
 20
246.563
 30
0.0
 11
245.210737
 21
269.563
 31
0.0
  0
LINE
  8
LC-005-005-----0
  6
CONTINUOUS
  5
1DD
 10
262.553883
 20
246.563
 30
0.0
 11
239.553883
 21
269.563
 31
0.0
  0
LINE
  8
LC-005-005-----0
  6
CONTINUOUS
  5
1DE
 10
256.897028
 20
246.563
 30
0.0
 11
233.897028
 21
269.563
 31
0.0
  0
LINE
  8
LC-005-005-----0
  6
CONTINUOUS
  5
1DF
 10
251.240174
 20
246.563
 30
0.0
 11
228.240174
 21
269.563
 31
0.0
  0
LINE
  8
LC-005-005-----0
  6
CONTINUOUS
  5
1E0
 10
245.58332
 20
246.563
 30
0.0
 11
222.58332
 21
269.563
 31
0.0
  0
LINE
  8
LC-005-005-----0
  6
CONTINUOUS
  5
1E1
 10
239.926466
 20
246.563
 30
0.0
 11
216.926466
 21
269.563
 31
0.0
  0
LINE
  8
LC-005-005-----0
  6
CONTINUOUS
  5
1E2
 10
234.269611
 20
246.563
 30
0.0
 11
214.335906
 21
266.496705
 31
0.0
  0
LINE
  8
LC-005-005-----0
  6
CONTINUOUS
  5
1E3
 10
228.612757
 20
246.563
 30
0.0
 11
214.335906
 21
260.839851
 31
0.0
  0
LINE
  8
LC-005-005-----0
  6
CONTINUOUS
  5
1E4
 10
222.955903
 20
246.563
 30
0.0
 11
214.335906
 21
255.182997
 31
0.0
  0
LINE
  8
LC-005-005-----0
  6
CONTINUOUS
  5
1E5
 10
217.299049
 20
246.563
 30
0.0
 11
214.335906
 21
249.526142
 31
0.0
  0
ENDBLK
  8
0
  5
1E6
  0
BLOCK
  8
0
  5
1E8
  2
*D46
 70
    65
 10
0.0
 20
0.0
 30
0.0
  3
*D46
  0
LINE
  8
LC-003-003-MTH-0
  6
CONTINUOUS
  5
1E9
 10
353.335906
 20
246.563
 30
0.0
 11
408.8
 21
246.563
 31
0.0
  0
LINE
  8
LC-003-003-MTH-0
  6
CONTINUOUS
  5
1EA
 10
353.335906
 20
269.563
 30
0.0
 11
408.8
 21
269.563
 31
0.0
  0
LINE
  8
LC-002-003-----0
  6
CONTINUOUS
  5
1EB
 10
395.654733
 20
218.802544
 30
0.0
 11
392.0
 21
246.563
 31
0.0
  0
LINE
  8
LC-002-003-----0
  6
CONTINUOUS
  5
1EC
 10
392.0
 20
246.563
 30
0.0
 11
388.345267
 21
218.802544
 31
0.0
  0
LINE
  8
LC-002-003-----0
  6
CONTINUOUS
  5
1ED
 10
388.345267
 20
218.802544
 30
0.0
 11
395.654733
 21
218.802544
 31
0.0
  0
LINE
  8
LC-002-003-----0
  6
CONTINUOUS
  5
1EE
 10
394.704503
 20
218.740262
 30
0.0
 11
392.0
 21
239.283
 31
0.0
  0
LINE
  8
LC-002-003-----0
  6
CONTINUOUS
  5
1EF
 10
392.0
 20
239.283
 30
0.0
 11
389.295497
 21
218.740262
 31
0.0
  0
LINE
  8
LC-002-003-----0
  6
CONTINUOUS
  5
1F0
 10
393.754272
 20
218.677981
 30
0.0
 11
392.0
 21
232.003
 31
0.0
  0
LINE
  8
LC-002-003-----0
  6
CONTINUOUS
  5
1F1
 10
392.0
 20
232.003
 30
0.0
 11
390.245728
 21
218.677981
 31
0.0
  0
LINE
  8
LC-002-003-----0
  6
CONTINUOUS
  5
1F2
 10
392.804041
 20
218.6157
 30
0.0
 11
392.0
 21
224.723
 31
0.0
  0
LINE
  8
LC-002-003-----0
  6
CONTINUOUS
  5
1F3
 10
392.0
 20
224.723
 30
0.0
 11
391.195959
 21
218.6157
 31
0.0
  0
LINE
  8
LC-002-003-----0
  6
CONTINUOUS
  5
1F4
 10
388.345267
 20
297.323456
 30
0.0
 11
392.0
 21
269.563
 31
0.0
  0
LINE
  8
LC-002-003-----0
  6
CONTINUOUS
  5
1F5
 10
392.0
 20
269.563
 30
0.0
 11
395.654733
 21
297.323456
 31
0.0
  0
LINE
  8
LC-002-003-----0
  6
CONTINUOUS
  5
1F6
 10
395.654733
 20
297.323456
 30
0.0
 11
388.345267
 21
297.323456
 31
0.0
  0
LINE
  8
LC-002-003-----0
  6
CONTINUOUS
  5
1F7
 10
389.295497
 20
297.385737
 30
0.0
 11
392.0
 21
276.843
 31
0.0
  0
LINE
  8
LC-002-003-----0
  6
CONTINUOUS
  5
1F8
 10
392.0
 20
276.843
 30
0.0
 11
394.704503
 21
297.385737
 31
0.0
  0
LINE
  8
LC-002-003-----0
  6
CONTINUOUS
  5
1F9
 10
390.245728
 20
297.448019
 30
0.0
 11
392.0
 21
284.123
 31
0.0
  0
LINE
  8
LC-002-003-----0
  6
CONTINUOUS
  5
1FA
 10
392.0
 20
284.123
 30
0.0
 11
393.754272
 21
297.448019
 31
0.0
  0
LINE
  8
LC-002-003-----0
  6
CONTINUOUS
  5
1FB
 10
391.195959
 20
297.5103
 30
0.0
 11
392.0
 21
291.403
 31
0.0
  0
LINE
  8
LC-002-003-----0
  6
CONTINUOUS
  5
1FC
 10
392.0
 20
291.403
 30
0.0
 11
392.804041
 21
297.5103
 31
0.0
  0
LINE
  8
LC-004-003-MTG-0
  6
CONTINUOUS
  5
1FD
 10
392.0
 20
207.363
 30
0.0
 11
392.0
 21
352.9274
 31
0.0
  0
TEXT
  8
LC-002-003-----0
  6
CONTINUOUS
 62
     8
  5
1FE
 10
384.172446
 20
311.99116
 30
0.0
 40
28.0
  1
23
 50
90.0
 51
15.0
  7
LC-TXTSTYLE-150-400-0-0-D0
  0
ENDBLK
  8
0
  5
1FF
  0
BLOCK
  8
0
  5
201
  2
*D47
 70
    65
 10
0.0
 20
0.0
 30
0.0
  3
*D47
  0
LINE
  8
LC-003-003-MTH-0
  6
CONTINUOUS
  5
202
 10
353.335906
 20
269.563
 30
0.0
 11
448.0
 21
269.563
 31
0.0
  0
LINE
  8
LC-003-003-MTH-0
  6
CONTINUOUS
  5
203
 10
355.311114
 20
449.063
 30
0.0
 11
448.0
 21
449.063
 31
0.0
  0
LINE
  8
LC-004-003-MTG-0
  6
CONTINUOUS
  5
204
 10
431.2
 20
269.563
 30
0.0
 11
431.2
 21
449.063
 31
0.0
  0
LINE
  8
LC-002-003-----0
  6
CONTINUOUS
  5
205
 10
427.545267
 20
297.323456
 30
0.0
 11
431.2
 21
269.563
 31
0.0
  0
LINE
  8
LC-002-003-----0
  6
CONTINUOUS
  5
206
 10
431.2
 20
269.563
 30
0.0
 11
434.854733
 21
297.323456
 31
0.0
  0
LINE
  8
LC-002-003-----0
  6
CONTINUOUS
  5
207
 10
434.854733
 20
297.323456
 30
0.0
 11
427.545267
 21
297.323456
 31
0.0
  0
LINE
  8
LC-002-003-----0
  6
CONTINUOUS
  5
208
 10
428.495497
 20
297.385737
 30
0.0
 11
431.2
 21
276.843
 31
0.0
  0
LINE
  8
LC-002-003-----0
  6
CONTINUOUS
  5
209
 10
431.2
 20
276.843
 30
0.0
 11
433.904503
 21
297.385737
 31
0.0
  0
LINE
  8
LC-002-003-----0
  6
CONTINUOUS
  5
20A
 10
429.445728
 20
297.448019
 30
0.0
 11
431.2
 21
284.123
 31
0.0
  0
LINE
  8
LC-002-003-----0
  6
CONTINUOUS
  5
20B
 10
431.2
 20
284.123
 30
0.0
 11
432.954272
 21
297.448019
 31
0.0
  0
LINE
  8
LC-002-003-----0
  6
CONTINUOUS
  5
20C
 10
430.395959
 20
297.5103
 30
0.0
 11
431.2
 21
291.403
 31
0.0
  0
LINE
  8
LC-002-003-----0
  6
CONTINUOUS
  5
20D
 10
431.2
 20
291.403
 30
0.0
 11
432.004041
 21
297.5103
 31
0.0
  0
LINE
  8
LC-002-003-----0
  6
CONTINUOUS
  5
20E
 10
434.854733
 20
421.302544
 30
0.0
 11
431.2
 21
449.063
 31
0.0
  0
LINE
  8
LC-002-003-----0
  6
CONTINUOUS
  5
20F
 10
431.2
 20
449.063
 30
0.0
 11
427.545267
 21
421.302544
 31
0.0
  0
LINE
  8
LC-002-003-----0
  6
CONTINUOUS
  5
210
 10
427.545267
 20
421.302544
 30
0.0
 11
434.854733
 21
421.302544
 31
0.0
  0
LINE
  8
LC-002-003-----0
  6
CONTINUOUS
  5
211
 10
433.904503
 20
421.240262
 30
0.0
 11
431.2
 21
441.783
 31
0.0
  0
LINE
  8
LC-002-003-----0
  6
CONTINUOUS
  5
212
 10
431.2
 20
441.783
 30
0.0
 11
428.495497
 21
421.240262
 31
0.0
  0
LINE
  8
LC-002-003-----0
  6
CONTINUOUS
  5
213
 10
432.954272
 20
421.177981
 30
0.0
 11
431.2
 21
434.503
 31
0.0
  0
LINE
  8
LC-002-003-----0
  6
CONTINUOUS
  5
214
 10
431.2
 20
434.503
 30
0.0
 11
429.445728
 21
421.177981
 31
0.0
  0
LINE
  8
LC-002-003-----0
  6
CONTINUOUS
  5
215
 10
432.004041
 20
421.1157
 30
0.0
 11
431.2
 21
427.223
 31
0.0
  0
LINE
  8
LC-002-003-----0
  6
CONTINUOUS
  5
216
 10
431.2
 20
427.223
 30
0.0
 11
430.395959
 21
421.1157
 31
0.0
  0
TEXT
  8
LC-002-003-----0
  6
CONTINUOUS
 62
     8
  5
217
 10
423.372446
 20
298.676908
 30
0.0
 40
28.0
  1
10-180
 50
90.0
 51
15.0
  7
LC-TXTSTYLE-150-400-0-0-D0
 72
     1
 11
423.372446
 21
363.66116
 31
0.0
  0
ENDBLK
  8
0
  5
218
  0
ENDSEC
  0
SECTION
  2
ENTITIES
  0
VIEWPORT
  8
LC-000
  5
291
 67
     1
 68
     1
 10
420.0
 20
297.0
 30
0.0
 40
840.0
 41
594.0
 69
     1
1001
ACAD
1000
MVIEW
1002
{
1070
    16
1010
0.0
1020
0.0
1030
0.0
1010
0.0
1020
0.0
1030
1.0
1040
0.0
1040
594.0
1040
420.0
1040
297.0
1040
50.0
1040
0.0
1040
0.0
1070
     0
1070
   100
1070
     1
1070
     1
1070
     0
1070
     0
1070
     0
1070
     0
1040
0.0
1040
0.0
1040
0.0
1040
1.0
1040
1.0
1040
0.0
1040
0.0
1070
     0
1002
{
1002
}
1002
}
  0
VIEWPORT
  8
0
  5
292
 67
     1
 68
     1
 10
0.0
 20
0.0
 30
0.0
 40
0.0
 41
0.0
 69
     1
1001
ACAD
1000
MVIEW
1002
{
1070
    16
1010
0.0
1020
0.0
1030
0.0
1010
0.0
1020
0.0
1030
1.0
1040
0.0
1040
594.0
1040
0.0
1040
0.0
1040
50.0
1040
0.0
1040
0.0
1070
     0
1070
   100
1070
     0
1070
     1
1070
     0
1070
     0
1070
     0
1070
     0
1040
0.0
1040
0.0
1040
0.0
1040
0.5
1040
0.5
1040
0.5
1040
0.5
1070
     0
1002
{
1002
}
1002
}
  0
DIMENSION
  8
0
  5
219
  2
*D0
 10
196.0
 20
392.04
 30
0.0
 11
196.0
 21
392.04
 31
0.0
 13
212.388995
 23
451.763697
 33
0.0
 14
207.335736
 24
436.763743
 34
0.0
 50
90.0
  3
LC-DIM-L-0140-02-02
  0
INSERT
  8
0
  5
21A
  2
*X1
 10
207.335736
 20
246.563
 30
0.0
  0
INSERT
  8
0
  5
21B
  2
*X2
 10
208.835736
 20
425.263634
 30
0.0
  0
INSERT
  8
0
  5
21C
  2
*X3
 10
353.336076
 20
425.263634
 30
0.0
  0
INSERT
  8
0
  5
21D
  2
*X4
 10
353.336076
 20
246.563
 30
0.0
  0
DIMENSION
  8
0
  5
21E
  2
*D5
 10
283.835906
 20
200.0
 30
0.0
 11
283.835906
 21
200.0
 31
0.0
  1
%%c<>
 13
211.335906
 23
251.563
 33
0.0
 14
356.335906
 24
251.563
 34
0.0
  3
LC-DIM-L-0140-02-02
  0
DIMENSION
  8
0
  5
21F
  2
*D6
 10
283.221911
 20
480.0
 30
0.0
 11
283.221911
 21
480.0
 31
0.0
  1
150
 13
208.835736
 23
449.763632
 33
0.0
 14
358.782818
 24
449.763696
 34
0.0
  3
LC-DIM-L-0140-02-02
  0
INSERT
  8
0
  5
221
  2
BLK1
 10
0.0
 20
0.0
 30
0.0
  0
INSERT
  8
0
  5
222
  2
BLK2
 10
0.0
 20
0.0
 30
0.0
  0
INSERT
  8
0
  5
223
  2
BLK3
 10
0.0
 20
0.0
 30
0.0
  0
INSERT
  8
0
  5
224
  2
BLK4
 10
0.0
 20
0.0
 30
0.0
  0
INSERT
  8
0
  5
225
  2
BLK5
 10
0.0
 20
0.0
 30
0.0
  0
INSERT
  8
0
  5
226
  2
BLK6
 10
0.0
 20
0.0
 30
0.0
  0
INSERT
  8
0
  5
227
  2
BLK7
 10
0.0
 20
0.0
 30
0.0
  0
INSERT
  8
0
  5
228
  2
BLK8
 10
0.0
 20
0.0
 30
0.0
  0
INSERT
  8
0
  5
229
  2
BLK9
 10
0.0
 20
0.0
 30
0.0
  0
INSERT
  8
0
  5
22A
  2
BLK10
 10
0.0
 20
0.0
 30
0.0
  0
INSERT
  8
0
  5
22B
  2
BLK11
 10
0.0
 20
0.0
 30
0.0
  0
INSERT
  8
0
  5
22C
  2
BLK12
 10
0.0
 20
0.0
 30
0.0
  0
INSERT
  8
0
  5
22D
  2
BLK13
 10
0.0
 20
0.0
 30
0.0
  0
INSERT
  8
0
  5
22E
  2
BLK14
 10
0.0
 20
0.0
 30
0.0
  0
INSERT
  8
0
  5
22F
  2
BLK15
 10
0.0
 20
0.0
 30
0.0
  0
INSERT
  8
0
  5
230
  2
BLK16
 10
0.0
 20
0.0
 30
0.0
  0
INSERT
  8
0
  5
231
  2
BLK17
 10
0.0
 20
0.0
 30
0.0
  0
INSERT
  8
0
  5
232
  2
BLK18
 10
0.0
 20
0.0
 30
0.0
  0
INSERT
  8
0
  5
233
  2
BLK19
 10
0.0
 20
0.0
 30
0.0
  0
INSERT
  8
0
  5
234
  2
BLK20
 10
0.0
 20
0.0
 30
0.0
  0
INSERT
  8
0
  5
235
  2
BLK21
 10
0.0
 20
0.0
 30
0.0
  0
INSERT
  8
0
  5
236
  2
BLK22
 10
0.0
 20
0.0
 30
0.0
  0
INSERT
  8
0
  5
237
  2
BLK23
 10
0.0
 20
0.0
 30
0.0
  0
INSERT
  8
0
  5
238
  2
BLK24
 10
0.0
 20
0.0
 30
0.0
  0
INSERT
  8
0
  5
239
  2
BLK25
 10
0.0
 20
0.0
 30
0.0
  0
INSERT
  8
0
  5
23A
  2
BLK26
 10
0.0
 20
0.0
 30
0.0
  0
INSERT
  8
0
  5
23B
  2
BLK27
 10
0.0
 20
0.0
 30
0.0
  0
INSERT
  8
0
  5
23C
  2
BLK28
 10
0.0
 20
0.0
 30
0.0
  0
INSERT
  8
0
  5
23D
  2
BLK29
 10
0.0
 20
0.0
 30
0.0
  0
INSERT
  8
0
  5
23E
  2
BLK30
 10
0.0
 20
0.0
 30
0.0
  0
INSERT
  8
0
  5
23F
  2
BLK31
 10
0.0
 20
0.0
 30
0.0
  0
INSERT
  8
0
  5
240
  2
BLK32
 10
0.0
 20
0.0
 30
0.0
  0
INSERT
  8
0
  5
241
  2
BLK33
 10
0.0
 20
0.0
 30
0.0
  0
INSERT
  8
0
  5
242
  2
BLK34
 10
0.0
 20
0.0
 30
0.0
  0
INSERT
  8
0
  5
243
  2
BLK35
 10
0.0
 20
0.0
 30
0.0
  0
INSERT
  8
0
  5
244
  2
BLK36
 10
0.0
 20
0.0
 30
0.0
  0
INSERT
  8
0
  5
245
  2
BLK37
 10
0.0
 20
0.0
 30
0.0
  0
INSERT
  8
0
  5
246
  2
*X44
 10
283.835906
 20
246.563
 30
0.0
  0
INSERT
  8
0
  5
247
  2
*X45
 10
214.335906
 20
246.563
 30
0.0
  0
DIMENSION
  8
0
  5
248
  2
*D46
 10
392.0
 20
258.063
 30
0.0
 11
392.0
 21
258.063
 31
0.0
 13
353.335906
 23
269.563
 33
0.0
 14
353.335906
 24
246.563
 34
0.0
 50
90.0
  3
LC-DIM-L-0140-02-02
  0
DIMENSION
  8
0
  5
249
  2
*D47
 10
431.2
 20
359.313
 30
0.0
 11
431.2
 21
359.313
 31
0.0
  1
10-180
 13
353.335906
 23
269.563
 33
0.0
 14
355.311114
 24
449.063
 34
0.0
 50
90.0
  3
LC-DIM-L-0140-02-02
  0
LINE
  8
LC-001-002-----0
  6
CONTINUOUS
  5
24B
 10
212.335736
 20
451.763632
 30
0.0
 11
356.782818
 21
451.763697
 31
0.0
  0
LINE
  8
LC-001-002-----0
  6
CONTINUOUS
 62
     2
  5
24C
 10
238.228449
 20
507.151773
 30
0.0
 11
253.228449
 21
507.151773
 31
0.0
  0
LINE
  8
LC-001-002-----0
  6
CONTINUOUS
 62
     2
  5
24D
 10
253.228449
 20
492.151773
 30
0.0
 11
253.228449
 21
507.151773
 31
0.0
  0
LINE
  8
LC-001-002-----0
  6
CONTINUOUS
  5
24E
 10
211.335906
 20
251.563
 30
0.0
 11
211.335906
 21
436.763743
 31
0.0
  0
LINE
  8
LC-001-002-----0
  6
CONTINUOUS
  5
24F
 10
212.610687
 20
246.563
 30
0.0
 11
353.282775
 21
246.563
 31
0.0
  0
LINE
  8
LC-001-002-----0
  6
CONTINUOUS
  5
250
 10
356.335906
 20
251.563
 30
0.0
 11
354.99616
 21
246.563
 31
0.0
  0
LINE
  8
LC-001-002-----0
  6
CONTINUOUS
  5
251
 10
211.335906
 20
251.563
 30
0.0
 11
212.675652
 21
246.563
 31
0.0
  0
LINE
  8
LC-001-002-----0
  6
CONTINUOUS
  5
252
 10
354.810402
 20
246.564139
 30
0.0
 11
353.282775
 21
246.56414
 31
0.0
  0
LINE
  8
LC-001-002-----0
  6
CONTINUOUS
  5
253
 10
353.282775
 20
246.56414
 30
0.0
 11
353.2828
 21
422.263698
 31
0.0
  0
LINE
  8
LC-001-002-----0
  6
DASHDOT
 62
     2
  5
255
 10
283.835906
 20
246.563
 30
0.0
 11
283.835906
 21
452.063743
 31
0.0
  0
LINE
  8
LC-001-002-----0
  6
CONTINUOUS
  5
256
 10
214.335736
 20
426.763632
 30
0.0
 11
212.835736
 21
425.263634
 31
0.0
  0
LINE
  8
LC-001-002-----0
  6
CONTINUOUS
  5
257
 10
212.12863
 20
425.970741
 30
0.0
 11
213.335736
 21
427.177846
 31
0.0
  0
LINE
  8
LC-001-002-----0
  6
CONTINUOUS
  5
258
 10
212.835736
 20
425.263634
 30
0.0
 11
212.12863
 21
425.970741
 31
0.0
  0
LINE
  8
LC-001-002-----0
  6
CONTINUOUS
  5
259
 10
214.335736
 20
246.563
 30
0.0
 11
214.335736
 21
426.763632
 31
0.0
  0
LINE
  8
LC-001-002-----0
  6
CONTINUOUS
  5
25A
 10
214.335736
 20
421.504863
 30
0.0
 11
214.335736
 21
426.763632
 31
0.0
  0
LINE
  8
LC-001-002-----0
  6
CONTINUOUS
  5
25B
 10
353.282803
 20
426.763698
 30
0.0
 11
354.782802
 21
425.263699
 31
0.0
  0
LINE
  8
LC-001-002-----0
  6
CONTINUOUS
  5
25C
 10
355.489909
 20
425.970805
 30
0.0
 11
354.282803
 21
427.177911
 31
0.0
  0
LINE
  8
LC-001-002-----0
  6
CONTINUOUS
  5
25D
 10
354.782802
 20
425.263699
 30
0.0
 11
355.489909
 21
425.970805
 31
0.0
  0
LINE
  8
LC-001-002-----0
  6
CONTINUOUS
  5
25E
 10
353.2828
 20
422.263698
 30
0.0
 11
353.282803
 21
426.763698
 31
0.0
  0
LINE
  8
LC-001-002-----0
  6
CONTINUOUS
  5
25F
 10
356.335906
 20
251.563
 30
0.0
 11
356.335906
 21
436.763743
 31
0.0
  0
LINE
  8
LC-001-002-----0
  6
CONTINUOUS
  5
260
 10
356.335906
 20
436.763743
 30
0.0
 11
360.336076
 21
436.763743
 31
0.0
  0
LINE
  8
LC-001-002-----0
  6
CONTINUOUS
  5
261
 10
208.835736
 20
449.763632
 30
0.0
 11
208.835736
 21
438.263632
 31
0.0
  0
ARC
  8
LC-001-002-----0
  6
CONTINUOUS
  5
262
 10
210.835736
 20
449.763632
 30
0.0
 40
2.0
 50
89.999981
 51
180.0
  0
ARC
  8
LC-001-002-----0
  6
CONTINUOUS
  5
263
 10
212.335736
 20
449.763632
 30
0.0
 40
2.0
 50
0.0
 51
90.0
  0
LINE
  8
LC-001-002-----0
  6
CONTINUOUS
  5
264
 10
214.335736
 20
449.763632
 30
0.0
 11
214.335736
 21
426.587366
 31
0.0
  0
ARC
  8
LC-001-002-----0
  6
CONTINUOUS
  5
265
 10
210.835736
 20
449.763632
 30
0.0
 40
1.0
 50
90.0
 51
179.999848
  0
LINE
  8
LC-001-002-----0
  6
CONTINUOUS
  5
266
 10
209.835736
 20
438.263632
 30
0.0
 11
209.835736
 21
449.763632
 31
0.0
  0
LINE
  8
LC-001-002-----0
  6
CONTINUOUS
  5
267
 10
213.335736
 20
449.763632
 30
0.0
 11
213.335736
 21
427.177846
 31
0.0
  0
ARC
  8
LC-001-002-----0
  6
CONTINUOUS
  5
268
 10
212.335736
 20
449.763632
 30
0.0
 40
1.0
 50
0.0
 51
89.999981
  0
LINE
  8
LC-001-002-----0
  6
CONTINUOUS
  5
269
 10
210.835736
 20
450.763632
 30
0.0
 11
212.335736
 21
450.763632
 31
0.0
  0
LINE
  8
LC-001-002-----0
  6
CONTINUOUS
  5
26A
 10
353.282818
 20
449.763697
 30
0.0
 11
353.282803
 21
426.763698
 31
0.0
  0
LINE
  8
LC-001-002-----0
  6
CONTINUOUS
  5
26B
 10
353.335904
 20
449.763697
 30
0.0
 11
353.335904
 21
449.763697
 31
0.0
  0
ARC
  8
LC-001-002-----0
  6
CONTINUOUS
  5
26C
 10
355.282818
 20
449.763697
 30
0.0
 40
2.0
 50
89.999981
 51
180.0
  0
LINE
  8
LC-001-002-----0
  6
CONTINUOUS
  5
26D
 10
358.782818
 20
449.763696
 30
0.0
 11
358.782811
 21
438.263695
 31
0.0
  0
ARC
  8
LC-001-002-----0
  6
CONTINUOUS
  5
26E
 10
356.782818
 20
449.763697
 30
0.0
 40
2.0
 50
359.999963
 51
89.999677
  0
LINE
  8
LC-001-002-----0
  6
CONTINUOUS
  5
26F
 10
355.335905
 20
451.763697
 30
0.0
 11
356.835904
 21
451.763697
 31
0.0
  0
ARC
  8
LC-001-002-----0
  6
CONTINUOUS
  5
270
 10
355.282818
 20
449.763696
 30
0.0
 40
1.0
 50
89.999963
 51
179.999944
  0
LINE
  8
LC-001-002-----0
  6
CONTINUOUS
  5
271
 10
354.282818
 20
449.763697
 30
0.0
 11
354.282803
 21
427.177911
 31
0.0
  0
LINE
  8
LC-001-002-----0
  6
CONTINUOUS
  5
272
 10
357.782811
 20
438.263695
 30
0.0
 11
357.782818
 21
449.763694
 31
0.0
  0
ARC
  8
LC-001-002-----0
  6
CONTINUOUS
  5
273
 10
356.782818
 20
449.763695
 30
0.0
 40
1.0
 50
359.999963
 51
89.999658
  0
LINE
  8
LC-001-002-----0
  6
CONTINUOUS
  5
274
 10
356.782819
 20
450.763695
 30
0.0
 11
355.282819
 21
450.763696
 31
0.0
  0
LINE
  8
LC-001-002-----0
  6
CONTINUOUS
  5
275
 10
358.835895
 20
440.263694
 30
0.0
 11
358.835895
 21
440.263694
 31
0.0
  0
ARC
  8
LC-001-002-----0
  6
CONTINUOUS
  5
276
 10
358.782809
 20
438.763694
 30
0.0
 40
1.5
 50
0.0
 51
90.0
  0
LINE
  8
LC-001-002-----0
  6
CONTINUOUS
  5
277
 10
360.282809
 20
436.763743
 30
0.0
 11
360.282809
 21
438.763694
 31
0.0
  0
LINE
  8
LC-001-002-----0
  6
CONTINUOUS
  5
278
 10
357.782809
 20
438.263695
 30
0.0
 11
358.782809
 21
438.263695
 31
0.0
  0
LINE
  8
LC-001-002-----0
  6
CONTINUOUS
  5
279
 10
207.335736
 20
438.763632
 30
0.0
 11
207.335736
 21
436.763743
 31
0.0
  0
ARC
  8
LC-001-002-----0
  6
CONTINUOUS
  5
27A
 10
208.835736
 20
438.763632
 30
0.0
 40
1.5
 50
90.0
 51
180.0
  0
LINE
  8
LC-001-002-----0
  6
CONTINUOUS
  5
27B
 10
208.835736
 20
440.263632
 30
0.0
 11
208.835736
 21
440.263632
 31
0.0
  0
LINE
  8
LC-001-002-----0
  6
CONTINUOUS
  5
27C
 10
208.835736
 20
438.263632
 30
0.0
 11
209.835736
 21
438.263632
 31
0.0
  0
LINE
  8
LC-006-001-----0
  6
CONTINUOUS
  5
27E
 10
214.335736
 20
446.263632
 30
0.0
 11
283.835736
 21
446.263632
 31
0.0
  0
LINE
  8
LC-006-001-----0
  6
CONTINUOUS
  5
27F
 10
353.335902
 20
446.263697
 30
0.0
 11
283.835903
 21
446.263743
 31
0.0
  0
LINE
  8
LC-001-002-----0
  6
CONTINUOUS
  5
280
 10
210.835736
 20
451.763632
 30
0.0
 11
212.335736
 21
451.763632
 31
0.0
  0
LINE
  8
LC-001-002-----0
  6
CONTINUOUS
 62
     2
  5
281
 10
238.228449
 20
492.151773
 30
0.0
 11
238.228449
 21
507.151773
 31
0.0
  0
LINE
  8
LC-001-002-----0
  6
CONTINUOUS
 62
     2
  5
282
 10
238.228449
 20
492.151773
 30
0.0
 11
253.228449
 21
492.151773
 31
0.0
  0
LINE
  8
LC-001-002-----0
  6
CONTINUOUS
  5
283
 10
211.335906
 20
436.763743
 30
0.0
 11
207.335736
 21
436.763743
 31
0.0
  0
LINE
  8
LC-001-002-----0
  6
CONTINUOUS
  5
284
 10
456.335906
 20
424.159415
 30
0.0
 11
606.335906
 21
424.159415
 31
0.0
  0
LINE
  8
LC-001-002-----0
  6
CONTINUOUS
  5
285
 10
606.335906
 20
424.159415
 30
0.0
 11
606.335906
 21
274.159415
 31
0.0
  0
LINE
  8
LC-001-002-----0
  6
CONTINUOUS
  5
286
 10
606.335906
 20
274.159415
 30
0.0
 11
456.335906
 21
274.159415
 31
0.0
  0
LINE
  8
LC-001-002-----0
  6
CONTINUOUS
  5
287
 10
456.335906
 20
274.159415
 30
0.0
 11
456.335906
 21
424.159415
 31
0.0
  0
LINE
  8
LC-001-002-----0
  6
CONTINUOUS
  5
288
 10
461.835906
 20
418.659415
 30
0.0
 11
461.835906
 21
279.659415
 31
0.0
  0
LINE
  8
LC-001-002-----0
  6
CONTINUOUS
  5
289
 10
461.835906
 20
279.659415
 30
0.0
 11
600.835906
 21
279.659415
 31
0.0
  0
LINE
  8
LC-001-002-----0
  6
CONTINUOUS
  5
28A
 10
600.835906
 20
279.659415
 30
0.0
 11
600.835906
 21
418.659415
 31
0.0
  0
LINE
  8
LC-001-002-----0
  6
CONTINUOUS
  5
28B
 10
600.835906
 20
418.659415
 30
0.0
 11
461.835906
 21
418.659415
 31
0.0
  0
CIRCLE
  8
LC-001-002-----0
  6
CONTINUOUS
  5
28C
 10
531.335906
 20
349.159415
 30
0.0
 40
69.5
  0
CIRCLE
  8
LC-001-002-----0
  6
CONTINUOUS
  5
28D
 10
471.23183
 20
409.263492
 30
0.0
 40
2.5
  0
CIRCLE
  8
LC-001-002-----0
  6
CONTINUOUS
  5
28E
 10
591.439982
 20
289.055339
 30
0.0
 40
2.5
  0
LINE
  8
LC-001-002-----0
  6
CONTINUOUS
 62
     2
  5
28F
 10
214.335906
 20
269.563
 30
0.0
 11
353.335906
 21
269.563
 31
0.0
  0
ENDSEC
  0
EOF
