  0
SECTION
  2
HEADER
  9
$ACADVER
  1
AC1009
  9
$INSBASE
 10
0.0
 20
0.0
 30
0.0
  9
$EXTMIN
 10
0.0
 20
0.0
 30
0.0
  9
$EXTMAX
 10
840.0
 20
594.0
 30
0.0
  9
$LIMMIN
 10
0.0
 20
0.0
  9
$LIMMAX
 10
840.0
 20
594.0
  9
$ORTHOMODE
 70
     0
  9
$REGENMODE
 70
     1
  9
$FILLMODE
 70
     1
  9
$QTEXTMODE
 70
     0
  9
$MIRRTEXT
 70
     1
  9
$DRAGMODE
 70
     2
  9
$LTSCALE
 40
2.0
  9
$OSMODE
 70
     0
  9
$ATTMODE
 70
     1
  9
$TEXTSIZE
 40
0.2
  9
$TRACEWID
 40
0.05
  9
$TEXTSTYLE
  7
STANDARD
  9
$CLAYER
  8
0
  9
$CELTYPE
  6
BYLAYER
  9
$CECOLOR
 62
     7
  9
$DIMSCALE
 40
2.0
  9
$DIMASZ
 40
3.5
  9
$DIMEXO
 40
0.0625
  9
$DIMDLI
 40
0.38
  9
$DIMRND
 40
0.0
  9
$DIMDLE
 40
0.0
  9
$DIMEXE
 40
0.18
  9
$DIMTP
 40
0.0
  9
$DIMTM
 40
0.0
  9
$DIMTXT
 40
3.5
  9
$DIMCEN
 40
0.09
  9
$DIMTSZ
 40
0.0
  9
$DIMTOL
 70
     0
  9
$DIMLIM
 70
     0
  9
$DIMTIH
 70
     1
  9
$DIMTOH
 70
     1
  9
$DIMSE1
 70
     0
  9
$DIMSE2
 70
     0
  9
$DIMTAD
 70
     1
  9
$DIMZIN
 70
     0
  9
$DIMBLK
  1

  9
$DIMASO
 70
     1
  9
$DIMSHO
 70
     1
  9
$DIMPOST
  1

  9
$DIMAPOST
  1

  9
$DIMALT
 70
     0
  9
$DIMALTD
 70
     2
  9
$DIMALTF
 40
25.4
  9
$DIMLFAC
 40
1.0
  9
$DIMTOFL
 70
     0
  9
$DIMTVP
 40
0.0
  9
$DIMTIX
 70
     0
  9
$DIMSOXD
 70
     0
  9
$DIMSAH
 70
     0
  9
$DIMBLK1
  1

  9
$DIMBLK2
  1

  9
$DIMSTYLE
  2
STANDARD
  9
$DIMCLRD
 70
     0
  9
$DIMCLRE
 70
     0
  9
$DIMCLRT
 70
     0
  9
$DIMTFAC
 40
1.0
  9
$DIMGAP
 40
0.09
  9
$LUNITS
 70
     2
  9
$LUPREC
 70
     2
  9
$AXISMODE
 70
     0
  9
$AXISUNIT
 10
0.0
 20
0.0
  9
$SKETCHINC
 40
0.1
  9
$FILLETRAD
 40
0.0
  9
$AUNITS
 70
     0
  9
$AUPREC
 70
     0
  9
$MENU
  1
acad
  9
$ELEVATION
 40
0.0
  9
$PELEVATION
 40
0.0
  9
$THICKNESS
 40
0.0
  9
$LIMCHECK
 70
     0
  9
$BLIPMODE
 70
     1
  9
$CHAMFERA
 40
0.0
  9
$CHAMFERB
 40
0.0
  9
$SKPOLY
 70
     0
  9
$TDCREATE
 40
0.000000000
  9
$TDUPDATE
 40
0.000000000
  9
$TDINDWG
 40
0.0000000000
  9
$TDUSRTIMER
 40
0.0000000000
  9
$USRTIMER
 70
     1
  9
$ANGBASE
 50
0.0
  9
$ANGDIR
 70
     0
  9
$PDMODE
 70
     0
  9
$PDSIZE
 40
0.0
  9
$PLINEWID
 40
0.0
  9
$COORDS
 70
     0
  9
$SPLFRAME
 70
     0
  9
$SPLINETYPE
 70
     6
  9
$SPLINESEGS
 70
     8
  9
$ATTDIA
 70
     0
  9
$ATTREQ
 70
     1
  9
$HANDLING
 70
     1
  9
$HANDSEED
  5
120
  9
$SURFTAB1
 70
     6
  9
$SURFTAB2
 70
     6
  9
$SURFTYPE
 70
     6
  9
$SURFU
 70
     6
  9
$SURFV
 70
     6
  9
$UCSNAME
  2

  9
$UCSORG
 10
0.0
 20
0.0
 30
0.0
  9
$UCSXDIR
 10
1.0
 20
0.0
 30
0.0
  9
$UCSYDIR
 10
0.0
 20
1.0
 30
0.0
  9
$PUCSNAME
  2

  9
$PUCSORG
 10
0.0
 20
0.0
 30
0.0
  9
$PUCSXDIR
 10
1.0
 20
0.0
 30
0.0
  9
$PUCSYDIR
 10
0.0
 20
1.0
 30
0.0
  9
$USERI1
 70
     0
  9
$USERI2
 70
     0
  9
$USERI3
 70
     0
  9
$USERI4
 70
     0
  9
$USERI5
 70
     0
  9
$USERR1
 40
0.0
  9
$USERR2
 40
0.0
  9
$USERR3
 40
0.0
  9
$USERR4
 40
0.0
  9
$USERR5
 40
0.0
  9
$WORLDVIEW
 70
     1
  9
$SHADEDGE
 70
     3
  9
$SHADEDIF
 70
    70
  9
$TILEMODE
 70
     1
  9
$MAXACTVP
 70
    16
  9
$PINSBASE
 10
0.0
 20
0.0
 30
0.0
  9
$PLIMCHECK
 70
     0
  9
$PEXTMIN
 10
1.000000E+20
 20
1.000000E+20
 30
1.000000E+20
  9
$PEXTMAX
 10
-1.000000E+20
 20
-1.000000E+20
 30
-1.000000E+20
  9
$PLIMMIN
 10
0.0
 20
0.0
  9
$PLIMMAX
 10
840.0
 20
594.0
  9
$UNITMODE
 70
     0
  9
$VISRETAIN
 70
     0
  9
$PLINEGEN
 70
     1
  9
$PSLTSCALE
 70
     0
  9
$TREEDEPTH
 70
  3020
  9
$DWGCODEPAGE
  3
dos850
  0
ENDSEC
  0
SECTION
  2
TABLES
  0
TABLE
  2
VPORT
 70
     1
  0
VPORT
  2
*ACTIVE
 70
     0
 10
0.0
 20
0.0
 11
1.0
 21
1.0
 12
420.0
 22
297.0
 13
0.0
 23
0.0
 14
1.0
 24
1.0
 15
0.0
 25
0.0
 16
0.0
 26
0.0
 36
1.0
 17
0.0
 27
0.0
 37
0.0
 40
594.0
 41
1.604229
 42
50.0
 43
0.0
 44
0.0
 50
0.0
 51
0.0
 71
     0
 72
   100
 73
     1
 74
     1
 75
     0
 76
     0
 77
     0
 78
     0
  0
ENDTAB
  0
TABLE
  2
LTYPE
 70
     1
  0
LTYPE
  2
CONTINUOUS
 70
    64
  3
Solid line
 72
    65
 73
     0
 40
0.0
  0
ENDTAB
  0
TABLE
  2
LAYER
 70
     8
  0
LAYER
  2
0
 70
     0
 62
     7
  6
CONTINUOUS
  0
LAYER
  2
LC-INFO-1-2-MM-A3-0
 70
     1
 62
    -1
  6
CONTINUOUS
  0
LAYER
  2
LC-002-003-MTH-0
 70
     0
 62
     2
  6
CONTINUOUS
  0
LAYER
  2
LC-003-003-MTG-0
 70
     0
 62
     2
  6
CONTINUOUS
  0
LAYER
  2
LC-001-003-----0
 70
     0
 62
     2
  6
CONTINUOUS
  0
LAYER
  2
LC-005-000-----0
 70
     0
 62
     7
  6
CONTINUOUS
  0
LAYER
  2
LC-004-002-----0
 70
     0
 62
     2
  6
CONTINUOUS
  0
LAYER
  2
LC-000
 70
     0
 62
     7
  6
CONTINUOUS
  0
ENDTAB
  0
TABLE
  2
STYLE
 70
     4
  0
STYLE
  2
STANDARD
 70
     0
 40
0.0
 41
1.0
 50
0.0
 71
     0
 42
0.0
  3
txt
  4

  0
STYLE
  2
LC-STANDARD
 70
    64
 40
0.0
 41
1.0
 50
0.0
 71
     0
 42
3.5
  3
MONOTXT
  4

  0
STYLE
  2
LC-TXTSTYLE-150-400-0-0-A2
 70
    64
 40
0.0
 41
1.0
 50
15.0
 71
     0
 42
3.5
  3
MONOTXT
  4

  0
STYLE
  2
LC-TXTSTYLE-150-400-0-0-D3
 70
    64
 40
0.0
 41
1.0
 50
15.0
 71
     0
 42
3.5
  3
LC-STANDARD
  4

  0
ENDTAB
  0
TABLE
  2
VIEW
 70
     0
  0
ENDTAB
  0
TABLE
  2
UCS
 70
     0
  0
ENDTAB
  0
TABLE
  2
APPID
 70
     1
  0
APPID
  2
ACAD
 70
     0
  0
ENDTAB
  0
TABLE
  2
DIMSTYLE
 70
     3
  0
DIMSTYLE
  2
STANDARD
 70
     0
  3

  4

  5

  6

  7

 40
1.0
 41
0.18
 42
0.0625
 43
0.38
 44
0.18
 45
0.0
 46
0.0
 47
0.0
 48
0.0
 71
     0
 72
     0
 73
     1
 74
     1
 75
     0
 76
     0
 77
     0
 78
     0
140
0.18
141
0.09
142
0.0
143
25.4
144
1.0
145
0.0
146
1.0
147
0.09
170
     0
171
     2
172
     0
173
     0
174
     0
175
     0
176
     0
177
     0
178
     0
  0
DIMSTYLE
  2
LC-STANDARD
 70
     0
  3

  4

  5

  6

  7

 40
1.0
 41
3.5
 42
0.0
 43
7.5
 44
1.8
 45
0.0
 46
0.0
 47
0.0
 48
0.0
 71
     0
 72
     0
 73
     0
 74
     0
 75
     0
 76
     0
 77
     1
 78
     8
140
3.5
141
0.0
142
0.0
143
25.4
144
1.0
145
0.0
146
0.71
147
1.5
170
     0
171
     2
172
     1
173
     0
174
     0
175
     0
176
     0
177
     0
178
     3
  0
DIMSTYLE
  2
LC-DIM-L-0140-02-02
 70
     0
  3

  4

  5

  6

  7

 40
2.0
 41
3.5
 42
0.0
 43
7.5
 44
1.8
 45
0.0
 46
0.0
 47
0.0
 48
0.0
 71
     0
 72
     0
 73
     0
 74
     0
 75
     0
 76
     0
 77
     1
 78
     8
140
14.0
141
0.0
142
0.0
143
25.4
144
1.0
145
0.0
146
0.71
147
1.5
170
     0
171
     2
172
     0
173
     0
174
     0
175
     0
176
     2
177
     2
178
     8
  0
ENDTAB
  0
ENDSEC
  0
SECTION
  2
BLOCKS
  0
BLOCK
  8
0
  5
23
  2
*D0
 70
    65
 10
0.0
 20
0.0
 30
0.0
  3
*D0
  0
LINE
  8
LC-002-003-MTH-0
  6
CONTINUOUS
  5
25
 10
334.468847
 20
396.346968
 30
0.0
 11
334.468847
 21
436.8
 31
0.0
  0
LINE
  8
LC-002-003-MTH-0
  6
CONTINUOUS
  5
26
 10
524.468847
 20
396.346968
 30
0.0
 11
524.468847
 21
436.8
 31
0.0
  0
LINE
  8
LC-003-003-MTG-0
  6
CONTINUOUS
  5
28
 10
334.468847
 20
420.0
 30
0.0
 11
524.468847
 21
420.0
 31
0.0
  0
LINE
  8
LC-001-003-----0
  6
CONTINUOUS
  5
2A
 10
362.229303
 20
423.654733
 30
0.0
 11
334.468847
 21
420.0
 31
0.0
  0
LINE
  8
LC-001-003-----0
  6
CONTINUOUS
  5
2B
 10
334.468847
 20
420.0
 30
0.0
 11
362.229303
 21
416.345267
 31
0.0
  0
LINE
  8
LC-001-003-----0
  6
CONTINUOUS
  5
2C
 10
362.229303
 20
416.345267
 30
0.0
 11
362.229303
 21
423.654733
 31
0.0
  0
LINE
  8
LC-001-003-----0
  6
CONTINUOUS
  5
2D
 10
362.291584
 20
422.704503
 30
0.0
 11
341.748847
 21
420.0
 31
0.0
  0
LINE
  8
LC-001-003-----0
  6
CONTINUOUS
  5
2E
 10
341.748847
 20
420.0
 30
0.0
 11
362.291584
 21
417.295497
 31
0.0
  0
LINE
  8
LC-001-003-----0
  6
CONTINUOUS
  5
2F
 10
362.353866
 20
421.754272
 30
0.0
 11
349.028847
 21
420.0
 31
0.0
  0
LINE
  8
LC-001-003-----0
  6
CONTINUOUS
  5
30
 10
349.028847
 20
420.0
 30
0.0
 11
362.353866
 21
418.245728
 31
0.0
  0
LINE
  8
LC-001-003-----0
  6
CONTINUOUS
  5
31
 10
362.416147
 20
420.804041
 30
0.0
 11
356.308847
 21
420.0
 31
0.0
  0
LINE
  8
LC-001-003-----0
  6
CONTINUOUS
  5
32
 10
356.308847
 20
420.0
 30
0.0
 11
362.416147
 21
419.195959
 31
0.0
  0
LINE
  8
LC-001-003-----0
  6
CONTINUOUS
  5
33
 10
496.708391
 20
416.345267
 30
0.0
 11
524.468847
 21
420.0
 31
0.0
  0
LINE
  8
LC-001-003-----0
  6
CONTINUOUS
  5
34
 10
524.468847
 20
420.0
 30
0.0
 11
496.708391
 21
423.654733
 31
0.0
  0
LINE
  8
LC-001-003-----0
  6
CONTINUOUS
  5
35
 10
496.708391
 20
423.654733
 30
0.0
 11
496.708391
 21
416.345267
 31
0.0
  0
LINE
  8
LC-001-003-----0
  6
CONTINUOUS
  5
36
 10
496.646109
 20
417.295497
 30
0.0
 11
517.188847
 21
420.0
 31
0.0
  0
LINE
  8
LC-001-003-----0
  6
CONTINUOUS
  5
37
 10
517.188847
 20
420.0
 30
0.0
 11
496.646109
 21
422.704503
 31
0.0
  0
LINE
  8
LC-001-003-----0
  6
CONTINUOUS
  5
38
 10
496.583828
 20
418.245728
 30
0.0
 11
509.908847
 21
420.0
 31
0.0
  0
LINE
  8
LC-001-003-----0
  6
CONTINUOUS
  5
39
 10
509.908847
 20
420.0
 30
0.0
 11
496.583828
 21
421.754272
 31
0.0
  0
LINE
  8
LC-001-003-----0
  6
CONTINUOUS
  5
3A
 10
496.521546
 20
419.195959
 30
0.0
 11
502.628847
 21
420.0
 31
0.0
  0
LINE
  8
LC-001-003-----0
  6
CONTINUOUS
  5
3B
 10
502.628847
 20
420.0
 30
0.0
 11
496.521546
 21
420.804041
 31
0.0
  0
TEXT
  8
LC-001-003-----0
  6
CONTINUOUS
 62
     8
  5
3D
 10
404.053227
 20
427.827554
 30
0.0
 40
28.0
  1
190
 41
0.9
 51
15.0
  7
LC-TXTSTYLE-150-400-0-0-D0
 72
     1
 11
433.817007
 21
427.827554
 31
0.0
  0
ENDBLK
  8
0
  5
3E
  0
BLOCK
  8
0
  5
40
  2
BLK1
 70
    64
 10
0.0
 20
0.0
 30
0.0
  3
BLK1
  0
ENDBLK
  8
0
  5
41
  0
BLOCK
  8
0
  5
43
  2
BLK2
 70
    64
 10
0.0
 20
0.0
 30
0.0
  3
BLK2
  0
ENDBLK
  8
0
  5
44
  0
BLOCK
  8
0
  5
46
  2
BLK3
 70
    64
 10
0.0
 20
0.0
 30
0.0
  3
BLK3
  0
ENDBLK
  8
0
  5
47
  0
BLOCK
  8
0
  5
49
  2
BLK4
 70
    64
 10
0.0
 20
0.0
 30
0.0
  3
BLK4
  0
ENDBLK
  8
0
  5
4A
  0
BLOCK
  8
0
  5
4C
  2
BLK5
 70
    64
 10
0.0
 20
0.0
 30
0.0
  3
BLK5
  0
ENDBLK
  8
0
  5
4D
  0
BLOCK
  8
0
  5
4F
  2
BLK6
 70
    64
 10
0.0
 20
0.0
 30
0.0
  3
BLK6
  0
ENDBLK
  8
0
  5
50
  0
BLOCK
  8
0
  5
52
  2
BLK7
 70
    64
 10
0.0
 20
0.0
 30
0.0
  3
BLK7
  0
ENDBLK
  8
0
  5
53
  0
BLOCK
  8
0
  5
55
  2
BLK8
 70
    64
 10
0.0
 20
0.0
 30
0.0
  3
BLK8
  0
ENDBLK
  8
0
  5
56
  0
BLOCK
  8
0
  5
58
  2
BLK9
 70
    64
 10
0.0
 20
0.0
 30
0.0
  3
BLK9
  0
ENDBLK
  8
0
  5
59
  0
BLOCK
  8
0
  5
5B
  2
BLK10
 70
    64
 10
0.0
 20
0.0
 30
0.0
  3
BLK10
  0
ENDBLK
  8
0
  5
5C
  0
BLOCK
  8
0
  5
5E
  2
BLK11
 70
    64
 10
0.0
 20
0.0
 30
0.0
  3
BLK11
  0
ENDBLK
  8
0
  5
5F
  0
BLOCK
  8
0
  5
61
  2
BLK12
 70
    64
 10
0.0
 20
0.0
 30
0.0
  3
BLK12
  0
ENDBLK
  8
0
  5
62
  0
ENDSEC
  0
SECTION
  2
ENTITIES
  0
VIEWPORT
  8
LC-000
  5
110
 67
     1
 68
     1
 10
420.0
 20
297.0
 30
0.0
 40
840.0
 41
594.0
 69
     1
1001
ACAD
1000
MVIEW
1002
{
1070
    16
1010
0.0
1020
0.0
1030
0.0
1010
0.0
1020
0.0
1030
1.0
1040
0.0
1040
594.0
1040
420.0
1040
297.0
1040
50.0
1040
0.0
1040
0.0
1070
     0
1070
   100
1070
     1
1070
     1
1070
     0
1070
     0
1070
     0
1070
     0
1040
0.0
1040
0.0
1040
0.0
1040
1.0
1040
1.0
1040
0.0
1040
0.0
1070
     0
1002
{
1002
}
1002
}
  0
VIEWPORT
  8
0
  5
111
 67
     1
 68
     1
 10
0.0
 20
0.0
 30
0.0
 40
0.0
 41
0.0
 69
     1
1001
ACAD
1000
MVIEW
1002
{
1070
    16
1010
0.0
1020
0.0
1030
0.0
1010
0.0
1020
0.0
1030
1.0
1040
0.0
1040
594.0
1040
0.0
1040
0.0
1040
50.0
1040
0.0
1040
0.0
1070
     0
1070
   100
1070
     0
1070
     1
1070
     0
1070
     0
1070
     0
1070
     0
1040
0.0
1040
0.0
1040
0.0
1040
0.5
1040
0.5
1040
0.5
1040
0.5
1070
     0
1002
{
1002
}
1002
}
  0
DIMENSION
  8
0
  5
63
  2
*D0
 10
429.468847
 20
420.0
 30
0.0
 11
429.468847
 21
420.0
 31
0.0
 13
334.468847
 23
396.346968
 33
0.0
 14
524.468847
 24
396.346968
 34
0.0
  3
LC-DIM-L-0140-02-02
  0
INSERT
  8
0
  5
65
  2
BLK1
 10
0.0
 20
0.0
 30
0.0
  0
INSERT
  8
0
  5
66
  2
BLK2
 10
0.0
 20
0.0
 30
0.0
  0
INSERT
  8
0
  5
67
  2
BLK3
 10
0.0
 20
0.0
 30
0.0
  0
INSERT
  8
0
  5
68
  2
BLK4
 10
0.0
 20
0.0
 30
0.0
  0
INSERT
  8
0
  5
69
  2
BLK5
 10
0.0
 20
0.0
 30
0.0
  0
INSERT
  8
0
  5
6A
  2
BLK6
 10
0.0
 20
0.0
 30
0.0
  0
INSERT
  8
0
  5
6B
  2
BLK7
 10
0.0
 20
0.0
 30
0.0
  0
INSERT
  8
0
  5
6C
  2
BLK8
 10
0.0
 20
0.0
 30
0.0
  0
INSERT
  8
0
  5
6D
  2
BLK9
 10
0.0
 20
0.0
 30
0.0
  0
INSERT
  8
0
  5
6E
  2
BLK10
 10
0.0
 20
0.0
 30
0.0
  0
INSERT
  8
0
  5
6F
  2
BLK11
 10
0.0
 20
0.0
 30
0.0
  0
INSERT
  8
0
  5
70
  2
BLK12
 10
0.0
 20
0.0
 30
0.0
  0
LINE
  8
LC-004-002-----0
  6
CONTINUOUS
  5
72
 10
378.501784
 20
446.653271
 30
0.0
 11
378.501784
 21
431.653271
 31
0.0
  0
LINE
  8
LC-004-002-----0
  6
CONTINUOUS
  5
73
 10
378.501784
 20
431.653271
 30
0.0
 11
393.501784
 21
431.653271
 31
0.0
  0
LINE
  8
LC-004-002-----0
  6
CONTINUOUS
  5
74
 10
393.501784
 20
446.503271
 30
0.0
 11
393.501784
 21
431.653271
 31
0.0
  0
LINE
  8
LC-004-002-----0
  6
CONTINUOUS
  5
75
 10
378.501784
 20
446.653271
 30
0.0
 11
393.501784
 21
446.653271
 31
0.0
  0
LINE
  8
LC-004-002-----0
  6
CONTINUOUS
 62
     1
  5
76
 10
334.468847
 20
301.346968
 30
0.0
 11
334.468847
 21
396.346968
 31
0.0
  0
LINE
  8
LC-004-002-----0
  6
CONTINUOUS
 62
     1
  5
77
 10
334.468847
 20
396.346968
 30
0.0
 11
524.468847
 21
396.346968
 31
0.0
  0
LINE
  8
LC-004-002-----0
  6
CONTINUOUS
 62
     1
  5
78
 10
524.468847
 20
396.346968
 30
0.0
 11
524.468847
 21
206.346968
 31
0.0
  0
LINE
  8
LC-004-002-----0
  6
CONTINUOUS
 62
     1
  5
79
 10
524.468847
 20
206.346968
 30
0.0
 11
334.468847
 21
206.346968
 31
0.0
  0
LINE
  8
LC-004-002-----0
  6
CONTINUOUS
 62
     1
  5
7A
 10
334.468847
 20
206.346968
 30
0.0
 11
334.468847
 21
301.346968
 31
0.0
  0
ARC
  8
LC-004-002-----0
  6
CONTINUOUS
 62
     1
  5
7B
 10
485.468847
 20
341.346968
 30
0.0
 40
4.0
 50
0.0
 51
179.999829
  0
ARC
  8
LC-004-002-----0
  6
CONTINUOUS
 62
     1
  5
7C
 10
504.468847
 20
357.346968
 30
0.0
 40
4.0
 50
0.0
 51
179.999829
  0
ARC
  8
LC-004-002-----0
  6
CONTINUOUS
 62
     1
  5
7D
 10
449.468847
 20
309.346968
 30
0.0
 40
4.0
 50
0.0
 51
179.999829
  0
ARC
  8
LC-004-002-----0
  6
CONTINUOUS
 62
     1
  5
7E
 10
467.468847
 20
325.346968
 30
0.0
 40
4.0
 50
0.0
 51
179.999829
  0
LINE
  8
LC-004-002-----0
  6
CONTINUOUS
 62
     1
  5
7F
 10
500.468847
 20
357.346968
 30
0.0
 11
500.468847
 21
301.346968
 31
0.0
  0
LINE
  8
LC-004-002-----0
  6
CONTINUOUS
 62
     1
  5
80
 10
508.468847
 20
357.346968
 30
0.0
 11
508.468847
 21
301.346968
 31
0.0
  0
LINE
  8
LC-004-002-----0
  6
CONTINUOUS
 62
     1
  5
81
 10
481.468847
 20
341.346968
 30
0.0
 11
481.468847
 21
301.346968
 31
0.0
  0
LINE
  8
LC-004-002-----0
  6
CONTINUOUS
 62
     1
  5
82
 10
489.468847
 20
341.346968
 30
0.0
 11
489.468847
 21
301.346968
 31
0.0
  0
LINE
  8
LC-004-002-----0
  6
CONTINUOUS
 62
     1
  5
83
 10
463.468847
 20
325.346968
 30
0.0
 11
463.468847
 21
301.346968
 31
0.0
  0
LINE
  8
LC-004-002-----0
  6
CONTINUOUS
 62
     1
  5
84
 10
471.468847
 20
325.346968
 30
0.0
 11
471.468847
 21
301.346968
 31
0.0
  0
LINE
  8
LC-004-002-----0
  6
CONTINUOUS
 62
     1
  5
85
 10
445.468847
 20
309.346968
 30
0.0
 11
445.468847
 21
301.346968
 31
0.0
  0
LINE
  8
LC-004-002-----0
  6
CONTINUOUS
 62
     1
  5
86
 10
453.468847
 20
309.346968
 30
0.0
 11
453.468847
 21
301.346968
 31
0.0
  0
ARC
  8
LC-004-002-----0
  6
CONTINUOUS
 62
     1
  5
87
 10
485.467001
 20
261.343674
 30
0.0
 40
4.0
 50
179.999925
 51
359.999696
  0
ARC
  8
LC-004-002-----0
  6
CONTINUOUS
 62
     1
  5
88
 10
504.466916
 20
245.343573
 30
0.0
 40
4.0
 50
179.999925
 51
359.999696
  0
ARC
  8
LC-004-002-----0
  6
CONTINUOUS
 62
     1
  5
89
 10
449.467171
 20
293.343865
 30
0.0
 40
4.0
 50
179.999925
 51
359.999696
  0
ARC
  8
LC-004-002-----0
  6
CONTINUOUS
 62
     1
  5
8A
 10
467.467086
 20
277.34377
 30
0.0
 40
4.0
 50
179.999925
 51
359.999696
  0
LINE
  8
LC-004-002-----0
  6
CONTINUOUS
 62
     1
  5
8B
 10
500.466916
 20
245.343595
 30
0.0
 11
500.467213
 21
301.343595
 31
0.0
  0
LINE
  8
LC-004-002-----0
  6
CONTINUOUS
 62
     1
  5
8C
 10
508.466916
 20
245.343552
 30
0.0
 11
508.467213
 21
301.343552
 31
0.0
  0
LINE
  8
LC-004-002-----0
  6
CONTINUOUS
 62
     1
  5
8D
 10
481.467001
 20
261.343695
 30
0.0
 11
481.467213
 21
301.343695
 31
0.0
  0
LINE
  8
LC-004-002-----0
  6
CONTINUOUS
 62
     1
  5
8E
 10
489.467001
 20
261.343653
 30
0.0
 11
489.467213
 21
301.343653
 31
0.0
  0
LINE
  8
LC-004-002-----0
  6
CONTINUOUS
 62
     1
  5
8F
 10
463.467086
 20
277.343791
 30
0.0
 11
463.467213
 21
301.343791
 31
0.0
  0
LINE
  8
LC-004-002-----0
  6
CONTINUOUS
 62
     1
  5
90
 10
471.467086
 20
277.343748
 30
0.0
 11
471.467213
 21
301.343748
 31
0.0
  0
LINE
  8
LC-004-002-----0
  6
CONTINUOUS
 62
     1
  5
91
 10
445.467171
 20
293.343886
 30
0.0
 11
445.467213
 21
301.343886
 31
0.0
  0
LINE
  8
LC-004-002-----0
  6
CONTINUOUS
 62
     1
  5
92
 10
453.467171
 20
293.343844
 30
0.0
 11
453.467213
 21
301.343844
 31
0.0
  0
ARC
  8
LC-004-002-----0
  6
CONTINUOUS
 62
     1
  5
93
 10
373.469074
 20
341.347373
 30
0.0
 40
4.0
 50
0.000115
 51
179.999963
  0
ARC
  8
LC-004-002-----0
  6
CONTINUOUS
 62
     1
  5
94
 10
354.469085
 20
357.347386
 30
0.0
 40
4.0
 50
0.000115
 51
179.999963
  0
ARC
  8
LC-004-002-----0
  6
CONTINUOUS
 62
     1
  5
95
 10
409.469053
 20
309.34735
 30
0.0
 40
4.0
 50
0.000115
 51
179.999963
  0
ARC
  8
LC-004-002-----0
  6
CONTINUOUS
 62
     1
  5
96
 10
391.469064
 20
325.347361
 30
0.0
 40
4.0
 50
0.000115
 51
179.999963
  0
LINE
  8
LC-004-002-----0
  6
CONTINUOUS
 62
     1
  5
97
 10
358.469085
 20
357.347383
 30
0.0
 11
358.469048
 21
301.347383
 31
0.0
  0
LINE
  8
LC-004-002-----0
  6
CONTINUOUS
 62
     1
  5
98
 10
350.469085
 20
357.347388
 30
0.0
 11
350.469048
 21
301.347388
 31
0.0
  0
LINE
  8
LC-004-002-----0
  6
CONTINUOUS
 62
     1
  5
99
 10
377.469074
 20
341.347371
 30
0.0
 11
377.469048
 21
301.347371
 31
0.0
  0
LINE
  8
LC-004-002-----0
  6
CONTINUOUS
 62
     1
  5
9A
 10
369.469074
 20
341.347376
 30
0.0
 11
369.469048
 21
301.347376
 31
0.0
  0
LINE
  8
LC-004-002-----0
  6
CONTINUOUS
 62
     1
  5
9B
 10
395.469064
 20
325.347359
 30
0.0
 11
395.469048
 21
301.347359
 31
0.0
  0
LINE
  8
LC-004-002-----0
  6
CONTINUOUS
 62
     1
  5
9C
 10
387.469064
 20
325.347364
 30
0.0
 11
387.469048
 21
301.347364
 31
0.0
  0
LINE
  8
LC-004-002-----0
  6
CONTINUOUS
 62
     1
  5
9D
 10
413.469053
 20
309.347347
 30
0.0
 11
413.469048
 21
301.347347
 31
0.0
  0
LINE
  8
LC-004-002-----0
  6
CONTINUOUS
 62
     1
  5
9E
 10
405.469053
 20
309.347352
 30
0.0
 11
405.469048
 21
301.347352
 31
0.0
  0
ARC
  8
LC-004-002-----0
  6
CONTINUOUS
 62
     1
  5
9F
 10
373.470868
 20
261.34408
 30
0.0
 40
4.0
 50
180.000267
 51
359.999944
  0
ARC
  8
LC-004-002-----0
  6
CONTINUOUS
 62
     1
  5
A0
 10
354.470942
 20
245.343991
 30
0.0
 40
4.0
 50
180.000267
 51
359.999944
  0
ARC
  8
LC-004-002-----0
  6
CONTINUOUS
 62
     1
  5
A1
 10
409.470719
 20
293.344247
 30
0.0
 40
4.0
 50
180.000267
 51
359.999944
  0
ARC
  8
LC-004-002-----0
  6
CONTINUOUS
 62
     1
  5
A2
 10
391.470793
 20
277.344164
 30
0.0
 40
4.0
 50
180.000267
 51
359.999944
  0
LINE
  8
LC-004-002-----0
  6
CONTINUOUS
 62
     1
  5
A3
 10
358.470942
 20
245.34401
 30
0.0
 11
358.470681
 21
301.34401
 31
0.0
  0
LINE
  8
LC-004-002-----0
  6
CONTINUOUS
 62
     1
  5
A4
 10
350.470942
 20
245.343973
 30
0.0
 11
350.470681
 21
301.343973
 31
0.0
  0
LINE
  8
LC-004-002-----0
  6
CONTINUOUS
 62
     1
  5
A5
 10
377.470868
 20
261.344098
 30
0.0
 11
377.470681
 21
301.344098
 31
0.0
  0
LINE
  8
LC-004-002-----0
  6
CONTINUOUS
 62
     1
  5
A6
 10
369.470868
 20
261.344061
 30
0.0
 11
369.470681
 21
301.344061
 31
0.0
  0
LINE
  8
LC-004-002-----0
  6
CONTINUOUS
 62
     1
  5
A7
 10
395.470793
 20
277.344182
 30
0.0
 11
395.470681
 21
301.344182
 31
0.0
  0
LINE
  8
LC-004-002-----0
  6
CONTINUOUS
 62
     1
  5
A8
 10
387.470793
 20
277.344145
 30
0.0
 11
387.470681
 21
301.344145
 31
0.0
  0
LINE
  8
LC-004-002-----0
  6
CONTINUOUS
 62
     1
  5
A9
 10
413.470719
 20
293.344266
 30
0.0
 11
413.470681
 21
301.344266
 31
0.0
  0
LINE
  8
LC-004-002-----0
  6
CONTINUOUS
 62
     1
  5
AA
 10
405.470719
 20
293.344229
 30
0.0
 11
405.470681
 21
301.344229
 31
0.0
  0
ARC
  8
LC-004-002-----0
  6
CONTINUOUS
 62
     1
  5
AB
 10
389.468921
 20
357.347021
 30
0.0
 40
4.0
 50
89.999924
 51
269.999753
  0
ARC
  8
LC-004-002-----0
  6
CONTINUOUS
 62
     1
  5
AC
 10
373.468946
 20
376.347042
 30
0.0
 40
4.0
 50
89.999924
 51
269.999753
  0
ARC
  8
LC-004-002-----0
  6
CONTINUOUS
 62
     1
  5
AD
 10
421.468873
 20
321.346978
 30
0.0
 40
4.0
 50
89.999924
 51
269.999753
  0
ARC
  8
LC-004-002-----0
  6
CONTINUOUS
 62
     1
  5
AE
 10
405.468897
 20
339.346999
 30
0.0
 40
4.0
 50
89.999924
 51
269.999753
  0
LINE
  8
LC-004-002-----0
  6
CONTINUOUS
 62
     1
  5
AF
 10
373.468941
 20
372.347042
 30
0.0
 11
429.468941
 21
372.346968
 31
0.0
  0
LINE
  8
LC-004-002-----0
  6
CONTINUOUS
 62
     1
  5
B0
 10
373.468952
 20
380.347042
 30
0.0
 11
429.468952
 21
380.346968
 31
0.0
  0
LINE
  8
LC-004-002-----0
  6
CONTINUOUS
 62
     1
  5
B1
 10
389.468916
 20
353.347021
 30
0.0
 11
429.468916
 21
353.346968
 31
0.0
  0
LINE
  8
LC-004-002-----0
  6
CONTINUOUS
 62
     1
  5
B2
 10
389.468926
 20
361.347021
 30
0.0
 11
429.468926
 21
361.346968
 31
0.0
  0
LINE
  8
LC-004-002-----0
  6
CONTINUOUS
 62
     1
  5
B3
 10
405.468892
 20
335.346999
 30
0.0
 11
429.468892
 21
335.346968
 31
0.0
  0
LINE
  8
LC-004-002-----0
  6
CONTINUOUS
 62
     1
  5
B4
 10
405.468903
 20
343.346999
 30
0.0
 11
429.468903
 21
343.346968
 31
0.0
  0
LINE
  8
LC-004-002-----0
  6
CONTINUOUS
 62
     1
  5
B5
 10
421.468868
 20
317.346978
 30
0.0
 11
429.468868
 21
317.346968
 31
0.0
  0
LINE
  8
LC-004-002-----0
  6
CONTINUOUS
 62
     1
  5
B6
 10
421.468879
 20
325.346978
 30
0.0
 11
429.468879
 21
325.346968
 31
0.0
  0
ARC
  8
LC-004-002-----0
  6
CONTINUOUS
 62
     1
  5
B7
 10
469.472214
 20
357.345069
 30
0.0
 40
4.0
 50
269.999791
 51
89.99962
  0
ARC
  8
LC-004-002-----0
  6
CONTINUOUS
 62
     1
  5
B8
 10
485.47234
 20
376.344963
 30
0.0
 40
4.0
 50
269.999791
 51
89.99962
  0
ARC
  8
LC-004-002-----0
  6
CONTINUOUS
 62
     1
  5
B9
 10
437.471976
 20
321.345281
 30
0.0
 40
4.0
 50
269.999791
 51
89.99962
  0
ARC
  8
LC-004-002-----0
  6
CONTINUOUS
 62
     1
  5
BA
 10
453.472095
 20
339.345175
 30
0.0
 40
4.0
 50
269.999791
 51
89.99962
  0
LINE
  8
LC-004-002-----0
  6
CONTINUOUS
 62
     1
  5
BB
 10
485.472314
 20
372.344963
 30
0.0
 11
429.472314
 21
372.345334
 31
0.0
  0
LINE
  8
LC-004-002-----0
  6
CONTINUOUS
 62
     1
  5
BC
 10
485.472367
 20
380.344963
 30
0.0
 11
429.472367
 21
380.345334
 31
0.0
  0
LINE
  8
LC-004-002-----0
  6
CONTINUOUS
 62
     1
  5
BD
 10
469.472188
 20
353.345069
 30
0.0
 11
429.472188
 21
353.345334
 31
0.0
  0
LINE
  8
LC-004-002-----0
  6
CONTINUOUS
 62
     1
  5
BE
 10
469.472241
 20
361.345069
 30
0.0
 11
429.472241
 21
361.345334
 31
0.0
  0
LINE
  8
LC-004-002-----0
  6
CONTINUOUS
 62
     1
  5
BF
 10
453.472068
 20
335.345175
 30
0.0
 11
429.472068
 21
335.345334
 31
0.0
  0
LINE
  8
LC-004-002-----0
  6
CONTINUOUS
 62
     1
  5
C0
 10
453.472122
 20
343.345175
 30
0.0
 11
429.472122
 21
343.345334
 31
0.0
  0
LINE
  8
LC-004-002-----0
  6
CONTINUOUS
 62
     1
  5
C1
 10
437.471949
 20
317.345281
 30
0.0
 11
429.471949
 21
317.345334
 31
0.0
  0
LINE
  8
LC-004-002-----0
  6
CONTINUOUS
 62
     1
  5
C2
 10
437.472002
 20
325.345281
 30
0.0
 11
429.472002
 21
325.345334
 31
0.0
  0
ARC
  8
LC-004-002-----0
  6
CONTINUOUS
 62
     1
  5
C3
 10
469.47166
 20
245.348935
 30
0.0
 40
4.0
 50
270.000191
 51
90.000078
  0
ARC
  8
LC-004-002-----0
  6
CONTINUOUS
 62
     1
  5
C4
 10
485.471723
 20
226.348988
 30
0.0
 40
4.0
 50
270.000191
 51
90.000078
  0
ARC
  8
LC-004-002-----0
  6
CONTINUOUS
 62
     1
  5
C5
 10
437.47154
 20
281.348829
 30
0.0
 40
4.0
 50
270.000191
 51
90.000078
  0
ARC
  8
LC-004-002-----0
  6
CONTINUOUS
 62
     1
  5
C6
 10
453.4716
 20
263.348882
 30
0.0
 40
4.0
 50
270.000191
 51
90.000078
  0
LINE
  8
LC-004-002-----0
  6
CONTINUOUS
 62
     1
  5
C7
 10
485.47171
 20
230.348988
 30
0.0
 11
429.47171
 21
230.348802
 31
0.0
  0
LINE
  8
LC-004-002-----0
  6
CONTINUOUS
 62
     1
  5
C8
 10
485.471737
 20
222.348988
 30
0.0
 11
429.471737
 21
222.348802
 31
0.0
  0
LINE
  8
LC-004-002-----0
  6
CONTINUOUS
 62
     1
  5
C9
 10
469.471647
 20
249.348935
 30
0.0
 11
429.471647
 21
249.348802
 31
0.0
  0
LINE
  8
LC-004-002-----0
  6
CONTINUOUS
 62
     1
  5
CA
 10
469.471674
 20
241.348935
 30
0.0
 11
429.471674
 21
241.348802
 31
0.0
  0
LINE
  8
LC-004-002-----0
  6
CONTINUOUS
 62
     1
  5
CB
 10
453.471587
 20
267.348882
 30
0.0
 11
429.471587
 21
267.348802
 31
0.0
  0
LINE
  8
LC-004-002-----0
  6
CONTINUOUS
 62
     1
  5
CC
 10
453.471614
 20
259.348882
 30
0.0
 11
429.471614
 21
259.348802
 31
0.0
  0
LINE
  8
LC-004-002-----0
  6
CONTINUOUS
 62
     1
  5
CD
 10
437.471527
 20
285.348829
 30
0.0
 11
429.471527
 21
285.348802
 31
0.0
  0
LINE
  8
LC-004-002-----0
  6
CONTINUOUS
 62
     1
  5
CE
 10
437.471554
 20
277.348829
 30
0.0
 11
429.471554
 21
277.348802
 31
0.0
  0
ARC
  8
LC-004-002-----0
  6
CONTINUOUS
 62
     1
  5
CF
 10
389.468367
 20
245.347248
 30
0.0
 40
4.0
 50
89.999905
 51
269.999887
  0
ARC
  8
LC-004-002-----0
  6
CONTINUOUS
 62
     1
  5
D0
 10
405.468403
 20
263.347216
 30
0.0
 40
4.0
 50
89.999905
 51
269.999887
  0
LINE
  8
LC-004-002-----0
  6
CONTINUOUS
 62
     1
  5
D1
 10
373.468337
 20
230.34728
 30
0.0
 11
429.468337
 21
230.347169
 31
0.0
  0
LINE
  8
LC-004-002-----0
  6
CONTINUOUS
 62
     1
  5
D2
 10
373.468321
 20
222.34728
 30
0.0
 11
429.468321
 21
222.347169
 31
0.0
  0
LINE
  8
LC-004-002-----0
  6
CONTINUOUS
 62
     1
  5
D3
 10
389.468375
 20
249.347248
 30
0.0
 11
429.468375
 21
249.347169
 31
0.0
  0
LINE
  8
LC-004-002-----0
  6
CONTINUOUS
 62
     1
  5
D4
 10
389.468359
 20
241.347248
 30
0.0
 11
429.468359
 21
241.347169
 31
0.0
  0
LINE
  8
LC-004-002-----0
  6
CONTINUOUS
 62
     1
  5
D5
 10
405.46841
 20
267.347216
 30
0.0
 11
429.46841
 21
267.347169
 31
0.0
  0
LINE
  8
LC-004-002-----0
  6
CONTINUOUS
 62
     1
  5
D6
 10
405.468395
 20
259.347216
 30
0.0
 11
429.468395
 21
259.347169
 31
0.0
  0
ARC
  8
LC-004-002-----0
  6
CONTINUOUS
 62
     1
  5
D7
 10
421.468438
 20
281.347185
 30
0.0
 40
4.0
 50
89.999905
 51
269.999887
  0
LINE
  8
LC-004-002-----0
  6
CONTINUOUS
 62
     1
  5
D8
 10
421.468446
 20
285.347185
 30
0.0
 11
429.468446
 21
285.347169
 31
0.0
  0
LINE
  8
LC-004-002-----0
  6
CONTINUOUS
 62
     1
  5
D9
 10
421.46843
 20
277.347185
 30
0.0
 11
429.46843
 21
277.347169
 31
0.0
  0
ARC
  8
LC-004-002-----0
  6
CONTINUOUS
 62
     1
  5
DA
 10
373.468329
 20
226.34728
 30
0.0
 40
4.0
 50
89.999905
 51
269.999887
  0
CIRCLE
  8
LC-004-002-----0
  6
CONTINUOUS
 62
     1
  5
DB
 10
510.46832
 20
382.366806
 30
0.0
 40
4.5
  0
LINE
  8
LC-004-002-----0
  6
CONTINUOUS
 62
     1
  5
DC
 10
512.968441
 20
381.867407
 30
0.0
 11
512.9682
 21
382.867407
 31
0.0
  0
LINE
  8
LC-004-002-----0
  6
CONTINUOUS
 62
     1
  5
DD
 10
512.9682
 20
382.867407
 30
0.0
 11
510.9682
 21
382.866926
 31
0.0
  0
LINE
  8
LC-004-002-----0
  6
CONTINUOUS
 62
     1
  5
DE
 10
507.9682
 20
382.866205
 30
0.0
 11
507.968441
 21
381.866205
 31
0.0
  0
LINE
  8
LC-004-002-----0
  6
CONTINUOUS
 62
     1
  5
DF
 10
507.968441
 20
381.866205
 30
0.0
 11
509.968441
 21
381.866686
 31
0.0
  0
LINE
  8
LC-004-002-----0
  6
CONTINUOUS
 62
     1
  5
E0
 10
510.968921
 20
379.866926
 30
0.0
 11
509.968921
 21
379.866686
 31
0.0
  0
CIRCLE
  8
LC-004-002-----0
  6
CONTINUOUS
 62
     1
  5
E1
 10
348.463561
 20
220.345588
 30
0.0
 40
4.5
  0
LINE
  8
LC-004-002-----0
  6
CONTINUOUS
 62
     1
  5
E2
 10
345.963595
 20
220.845758
 30
0.0
 11
345.963527
 21
219.845758
 31
0.0
  0
LINE
  8
LC-004-002-----0
  6
CONTINUOUS
 62
     1
  5
E3
 10
345.963527
 20
219.845758
 30
0.0
 11
347.963527
 21
219.845622
 31
0.0
  0
LINE
  8
LC-004-002-----0
  6
CONTINUOUS
 62
     1
  5
E4
 10
350.963527
 20
219.845419
 30
0.0
 11
350.963595
 21
220.845419
 31
0.0
  0
LINE
  8
LC-004-002-----0
  6
CONTINUOUS
 62
     1
  5
E5
 10
350.963595
 20
220.845419
 30
0.0
 11
348.963595
 21
220.845554
 31
0.0
  0
LINE
  8
LC-004-002-----0
  6
CONTINUOUS
 62
     1
  5
E6
 10
347.96373
 20
222.845622
 30
0.0
 11
348.96373
 21
222.845554
 31
0.0
  0
LINE
  8
LC-004-002-----0
  6
CONTINUOUS
 62
     1
  5
E7
 10
509.968921
 20
379.866686
 30
0.0
 11
509.968441
 21
381.866686
 31
0.0
  0
LINE
  8
LC-004-002-----0
  6
CONTINUOUS
 62
     1
  5
E8
 10
348.96373
 20
222.845554
 30
0.0
 11
348.963595
 21
220.845554
 31
0.0
  0
LINE
  8
LC-004-002-----0
  6
CONTINUOUS
 62
     1
  5
E9
 10
348.963392
 20
217.845554
 30
0.0
 11
347.963392
 21
217.845622
 31
0.0
  0
LINE
  8
LC-004-002-----0
  6
CONTINUOUS
 62
     1
  5
EA
 10
509.96772
 20
384.866686
 30
0.0
 11
510.96772
 21
384.866926
 31
0.0
  0
LINE
  8
LC-004-002-----0
  6
CONTINUOUS
 62
     1
  5
EB
 10
510.96772
 20
384.866926
 30
0.0
 11
510.9682
 21
382.866926
 31
0.0
  0
LINE
  8
LC-004-002-----0
  6
CONTINUOUS
 62
     1
  5
EC
 10
510.968441
 20
381.866926
 30
0.0
 11
510.968921
 21
379.866926
 31
0.0
  0
LINE
  8
LC-004-002-----0
  6
CONTINUOUS
 62
     1
  5
ED
 10
510.968441
 20
381.866926
 30
0.0
 11
512.968441
 21
381.867407
 31
0.0
  0
LINE
  8
LC-004-002-----0
  6
CONTINUOUS
 62
     1
  5
EE
 10
509.9682
 20
382.866686
 30
0.0
 11
507.9682
 21
382.866205
 31
0.0
  0
LINE
  8
LC-004-002-----0
  6
CONTINUOUS
 62
     1
  5
EF
 10
509.9682
 20
382.866686
 30
0.0
 11
509.96772
 21
384.866686
 31
0.0
  0
LINE
  8
LC-004-002-----0
  6
CONTINUOUS
 62
     1
  5
F0
 10
347.963392
 20
217.845622
 30
0.0
 11
347.963527
 21
219.845622
 31
0.0
  0
LINE
  8
LC-004-002-----0
  6
CONTINUOUS
 62
     1
  5
F1
 10
347.963595
 20
220.845622
 30
0.0
 11
347.96373
 21
222.845622
 31
0.0
  0
LINE
  8
LC-004-002-----0
  6
CONTINUOUS
 62
     1
  5
F2
 10
347.963595
 20
220.845622
 30
0.0
 11
345.963595
 21
220.845758
 31
0.0
  0
LINE
  8
LC-004-002-----0
  6
CONTINUOUS
 62
     1
  5
F3
 10
348.963527
 20
219.845554
 30
0.0
 11
350.963527
 21
219.845419
 31
0.0
  0
LINE
  8
LC-004-002-----0
  6
CONTINUOUS
 62
     1
  5
F4
 10
348.963527
 20
219.845554
 30
0.0
 11
348.963392
 21
217.845554
 31
0.0
  0
CIRCLE
  8
LC-004-002-----0
  6
CONTINUOUS
 62
     1
  5
F5
 10
510.462779
 20
220.315092
 30
0.0
 40
4.5
  0
LINE
  8
LC-004-002-----0
  6
CONTINUOUS
 62
     1
  5
F6
 10
512.962933
 20
220.81432
 30
0.0
 11
512.962624
 21
219.81432
 31
0.0
  0
CIRCLE
  8
LC-004-002-----0
  6
CONTINUOUS
 62
     1
  5
F7
 10
348.469101
 20
382.347389
 30
0.0
 40
4.5
  0
LINE
  8
LC-004-002-----0
  6
CONTINUOUS
 62
     1
  5
F8
 10
345.969101
 20
381.847391
 30
0.0
 11
345.969101
 21
382.847391
 31
0.0
  0
LINE
  8
LC-004-002-----0
  6
CONTINUOUS
 62
     1
  5
F9
 10
345.969101
 20
382.847391
 30
0.0
 11
347.969101
 21
382.84739
 31
0.0
  0
LINE
  8
LC-004-002-----0
  6
CONTINUOUS
 62
     1
  5
FA
 10
350.969101
 20
382.847388
 30
0.0
 11
350.969101
 21
381.847388
 31
0.0
  0
LINE
  8
LC-004-002-----0
  6
CONTINUOUS
 62
     1
  5
FB
 10
350.969101
 20
381.847388
 30
0.0
 11
348.969101
 21
381.847389
 31
0.0
  0
LINE
  8
LC-004-002-----0
  6
CONTINUOUS
 62
     1
  5
FC
 10
347.969099
 20
379.84739
 30
0.0
 11
348.969099
 21
379.847389
 31
0.0
  0
LINE
  8
LC-004-002-----0
  6
CONTINUOUS
 62
     1
  5
FD
 10
348.969099
 20
379.847389
 30
0.0
 11
348.969101
 21
381.847389
 31
0.0
  0
LINE
  8
LC-004-002-----0
  6
CONTINUOUS
 62
     1
  5
FE
 10
348.969103
 20
384.847389
 30
0.0
 11
347.969103
 21
384.84739
 31
0.0
  0
LINE
  8
LC-004-002-----0
  6
CONTINUOUS
 62
     1
  5
FF
 10
347.969103
 20
384.84739
 30
0.0
 11
347.969101
 21
382.84739
 31
0.0
  0
LINE
  8
LC-004-002-----0
  6
CONTINUOUS
 62
     1
  5
100
 10
347.969101
 20
381.84739
 30
0.0
 11
347.969099
 21
379.84739
 31
0.0
  0
LINE
  8
LC-004-002-----0
  6
CONTINUOUS
 62
     1
  5
101
 10
347.969101
 20
381.84739
 30
0.0
 11
345.969101
 21
381.847391
 31
0.0
  0
LINE
  8
LC-004-002-----0
  6
CONTINUOUS
 62
     1
  5
102
 10
348.969101
 20
382.847389
 30
0.0
 11
350.969101
 21
382.847388
 31
0.0
  0
LINE
  8
LC-004-002-----0
  6
CONTINUOUS
 62
     1
  5
103
 10
348.969101
 20
382.847389
 30
0.0
 11
348.969103
 21
384.847389
 31
0.0
  0
LINE
  8
LC-004-002-----0
  6
CONTINUOUS
 62
     1
  5
104
 10
512.962624
 20
219.81432
 30
0.0
 11
510.962624
 21
219.814938
 31
0.0
  0
LINE
  8
LC-004-002-----0
  6
CONTINUOUS
 62
     1
  5
105
 10
507.962625
 20
219.815864
 30
0.0
 11
507.962933
 21
220.815864
 31
0.0
  0
LINE
  8
LC-004-002-----0
  6
CONTINUOUS
 62
     1
  5
106
 10
507.962933
 20
220.815864
 30
0.0
 11
509.962933
 21
220.815246
 31
0.0
  0
LINE
  8
LC-004-002-----0
  6
CONTINUOUS
 62
     1
  5
107
 10
510.963551
 20
222.814937
 30
0.0
 11
509.963551
 21
222.815246
 31
0.0
  0
LINE
  8
LC-004-002-----0
  6
CONTINUOUS
 62
     1
  5
108
 10
509.963551
 20
222.815246
 30
0.0
 11
509.962933
 21
220.815246
 31
0.0
  0
LINE
  8
LC-004-002-----0
  6
CONTINUOUS
 62
     1
  5
109
 10
509.962007
 20
217.815246
 30
0.0
 11
510.962007
 21
217.814938
 31
0.0
  0
LINE
  8
LC-004-002-----0
  6
CONTINUOUS
 62
     1
  5
10A
 10
510.962007
 20
217.814938
 30
0.0
 11
510.962624
 21
219.814938
 31
0.0
  0
LINE
  8
LC-004-002-----0
  6
CONTINUOUS
 62
     1
  5
10B
 10
510.962933
 20
220.814938
 30
0.0
 11
510.963551
 21
222.814937
 31
0.0
  0
LINE
  8
LC-004-002-----0
  6
CONTINUOUS
 62
     1
  5
10C
 10
510.962933
 20
220.814938
 30
0.0
 11
512.962933
 21
220.81432
 31
0.0
  0
LINE
  8
LC-004-002-----0
  6
CONTINUOUS
 62
     1
  5
10D
 10
509.962624
 20
219.815246
 30
0.0
 11
507.962625
 21
219.815864
 31
0.0
  0
LINE
  8
LC-004-002-----0
  6
CONTINUOUS
 62
     1
  5
10E
 10
509.962624
 20
219.815246
 30
0.0
 11
509.962007
 21
217.815246
 31
0.0
  0
ENDSEC
  0
EOF
