  0
SECTION
  2
HEADER
  9
$ACADVER
  1
AC1009
  9
$DWGCODEPAGE
  3
dos850
  9
$INSBASE
 10
-0.259531
 20
1.882426
 30
0.0
  9
$EXTMIN
 10
-210.0
 20
-148.5
 30
0.0
  9
$EXTMAX
 10
630.0
 20
445.5
 30
0.0
  9
$LIMMIN
 10
-210.0
 20
-148.5
  9
$LIMMAX
 10
630.0
 20
445.5
  9
$ORTHOMODE
 70
     0
  9
$REGENMODE
 70
     1
  9
$FILLMODE
 70
     1
  9
$QTEXTMODE
 70
     0
  9
$MIRRTEXT
 70
     1
  9
$DRAGMODE
 70
     2
  9
$LTSCALE
 40
2.0
  9
$OSMODE
 70
     0
  9
$ATTMODE
 70
     1
  9
$TEXTSIZE
 40
0.2
  9
$TRACEWID
 40
0.05
  9
$TEXTSTYLE
  7
STANDARD
  9
$CLAYER
  8
0
  9
$CELTYPE
  6
BYBLOCK
  9
$CECOLOR
 62
     7
  9
$DIMSCALE
 40
2.0
  9
$DIMASZ
 40
3.5
  9
$DIMEXO
 40
0.0625
  9
$DIMDLI
 40
0.38
  9
$DIMRND
 40
0.0
  9
$DIMDLE
 40
0.0
  9
$DIMEXE
 40
0.18
  9
$DIMTP
 40
0.0
  9
$DIMTM
 40
0.0
  9
$DIMTXT
 40
3.5
  9
$DIMCEN
 40
0.09
  9
$DIMTSZ
 40
0.0
  9
$DIMTOL
 70
     0
  9
$DIMLIM
 70
     0
  9
$DIMTIH
 70
     1
  9
$DIMTOH
 70
     1
  9
$DIMSE1
 70
     0
  9
$DIMSE2
 70
     0
  9
$DIMTAD
 70
     1
  9
$DIMZIN
 70
     0
  9
$DIMBLK
  1

  9
$DIMASO
 70
     1
  9
$DIMSHO
 70
     1
  9
$DIMPOST
  1

  9
$DIMAPOST
  1

  9
$DIMALT
 70
     0
  9
$DIMALTD
 70
     2
  9
$DIMALTF
 40
25.4
  9
$DIMLFAC
 40
1.0
  9
$DIMTOFL
 70
     0
  9
$DIMTVP
 40
0.0
  9
$DIMTIX
 70
     0
  9
$DIMSOXD
 70
     0
  9
$DIMSAH
 70
     0
  9
$DIMBLK1
  1

  9
$DIMBLK2
  1

  9
$DIMSTYLE
  2
STANDARD
  9
$DIMCLRD
 70
     0
  9
$DIMCLRE
 70
     0
  9
$DIMCLRT
 70
     0
  9
$DIMTFAC
 40
1.0
  9
$DIMGAP
 40
0.09
  9
$LUNITS
 70
     2
  9
$LUPREC
 70
     6
  9
$AXISMODE
 70
     0
  9
$AXISUNIT
 10
0.0
 20
0.0
  9
$SKETCHINC
 40
0.1
  9
$FILLETRAD
 40
0.0
  9
$AUNITS
 70
     0
  9
$AUPREC
 70
     0
  9
$MENU
  1
acad
  9
$ELEVATION
 40
0.0
  9
$PELEVATION
 40
0.0
  9
$THICKNESS
 40
0.0
  9
$LIMCHECK
 70
     0
  9
$BLIPMODE
 70
     1
  9
$CHAMFERA
 40
0.0
  9
$CHAMFERB
 40
0.0
  9
$SKPOLY
 70
     0
  9
$TDCREATE
 40
0.000000000
  9
$TDUPDATE
 40
0.000000000
  9
$TDINDWG
 40
0.0000000000
  9
$TDUSRTIMER
 40
0.0000000000
  9
$USRTIMER
 70
     1
  9
$ANGBASE
 50
0.0
  9
$ANGDIR
 70
     0
  9
$PDMODE
 70
     0
  9
$PDSIZE
 40
0.0
  9
$PLINEWID
 40
0.0
  9
$COORDS
 70
     0
  9
$SPLFRAME
 70
     0
  9
$SPLINETYPE
 70
     6
  9
$SPLINESEGS
 70
     8
  9
$ATTDIA
 70
     0
  9
$ATTREQ
 70
     1
  9
$HANDLING
 70
     1
  9
$HANDSEED
  5
15E
  9
$SURFTAB1
 70
     6
  9
$SURFTAB2
 70
     6
  9
$SURFTYPE
 70
     6
  9
$SURFU
 70
     6
  9
$SURFV
 70
     6
  9
$UCSNAME
  2

  9
$UCSORG
 10
0.0
 20
0.0
 30
0.0
  9
$UCSXDIR
 10
1.0
 20
0.0
 30
0.0
  9
$UCSYDIR
 10
0.0
 20
1.0
 30
0.0
  9
$PUCSNAME
  2

  9
$PUCSORG
 10
0.0
 20
0.0
 30
0.0
  9
$PUCSXDIR
 10
1.0
 20
0.0
 30
0.0
  9
$PUCSYDIR
 10
0.0
 20
1.0
 30
0.0
  9
$USERI1
 70
     0
  9
$USERI2
 70
     0
  9
$USERI3
 70
     0
  9
$USERI4
 70
     0
  9
$USERI5
 70
     0
  9
$USERR1
 40
0.0
  9
$USERR2
 40
0.0
  9
$USERR3
 40
0.0
  9
$USERR4
 40
0.0
  9
$USERR5
 40
0.0
  9
$WORLDVIEW
 70
     1
  9
$SHADEDGE
 70
     3
  9
$SHADEDIF
 70
    70
  9
$TILEMODE
 70
     1
  9
$MAXACTVP
 70
    16
  9
$PINSBASE
 10
0.0
 20
0.0
 30
0.0
  9
$PLIMCHECK
 70
     0
  9
$PEXTMIN
 10
-210.0
 20
-148.5
 30
0.0
  9
$PEXTMAX
 10
630.0
 20
445.5
 30
0.0
  9
$PLIMMIN
 10
-210.0
 20
-148.5
  9
$PLIMMAX
 10
630.0
 20
445.5
  9
$UNITMODE
 70
     0
  9
$VISRETAIN
 70
     0
  9
$PLINEGEN
 70
     1
  9
$PSLTSCALE
 70
     0
  9
$TREEDEPTH
 70
  3020
  0
ENDSEC
  0
SECTION
  2
TABLES
  0
TABLE
  2
VPORT
 70
     1
  0
VPORT
  2
*ACTIVE
 70
     0
 10
0.0
 20
0.0
 11
1.0
 21
1.0
 12
420.0
 22
297.0
 13
0.0
 23
0.0
 14
1.0
 24
1.0
 15
0.0
 25
0.0
 16
0.0
 26
0.0
 36
1.0
 17
-210.0
 27
-148.5
 37
0.0
 40
594.0
 41
1.604229
 42
50.0
 43
0.0
 44
0.0
 50
0.0
 51
0.0
 71
     0
 72
   100
 73
     1
 74
     1
 75
     0
 76
     0
 77
     0
 78
     0
  0
ENDTAB
  0
TABLE
  2
LTYPE
 70
     2
  0
LTYPE
  2
CONTINUOUS
 70
    64
  3
Solid line
 72
    65
 73
     0
 40
0.0
  0
LTYPE
  2
DASHED
 70
    64
  3
__ __ __ __ __
 72
    65
 73
     2
 40
6.25
 49
5.0
 49
-1.25
  0
ENDTAB
  0
TABLE
  2
LAYER
 70
    10
  0
LAYER
  2
0
 70
     0
 62
     7
  6
CONTINUOUS
  0
LAYER
  2
LC-INFO-1-2-MM-A3-0
 70
     1
 62
   255
  6
BYBLOCK
  0
LAYER
  2
LC-3D-HIDDEN
 70
     0
 62
     9
  6
DASHED
  0
LAYER
  2
LC-CUT-HIDDEN
 70
     0
 62
     9
  6
DASHED
  0
LAYER
  2
LC-VIEWPORT
 70
     0
 62
     7
  6
BYBLOCK
  0
LAYER
  2
LC-001-002-----0
 70
     0
 62
     2
  6
BYBLOCK
  0
LAYER
  2
LC-002-002-RND-0
 70
     0
 62
     1
  6
BYBLOCK
  0
LAYER
  2
LC-003-003-MTH-0
 70
     0
 62
     2
  6
BYBLOCK
  0
LAYER
  2
LC-004-003-MTG-0
 70
     0
 62
     2
  6
BYBLOCK
  0
LAYER
  2
LC-005-003-----0
 70
     0
 62
     2
  6
BYBLOCK
  0
ENDTAB
  0
TABLE
  2
STYLE
 70
    12
  0
STYLE
  2
STANDARD
 70
     0
 40
0.0
 41
1.0
 50
0.0
 71
     0
 42
0.0
  3
txt
  4

  0
STYLE
  2
LCTX0-500-0-0-DIN-SCHRIFT
 70
    64
 40
3.5
 41
1.0
 50
0.0
 71
     0
 42
0.0
  3
MONOTXT
  4

  0
STYLE
  2
LCTX15-286-0-0-DIN-SCHRIFT
 70
    64
 40
3.5
 41
1.0
 50
15.0
 71
     0
 42
0.0
  3
MONOTXT
  4

  0
STYLE
  2
LCTX15-667-0-0-DIN-SCHRIFT
 70
    64
 40
3.5
 41
1.0
 50
15.0
 71
     0
 42
0.0
  3
MONOTXT
  4

  0
STYLE
  2
LCTX15-400-0-0-DIN-SCHRIFT
 70
    64
 40
3.5
 41
1.0
 50
15.0
 71
     0
 42
0.0
  3
MONOTXT
  4

  0
STYLE
  2
LCTX15-500-0-0-DIN-SCHRIFT
 70
    64
 40
3.5
 41
1.0
 50
15.0
 71
     0
 42
0.0
  3
MONOTXT
  4

  0
STYLE
  2
LCTX0-286-0-0-DIN-SCHRIFT
 70
    64
 40
3.5
 41
1.0
 50
0.0
 71
     0
 42
0.0
  3
MONOTXT
  4

  0
STYLE
  2
LCTX0-400-0-0-DIN-SCHRIFT
 70
    64
 40
3.5
 41
1.0
 50
0.0
 71
     0
 42
0.0
  3
MONOTXT
  4

  0
STYLE
  2
LCTX0-286-0-0-DIN-SCHRIFT__P_
 70
    64
 40
3.5
 41
1.0
 50
0.0
 71
     0
 42
0.0
  3
MONOTXT
  4

  0
STYLE
  2
LCTX0-408-0-0-DIN-SCHRIFT__P_
 70
    64
 40
3.5
 41
1.0
 50
0.0
 71
     0
 42
0.0
  3
MONOTXT
  4

  0
STYLE
  2
LCTX15-400-0-0-ARIAL
 70
    64
 40
3.5
 41
1.0
 50
0.0
 71
     0
 42
0.0
  3
Arial
  4

  0
STYLE
  2
LCTX15-400-0-0-DIN-SCHRIFT__P_
 70
    64
 40
0.0
 41
1.0
 50
1.5
 71
     0
 42
3.5
  3
STANDARD
  4

  0
ENDTAB
  0
TABLE
  2
VIEW
 70
     0
  0
ENDTAB
  0
TABLE
  2
UCS
 70
     0
  0
ENDTAB
  0
TABLE
  2
APPID
 70
     1
  0
APPID
  2
ACAD
 70
     0
  0
ENDTAB
  0
TABLE
  2
DIMSTYLE
 70
     2
  0
DIMSTYLE
  2
STANDARD
 70
     0
  3

  4

  5

  6

  7

 40
1.0
 41
0.18
 42
0.0625
 43
0.38
 44
0.18
 45
0.0
 46
0.0
 47
0.0
 48
0.0
 71
     0
 72
     0
 73
     1
 74
     1
 75
     0
 76
     0
 77
     0
 78
     0
140
0.18
141
0.09
142
0.0
143
25.4
144
1.0
145
0.0
146
1.0
147
0.09
170
     0
171
     2
172
     0
173
     0
174
     0
175
     0
176
     0
177
     0
178
     0
  0
DIMSTYLE
  2
LC-DIM-L-0140-02-02
 70
     0
  3

  4

  5

  6

  7

 40
2.0
 41
3.5
 42
0.0
 43
7.5
 44
1.8
 45
0.0
 46
0.0
 47
0.0
 48
0.0
 71
     0
 72
     0
 73
     0
 74
     0
 75
     0
 76
     0
 77
     1
 78
     8
140
14.0
141
0.0
142
0.0
143
25.4
144
1.0
145
0.0
146
0.71
147
1.5
170
     0
171
     2
172
     0
173
     0
174
     0
175
     0
176
     2
177
     2
178
     2
  0
ENDTAB
  0
ENDSEC
  0
SECTION
  2
BLOCKS
  0
BLOCK
  8
0
  5
13E
  2
*D0
 70
    65
 10
0.0
 20
0.0
 30
0.0
  3
*D0
  0
LINE
  8
LC-003-003-MTH-0
 62
     2
  5
140
 10
150.948488
 20
238.334596
 30
0.0
 11
150.948488
 21
291.1253
 31
0.0
  0
LINE
  8
LC-003-003-MTH-0
 62
     2
  5
141
 10
295.948488
 20
238.334596
 30
0.0
 11
295.948488
 21
291.1253
 31
0.0
  0
LINE
  8
LC-004-003-MTG-0
 62
     2
  5
143
 10
150.948488
 20
274.3253
 30
0.0
 11
191.871955
 21
274.3253
 31
0.0
  0
LINE
  8
LC-004-003-MTG-0
 62
     2
  5
144
 10
269.518888
 20
274.3253
 30
0.0
 11
295.948488
 21
274.3253
 31
0.0
  0
LINE
  8
LC-005-003-----0
 62
     2
  5
146
 10
178.708944
 20
277.980034
 30
0.0
 11
150.948488
 21
274.3253
 31
0.0
  0
LINE
  8
LC-005-003-----0
 62
     2
  5
147
 10
150.948488
 20
274.3253
 30
0.0
 11
178.708944
 21
270.670567
 31
0.0
  0
LINE
  8
LC-005-003-----0
 62
     2
  5
148
 10
178.708944
 20
270.670567
 30
0.0
 11
178.708944
 21
277.980034
 31
0.0
  0
LINE
  8
LC-005-003-----0
 62
     2
  5
149
 10
178.771226
 20
277.029803
 30
0.0
 11
158.228488
 21
274.3253
 31
0.0
  0
LINE
  8
LC-005-003-----0
 62
     2
  5
14A
 10
158.228488
 20
274.3253
 30
0.0
 11
178.771226
 21
271.620798
 31
0.0
  0
LINE
  8
LC-005-003-----0
 62
     2
  5
14B
 10
178.833507
 20
276.079572
 30
0.0
 11
165.508488
 21
274.3253
 31
0.0
  0
LINE
  8
LC-005-003-----0
 62
     2
  5
14C
 10
165.508488
 20
274.3253
 30
0.0
 11
178.833507
 21
272.571028
 31
0.0
  0
LINE
  8
LC-005-003-----0
 62
     2
  5
14D
 10
178.895788
 20
275.129342
 30
0.0
 11
172.788488
 21
274.3253
 31
0.0
  0
LINE
  8
LC-005-003-----0
 62
     2
  5
14E
 10
172.788488
 20
274.3253
 30
0.0
 11
178.895788
 21
273.521259
 31
0.0
  0
LINE
  8
LC-005-003-----0
 62
     2
  5
14F
 10
269.518888
 20
270.845777
 30
0.0
 11
295.948488
 21
274.3253
 31
0.0
  0
LINE
  8
LC-005-003-----0
 62
     2
  5
150
 10
295.948488
 20
274.3253
 30
0.0
 11
269.518888
 21
277.804823
 31
0.0
  0
LINE
  8
LC-005-003-----0
 62
     2
  5
151
 10
269.518888
 20
271.804208
 30
0.0
 11
288.668488
 21
274.3253
 31
0.0
  0
LINE
  8
LC-005-003-----0
 62
     2
  5
152
 10
288.668488
 20
274.3253
 30
0.0
 11
269.518888
 21
276.846393
 31
0.0
  0
LINE
  8
LC-005-003-----0
 62
     2
  5
153
 10
269.518888
 20
272.762638
 30
0.0
 11
281.388488
 21
274.3253
 31
0.0
  0
LINE
  8
LC-005-003-----0
 62
     2
  5
154
 10
281.388488
 20
274.3253
 30
0.0
 11
269.518888
 21
275.887963
 31
0.0
  0
LINE
  8
LC-005-003-----0
 62
     2
  5
155
 10
269.518888
 20
273.721068
 30
0.0
 11
274.108488
 21
274.3253
 31
0.0
  0
LINE
  8
LC-005-003-----0
 62
     2
  5
156
 10
274.108488
 20
274.3253
 30
0.0
 11
269.518888
 21
274.929533
 31
0.0
  0
TEXT
  8
LC-005-003-----0
 62
     8
  5
157
 10
191.147261
 20
276.74367
 30
0.0
 40
28.0
  1
145
 41
0.9
 51
15.0
  7
LCTX15-400-0-0-ARIAL
 72
     1
 11
226.347261
 21
276.74367
 31
0.0
  0
ENDBLK
  8
0
  5
158
  0
ENDSEC
  0
SECTION
  2
ENTITIES
  0
VIEWPORT
  8
LC-VIEWPORT
  5
15A
 67
     1
 68
     1
 10
420.0
 20
297.0
 30
0.0
 40
840.0
 41
594.0
 69
     1
1001
ACAD
1000
MVIEW
1002
{
1070
    16
1010
0.0
1020
0.0
1030
0.0
1010
0.0
1020
0.0
1030
1.0
1040
0.0
1040
594.0
1040
420.0
1040
297.0
1040
50.0
1040
0.0
1040
0.0
1070
     0
1070
   100
1070
     1
1070
     1
1070
     0
1070
     0
1070
     0
1070
     0
1040
0.0
1040
0.0
1040
0.0
1040
1.0
1040
1.0
1040
0.0
1040
0.0
1070
     0
1002
{
1002
}
1002
}
  0
LINE
  8
LC-001-002-----0
 62
     2
  5
2E
 10
170.52
 20
286.783251
 30
0.0
 11
170.52
 21
301.783251
 31
0.0
  0
ARC
  8
LC-002-002-RND-0
 62
     1
  5
30
 10
160.948488
 20
238.334596
 30
0.0
 40
10.0
 50
90.0
 51
180.0
  0
ARC
  8
LC-002-002-RND-0
 62
     1
  5
31
 10
285.948488
 20
238.334596
 30
0.0
 40
10.0
 50
0.0
 51
90.0
  0
ARC
  8
LC-002-002-RND-0
 62
     1
  5
32
 10
285.948488
 20
113.334595
 30
0.0
 40
10.0
 50
270.0
 51
0.0
  0
ARC
  8
LC-002-002-RND-0
 62
     1
  5
33
 10
160.948488
 20
113.334595
 30
0.0
 40
10.0
 50
180.0
 51
270.0
  0
LINE
  8
LC-001-002-----0
 62
     2
  5
34
 10
170.52
 20
301.783251
 30
0.0
 11
185.52
 21
301.783251
 31
0.0
  0
LINE
  8
LC-001-002-----0
 62
     2
  5
35
 10
185.52
 20
301.783251
 30
0.0
 11
185.52
 21
286.783251
 31
0.0
  0
LINE
  8
LC-001-002-----0
 62
     2
  5
36
 10
185.52
 20
286.783251
 30
0.0
 11
170.52
 21
286.783251
 31
0.0
  0
LINE
  8
LC-001-002-----0
 62
     1
  5
37
 10
260.948488
 20
205.834596
 30
0.0
 11
253.448488
 21
205.834596
 31
0.0
  0
LINE
  8
LC-001-002-----0
 62
     1
  5
38
 10
193.448488
 20
213.334596
 30
0.0
 11
193.448488
 21
205.834596
 31
0.0
  0
LINE
  8
LC-001-002-----0
 62
     1
  5
39
 10
185.948488
 20
213.334596
 30
0.0
 11
185.948488
 21
205.834596
 31
0.0
  0
LINE
  8
LC-001-002-----0
 62
     1
  5
3A
 10
193.448488
 20
205.834596
 30
0.0
 11
185.948488
 21
205.834596
 31
0.0
  0
LINE
  8
LC-001-002-----0
 62
     1
  5
3B
 10
193.448488
 20
213.334596
 30
0.0
 11
185.948488
 21
213.334596
 31
0.0
  0
LINE
  8
LC-001-002-----0
 62
     1
  5
3C
 10
185.948488
 20
145.834596
 30
0.0
 11
193.448488
 21
145.834596
 31
0.0
  0
LINE
  8
LC-001-002-----0
 62
     1
  5
3D
 10
185.948488
 20
138.334596
 30
0.0
 11
193.448488
 21
138.334596
 31
0.0
  0
LINE
  8
LC-001-002-----0
 62
     1
  5
3E
 10
260.948488
 20
213.334596
 30
0.0
 11
253.448488
 21
213.334596
 31
0.0
  0
LINE
  8
LC-001-002-----0
 62
     1
  5
3F
 10
253.448488
 20
205.834596
 30
0.0
 11
253.448488
 21
213.334596
 31
0.0
  0
LINE
  8
LC-001-002-----0
 62
     1
  5
40
 10
260.948488
 20
205.834596
 30
0.0
 11
260.948488
 21
213.334596
 31
0.0
  0
LINE
  8
LC-001-002-----0
 62
     1
  5
41
 10
193.448488
 20
145.834596
 30
0.0
 11
193.448488
 21
138.334596
 31
0.0
  0
LINE
  8
LC-001-002-----0
 62
     1
  5
42
 10
185.948488
 20
145.834596
 30
0.0
 11
185.948488
 21
138.334596
 31
0.0
  0
LINE
  8
LC-001-002-----0
 62
     1
  5
43
 10
253.448488
 20
138.334596
 30
0.0
 11
253.448488
 21
145.834596
 31
0.0
  0
LINE
  8
LC-001-002-----0
 62
     1
  5
44
 10
260.948488
 20
138.334596
 30
0.0
 11
260.948488
 21
145.834596
 31
0.0
  0
LINE
  8
LC-001-002-----0
 62
     1
  5
45
 10
253.448488
 20
145.834596
 30
0.0
 11
260.948488
 21
145.834596
 31
0.0
  0
LINE
  8
LC-001-002-----0
 62
     1
  5
46
 10
253.448488
 20
138.334596
 30
0.0
 11
260.948488
 21
138.334596
 31
0.0
  0
LINE
  8
LC-001-002-----0
 62
     1
  5
47
 10
220.448488
 20
213.334596
 30
0.0
 11
220.448488
 21
205.834596
 31
0.0
  0
LINE
  8
LC-001-002-----0
 62
     1
  5
48
 10
212.948488
 20
213.334596
 30
0.0
 11
220.448488
 21
213.334596
 31
0.0
  0
LINE
  8
LC-001-002-----0
 62
     1
  5
49
 10
212.948488
 20
205.834596
 30
0.0
 11
220.448488
 21
205.834596
 31
0.0
  0
LINE
  8
LC-001-002-----0
 62
     1
  5
4A
 10
212.948488
 20
213.334596
 30
0.0
 11
212.948488
 21
205.834596
 31
0.0
  0
LINE
  8
LC-001-002-----0
 62
     1
  5
4B
 10
226.448488
 20
213.334596
 30
0.0
 11
226.448488
 21
205.834596
 31
0.0
  0
LINE
  8
LC-001-002-----0
 62
     1
  5
4C
 10
233.948488
 20
213.334596
 30
0.0
 11
226.448488
 21
213.334596
 31
0.0
  0
LINE
  8
LC-001-002-----0
 62
     1
  5
4D
 10
233.948488
 20
205.834596
 30
0.0
 11
226.448488
 21
205.834596
 31
0.0
  0
LINE
  8
LC-001-002-----0
 62
     1
  5
4E
 10
233.948488
 20
213.334596
 30
0.0
 11
233.948488
 21
205.834596
 31
0.0
  0
LINE
  8
LC-001-002-----0
 62
     1
  5
4F
 10
247.448488
 20
213.334596
 30
0.0
 11
239.948488
 21
213.334596
 31
0.0
  0
LINE
  8
LC-001-002-----0
 62
     1
  5
50
 10
247.448488
 20
205.834596
 30
0.0
 11
239.948488
 21
205.834596
 31
0.0
  0
LINE
  8
LC-001-002-----0
 62
     1
  5
51
 10
239.948488
 20
213.334596
 30
0.0
 11
239.948488
 21
205.834596
 31
0.0
  0
LINE
  8
LC-001-002-----0
 62
     1
  5
52
 10
199.448488
 20
213.334596
 30
0.0
 11
206.948488
 21
213.334596
 31
0.0
  0
LINE
  8
LC-001-002-----0
 62
     1
  5
53
 10
199.448488
 20
205.834596
 30
0.0
 11
206.948488
 21
205.834596
 31
0.0
  0
LINE
  8
LC-001-002-----0
 62
     1
  5
54
 10
206.948488
 20
213.334596
 30
0.0
 11
206.948488
 21
205.834596
 31
0.0
  0
LINE
  8
LC-001-002-----0
 62
     1
  5
55
 10
199.448488
 20
213.334596
 30
0.0
 11
199.448488
 21
205.834596
 31
0.0
  0
LINE
  8
LC-001-002-----0
 62
     1
  5
56
 10
247.448488
 20
213.334596
 30
0.0
 11
247.448488
 21
205.834596
 31
0.0
  0
LINE
  8
LC-001-002-----0
 62
     1
  5
57
 10
185.948488
 20
172.834596
 30
0.0
 11
193.448488
 21
172.834596
 31
0.0
  0
LINE
  8
LC-001-002-----0
 62
     1
  5
58
 10
185.948488
 20
165.334596
 30
0.0
 11
185.948488
 21
172.834596
 31
0.0
  0
LINE
  8
LC-001-002-----0
 62
     1
  5
59
 10
193.448488
 20
165.334596
 30
0.0
 11
193.448488
 21
172.834596
 31
0.0
  0
LINE
  8
LC-001-002-----0
 62
     1
  5
5A
 10
185.948488
 20
165.334596
 30
0.0
 11
193.448488
 21
165.334596
 31
0.0
  0
LINE
  8
LC-001-002-----0
 62
     1
  5
5B
 10
185.948488
 20
178.834596
 30
0.0
 11
193.448488
 21
178.834596
 31
0.0
  0
LINE
  8
LC-001-002-----0
 62
     1
  5
5C
 10
185.948488
 20
186.334596
 30
0.0
 11
185.948488
 21
178.834596
 31
0.0
  0
LINE
  8
LC-001-002-----0
 62
     1
  5
5D
 10
193.448488
 20
186.334596
 30
0.0
 11
193.448488
 21
178.834596
 31
0.0
  0
LINE
  8
LC-001-002-----0
 62
     1
  5
5E
 10
185.948488
 20
186.334596
 30
0.0
 11
193.448488
 21
186.334596
 31
0.0
  0
LINE
  8
LC-001-002-----0
 62
     1
  5
5F
 10
185.948488
 20
199.834596
 30
0.0
 11
185.948488
 21
192.334596
 31
0.0
  0
LINE
  8
LC-001-002-----0
 62
     1
  5
60
 10
193.448488
 20
199.834596
 30
0.0
 11
193.448488
 21
192.334596
 31
0.0
  0
LINE
  8
LC-001-002-----0
 62
     1
  5
61
 10
185.948488
 20
192.334596
 30
0.0
 11
193.448488
 21
192.334596
 31
0.0
  0
LINE
  8
LC-001-002-----0
 62
     1
  5
62
 10
185.948488
 20
151.834596
 30
0.0
 11
185.948488
 21
159.334596
 31
0.0
  0
LINE
  8
LC-001-002-----0
 62
     1
  5
63
 10
193.448488
 20
151.834596
 30
0.0
 11
193.448488
 21
159.334596
 31
0.0
  0
LINE
  8
LC-001-002-----0
 62
     1
  5
64
 10
185.948488
 20
159.334596
 30
0.0
 11
193.448488
 21
159.334596
 31
0.0
  0
LINE
  8
LC-001-002-----0
 62
     1
  5
65
 10
185.948488
 20
151.834596
 30
0.0
 11
193.448488
 21
151.834596
 31
0.0
  0
LINE
  8
LC-001-002-----0
 62
     1
  5
66
 10
185.948488
 20
199.834596
 30
0.0
 11
193.448488
 21
199.834596
 31
0.0
  0
LINE
  8
LC-001-002-----0
 62
     1
  5
67
 10
226.448488
 20
138.334596
 30
0.0
 11
226.448488
 21
145.834596
 31
0.0
  0
LINE
  8
LC-001-002-----0
 62
     1
  5
68
 10
233.948488
 20
138.334596
 30
0.0
 11
226.448488
 21
138.334596
 31
0.0
  0
LINE
  8
LC-001-002-----0
 62
     1
  5
69
 10
233.948488
 20
145.834596
 30
0.0
 11
226.448488
 21
145.834596
 31
0.0
  0
LINE
  8
LC-001-002-----0
 62
     1
  5
6A
 10
233.948488
 20
138.334596
 30
0.0
 11
233.948488
 21
145.834596
 31
0.0
  0
LINE
  8
LC-001-002-----0
 62
     1
  5
6B
 10
220.448488
 20
138.334596
 30
0.0
 11
220.448488
 21
145.834596
 31
0.0
  0
LINE
  8
LC-001-002-----0
 62
     1
  5
6C
 10
212.948488
 20
138.334596
 30
0.0
 11
220.448488
 21
138.334596
 31
0.0
  0
LINE
  8
LC-001-002-----0
 62
     1
  5
6D
 10
212.948488
 20
145.834596
 30
0.0
 11
220.448488
 21
145.834596
 31
0.0
  0
LINE
  8
LC-001-002-----0
 62
     1
  5
6E
 10
212.948488
 20
138.334596
 30
0.0
 11
212.948488
 21
145.834596
 31
0.0
  0
LINE
  8
LC-001-002-----0
 62
     1
  5
6F
 10
199.448488
 20
138.334596
 30
0.0
 11
206.948488
 21
138.334596
 31
0.0
  0
LINE
  8
LC-001-002-----0
 62
     1
  5
70
 10
199.448488
 20
145.834596
 30
0.0
 11
206.948488
 21
145.834596
 31
0.0
  0
LINE
  8
LC-001-002-----0
 62
     1
  5
71
 10
206.948488
 20
138.334596
 30
0.0
 11
206.948488
 21
145.834596
 31
0.0
  0
LINE
  8
LC-001-002-----0
 62
     1
  5
72
 10
247.448488
 20
138.334596
 30
0.0
 11
239.948488
 21
138.334596
 31
0.0
  0
LINE
  8
LC-001-002-----0
 62
     1
  5
73
 10
247.448488
 20
145.834596
 30
0.0
 11
239.948488
 21
145.834596
 31
0.0
  0
LINE
  8
LC-001-002-----0
 62
     1
  5
74
 10
239.948488
 20
138.334596
 30
0.0
 11
239.948488
 21
145.834596
 31
0.0
  0
LINE
  8
LC-001-002-----0
 62
     1
  5
75
 10
247.448488
 20
138.334596
 30
0.0
 11
247.448488
 21
145.834596
 31
0.0
  0
LINE
  8
LC-001-002-----0
 62
     1
  5
76
 10
199.448488
 20
138.334596
 30
0.0
 11
199.448488
 21
145.834596
 31
0.0
  0
LINE
  8
LC-001-002-----0
 62
     1
  5
77
 10
260.948488
 20
178.834596
 30
0.0
 11
253.448488
 21
178.834596
 31
0.0
  0
LINE
  8
LC-001-002-----0
 62
     1
  5
78
 10
260.948488
 20
186.334596
 30
0.0
 11
260.948488
 21
178.834596
 31
0.0
  0
LINE
  8
LC-001-002-----0
 62
     1
  5
79
 10
253.448488
 20
186.334596
 30
0.0
 11
253.448488
 21
178.834596
 31
0.0
  0
LINE
  8
LC-001-002-----0
 62
     1
  5
7A
 10
260.948488
 20
186.334596
 30
0.0
 11
253.448488
 21
186.334596
 31
0.0
  0
LINE
  8
LC-001-002-----0
 62
     1
  5
7B
 10
260.948488
 20
172.834596
 30
0.0
 11
253.448488
 21
172.834596
 31
0.0
  0
LINE
  8
LC-001-002-----0
 62
     1
  5
7C
 10
260.948488
 20
165.334596
 30
0.0
 11
260.948488
 21
172.834596
 31
0.0
  0
LINE
  8
LC-001-002-----0
 62
     1
  5
7D
 10
253.448488
 20
165.334596
 30
0.0
 11
253.448488
 21
172.834596
 31
0.0
  0
LINE
  8
LC-001-002-----0
 62
     1
  5
7E
 10
260.948488
 20
165.334596
 30
0.0
 11
253.448488
 21
165.334596
 31
0.0
  0
LINE
  8
LC-001-002-----0
 62
     1
  5
7F
 10
260.948488
 20
151.834596
 30
0.0
 11
260.948488
 21
159.334596
 31
0.0
  0
LINE
  8
LC-001-002-----0
 62
     1
  5
80
 10
253.448488
 20
151.834596
 30
0.0
 11
253.448488
 21
159.334596
 31
0.0
  0
LINE
  8
LC-001-002-----0
 62
     1
  5
81
 10
260.948488
 20
159.334596
 30
0.0
 11
253.448488
 21
159.334596
 31
0.0
  0
LINE
  8
LC-001-002-----0
 62
     1
  5
82
 10
260.948488
 20
199.834596
 30
0.0
 11
260.948488
 21
192.334596
 31
0.0
  0
LINE
  8
LC-001-002-----0
 62
     1
  5
83
 10
253.448488
 20
199.834596
 30
0.0
 11
253.448488
 21
192.334596
 31
0.0
  0
LINE
  8
LC-001-002-----0
 62
     1
  5
84
 10
260.948488
 20
192.334596
 30
0.0
 11
253.448488
 21
192.334596
 31
0.0
  0
LINE
  8
LC-001-002-----0
 62
     1
  5
85
 10
260.948488
 20
199.834596
 30
0.0
 11
253.448488
 21
199.834596
 31
0.0
  0
LINE
  8
LC-001-002-----0
 62
     1
  5
86
 10
260.948488
 20
151.834596
 30
0.0
 11
253.448488
 21
151.834596
 31
0.0
  0
LINE
  8
LC-001-002-----0
 62
     1
  5
87
 10
260.948488
 20
219.334596
 30
0.0
 11
253.448488
 21
219.334596
 31
0.0
  0
LINE
  8
LC-001-002-----0
 62
     1
  5
88
 10
193.448488
 20
226.834596
 30
0.0
 11
193.448488
 21
219.334596
 31
0.0
  0
LINE
  8
LC-001-002-----0
 62
     1
  5
89
 10
185.948488
 20
226.834596
 30
0.0
 11
185.948488
 21
219.334596
 31
0.0
  0
LINE
  8
LC-001-002-----0
 62
     1
  5
8A
 10
193.448488
 20
219.334596
 30
0.0
 11
185.948488
 21
219.334596
 31
0.0
  0
LINE
  8
LC-001-002-----0
 62
     1
  5
8B
 10
193.448488
 20
226.834596
 30
0.0
 11
185.948488
 21
226.834596
 31
0.0
  0
LINE
  8
LC-001-002-----0
 62
     1
  5
8C
 10
260.948488
 20
226.834596
 30
0.0
 11
253.448488
 21
226.834596
 31
0.0
  0
LINE
  8
LC-001-002-----0
 62
     1
  5
8D
 10
253.448488
 20
219.334596
 30
0.0
 11
253.448488
 21
226.834596
 31
0.0
  0
LINE
  8
LC-001-002-----0
 62
     1
  5
8E
 10
260.948488
 20
219.334596
 30
0.0
 11
260.948488
 21
226.834596
 31
0.0
  0
LINE
  8
LC-001-002-----0
 62
     1
  5
8F
 10
220.448488
 20
226.834596
 30
0.0
 11
220.448488
 21
219.334596
 31
0.0
  0
LINE
  8
LC-001-002-----0
 62
     1
  5
90
 10
212.948488
 20
226.834596
 30
0.0
 11
220.448488
 21
226.834596
 31
0.0
  0
LINE
  8
LC-001-002-----0
 62
     1
  5
91
 10
212.948488
 20
219.334596
 30
0.0
 11
220.448488
 21
219.334596
 31
0.0
  0
LINE
  8
LC-001-002-----0
 62
     1
  5
92
 10
212.948488
 20
226.834596
 30
0.0
 11
212.948488
 21
219.334596
 31
0.0
  0
LINE
  8
LC-001-002-----0
 62
     1
  5
93
 10
226.448488
 20
226.834596
 30
0.0
 11
226.448488
 21
219.334596
 31
0.0
  0
LINE
  8
LC-001-002-----0
 62
     1
  5
94
 10
233.948488
 20
226.834596
 30
0.0
 11
226.448488
 21
226.834596
 31
0.0
  0
LINE
  8
LC-001-002-----0
 62
     1
  5
95
 10
233.948488
 20
219.334596
 30
0.0
 11
226.448488
 21
219.334596
 31
0.0
  0
LINE
  8
LC-001-002-----0
 62
     1
  5
96
 10
233.948488
 20
226.834596
 30
0.0
 11
233.948488
 21
219.334596
 31
0.0
  0
LINE
  8
LC-001-002-----0
 62
     1
  5
97
 10
247.448488
 20
226.834596
 30
0.0
 11
239.948488
 21
226.834596
 31
0.0
  0
LINE
  8
LC-001-002-----0
 62
     1
  5
98
 10
247.448488
 20
219.334596
 30
0.0
 11
239.948488
 21
219.334596
 31
0.0
  0
LINE
  8
LC-001-002-----0
 62
     1
  5
99
 10
239.948488
 20
226.834596
 30
0.0
 11
239.948488
 21
219.334596
 31
0.0
  0
LINE
  8
LC-001-002-----0
 62
     1
  5
9A
 10
199.448488
 20
226.834596
 30
0.0
 11
206.948488
 21
226.834596
 31
0.0
  0
LINE
  8
LC-001-002-----0
 62
     1
  5
9B
 10
199.448488
 20
219.334596
 30
0.0
 11
206.948488
 21
219.334596
 31
0.0
  0
LINE
  8
LC-001-002-----0
 62
     1
  5
9C
 10
206.948488
 20
226.834596
 30
0.0
 11
206.948488
 21
219.334596
 31
0.0
  0
LINE
  8
LC-001-002-----0
 62
     1
  5
9D
 10
199.448488
 20
226.834596
 30
0.0
 11
199.448488
 21
219.334596
 31
0.0
  0
LINE
  8
LC-001-002-----0
 62
     1
  5
9E
 10
247.448488
 20
226.834596
 30
0.0
 11
247.448488
 21
219.334596
 31
0.0
  0
LINE
  8
LC-001-002-----0
 62
     1
  5
9F
 10
179.948488
 20
213.334596
 30
0.0
 11
179.948488
 21
205.834596
 31
0.0
  0
LINE
  8
LC-001-002-----0
 62
     1
  5
A0
 10
172.448488
 20
145.834596
 30
0.0
 11
179.948488
 21
145.834596
 31
0.0
  0
LINE
  8
LC-001-002-----0
 62
     1
  5
A1
 10
172.448488
 20
138.334596
 30
0.0
 11
179.948488
 21
138.334596
 31
0.0
  0
LINE
  8
LC-001-002-----0
 62
     1
  5
A2
 10
179.948488
 20
145.834596
 30
0.0
 11
179.948488
 21
138.334596
 31
0.0
  0
LINE
  8
LC-001-002-----0
 62
     1
  5
A3
 10
172.448488
 20
145.834596
 30
0.0
 11
172.448488
 21
138.334596
 31
0.0
  0
LINE
  8
LC-001-002-----0
 62
     1
  5
A4
 10
172.448488
 20
213.334596
 30
0.0
 11
172.448488
 21
205.834596
 31
0.0
  0
LINE
  8
LC-001-002-----0
 62
     1
  5
A5
 10
179.948488
 20
205.834596
 30
0.0
 11
172.448488
 21
205.834596
 31
0.0
  0
LINE
  8
LC-001-002-----0
 62
     1
  5
A6
 10
179.948488
 20
213.334596
 30
0.0
 11
172.448488
 21
213.334596
 31
0.0
  0
LINE
  8
LC-001-002-----0
 62
     1
  5
A7
 10
172.448488
 20
172.834596
 30
0.0
 11
179.948488
 21
172.834596
 31
0.0
  0
LINE
  8
LC-001-002-----0
 62
     1
  5
A8
 10
172.448488
 20
165.334596
 30
0.0
 11
172.448488
 21
172.834596
 31
0.0
  0
LINE
  8
LC-001-002-----0
 62
     1
  5
A9
 10
179.948488
 20
165.334596
 30
0.0
 11
179.948488
 21
172.834596
 31
0.0
  0
LINE
  8
LC-001-002-----0
 62
     1
  5
AA
 10
172.448488
 20
165.334596
 30
0.0
 11
179.948488
 21
165.334596
 31
0.0
  0
LINE
  8
LC-001-002-----0
 62
     1
  5
AB
 10
172.448488
 20
178.834596
 30
0.0
 11
179.948488
 21
178.834596
 31
0.0
  0
LINE
  8
LC-001-002-----0
 62
     1
  5
AC
 10
172.448488
 20
186.334596
 30
0.0
 11
172.448488
 21
178.834596
 31
0.0
  0
LINE
  8
LC-001-002-----0
 62
     1
  5
AD
 10
179.948488
 20
186.334596
 30
0.0
 11
179.948488
 21
178.834596
 31
0.0
  0
LINE
  8
LC-001-002-----0
 62
     1
  5
AE
 10
172.448488
 20
186.334596
 30
0.0
 11
179.948488
 21
186.334596
 31
0.0
  0
LINE
  8
LC-001-002-----0
 62
     1
  5
AF
 10
172.448488
 20
199.834596
 30
0.0
 11
172.448488
 21
192.334596
 31
0.0
  0
LINE
  8
LC-001-002-----0
 62
     1
  5
B0
 10
179.948488
 20
199.834596
 30
0.0
 11
179.948488
 21
192.334596
 31
0.0
  0
LINE
  8
LC-001-002-----0
 62
     1
  5
B1
 10
172.448488
 20
192.334596
 30
0.0
 11
179.948488
 21
192.334596
 31
0.0
  0
LINE
  8
LC-001-002-----0
 62
     1
  5
B2
 10
172.448488
 20
151.834596
 30
0.0
 11
172.448488
 21
159.334596
 31
0.0
  0
LINE
  8
LC-001-002-----0
 62
     1
  5
B3
 10
179.948488
 20
151.834596
 30
0.0
 11
179.948488
 21
159.334596
 31
0.0
  0
LINE
  8
LC-001-002-----0
 62
     1
  5
B4
 10
172.448488
 20
159.334596
 30
0.0
 11
179.948488
 21
159.334596
 31
0.0
  0
LINE
  8
LC-001-002-----0
 62
     1
  5
B5
 10
172.448488
 20
151.834596
 30
0.0
 11
179.948488
 21
151.834596
 31
0.0
  0
LINE
  8
LC-001-002-----0
 62
     1
  5
B6
 10
172.448488
 20
199.834596
 30
0.0
 11
179.948488
 21
199.834596
 31
0.0
  0
LINE
  8
LC-001-002-----0
 62
     1
  5
B7
 10
185.948488
 20
132.334596
 30
0.0
 11
193.448488
 21
132.334596
 31
0.0
  0
LINE
  8
LC-001-002-----0
 62
     1
  5
B8
 10
253.448488
 20
124.834595
 30
0.0
 11
253.448488
 21
132.334596
 31
0.0
  0
LINE
  8
LC-001-002-----0
 62
     1
  5
B9
 10
260.948488
 20
124.834595
 30
0.0
 11
260.948488
 21
132.334596
 31
0.0
  0
LINE
  8
LC-001-002-----0
 62
     1
  5
BA
 10
253.448488
 20
132.334596
 30
0.0
 11
260.948488
 21
132.334596
 31
0.0
  0
LINE
  8
LC-001-002-----0
 62
     1
  5
BB
 10
253.448488
 20
124.834595
 30
0.0
 11
260.948488
 21
124.834595
 31
0.0
  0
LINE
  8
LC-001-002-----0
 62
     1
  5
BC
 10
185.948488
 20
124.834595
 30
0.0
 11
193.448488
 21
124.834595
 31
0.0
  0
LINE
  8
LC-001-002-----0
 62
     1
  5
BD
 10
193.448488
 20
132.334596
 30
0.0
 11
193.448488
 21
124.834595
 31
0.0
  0
LINE
  8
LC-001-002-----0
 62
     1
  5
BE
 10
185.948488
 20
132.334596
 30
0.0
 11
185.948488
 21
124.834595
 31
0.0
  0
LINE
  8
LC-001-002-----0
 62
     1
  5
BF
 10
226.448488
 20
124.834595
 30
0.0
 11
226.448488
 21
132.334596
 31
0.0
  0
LINE
  8
LC-001-002-----0
 62
     1
  5
C0
 10
233.948488
 20
124.834595
 30
0.0
 11
226.448488
 21
124.834595
 31
0.0
  0
LINE
  8
LC-001-002-----0
 62
     1
  5
C1
 10
233.948488
 20
132.334596
 30
0.0
 11
226.448488
 21
132.334596
 31
0.0
  0
LINE
  8
LC-001-002-----0
 62
     1
  5
C2
 10
233.948488
 20
124.834595
 30
0.0
 11
233.948488
 21
132.334596
 31
0.0
  0
LINE
  8
LC-001-002-----0
 62
     1
  5
C3
 10
220.448488
 20
124.834595
 30
0.0
 11
220.448488
 21
132.334596
 31
0.0
  0
LINE
  8
LC-001-002-----0
 62
     1
  5
C4
 10
212.948488
 20
124.834595
 30
0.0
 11
220.448488
 21
124.834595
 31
0.0
  0
LINE
  8
LC-001-002-----0
 62
     1
  5
C5
 10
212.948488
 20
132.334596
 30
0.0
 11
220.448488
 21
132.334596
 31
0.0
  0
LINE
  8
LC-001-002-----0
 62
     1
  5
C6
 10
212.948488
 20
124.834595
 30
0.0
 11
212.948488
 21
132.334596
 31
0.0
  0
LINE
  8
LC-001-002-----0
 62
     1
  5
C7
 10
199.448488
 20
124.834595
 30
0.0
 11
206.948488
 21
124.834595
 31
0.0
  0
LINE
  8
LC-001-002-----0
 62
     1
  5
C8
 10
199.448488
 20
132.334596
 30
0.0
 11
206.948488
 21
132.334596
 31
0.0
  0
LINE
  8
LC-001-002-----0
 62
     1
  5
C9
 10
206.948488
 20
124.834595
 30
0.0
 11
206.948488
 21
132.334596
 31
0.0
  0
LINE
  8
LC-001-002-----0
 62
     1
  5
CA
 10
247.448488
 20
124.834595
 30
0.0
 11
239.948488
 21
124.834595
 31
0.0
  0
LINE
  8
LC-001-002-----0
 62
     1
  5
CB
 10
247.448488
 20
132.334596
 30
0.0
 11
239.948488
 21
132.334596
 31
0.0
  0
LINE
  8
LC-001-002-----0
 62
     1
  5
CC
 10
239.948488
 20
124.834595
 30
0.0
 11
239.948488
 21
132.334596
 31
0.0
  0
LINE
  8
LC-001-002-----0
 62
     1
  5
CD
 10
247.448488
 20
124.834595
 30
0.0
 11
247.448488
 21
132.334596
 31
0.0
  0
LINE
  8
LC-001-002-----0
 62
     1
  5
CE
 10
199.448488
 20
124.834595
 30
0.0
 11
199.448488
 21
132.334596
 31
0.0
  0
LINE
  8
LC-001-002-----0
 62
     1
  5
CF
 10
266.948488
 20
138.334596
 30
0.0
 11
266.948488
 21
145.834596
 31
0.0
  0
LINE
  8
LC-001-002-----0
 62
     1
  5
D0
 10
274.448488
 20
205.834596
 30
0.0
 11
266.948488
 21
205.834596
 31
0.0
  0
LINE
  8
LC-001-002-----0
 62
     1
  5
D1
 10
274.448488
 20
213.334596
 30
0.0
 11
266.948488
 21
213.334596
 31
0.0
  0
LINE
  8
LC-001-002-----0
 62
     1
  5
D2
 10
266.948488
 20
205.834596
 30
0.0
 11
266.948488
 21
213.334596
 31
0.0
  0
LINE
  8
LC-001-002-----0
 62
     1
  5
D3
 10
274.448488
 20
205.834596
 30
0.0
 11
274.448488
 21
213.334596
 31
0.0
  0
LINE
  8
LC-001-002-----0
 62
     1
  5
D4
 10
274.448488
 20
138.334596
 30
0.0
 11
274.448488
 21
145.834596
 31
0.0
  0
LINE
  8
LC-001-002-----0
 62
     1
  5
D5
 10
266.948488
 20
145.834596
 30
0.0
 11
274.448488
 21
145.834596
 31
0.0
  0
LINE
  8
LC-001-002-----0
 62
     1
  5
D6
 10
266.948488
 20
138.334596
 30
0.0
 11
274.448488
 21
138.334596
 31
0.0
  0
LINE
  8
LC-001-002-----0
 62
     1
  5
D7
 10
274.448488
 20
178.834596
 30
0.0
 11
266.948488
 21
178.834596
 31
0.0
  0
LINE
  8
LC-001-002-----0
 62
     1
  5
D8
 10
274.448488
 20
186.334596
 30
0.0
 11
274.448488
 21
178.834596
 31
0.0
  0
LINE
  8
LC-001-002-----0
 62
     1
  5
D9
 10
266.948488
 20
186.334596
 30
0.0
 11
266.948488
 21
178.834596
 31
0.0
  0
LINE
  8
LC-001-002-----0
 62
     1
  5
DA
 10
274.448488
 20
186.334596
 30
0.0
 11
266.948488
 21
186.334596
 31
0.0
  0
LINE
  8
LC-001-002-----0
 62
     1
  5
DB
 10
274.448488
 20
172.834596
 30
0.0
 11
266.948488
 21
172.834596
 31
0.0
  0
LINE
  8
LC-001-002-----0
 62
     1
  5
DC
 10
274.448488
 20
165.334596
 30
0.0
 11
274.448488
 21
172.834596
 31
0.0
  0
LINE
  8
LC-001-002-----0
 62
     1
  5
DD
 10
266.948488
 20
165.334596
 30
0.0
 11
266.948488
 21
172.834596
 31
0.0
  0
LINE
  8
LC-001-002-----0
 62
     1
  5
DE
 10
274.448488
 20
165.334596
 30
0.0
 11
266.948488
 21
165.334596
 31
0.0
  0
LINE
  8
LC-001-002-----0
 62
     1
  5
DF
 10
274.448488
 20
151.834596
 30
0.0
 11
274.448488
 21
159.334596
 31
0.0
  0
LINE
  8
LC-001-002-----0
 62
     1
  5
E0
 10
266.948488
 20
151.834596
 30
0.0
 11
266.948488
 21
159.334596
 31
0.0
  0
LINE
  8
LC-001-002-----0
 62
     1
  5
E1
 10
274.448488
 20
159.334596
 30
0.0
 11
266.948488
 21
159.334596
 31
0.0
  0
LINE
  8
LC-001-002-----0
 62
     1
  5
E2
 10
274.448488
 20
199.834596
 30
0.0
 11
274.448488
 21
192.334596
 31
0.0
  0
LINE
  8
LC-001-002-----0
 62
     1
  5
E3
 10
266.948488
 20
199.834596
 30
0.0
 11
266.948488
 21
192.334596
 31
0.0
  0
LINE
  8
LC-001-002-----0
 62
     1
  5
E4
 10
274.448488
 20
192.334596
 30
0.0
 11
266.948488
 21
192.334596
 31
0.0
  0
LINE
  8
LC-001-002-----0
 62
     1
  5
E5
 10
274.448488
 20
199.834596
 30
0.0
 11
266.948488
 21
199.834596
 31
0.0
  0
LINE
  8
LC-001-002-----0
 62
     1
  5
E6
 10
274.448488
 20
151.834596
 30
0.0
 11
266.948488
 21
151.834596
 31
0.0
  0
LINE
  8
LC-001-002-----0
 62
     1
  5
E7
 10
266.948488
 20
219.334596
 30
0.0
 11
274.448488
 21
219.334596
 31
0.0
  0
LINE
  8
LC-001-002-----0
 62
     1
  5
E8
 10
266.948488
 20
219.334596
 30
0.0
 11
266.948488
 21
226.834596
 31
0.0
  0
LINE
  8
LC-001-002-----0
 62
     1
  5
E9
 10
266.948488
 20
226.834596
 30
0.0
 11
274.448488
 21
226.834596
 31
0.0
  0
LINE
  8
LC-001-002-----0
 62
     1
  5
EA
 10
274.448488
 20
219.334596
 30
0.0
 11
274.448488
 21
226.834596
 31
0.0
  0
LINE
  8
LC-001-002-----0
 62
     1
  5
EB
 10
179.948488
 20
219.334596
 30
0.0
 11
172.448488
 21
219.334596
 31
0.0
  0
LINE
  8
LC-001-002-----0
 62
     1
  5
EC
 10
179.948488
 20
219.334596
 30
0.0
 11
179.948488
 21
226.834596
 31
0.0
  0
LINE
  8
LC-001-002-----0
 62
     1
  5
ED
 10
179.948488
 20
226.834596
 30
0.0
 11
172.448488
 21
226.834596
 31
0.0
  0
LINE
  8
LC-001-002-----0
 62
     1
  5
EE
 10
172.448488
 20
219.334596
 30
0.0
 11
172.448488
 21
226.834596
 31
0.0
  0
LINE
  8
LC-001-002-----0
 62
     1
  5
EF
 10
179.948488
 20
132.334596
 30
0.0
 11
172.448488
 21
132.334596
 31
0.0
  0
LINE
  8
LC-001-002-----0
 62
     1
  5
F0
 10
179.948488
 20
132.334596
 30
0.0
 11
179.948488
 21
124.834595
 31
0.0
  0
LINE
  8
LC-001-002-----0
 62
     1
  5
F1
 10
179.948488
 20
124.834595
 30
0.0
 11
172.448488
 21
124.834595
 31
0.0
  0
LINE
  8
LC-001-002-----0
 62
     1
  5
F2
 10
172.448488
 20
132.334596
 30
0.0
 11
172.448488
 21
124.834595
 31
0.0
  0
LINE
  8
LC-001-002-----0
 62
     1
  5
F3
 10
266.948488
 20
132.334596
 30
0.0
 11
274.448488
 21
132.334596
 31
0.0
  0
LINE
  8
LC-001-002-----0
 62
     1
  5
F4
 10
266.948488
 20
132.334596
 30
0.0
 11
266.948488
 21
124.834595
 31
0.0
  0
LINE
  8
LC-001-002-----0
 62
     1
  5
F5
 10
266.948488
 20
124.834595
 30
0.0
 11
274.448488
 21
124.834595
 31
0.0
  0
LINE
  8
LC-001-002-----0
 62
     1
  5
F6
 10
274.448488
 20
132.334596
 30
0.0
 11
274.448488
 21
124.834595
 31
0.0
  0
LINE
  8
LC-001-002-----0
 62
     1
  5
F7
 10
220.448488
 20
199.834596
 30
0.0
 11
220.448488
 21
192.334596
 31
0.0
  0
LINE
  8
LC-001-002-----0
 62
     1
  5
F8
 10
212.948488
 20
199.834596
 30
0.0
 11
220.448488
 21
199.834596
 31
0.0
  0
LINE
  8
LC-001-002-----0
 62
     1
  5
F9
 10
212.948488
 20
192.334596
 30
0.0
 11
220.448488
 21
192.334596
 31
0.0
  0
LINE
  8
LC-001-002-----0
 62
     1
  5
FA
 10
212.948488
 20
199.834596
 30
0.0
 11
212.948488
 21
192.334596
 31
0.0
  0
LINE
  8
LC-001-002-----0
 62
     1
  5
FB
 10
226.448488
 20
199.834596
 30
0.0
 11
226.448488
 21
192.334596
 31
0.0
  0
LINE
  8
LC-001-002-----0
 62
     1
  5
FC
 10
233.948488
 20
199.834596
 30
0.0
 11
226.448488
 21
199.834596
 31
0.0
  0
LINE
  8
LC-001-002-----0
 62
     1
  5
FD
 10
233.948488
 20
192.334596
 30
0.0
 11
226.448488
 21
192.334596
 31
0.0
  0
LINE
  8
LC-001-002-----0
 62
     1
  5
FE
 10
233.948488
 20
199.834596
 30
0.0
 11
233.948488
 21
192.334596
 31
0.0
  0
LINE
  8
LC-001-002-----0
 62
     1
  5
FF
 10
247.448488
 20
199.834596
 30
0.0
 11
239.948488
 21
199.834596
 31
0.0
  0
LINE
  8
LC-001-002-----0
 62
     1
  5
100
 10
247.448488
 20
192.334596
 30
0.0
 11
239.948488
 21
192.334596
 31
0.0
  0
LINE
  8
LC-001-002-----0
 62
     1
  5
101
 10
239.948488
 20
199.834596
 30
0.0
 11
239.948488
 21
192.334596
 31
0.0
  0
LINE
  8
LC-001-002-----0
 62
     1
  5
102
 10
199.448488
 20
199.834596
 30
0.0
 11
206.948488
 21
199.834596
 31
0.0
  0
LINE
  8
LC-001-002-----0
 62
     1
  5
103
 10
199.448488
 20
192.334596
 30
0.0
 11
206.948488
 21
192.334596
 31
0.0
  0
LINE
  8
LC-001-002-----0
 62
     1
  5
104
 10
206.948488
 20
199.834596
 30
0.0
 11
206.948488
 21
192.334596
 31
0.0
  0
LINE
  8
LC-001-002-----0
 62
     1
  5
105
 10
199.448488
 20
199.834596
 30
0.0
 11
199.448488
 21
192.334596
 31
0.0
  0
LINE
  8
LC-001-002-----0
 62
     1
  5
106
 10
247.448488
 20
199.834596
 30
0.0
 11
247.448488
 21
192.334596
 31
0.0
  0
LINE
  8
LC-001-002-----0
 62
     1
  5
107
 10
220.448488
 20
186.334596
 30
0.0
 11
220.448488
 21
178.834596
 31
0.0
  0
LINE
  8
LC-001-002-----0
 62
     1
  5
108
 10
212.948488
 20
186.334596
 30
0.0
 11
220.448488
 21
186.334596
 31
0.0
  0
LINE
  8
LC-001-002-----0
 62
     1
  5
109
 10
212.948488
 20
178.834596
 30
0.0
 11
220.448488
 21
178.834596
 31
0.0
  0
LINE
  8
LC-001-002-----0
 62
     1
  5
10A
 10
212.948488
 20
186.334596
 30
0.0
 11
212.948488
 21
178.834596
 31
0.0
  0
LINE
  8
LC-001-002-----0
 62
     1
  5
10B
 10
226.448488
 20
186.334596
 30
0.0
 11
226.448488
 21
178.834596
 31
0.0
  0
LINE
  8
LC-001-002-----0
 62
     1
  5
10C
 10
233.948488
 20
186.334596
 30
0.0
 11
226.448488
 21
186.334596
 31
0.0
  0
LINE
  8
LC-001-002-----0
 62
     1
  5
10D
 10
233.948488
 20
178.834596
 30
0.0
 11
226.448488
 21
178.834596
 31
0.0
  0
LINE
  8
LC-001-002-----0
 62
     1
  5
10E
 10
233.948488
 20
186.334596
 30
0.0
 11
233.948488
 21
178.834596
 31
0.0
  0
LINE
  8
LC-001-002-----0
 62
     1
  5
10F
 10
247.448488
 20
186.334596
 30
0.0
 11
239.948488
 21
186.334596
 31
0.0
  0
LINE
  8
LC-001-002-----0
 62
     1
  5
110
 10
247.448488
 20
178.834596
 30
0.0
 11
239.948488
 21
178.834596
 31
0.0
  0
LINE
  8
LC-001-002-----0
 62
     1
  5
111
 10
239.948488
 20
186.334596
 30
0.0
 11
239.948488
 21
178.834596
 31
0.0
  0
LINE
  8
LC-001-002-----0
 62
     1
  5
112
 10
199.448488
 20
186.334596
 30
0.0
 11
206.948488
 21
186.334596
 31
0.0
  0
LINE
  8
LC-001-002-----0
 62
     1
  5
113
 10
199.448488
 20
178.834596
 30
0.0
 11
206.948488
 21
178.834596
 31
0.0
  0
LINE
  8
LC-001-002-----0
 62
     1
  5
114
 10
206.948488
 20
186.334596
 30
0.0
 11
206.948488
 21
178.834596
 31
0.0
  0
LINE
  8
LC-001-002-----0
 62
     1
  5
115
 10
199.448488
 20
186.334596
 30
0.0
 11
199.448488
 21
178.834596
 31
0.0
  0
LINE
  8
LC-001-002-----0
 62
     1
  5
116
 10
247.448488
 20
186.334596
 30
0.0
 11
247.448488
 21
178.834596
 31
0.0
  0
LINE
  8
LC-001-002-----0
 62
     1
  5
117
 10
220.448488
 20
172.834596
 30
0.0
 11
220.448488
 21
165.334596
 31
0.0
  0
LINE
  8
LC-001-002-----0
 62
     1
  5
118
 10
212.948488
 20
172.834596
 30
0.0
 11
220.448488
 21
172.834596
 31
0.0
  0
LINE
  8
LC-001-002-----0
 62
     1
  5
119
 10
212.948488
 20
165.334596
 30
0.0
 11
220.448488
 21
165.334596
 31
0.0
  0
LINE
  8
LC-001-002-----0
 62
     1
  5
11A
 10
212.948488
 20
172.834596
 30
0.0
 11
212.948488
 21
165.334596
 31
0.0
  0
LINE
  8
LC-001-002-----0
 62
     1
  5
11B
 10
226.448488
 20
172.834596
 30
0.0
 11
226.448488
 21
165.334596
 31
0.0
  0
LINE
  8
LC-001-002-----0
 62
     1
  5
11C
 10
233.948488
 20
172.834596
 30
0.0
 11
226.448488
 21
172.834596
 31
0.0
  0
LINE
  8
LC-001-002-----0
 62
     1
  5
11D
 10
233.948488
 20
165.334596
 30
0.0
 11
226.448488
 21
165.334596
 31
0.0
  0
LINE
  8
LC-001-002-----0
 62
     1
  5
11E
 10
233.948488
 20
172.834596
 30
0.0
 11
233.948488
 21
165.334596
 31
0.0
  0
LINE
  8
LC-001-002-----0
 62
     1
  5
11F
 10
247.448488
 20
172.834596
 30
0.0
 11
239.948488
 21
172.834596
 31
0.0
  0
LINE
  8
LC-001-002-----0
 62
     1
  5
120
 10
247.448488
 20
165.334596
 30
0.0
 11
239.948488
 21
165.334596
 31
0.0
  0
LINE
  8
LC-001-002-----0
 62
     1
  5
121
 10
239.948488
 20
172.834596
 30
0.0
 11
239.948488
 21
165.334596
 31
0.0
  0
LINE
  8
LC-001-002-----0
 62
     1
  5
122
 10
199.448488
 20
172.834596
 30
0.0
 11
206.948488
 21
172.834596
 31
0.0
  0
LINE
  8
LC-001-002-----0
 62
     1
  5
123
 10
199.448488
 20
165.334596
 30
0.0
 11
206.948488
 21
165.334596
 31
0.0
  0
LINE
  8
LC-001-002-----0
 62
     1
  5
124
 10
206.948488
 20
172.834596
 30
0.0
 11
206.948488
 21
165.334596
 31
0.0
  0
LINE
  8
LC-001-002-----0
 62
     1
  5
125
 10
199.448488
 20
172.834596
 30
0.0
 11
199.448488
 21
165.334596
 31
0.0
  0
LINE
  8
LC-001-002-----0
 62
     1
  5
126
 10
247.448488
 20
172.834596
 30
0.0
 11
247.448488
 21
165.334596
 31
0.0
  0
LINE
  8
LC-001-002-----0
 62
     1
  5
127
 10
220.448488
 20
159.334596
 30
0.0
 11
220.448488
 21
151.834596
 31
0.0
  0
LINE
  8
LC-001-002-----0
 62
     1
  5
128
 10
212.948488
 20
159.334596
 30
0.0
 11
220.448488
 21
159.334596
 31
0.0
  0
LINE
  8
LC-001-002-----0
 62
     1
  5
129
 10
212.948488
 20
151.834596
 30
0.0
 11
220.448488
 21
151.834596
 31
0.0
  0
LINE
  8
LC-001-002-----0
 62
     1
  5
12A
 10
212.948488
 20
159.334596
 30
0.0
 11
212.948488
 21
151.834596
 31
0.0
  0
LINE
  8
LC-001-002-----0
 62
     1
  5
12B
 10
226.448488
 20
159.334596
 30
0.0
 11
226.448488
 21
151.834596
 31
0.0
  0
LINE
  8
LC-001-002-----0
 62
     1
  5
12C
 10
233.948488
 20
159.334596
 30
0.0
 11
226.448488
 21
159.334596
 31
0.0
  0
LINE
  8
LC-001-002-----0
 62
     1
  5
12D
 10
233.948488
 20
151.834596
 30
0.0
 11
226.448488
 21
151.834596
 31
0.0
  0
LINE
  8
LC-001-002-----0
 62
     1
  5
12E
 10
233.948488
 20
159.334596
 30
0.0
 11
233.948488
 21
151.834596
 31
0.0
  0
LINE
  8
LC-001-002-----0
 62
     1
  5
12F
 10
247.448488
 20
159.334596
 30
0.0
 11
239.948488
 21
159.334596
 31
0.0
  0
LINE
  8
LC-001-002-----0
 62
     1
  5
130
 10
247.448488
 20
151.834596
 30
0.0
 11
239.948488
 21
151.834596
 31
0.0
  0
LINE
  8
LC-001-002-----0
 62
     1
  5
131
 10
239.948488
 20
159.334596
 30
0.0
 11
239.948488
 21
151.834596
 31
0.0
  0
LINE
  8
LC-001-002-----0
 62
     1
  5
132
 10
199.448488
 20
159.334596
 30
0.0
 11
206.948488
 21
159.334596
 31
0.0
  0
LINE
  8
LC-001-002-----0
 62
     1
  5
133
 10
199.448488
 20
151.834596
 30
0.0
 11
206.948488
 21
151.834596
 31
0.0
  0
LINE
  8
LC-001-002-----0
 62
     1
  5
134
 10
206.948488
 20
159.334596
 30
0.0
 11
206.948488
 21
151.834596
 31
0.0
  0
LINE
  8
LC-001-002-----0
 62
     1
  5
135
 10
199.448488
 20
159.334596
 30
0.0
 11
199.448488
 21
151.834596
 31
0.0
  0
LINE
  8
LC-001-002-----0
 62
     1
  5
136
 10
247.448488
 20
159.334596
 30
0.0
 11
247.448488
 21
151.834596
 31
0.0
  0
LINE
  8
LC-001-002-----0
 62
     1
  5
137
 10
285.948488
 20
248.334596
 30
0.0
 11
160.948488
 21
248.334596
 31
0.0
  0
LINE
  8
LC-001-002-----0
 62
     1
  5
138
 10
150.948488
 20
238.334596
 30
0.0
 11
150.948488
 21
113.334595
 31
0.0
  0
LINE
  8
LC-001-002-----0
 62
     1
  5
139
 10
160.948488
 20
103.334595
 30
0.0
 11
285.948488
 21
103.334595
 31
0.0
  0
LINE
  8
LC-001-002-----0
 62
     1
  5
13A
 10
295.948488
 20
113.334595
 30
0.0
 11
295.948488
 21
238.334596
 31
0.0
  0
DIMENSION
  8
LC-005-003-----0
 62
     2
  5
159
  2
*D0
 10
223.448488
 20
274.3253
 30
0.0
 11
223.448488
 21
274.3253
 31
0.0
 13
150.948488
 23
238.334596
 33
0.0
 14
295.948488
 24
238.334596
 34
0.0
  3
LC-DIM-L-0140-02-02
  0
ENDSEC
  0
EOF
