  0
SECTION
  2
HEADER
  9
$ACADVER
  1
AC1009
  9
$INSBASE
 10
0.0
 20
0.0
 30
0.0
  9
$EXTMIN
 10
-210.0
 20
-148.5
 30
0.0
  9
$EXTMAX
 10
630.0
 20
445.5
 30
0.0
  9
$LIMMIN
 10
-210.0
 20
-148.5
  9
$LIMMAX
 10
630.0
 20
445.5
  9
$ORTHOMODE
 70
     0
  9
$REGENMODE
 70
     1
  9
$FILLMODE
 70
     1
  9
$QTEXTMODE
 70
     0
  9
$MIRRTEXT
 70
     1
  9
$DRAGMODE
 70
     2
  9
$LTSCALE
 40
2.0
  9
$OSMODE
 70
     0
  9
$ATTMODE
 70
     1
  9
$TEXTSIZE
 40
0.2
  9
$TRACEWID
 40
0.05
  9
$TEXTSTYLE
  7
STANDARD
  9
$CLAYER
  8
0
  9
$CELTYPE
  6
BYLAYER
  9
$CECOLOR
 62
     7
  9
$DIMSCALE
 40
2.0
  9
$DIMASZ
 40
3.5
  9
$DIMEXO
 40
0.0625
  9
$DIMDLI
 40
0.38
  9
$DIMRND
 40
0.0
  9
$DIMDLE
 40
0.0
  9
$DIMEXE
 40
0.18
  9
$DIMTP
 40
0.0
  9
$DIMTM
 40
0.0
  9
$DIMTXT
 40
3.5
  9
$DIMCEN
 40
0.09
  9
$DIMTSZ
 40
0.0
  9
$DIMTOL
 70
     0
  9
$DIMLIM
 70
     0
  9
$DIMTIH
 70
     1
  9
$DIMTOH
 70
     1
  9
$DIMSE1
 70
     0
  9
$DIMSE2
 70
     0
  9
$DIMTAD
 70
     1
  9
$DIMZIN
 70
     0
  9
$DIMBLK
  1

  9
$DIMASO
 70
     1
  9
$DIMSHO
 70
     1
  9
$DIMPOST
  1

  9
$DIMAPOST
  1

  9
$DIMALT
 70
     0
  9
$DIMALTD
 70
     2
  9
$DIMALTF
 40
25.4
  9
$DIMLFAC
 40
1.0
  9
$DIMTOFL
 70
     0
  9
$DIMTVP
 40
0.0
  9
$DIMTIX
 70
     0
  9
$DIMSOXD
 70
     0
  9
$DIMSAH
 70
     0
  9
$DIMBLK1
  1

  9
$DIMBLK2
  1

  9
$DIMSTYLE
  2
STANDARD
  9
$DIMCLRD
 70
     0
  9
$DIMCLRE
 70
     0
  9
$DIMCLRT
 70
     0
  9
$DIMTFAC
 40
1.0
  9
$DIMGAP
 40
0.09
  9
$LUNITS
 70
     2
  9
$LUPREC
 70
     2
  9
$AXISMODE
 70
     0
  9
$AXISUNIT
 10
0.0
 20
0.0
  9
$SKETCHINC
 40
0.1
  9
$FILLETRAD
 40
0.0
  9
$AUNITS
 70
     0
  9
$AUPREC
 70
     0
  9
$MENU
  1
acad
  9
$ELEVATION
 40
0.0
  9
$PELEVATION
 40
0.0
  9
$THICKNESS
 40
0.0
  9
$LIMCHECK
 70
     0
  9
$BLIPMODE
 70
     1
  9
$CHAMFERA
 40
0.0
  9
$CHAMFERB
 40
0.0
  9
$SKPOLY
 70
     0
  9
$TDCREATE
 40
0.000000000
  9
$TDUPDATE
 40
0.000000000
  9
$TDINDWG
 40
0.0000000000
  9
$TDUSRTIMER
 40
0.0000000000
  9
$USRTIMER
 70
     1
  9
$ANGBASE
 50
0.0
  9
$ANGDIR
 70
     0
  9
$PDMODE
 70
     0
  9
$PDSIZE
 40
0.0
  9
$PLINEWID
 40
0.0
  9
$COORDS
 70
     0
  9
$SPLFRAME
 70
     0
  9
$SPLINETYPE
 70
     6
  9
$SPLINESEGS
 70
     8
  9
$ATTDIA
 70
     0
  9
$ATTREQ
 70
     1
  9
$HANDLING
 70
     1
  9
$HANDSEED
  5
177
  9
$SURFTAB1
 70
     6
  9
$SURFTAB2
 70
     6
  9
$SURFTYPE
 70
     6
  9
$SURFU
 70
     6
  9
$SURFV
 70
     6
  9
$UCSNAME
  2

  9
$UCSORG
 10
0.0
 20
0.0
 30
0.0
  9
$UCSXDIR
 10
1.0
 20
0.0
 30
0.0
  9
$UCSYDIR
 10
0.0
 20
1.0
 30
0.0
  9
$PUCSNAME
  2

  9
$PUCSORG
 10
0.0
 20
0.0
 30
0.0
  9
$PUCSXDIR
 10
1.0
 20
0.0
 30
0.0
  9
$PUCSYDIR
 10
0.0
 20
1.0
 30
0.0
  9
$USERI1
 70
     0
  9
$USERI2
 70
     0
  9
$USERI3
 70
     0
  9
$USERI4
 70
     0
  9
$USERI5
 70
     0
  9
$USERR1
 40
0.0
  9
$USERR2
 40
0.0
  9
$USERR3
 40
0.0
  9
$USERR4
 40
0.0
  9
$USERR5
 40
0.0
  9
$WORLDVIEW
 70
     1
  9
$SHADEDGE
 70
     3
  9
$SHADEDIF
 70
    70
  9
$TILEMODE
 70
     1
  9
$MAXACTVP
 70
    16
  9
$PINSBASE
 10
0.0
 20
0.0
 30
0.0
  9
$PLIMCHECK
 70
     0
  9
$PEXTMIN
 10
1.000000E+20
 20
1.000000E+20
 30
1.000000E+20
  9
$PEXTMAX
 10
-1.000000E+20
 20
-1.000000E+20
 30
-1.000000E+20
  9
$PLIMMIN
 10
-210.0
 20
-148.5
  9
$PLIMMAX
 10
630.0
 20
445.5
  9
$UNITMODE
 70
     0
  9
$VISRETAIN
 70
     0
  9
$PLINEGEN
 70
     1
  9
$PSLTSCALE
 70
     0
  9
$TREEDEPTH
 70
  3020
  9
$DWGCODEPAGE
  3
dos850
  0
ENDSEC
  0
SECTION
  2
TABLES
  0
TABLE
  2
VPORT
 70
     1
  0
VPORT
  2
*ACTIVE
 70
     0
 10
0.0
 20
0.0
 11
1.0
 21
1.0
 12
420.0
 22
297.0
 13
0.0
 23
0.0
 14
1.0
 24
1.0
 15
0.0
 25
0.0
 16
0.0
 26
0.0
 36
1.0
 17
-210.0
 27
-148.5
 37
0.0
 40
594.0
 41
1.604229
 42
50.0
 43
0.0
 44
0.0
 50
0.0
 51
0.0
 71
     0
 72
   100
 73
     1
 74
     1
 75
     0
 76
     0
 77
     0
 78
     0
  0
ENDTAB
  0
TABLE
  2
LTYPE
 70
     1
  0
LTYPE
  2
CONTINUOUS
 70
    64
  3
Solid line
 72
    65
 73
     0
 40
0.0
  0
ENDTAB
  0
TABLE
  2
LAYER
 70
    10
  0
LAYER
  2
0
 70
     0
 62
     7
  6
CONTINUOUS
  0
LAYER
  2
LC-INFO-1-2-MM-A3-0
 70
     1
 62
    -1
  6
CONTINUOUS
  0
LAYER
  2
LC-004-003-MTH-0
 70
     0
 62
     2
  6
CONTINUOUS
  0
LAYER
  2
LC-003-003-----0
 70
     0
 62
     2
  6
CONTINUOUS
  0
LAYER
  2
LC-005-003-MTG-0
 70
     0
 62
     2
  6
CONTINUOUS
  0
LAYER
  2
LC-006-005-----0
 70
     0
 62
     2
  6
CONTINUOUS
  0
LAYER
  2
LC-007-000-----0
 70
     0
 62
     7
  6
CONTINUOUS
  0
LAYER
  2
LC-001-002-----0
 70
     0
 62
     1
  6
CONTINUOUS
  0
LAYER
  2
LC-002-002-RND-0
 70
     0
 62
     1
  6
CONTINUOUS
  0
LAYER
  2
LC-000
 70
     0
 62
     7
  6
CONTINUOUS
  0
ENDTAB
  0
TABLE
  2
STYLE
 70
     4
  0
STYLE
  2
STANDARD
 70
     0
 40
0.0
 41
1.0
 50
0.0
 71
     0
 42
0.0
  3
txt
  4

  0
STYLE
  2
LC-STANDARD
 70
    64
 40
0.0
 41
1.0
 50
0.0
 71
     0
 42
3.5
  3
MONOTXT
  4

  0
STYLE
  2
LC-TXTSTYLE-150-400-0-0-A2
 70
    64
 40
0.0
 41
1.0
 50
15.0
 71
     0
 42
3.5
  3
MONOTXT
  4

  0
STYLE
  2
LC-TXTSTYLE-150-400-0-0-D3
 70
    64
 40
0.0
 41
1.0
 50
15.0
 71
     0
 42
3.5
  3
LC-STANDARD
  4

  0
ENDTAB
  0
TABLE
  2
VIEW
 70
     0
  0
ENDTAB
  0
TABLE
  2
UCS
 70
     0
  0
ENDTAB
  0
TABLE
  2
APPID
 70
     1
  0
APPID
  2
ACAD
 70
     0
  0
ENDTAB
  0
TABLE
  2
DIMSTYLE
 70
     3
  0
DIMSTYLE
  2
STANDARD
 70
     0
  3

  4

  5

  6

  7

 40
1.0
 41
0.18
 42
0.0625
 43
0.38
 44
0.18
 45
0.0
 46
0.0
 47
0.0
 48
0.0
 71
     0
 72
     0
 73
     1
 74
     1
 75
     0
 76
     0
 77
     0
 78
     0
140
0.18
141
0.09
142
0.0
143
25.4
144
1.0
145
0.0
146
1.0
147
0.09
170
     0
171
     2
172
     0
173
     0
174
     0
175
     0
176
     0
177
     0
178
     0
  0
DIMSTYLE
  2
LC-STANDARD
 70
     0
  3

  4

  5

  6

  7

 40
1.0
 41
3.5
 42
0.0
 43
7.5
 44
1.8
 45
0.0
 46
0.0
 47
0.0
 48
0.0
 71
     0
 72
     0
 73
     0
 74
     0
 75
     0
 76
     0
 77
     1
 78
     8
140
3.5
141
0.0
142
0.0
143
25.4
144
1.0
145
0.0
146
0.71
147
1.5
170
     0
171
     2
172
     1
173
     0
174
     0
175
     0
176
     0
177
     0
178
     3
  0
DIMSTYLE
  2
LC-DIM-L-0140-02-02
 70
     0
  3

  4

  5

  6

  7

 40
2.0
 41
3.5
 42
0.0
 43
7.5
 44
1.8
 45
0.0
 46
0.0
 47
0.0
 48
0.0
 71
     0
 72
     0
 73
     0
 74
     0
 75
     0
 76
     0
 77
     1
 78
     8
140
14.0
141
0.0
142
0.0
143
25.4
144
1.0
145
0.0
146
0.71
147
1.5
170
     0
171
     2
172
     0
173
     0
174
     0
175
     0
176
     2
177
     2
178
     8
  0
ENDTAB
  0
ENDSEC
  0
SECTION
  2
BLOCKS
  0
BLOCK
  8
0
  5
23
  2
*D0
 70
    65
 10
0.0
 20
0.0
 30
0.0
  3
*D0
  0
LINE
  8
LC-004-003-MTH-0
  6
CONTINUOUS
  5
25
 10
13.560227
 20
170.14731
 30
0.0
 11
-16.8
 21
170.14731
 31
0.0
  0
LINE
  8
LC-004-003-MTH-0
  6
CONTINUOUS
  5
26
 10
16.060227
 20
176.49731
 30
0.0
 11
-16.8
 21
176.49731
 31
0.0
  0
LINE
  8
LC-003-003-----0
  6
CONTINUOUS
  5
28
 10
3.654733
 20
142.386854
 30
0.0
 11
0.0
 21
170.14731
 31
0.0
  0
LINE
  8
LC-003-003-----0
  6
CONTINUOUS
  5
29
 10
0.0
 20
170.14731
 30
0.0
 11
-3.654733
 21
142.386854
 31
0.0
  0
LINE
  8
LC-003-003-----0
  6
CONTINUOUS
  5
2A
 10
-3.654733
 20
142.386854
 30
0.0
 11
3.654733
 21
142.386854
 31
0.0
  0
LINE
  8
LC-003-003-----0
  6
CONTINUOUS
  5
2B
 10
2.704503
 20
142.324573
 30
0.0
 11
0.0
 21
162.86731
 31
0.0
  0
LINE
  8
LC-003-003-----0
  6
CONTINUOUS
  5
2C
 10
0.0
 20
162.86731
 30
0.0
 11
-2.704503
 21
142.324573
 31
0.0
  0
LINE
  8
LC-003-003-----0
  6
CONTINUOUS
  5
2D
 10
1.754272
 20
142.262291
 30
0.0
 11
0.0
 21
155.58731
 31
0.0
  0
LINE
  8
LC-003-003-----0
  6
CONTINUOUS
  5
2E
 10
0.0
 20
155.58731
 30
0.0
 11
-1.754272
 21
142.262291
 31
0.0
  0
LINE
  8
LC-003-003-----0
  6
CONTINUOUS
  5
2F
 10
0.804041
 20
142.20001
 30
0.0
 11
0.0
 21
148.30731
 31
0.0
  0
LINE
  8
LC-003-003-----0
  6
CONTINUOUS
  5
30
 10
0.0
 20
148.30731
 30
0.0
 11
-0.804041
 21
142.20001
 31
0.0
  0
LINE
  8
LC-003-003-----0
  6
CONTINUOUS
  5
31
 10
-3.654733
 20
204.257766
 30
0.0
 11
0.0
 21
176.49731
 31
0.0
  0
LINE
  8
LC-003-003-----0
  6
CONTINUOUS
  5
32
 10
0.0
 20
176.49731
 30
0.0
 11
3.654733
 21
204.257766
 31
0.0
  0
LINE
  8
LC-003-003-----0
  6
CONTINUOUS
  5
33
 10
3.654733
 20
204.257766
 30
0.0
 11
-3.654733
 21
204.257766
 31
0.0
  0
LINE
  8
LC-003-003-----0
  6
CONTINUOUS
  5
34
 10
-2.704503
 20
204.320048
 30
0.0
 11
0.0
 21
183.77731
 31
0.0
  0
LINE
  8
LC-003-003-----0
  6
CONTINUOUS
  5
35
 10
0.0
 20
183.77731
 30
0.0
 11
2.704503
 21
204.320048
 31
0.0
  0
LINE
  8
LC-003-003-----0
  6
CONTINUOUS
  5
36
 10
-1.754272
 20
204.382329
 30
0.0
 11
0.0
 21
191.05731
 31
0.0
  0
LINE
  8
LC-003-003-----0
  6
CONTINUOUS
  5
37
 10
0.0
 20
191.05731
 30
0.0
 11
1.754272
 21
204.382329
 31
0.0
  0
LINE
  8
LC-003-003-----0
  6
CONTINUOUS
  5
38
 10
-0.804041
 20
204.444611
 30
0.0
 11
0.0
 21
198.33731
 31
0.0
  0
LINE
  8
LC-003-003-----0
  6
CONTINUOUS
  5
39
 10
0.0
 20
198.33731
 30
0.0
 11
0.804041
 21
204.444611
 31
0.0
  0
LINE
  8
LC-005-003-MTG-0
  6
CONTINUOUS
  5
3B
 10
0.0
 20
130.94731
 30
0.0
 11
0.0
 21
268.66281
 31
0.0
  0
TEXT
  8
LC-003-003-----0
  6
CONTINUOUS
 62
     8
  5
3D
 10
-7.827554
 20
218.92547
 30
0.0
 40
28.0
  1
6,4
 50
90.0
 41
0.9
 51
15.0
  7
LC-TXTSTYLE-150-400-0-0-D0
  0
ENDBLK
  8
0
  5
3E
  0
BLOCK
  8
0
  5
40
  2
*D1
 70
    65
 10
0.0
 20
0.0
 30
0.0
  3
*D1
  0
LINE
  8
LC-004-003-MTH-0
  6
CONTINUOUS
  5
41
 10
14.060227
 20
174.49731
 30
0.0
 11
14.060227
 21
212.8
 31
0.0
  0
LINE
  8
LC-004-003-MTH-0
  6
CONTINUOUS
  5
42
 10
114.060227
 20
174.49731
 30
0.0
 11
114.060227
 21
212.8
 31
0.0
  0
LINE
  8
LC-005-003-MTG-0
  6
CONTINUOUS
  5
43
 10
14.060227
 20
196.0
 30
0.0
 11
114.060227
 21
196.0
 31
0.0
  0
LINE
  8
LC-003-003-----0
  6
CONTINUOUS
  5
44
 10
41.820683
 20
199.654733
 30
0.0
 11
14.060227
 21
196.0
 31
0.0
  0
LINE
  8
LC-003-003-----0
  6
CONTINUOUS
  5
45
 10
14.060227
 20
196.0
 30
0.0
 11
41.820683
 21
192.345267
 31
0.0
  0
LINE
  8
LC-003-003-----0
  6
CONTINUOUS
  5
46
 10
41.820683
 20
192.345267
 30
0.0
 11
41.820683
 21
199.654733
 31
0.0
  0
LINE
  8
LC-003-003-----0
  6
CONTINUOUS
  5
47
 10
41.882964
 20
198.704503
 30
0.0
 11
21.340227
 21
196.0
 31
0.0
  0
LINE
  8
LC-003-003-----0
  6
CONTINUOUS
  5
48
 10
21.340227
 20
196.0
 30
0.0
 11
41.882964
 21
193.295497
 31
0.0
  0
LINE
  8
LC-003-003-----0
  6
CONTINUOUS
  5
49
 10
41.945246
 20
197.754272
 30
0.0
 11
28.620227
 21
196.0
 31
0.0
  0
LINE
  8
LC-003-003-----0
  6
CONTINUOUS
  5
4A
 10
28.620227
 20
196.0
 30
0.0
 11
41.945246
 21
194.245728
 31
0.0
  0
LINE
  8
LC-003-003-----0
  6
CONTINUOUS
  5
4B
 10
42.007527
 20
196.804041
 30
0.0
 11
35.900227
 21
196.0
 31
0.0
  0
LINE
  8
LC-003-003-----0
  6
CONTINUOUS
  5
4C
 10
35.900227
 20
196.0
 30
0.0
 11
42.007527
 21
195.195959
 31
0.0
  0
LINE
  8
LC-003-003-----0
  6
CONTINUOUS
  5
4D
 10
86.299771
 20
192.345267
 30
0.0
 11
114.060227
 21
196.0
 31
0.0
  0
LINE
  8
LC-003-003-----0
  6
CONTINUOUS
  5
4E
 10
114.060227
 20
196.0
 30
0.0
 11
86.299771
 21
199.654733
 31
0.0
  0
LINE
  8
LC-003-003-----0
  6
CONTINUOUS
  5
4F
 10
86.299771
 20
199.654733
 30
0.0
 11
86.299771
 21
192.345267
 31
0.0
  0
LINE
  8
LC-003-003-----0
  6
CONTINUOUS
  5
50
 10
86.237489
 20
193.295497
 30
0.0
 11
106.780227
 21
196.0
 31
0.0
  0
LINE
  8
LC-003-003-----0
  6
CONTINUOUS
  5
51
 10
106.780227
 20
196.0
 30
0.0
 11
86.237489
 21
198.704503
 31
0.0
  0
LINE
  8
LC-003-003-----0
  6
CONTINUOUS
  5
52
 10
86.175208
 20
194.245728
 30
0.0
 11
99.500227
 21
196.0
 31
0.0
  0
LINE
  8
LC-003-003-----0
  6
CONTINUOUS
  5
53
 10
99.500227
 20
196.0
 30
0.0
 11
86.175208
 21
197.754272
 31
0.0
  0
LINE
  8
LC-003-003-----0
  6
CONTINUOUS
  5
54
 10
86.112927
 20
195.195959
 30
0.0
 11
92.220227
 21
196.0
 31
0.0
  0
LINE
  8
LC-003-003-----0
  6
CONTINUOUS
  5
55
 10
92.220227
 20
196.0
 30
0.0
 11
86.112927
 21
196.804041
 31
0.0
  0
TEXT
  8
LC-003-003-----0
  6
CONTINUOUS
 62
     8
  5
56
 10
38.644607
 20
203.827554
 30
0.0
 40
28.0
  1
100
 51
15.0
  7
LC-TXTSTYLE-150-400-0-0-D0
 72
     1
 11
68.408387
 21
203.827554
 31
0.0
  0
ENDBLK
  8
0
  5
57
  0
BLOCK
  8
0
  5
59
  2
*X2
 70
    65
 10
12.360227
 20
170.14731
 30
0.0
  3
*X2
  0
LINE
  8
LC-006-005-----0
  6
CONTINUOUS
  5
5B
 10
114.060227
 20
174.43934
 30
0.0
 11
112.003073
 21
176.496493
 31
0.0
  0
LINE
  8
LC-006-005-----0
  6
CONTINUOUS
  5
5C
 10
114.060227
 20
171.610913
 30
0.0
 11
113.360227
 21
172.310913
 31
0.0
  0
LINE
  8
LC-006-005-----0
  6
CONTINUOUS
  5
5D
 10
110.811687
 20
174.859453
 30
0.0
 11
110.274056
 21
175.397084
 31
0.0
  0
LINE
  8
LC-006-005-----0
  6
CONTINUOUS
  5
5E
 10
110.760227
 20
172.082486
 30
0.0
 11
110.060227
 21
172.782486
 31
0.0
  0
LINE
  8
LC-006-005-----0
  6
CONTINUOUS
  5
5F
 10
18.060227
 20
174.272818
 30
0.0
 11
17.186504
 21
175.146541
 31
0.0
  0
LINE
  8
LC-006-005-----0
  6
CONTINUOUS
  5
60
 10
16.709457
 20
175.623587
 30
0.0
 11
15.84712
 21
176.485924
 31
0.0
  0
LINE
  8
LC-006-005-----0
  6
CONTINUOUS
  5
61
 10
18.060227
 20
171.444391
 30
0.0
 11
17.360227
 21
172.144391
 31
0.0
  0
LINE
  8
LC-006-005-----0
  6
CONTINUOUS
  5
62
 10
14.780215
 20
174.724402
 30
0.0
 11
14.221197
 21
175.28342
 31
0.0
  0
LINE
  8
LC-006-005-----0
  6
CONTINUOUS
  5
63
 10
14.760227
 20
171.915963
 30
0.0
 11
14.060227
 21
172.615963
 31
0.0
  0
LINE
  8
LC-006-005-----0
  6
CONTINUOUS
  5
64
 10
13.693076
 20
170.154687
 30
0.0
 11
13.560227
 21
170.287536
 31
0.0
  0
ENDBLK
  8
0
  5
65
  0
BLOCK
  8
0
  5
67
  2
*X3
 70
    65
 10
18.560227
 20
170.49731
 30
0.0
  3
*X3
  0
LINE
  8
LC-006-005-----0
  6
CONTINUOUS
  5
68
 10
18.560227
 20
171.295292
 30
0.0
 11
20.060227
 21
172.795292
 31
0.0
  0
LINE
  8
LC-006-005-----0
  6
CONTINUOUS
  5
69
 10
22.262246
 20
174.99731
 30
0.0
 11
23.555563
 21
176.290628
 31
0.0
  0
ENDBLK
  8
0
  5
6A
  0
BLOCK
  8
0
  5
6C
  2
*X4
 70
    65
 10
31.060227
 20
171.49731
 30
0.0
  3
*X4
  0
LINE
  8
LC-006-005-----0
  6
CONTINUOUS
  5
6D
 10
36.732808
 20
172.49731
 30
0.0
 11
37.060227
 21
172.824729
 31
0.0
  0
LINE
  8
LC-006-005-----0
  6
CONTINUOUS
  5
6E
 10
35.549623
 20
174.142552
 30
0.0
 11
36.698943
 21
175.291873
 31
0.0
  0
LINE
  8
LC-006-005-----0
  6
CONTINUOUS
  5
6F
 10
31.075954
 20
172.49731
 30
0.0
 11
32.560227
 21
173.981583
 31
0.0
  0
LINE
  8
LC-006-005-----0
  6
CONTINUOUS
  5
70
 10
33.575954
 20
174.99731
 30
0.0
 11
35.031192
 21
176.452548
 31
0.0
  0
ENDBLK
  8
0
  5
71
  0
BLOCK
  8
0
  5
73
  2
*X5
 70
    65
 10
43.060227
 20
171.49731
 30
0.0
  3
*X5
  0
LINE
  8
LC-006-005-----0
  6
CONTINUOUS
  5
74
 10
48.046517
 20
172.49731
 30
0.0
 11
49.060227
 21
173.51102
 31
0.0
  0
LINE
  8
LC-006-005-----0
  6
CONTINUOUS
  5
75
 10
43.060227
 20
173.167875
 30
0.0
 11
46.389663
 21
176.49731
 31
0.0
  0
ENDBLK
  8
0
  5
76
  0
BLOCK
  8
0
  5
78
  2
BLK1
 70
    64
 10
0.0
 20
0.0
 30
0.0
  3
BLK1
  0
ENDBLK
  8
0
  5
79
  0
BLOCK
  8
0
  5
7B
  2
*X7
 70
    65
 10
55.060227
 20
171.49731
 30
0.0
  3
*X7
  0
LINE
  8
LC-006-005-----0
  6
CONTINUOUS
  5
7C
 10
61.860225
 20
174.99731
 30
0.0
 11
63.360225
 21
176.49731
 31
0.0
  0
LINE
  8
LC-006-005-----0
  6
CONTINUOUS
  5
7D
 10
56.531798
 20
172.49731
 30
0.0
 11
56.560227
 21
172.525739
 31
0.0
  0
LINE
  8
LC-006-005-----0
  6
CONTINUOUS
  5
7E
 10
59.031798
 20
174.99731
 30
0.0
 11
60.531798
 21
176.49731
 31
0.0
  0
LINE
  8
LC-006-005-----0
  6
CONTINUOUS
  5
7F
 10
55.060227
 20
173.854166
 30
0.0
 11
57.703371
 21
176.49731
 31
0.0
  0
ENDBLK
  8
0
  5
80
  0
BLOCK
  8
0
  5
82
  2
BLK2
 70
    64
 10
0.0
 20
0.0
 30
0.0
  3
BLK2
  0
ENDBLK
  8
0
  5
83
  0
BLOCK
  8
0
  5
85
  2
*X9
 70
    65
 10
103.060227
 20
170.49731
 30
0.0
  3
*X9
  0
LINE
  8
LC-006-005-----0
  6
CONTINUOUS
  5
86
 10
108.271914
 20
170.49731
 30
0.0
 11
109.560227
 21
171.785624
 31
0.0
  0
LINE
  8
LC-006-005-----0
  6
CONTINUOUS
  5
87
 10
107.113632
 20
174.995883
 30
0.0
 11
108.29107
 21
176.173321
 31
0.0
  0
ENDBLK
  8
0
  5
88
  0
BLOCK
  8
0
  5
8A
  2
*X10
 70
    65
 10
91.060227
 20
171.49731
 30
0.0
  3
*X10
  0
LINE
  8
LC-006-005-----0
  6
CONTINUOUS
  5
8B
 10
96.129778
 20
172.49731
 30
0.0
 11
97.060227
 21
173.427759
 31
0.0
  0
LINE
  8
LC-006-005-----0
  6
CONTINUOUS
  5
8C
 10
95.377542
 20
174.573501
 30
0.0
 11
96.44444
 21
175.640399
 31
0.0
  0
LINE
  8
LC-006-005-----0
  6
CONTINUOUS
  5
8D
 10
91.060227
 20
173.084613
 30
0.0
 11
94.472924
 21
176.49731
 31
0.0
  0
ENDBLK
  8
0
  5
8E
  0
BLOCK
  8
0
  5
90
  2
*X11
 70
    65
 10
79.060227
 20
171.49731
 30
0.0
  3
*X11
  0
LINE
  8
LC-006-005-----0
  6
CONTINUOUS
  5
91
 10
83.557765
 20
174.067433
 30
0.0
 11
84.729799
 21
175.239467
 31
0.0
  0
ENDBLK
  8
0
  5
92
  0
BLOCK
  8
0
  5
94
  2
*X12
 70
    65
 10
64.060227
 20
171.49731
 30
0.0
  3
*X12
  0
LINE
  8
LC-006-005-----0
  6
CONTINUOUS
  5
95
 10
71.560227
 20
173.383603
 30
0.0
 11
72.939972
 21
174.763348
 31
0.0
  0
LINE
  8
LC-006-005-----0
  6
CONTINUOUS
  5
96
 10
70.345507
 20
174.99731
 30
0.0
 11
71.613021
 21
176.264825
 31
0.0
  0
LINE
  8
LC-006-005-----0
  6
CONTINUOUS
  5
97
 10
67.51708
 20
174.99731
 30
0.0
 11
69.01708
 21
176.49731
 31
0.0
  0
LINE
  8
LC-006-005-----0
  6
CONTINUOUS
  5
98
 10
64.688652
 20
174.99731
 30
0.0
 11
66.188652
 21
176.49731
 31
0.0
  0
ENDBLK
  8
0
  5
99
  0
BLOCK
  8
0
  5
9B
  2
BLK3
 70
    64
 10
0.0
 20
0.0
 30
0.0
  3
BLK3
  0
ENDBLK
  8
0
  5
9C
  0
BLOCK
  8
0
  5
9E
  2
BLK4
 70
    64
 10
0.0
 20
0.0
 30
0.0
  3
BLK4
  0
ENDBLK
  8
0
  5
9F
  0
ENDSEC
  0
SECTION
  2
ENTITIES
  0
VIEWPORT
  8
LC-000
  5
16F
 67
     1
 68
     1
 10
420.0
 20
297.0
 30
0.0
 40
840.0
 41
594.0
 69
     1
1001
ACAD
1000
MVIEW
1002
{
1070
    16
1010
0.0
1020
0.0
1030
0.0
1010
0.0
1020
0.0
1030
1.0
1040
0.0
1040
594.0
1040
420.0
1040
297.0
1040
50.0
1040
0.0
1040
0.0
1070
     0
1070
   100
1070
     1
1070
     1
1070
     0
1070
     0
1070
     0
1070
     0
1040
0.0
1040
0.0
1040
0.0
1040
1.0
1040
1.0
1040
0.0
1040
0.0
1070
     0
1002
{
1002
}
1002
}
  0
VIEWPORT
  8
0
  5
170
 67
     1
 68
     1
 10
0.0
 20
0.0
 30
0.0
 40
0.0
 41
0.0
 69
     1
1001
ACAD
1000
MVIEW
1002
{
1070
    16
1010
0.0
1020
0.0
1030
0.0
1010
0.0
1020
0.0
1030
1.0
1040
0.0
1040
594.0
1040
0.0
1040
0.0
1040
50.0
1040
0.0
1040
0.0
1070
     0
1070
   100
1070
     0
1070
     1
1070
     0
1070
     0
1070
     0
1070
     0
1040
0.0
1040
0.0
1040
0.0
1040
0.5
1040
0.5
1040
0.5
1040
0.5
1070
     0
1002
{
1002
}
1002
}
  0
DIMENSION
  8
0
  5
A0
  2
*D0
 10
0.0
 20
173.32231
 30
0.0
 11
0.0
 21
173.32231
 31
0.0
  1
6,4
 13
16.060227
 23
176.49731
 33
0.0
 14
13.560227
 24
170.14731
 34
0.0
 50
90.0
  3
LC-DIM-L-0140-02-02
  0
DIMENSION
  8
0
  5
A1
  2
*D1
 10
64.060227
 20
196.0
 30
0.0
 11
64.060227
 21
196.0
 31
0.0
 13
14.060227
 23
174.49731
 33
0.0
 14
114.060227
 24
174.49731
 34
0.0
  3
LC-DIM-L-0140-02-02
  0
INSERT
  8
0
  5
A2
  2
*X2
 10
12.360227
 20
170.14731
 30
0.0
  0
INSERT
  8
0
  5
A3
  2
*X3
 10
18.560227
 20
170.49731
 30
0.0
  0
INSERT
  8
0
  5
A4
  2
*X4
 10
31.060227
 20
171.49731
 30
0.0
  0
INSERT
  8
0
  5
A5
  2
*X5
 10
43.060227
 20
171.49731
 30
0.0
  0
INSERT
  8
0
  5
A7
  2
BLK1
 10
0.0
 20
0.0
 30
0.0
  0
INSERT
  8
0
  5
A8
  2
*X7
 10
55.060227
 20
171.49731
 30
0.0
  0
INSERT
  8
0
  5
A9
  2
BLK2
 10
0.0
 20
0.0
 30
0.0
  0
INSERT
  8
0
  5
AA
  2
*X9
 10
103.060227
 20
170.49731
 30
0.0
  0
INSERT
  8
0
  5
AB
  2
*X10
 10
91.060227
 20
171.49731
 30
0.0
  0
INSERT
  8
0
  5
AC
  2
*X11
 10
79.060227
 20
171.49731
 30
0.0
  0
INSERT
  8
0
  5
AD
  2
*X12
 10
64.060227
 20
171.49731
 30
0.0
  0
INSERT
  8
0
  5
AE
  2
BLK3
 10
0.0
 20
0.0
 30
0.0
  0
INSERT
  8
0
  5
AF
  2
BLK4
 10
0.0
 20
0.0
 30
0.0
  0
LINE
  8
LC-001-002-----0
  6
CONTINUOUS
  5
B1
 10
215.821783
 20
122.82231
 30
0.0
 11
302.821783
 21
122.82231
 31
0.0
  0
LINE
  8
LC-001-002-----0
  6
CONTINUOUS
  5
B2
 10
215.821783
 20
223.82231
 30
0.0
 11
302.821783
 21
223.82231
 31
0.0
  0
LINE
  8
LC-001-002-----0
  6
CONTINUOUS
  5
B3
 10
208.821783
 20
129.82231
 30
0.0
 11
208.821783
 21
216.82231
 31
0.0
  0
LINE
  8
LC-001-002-----0
  6
CONTINUOUS
  5
B4
 10
309.821783
 20
129.82231
 30
0.0
 11
309.821783
 21
216.82231
 31
0.0
  0
ARC
  8
LC-002-002-RND-0
  6
CONTINUOUS
  5
B6
 10
215.821783
 20
129.82231
 30
0.0
 40
7.0
 50
180.0
 51
270.0
  0
ARC
  8
LC-002-002-RND-0
  6
CONTINUOUS
  5
B7
 10
215.821783
 20
216.82231
 30
0.0
 40
7.0
 50
90.0
 51
180.0
  0
ARC
  8
LC-002-002-RND-0
  6
CONTINUOUS
  5
B8
 10
302.821783
 20
216.82231
 30
0.0
 40
7.0
 50
0.0
 51
90.0
  0
ARC
  8
LC-002-002-RND-0
  6
CONTINUOUS
  5
B9
 10
302.821783
 20
129.82231
 30
0.0
 40
7.0
 50
270.0
 51
0.0
  0
LINE
  8
LC-001-002-----0
  6
CONTINUOUS
  5
BA
 10
209.321783
 20
129.82231
 30
0.0
 11
209.321783
 21
216.82231
 31
0.0
  0
LINE
  8
LC-001-002-----0
  6
CONTINUOUS
  5
BB
 10
215.821783
 20
123.32231
 30
0.0
 11
302.821783
 21
123.32231
 31
0.0
  0
LINE
  8
LC-001-002-----0
  6
CONTINUOUS
  5
BC
 10
309.321783
 20
129.82231
 30
0.0
 11
309.321783
 21
216.82231
 31
0.0
  0
LINE
  8
LC-001-002-----0
  6
CONTINUOUS
  5
BD
 10
215.821783
 20
223.82231
 30
0.0
 11
302.821783
 21
223.82231
 31
0.0
  0
LINE
  8
LC-001-002-----0
  6
CONTINUOUS
  5
BE
 10
215.821783
 20
223.32231
 30
0.0
 11
302.821783
 21
223.32231
 31
0.0
  0
ARC
  8
LC-002-002-RND-0
  6
CONTINUOUS
  5
BF
 10
215.821783
 20
129.82231
 30
0.0
 40
6.5
 50
180.0
 51
270.0
  0
ARC
  8
LC-002-002-RND-0
  6
CONTINUOUS
  5
C0
 10
215.821783
 20
216.82231
 30
0.0
 40
6.5
 50
90.0
 51
180.0
  0
ARC
  8
LC-002-002-RND-0
  6
CONTINUOUS
  5
C1
 10
302.821783
 20
216.82231
 30
0.0
 40
6.5
 50
0.0
 51
90.0
  0
ARC
  8
LC-002-002-RND-0
  6
CONTINUOUS
  5
C2
 10
302.821783
 20
129.82231
 30
0.0
 40
6.5
 50
270.0
 51
0.0
  0
LINE
  8
LC-001-002-----0
  6
CONTINUOUS
 62
     2
  5
C3
 10
24.768685
 20
209.052787
 30
0.0
 11
39.768685
 21
209.052787
 31
0.0
  0
LINE
  8
LC-001-002-----0
  6
CONTINUOUS
 62
     2
  5
C4
 10
24.768685
 20
224.052787
 30
0.0
 11
24.768685
 21
209.052787
 31
0.0
  0
LINE
  8
LC-001-002-----0
  6
CONTINUOUS
 62
     2
  5
C5
 10
39.768685
 20
224.052787
 30
0.0
 11
39.768685
 21
209.052787
 31
0.0
  0
LINE
  8
LC-001-002-----0
  6
CONTINUOUS
 62
     2
  5
C6
 10
24.768685
 20
224.052787
 30
0.0
 11
39.768685
 21
224.052787
 31
0.0
  0
LINE
  8
LC-001-002-----0
  6
CONTINUOUS
  5
C7
 10
13.560227
 20
170.14731
 30
0.0
 11
19.060227
 21
170.14731
 31
0.0
  0
LINE
  8
LC-001-002-----0
  6
CONTINUOUS
  5
C8
 10
21.060227
 20
170.14731
 30
0.0
 11
107.060227
 21
170.14731
 31
0.0
  0
LINE
  8
LC-001-002-----0
  6
CONTINUOUS
  5
C9
 10
21.060227
 20
170.84731
 30
0.0
 11
19.060227
 21
170.84731
 31
0.0
  0
LINE
  8
LC-001-002-----0
  6
CONTINUOUS
  5
CA
 10
19.060227
 20
170.14731
 30
0.0
 11
21.060227
 21
170.14731
 31
0.0
  0
LINE
  8
LC-001-002-----0
  6
CONTINUOUS
  5
CB
 10
107.060227
 20
170.84731
 30
0.0
 11
21.060227
 21
170.84731
 31
0.0
  0
LINE
  8
LC-001-002-----0
  6
CONTINUOUS
  5
CC
 10
18.060227
 20
170.472538
 30
0.0
 11
18.060227
 21
174.49731
 31
0.0
  0
ARC
  8
LC-002-002-RND-0
  6
CONTINUOUS
  5
CD
 10
19.060227
 20
171.84731
 30
0.0
 40
1.0
 50
180.0
 51
270.0
  0
LINE
  8
LC-001-002-----0
  6
CONTINUOUS
  5
CE
 10
112.060227
 20
176.49731
 30
0.0
 11
16.060227
 21
176.49731
 31
0.0
  0
LINE
  8
LC-001-002-----0
  6
CONTINUOUS
  5
CF
 10
109.060227
 20
170.14731
 30
0.0
 11
107.060227
 21
170.14731
 31
0.0
  0
ARC
  8
LC-001-002-----0
  6
CONTINUOUS
  5
D0
 10
16.060227
 20
174.49731
 30
0.0
 40
1.3
 50
0.0
 51
180.0
  0
LINE
  8
LC-001-002-----0
  6
CONTINUOUS
  5
D1
 10
17.360227
 20
171.84731
 30
0.0
 11
17.360227
 21
174.49731
 31
0.0
  0
ARC
  8
LC-001-002-----0
  6
CONTINUOUS
  5
D2
 10
16.060227
 20
174.49731
 30
0.0
 40
2.0
 50
0.0
 51
180.0
  0
LINE
  8
LC-001-002-----0
  6
CONTINUOUS
  5
D3
 10
14.760227
 20
171.34731
 30
0.0
 11
14.760227
 21
174.49731
 31
0.0
  0
LINE
  8
LC-001-002-----0
  6
CONTINUOUS
  5
D4
 10
14.060227
 20
171.34731
 30
0.0
 11
14.060227
 21
174.49731
 31
0.0
  0
ARC
  8
LC-001-002-----0
  6
CONTINUOUS
  5
D5
 10
19.060227
 20
171.84731
 30
0.0
 40
1.7
 50
180.0
 51
270.0
  0
LINE
  8
LC-001-002-----0
  6
CONTINUOUS
  5
D6
 10
110.060227
 20
170.472538
 30
0.0
 11
110.060227
 21
174.49731
 31
0.0
  0
ARC
  8
LC-002-002-RND-0
  6
CONTINUOUS
  5
D7
 10
109.060227
 20
171.84731
 30
0.0
 40
1.0
 50
270.0
 51
0.0
  0
ARC
  8
LC-001-002-----0
  6
CONTINUOUS
  5
D8
 10
112.060227
 20
174.49731
 30
0.0
 40
1.3
 50
0.0
 51
180.0
  0
ARC
  8
LC-001-002-----0
  6
CONTINUOUS
  5
D9
 10
13.560227
 20
171.34731
 30
0.0
 40
1.2
 50
270.0
 51
0.0
  0
ARC
  8
LC-001-002-----0
  6
CONTINUOUS
  5
DA
 10
13.560227
 20
171.34731
 30
0.0
 40
0.5
 50
270.0
 51
0.0
  0
LINE
  8
LC-001-002-----0
  6
CONTINUOUS
  5
DB
 10
13.560227
 20
170.14731
 30
0.0
 11
13.560227
 21
170.84731
 31
0.0
  0
LINE
  8
LC-001-002-----0
  6
CONTINUOUS
  5
DC
 10
110.760227
 20
171.84731
 30
0.0
 11
110.760227
 21
174.49731
 31
0.0
  0
ARC
  8
LC-001-002-----0
  6
CONTINUOUS
  5
DD
 10
112.060227
 20
174.49731
 30
0.0
 40
2.0
 50
0.0
 51
180.0
  0
LINE
  8
LC-001-002-----0
  6
CONTINUOUS
  5
DE
 10
113.360227
 20
171.34731
 30
0.0
 11
113.360227
 21
174.49731
 31
0.0
  0
LINE
  8
LC-001-002-----0
  6
CONTINUOUS
  5
DF
 10
114.060227
 20
171.34731
 30
0.0
 11
114.060227
 21
174.49731
 31
0.0
  0
ARC
  8
LC-001-002-----0
  6
CONTINUOUS
  5
E0
 10
109.060227
 20
171.84731
 30
0.0
 40
1.7
 50
270.0
 51
0.0
  0
ARC
  8
LC-002-002-RND-0
  6
CONTINUOUS
  5
E1
 10
21.060227
 20
173.99731
 30
0.0
 40
2.5
 50
90.0
 51
180.0
  0
ARC
  8
LC-001-002-----0
  6
CONTINUOUS
  5
E2
 10
114.560227
 20
171.34731
 30
0.0
 40
1.2
 50
180.0
 51
270.0
  0
ARC
  8
LC-001-002-----0
  6
CONTINUOUS
  5
E3
 10
114.560227
 20
171.34731
 30
0.0
 40
0.5
 50
180.0
 51
270.0
  0
LINE
  8
LC-001-002-----0
  6
CONTINUOUS
  5
E4
 10
114.560227
 20
170.14731
 30
0.0
 11
114.560227
 21
170.84731
 31
0.0
  0
LINE
  8
LC-001-002-----0
  6
CONTINUOUS
  5
E5
 10
107.060227
 20
170.84731
 30
0.0
 11
109.060227
 21
170.84731
 31
0.0
  0
LINE
  8
LC-001-002-----0
  6
CONTINUOUS
  5
E6
 10
114.560227
 20
170.14731
 30
0.0
 11
109.060227
 21
170.14731
 31
0.0
  0
ARC
  8
LC-002-002-RND-0
  6
CONTINUOUS
  5
E7
 10
21.060227
 20
173.99731
 30
0.0
 40
1.0
 50
90.0
 51
180.0
  0
ARC
  8
LC-002-002-RND-0
  6
CONTINUOUS
  5
E8
 10
33.560227
 20
173.99731
 30
0.0
 40
1.0
 50
90.0
 51
180.0
  0
ARC
  8
LC-002-002-RND-0
  6
CONTINUOUS
  5
E9
 10
34.560227
 20
173.99731
 30
0.0
 40
1.0
 50
0.0
 51
90.0
  0
ARC
  8
LC-002-002-RND-0
  6
CONTINUOUS
  5
EA
 10
45.560227
 20
173.99731
 30
0.0
 40
1.0
 50
90.0
 51
180.0
  0
ARC
  8
LC-002-002-RND-0
  6
CONTINUOUS
  5
EB
 10
46.560227
 20
173.99731
 30
0.0
 40
1.0
 50
360.0
 51
90.0
  0
ARC
  8
LC-002-002-RND-0
  6
CONTINUOUS
  5
EC
 10
57.560227
 20
173.99731
 30
0.0
 40
1.0
 50
90.0
 51
180.0
  0
LINE
  8
LC-001-002-----0
  6
CONTINUOUS
  5
ED
 10
56.560227
 20
172.49731
 30
0.0
 11
55.060227
 21
172.49731
 31
0.0
  0
LINE
  8
LC-001-002-----0
  6
CONTINUOUS
  5
EE
 10
55.060227
 20
172.49731
 30
0.0
 11
49.060227
 21
172.49731
 31
0.0
  0
LINE
  8
LC-001-002-----0
  6
CONTINUOUS
  5
EF
 10
56.560227
 20
173.99731
 30
0.0
 11
56.560227
 21
172.49731
 31
0.0
  0
LINE
  8
LC-001-002-----0
  6
CONTINUOUS
  5
F0
 10
47.560227
 20
173.99731
 30
0.0
 11
47.560227
 21
172.49731
 31
0.0
  0
LINE
  8
LC-001-002-----0
  6
CONTINUOUS
  5
F1
 10
57.560227
 20
174.99731
 30
0.0
 11
64.060227
 21
174.99731
 31
0.0
  0
LINE
  8
LC-001-002-----0
  6
CONTINUOUS
  5
F2
 10
45.560227
 20
174.99731
 30
0.0
 11
46.560227
 21
174.99731
 31
0.0
  0
LINE
  8
LC-001-002-----0
  6
CONTINUOUS
  5
F3
 10
33.560227
 20
174.99731
 30
0.0
 11
34.560227
 21
174.99731
 31
0.0
  0
ARC
  8
LC-001-002-----0
  6
CONTINUOUS
  5
F4
 10
57.560227
 20
173.99731
 30
0.0
 40
2.5
 50
90.0
 51
180.0
  0
LINE
  8
LC-001-002-----0
  6
CONTINUOUS
  5
F5
 10
49.060227
 20
172.49731
 30
0.0
 11
47.560227
 21
172.49731
 31
0.0
  0
LINE
  8
LC-001-002-----0
  6
CONTINUOUS
  5
F6
 10
44.560227
 20
172.49731
 30
0.0
 11
43.060227
 21
172.49731
 31
0.0
  0
LINE
  8
LC-001-002-----0
  6
CONTINUOUS
  5
F7
 10
43.060227
 20
172.49731
 30
0.0
 11
37.060227
 21
172.49731
 31
0.0
  0
LINE
  8
LC-001-002-----0
  6
CONTINUOUS
  5
F8
 10
37.060227
 20
172.49731
 30
0.0
 11
35.560227
 21
172.49731
 31
0.0
  0
LINE
  8
LC-001-002-----0
  6
CONTINUOUS
  5
F9
 10
32.560227
 20
172.49731
 30
0.0
 11
31.060227
 21
172.49731
 31
0.0
  0
LINE
  8
LC-001-002-----0
  6
CONTINUOUS
  5
FA
 10
31.060227
 20
172.49731
 30
0.0
 11
25.060227
 21
172.49731
 31
0.0
  0
LINE
  8
LC-001-002-----0
  6
CONTINUOUS
  5
FB
 10
25.060227
 20
172.49731
 30
0.0
 11
23.560227
 21
172.49731
 31
0.0
  0
ARC
  8
LC-002-002-RND-0
  6
CONTINUOUS
  5
FC
 10
22.560227
 20
173.99731
 30
0.0
 40
1.0
 50
360.0
 51
90.0
  0
ARC
  8
LC-002-002-RND-0
  6
CONTINUOUS
  5
FD
 10
22.560227
 20
173.99731
 30
0.0
 40
2.5
 50
0.0
 51
90.0
  0
ARC
  8
LC-002-002-RND-0
  6
CONTINUOUS
  5
FE
 10
33.560227
 20
173.99731
 30
0.0
 40
2.5
 50
90.0
 51
180.0
  0
ARC
  8
LC-002-002-RND-0
  6
CONTINUOUS
  5
FF
 10
34.560227
 20
173.99731
 30
0.0
 40
2.5
 50
0.0
 51
90.0
  0
ARC
  8
LC-002-002-RND-0
  6
CONTINUOUS
  5
100
 10
45.560227
 20
173.99731
 30
0.0
 40
2.5
 50
90.0
 51
180.0
  0
ARC
  8
LC-002-002-RND-0
  6
CONTINUOUS
  5
101
 10
46.560227
 20
173.99731
 30
0.0
 40
2.5
 50
0.0
 51
90.0
  0
LINE
  8
LC-001-002-----0
  6
CONTINUOUS
  5
102
 10
18.560227
 20
173.99731
 30
0.0
 11
18.560227
 21
171.49731
 31
0.0
  0
LINE
  8
LC-001-002-----0
  6
CONTINUOUS
  5
103
 10
18.560227
 20
171.49731
 30
0.0
 11
20.060227
 21
171.49731
 31
0.0
  0
LINE
  8
LC-001-002-----0
  6
CONTINUOUS
  5
104
 10
20.060227
 20
171.49731
 30
0.0
 11
64.060227
 21
171.49731
 31
0.0
  0
LINE
  8
LC-001-002-----0
  6
CONTINUOUS
  5
105
 10
64.060227
 20
176.49731
 30
0.0
 11
21.060227
 21
176.49731
 31
0.0
  0
LINE
  8
LC-001-002-----0
  6
CONTINUOUS
  5
106
 10
20.060227
 20
171.49731
 30
0.0
 11
20.060227
 21
173.99731
 31
0.0
  0
LINE
  8
LC-001-002-----0
  6
CONTINUOUS
  5
107
 10
21.060227
 20
174.99731
 30
0.0
 11
22.560227
 21
174.99731
 31
0.0
  0
LINE
  8
LC-001-002-----0
  6
CONTINUOUS
  5
108
 10
23.560227
 20
173.99731
 30
0.0
 11
23.560227
 21
172.49731
 31
0.0
  0
LINE
  8
LC-001-002-----0
  6
CONTINUOUS
  5
109
 10
25.060227
 20
173.99731
 30
0.0
 11
25.060227
 21
172.49731
 31
0.0
  0
LINE
  8
LC-001-002-----0
  6
CONTINUOUS
  5
10A
 10
31.060227
 20
173.99731
 30
0.0
 11
31.060227
 21
172.49731
 31
0.0
  0
LINE
  8
LC-001-002-----0
  6
CONTINUOUS
  5
10B
 10
37.060227
 20
173.99731
 30
0.0
 11
37.060227
 21
172.49731
 31
0.0
  0
LINE
  8
LC-001-002-----0
  6
CONTINUOUS
  5
10C
 10
43.060227
 20
173.99731
 30
0.0
 11
43.060227
 21
172.49731
 31
0.0
  0
LINE
  8
LC-001-002-----0
  6
CONTINUOUS
  5
10D
 10
49.060227
 20
173.99731
 30
0.0
 11
49.060227
 21
172.49731
 31
0.0
  0
LINE
  8
LC-001-002-----0
  6
CONTINUOUS
  5
10E
 10
55.060227
 20
173.99731
 30
0.0
 11
55.060227
 21
172.49731
 31
0.0
  0
LINE
  8
LC-001-002-----0
  6
CONTINUOUS
  5
10F
 10
32.560227
 20
173.99731
 30
0.0
 11
32.560227
 21
172.49731
 31
0.0
  0
LINE
  8
LC-001-002-----0
  6
CONTINUOUS
  5
110
 10
35.560227
 20
173.99731
 30
0.0
 11
35.560227
 21
172.49731
 31
0.0
  0
LINE
  8
LC-001-002-----0
  6
CONTINUOUS
  5
111
 10
44.560227
 20
173.99731
 30
0.0
 11
44.560227
 21
172.49731
 31
0.0
  0
ARC
  8
LC-002-002-RND-0
  6
CONTINUOUS
  5
112
 10
107.060227
 20
173.99731
 30
0.0
 40
2.5
 50
0.0
 51
90.0
  0
ARC
  8
LC-002-002-RND-0
  6
CONTINUOUS
  5
113
 10
107.060227
 20
173.99731
 30
0.0
 40
1.0
 50
0.0
 51
90.0
  0
ARC
  8
LC-002-002-RND-0
  6
CONTINUOUS
  5
114
 10
94.560227
 20
173.99731
 30
0.0
 40
1.0
 50
0.0
 51
90.0
  0
ARC
  8
LC-002-002-RND-0
  6
CONTINUOUS
  5
115
 10
93.560227
 20
173.99731
 30
0.0
 40
1.0
 50
90.0
 51
180.0
  0
ARC
  8
LC-002-002-RND-0
  6
CONTINUOUS
  5
116
 10
82.560227
 20
173.99731
 30
0.0
 40
1.0
 50
0.0
 51
90.0
  0
ARC
  8
LC-002-002-RND-0
  6
CONTINUOUS
  5
117
 10
81.560227
 20
173.99731
 30
0.0
 40
1.0
 50
90.0
 51
180.0
  0
ARC
  8
LC-002-002-RND-0
  6
CONTINUOUS
  5
118
 10
70.560227
 20
173.99731
 30
0.0
 40
1.0
 50
0.0
 51
90.0
  0
LINE
  8
LC-001-002-----0
  6
CONTINUOUS
  5
119
 10
71.560227
 20
172.49731
 30
0.0
 11
73.060227
 21
172.49731
 31
0.0
  0
LINE
  8
LC-001-002-----0
  6
CONTINUOUS
  5
11A
 10
73.060227
 20
172.49731
 30
0.0
 11
79.060227
 21
172.49731
 31
0.0
  0
LINE
  8
LC-001-002-----0
  6
CONTINUOUS
  5
11B
 10
71.560227
 20
173.99731
 30
0.0
 11
71.560227
 21
172.49731
 31
0.0
  0
LINE
  8
LC-001-002-----0
  6
CONTINUOUS
  5
11C
 10
80.560227
 20
173.99731
 30
0.0
 11
80.560227
 21
172.49731
 31
0.0
  0
LINE
  8
LC-001-002-----0
  6
CONTINUOUS
  5
11D
 10
70.560227
 20
174.99731
 30
0.0
 11
64.060227
 21
174.99731
 31
0.0
  0
LINE
  8
LC-001-002-----0
  6
CONTINUOUS
  5
11E
 10
82.560227
 20
174.99731
 30
0.0
 11
81.560227
 21
174.99731
 31
0.0
  0
LINE
  8
LC-001-002-----0
  6
CONTINUOUS
  5
11F
 10
94.560227
 20
174.99731
 30
0.0
 11
93.560227
 21
174.99731
 31
0.0
  0
ARC
  8
LC-001-002-----0
  6
CONTINUOUS
  5
120
 10
70.560227
 20
173.99731
 30
0.0
 40
2.5
 50
360.0
 51
90.0
  0
LINE
  8
LC-001-002-----0
  6
CONTINUOUS
  5
121
 10
79.060227
 20
172.49731
 30
0.0
 11
80.560227
 21
172.49731
 31
0.0
  0
LINE
  8
LC-001-002-----0
  6
CONTINUOUS
  5
122
 10
83.560227
 20
172.49731
 30
0.0
 11
85.060227
 21
172.49731
 31
0.0
  0
LINE
  8
LC-001-002-----0
  6
CONTINUOUS
  5
123
 10
85.060227
 20
172.49731
 30
0.0
 11
91.060227
 21
172.49731
 31
0.0
  0
LINE
  8
LC-001-002-----0
  6
CONTINUOUS
  5
124
 10
91.060227
 20
172.49731
 30
0.0
 11
92.560227
 21
172.49731
 31
0.0
  0
LINE
  8
LC-001-002-----0
  6
CONTINUOUS
  5
125
 10
95.560227
 20
172.49731
 30
0.0
 11
97.060227
 21
172.49731
 31
0.0
  0
LINE
  8
LC-001-002-----0
  6
CONTINUOUS
  5
126
 10
97.060227
 20
172.49731
 30
0.0
 11
103.060227
 21
172.49731
 31
0.0
  0
LINE
  8
LC-001-002-----0
  6
CONTINUOUS
  5
127
 10
103.060227
 20
172.49731
 30
0.0
 11
104.560227
 21
172.49731
 31
0.0
  0
ARC
  8
LC-002-002-RND-0
  6
CONTINUOUS
  5
128
 10
105.560227
 20
173.99731
 30
0.0
 40
1.0
 50
90.0
 51
180.0
  0
ARC
  8
LC-002-002-RND-0
  6
CONTINUOUS
  5
129
 10
105.560227
 20
173.99731
 30
0.0
 40
2.5
 50
90.0
 51
180.0
  0
ARC
  8
LC-002-002-RND-0
  6
CONTINUOUS
  5
12A
 10
94.560227
 20
173.99731
 30
0.0
 40
2.5
 50
360.0
 51
90.0
  0
ARC
  8
LC-002-002-RND-0
  6
CONTINUOUS
  5
12B
 10
93.560227
 20
173.99731
 30
0.0
 40
2.5
 50
90.0
 51
180.0
  0
ARC
  8
LC-002-002-RND-0
  6
CONTINUOUS
  5
12C
 10
82.560227
 20
173.99731
 30
0.0
 40
2.5
 50
360.0
 51
90.0
  0
ARC
  8
LC-002-002-RND-0
  6
CONTINUOUS
  5
12D
 10
81.560227
 20
173.99731
 30
0.0
 40
2.5
 50
90.0
 51
180.0
  0
LINE
  8
LC-001-002-----0
  6
CONTINUOUS
  5
12E
 10
109.560227
 20
173.99731
 30
0.0
 11
109.560227
 21
171.49731
 31
0.0
  0
LINE
  8
LC-001-002-----0
  6
CONTINUOUS
  5
12F
 10
109.560227
 20
171.49731
 30
0.0
 11
108.060227
 21
171.49731
 31
0.0
  0
LINE
  8
LC-001-002-----0
  6
CONTINUOUS
  5
130
 10
108.060227
 20
171.49731
 30
0.0
 11
64.060227
 21
171.49731
 31
0.0
  0
LINE
  8
LC-001-002-----0
  6
CONTINUOUS
  5
131
 10
64.060227
 20
176.49731
 30
0.0
 11
107.060227
 21
176.49731
 31
0.0
  0
LINE
  8
LC-001-002-----0
  6
CONTINUOUS
  5
132
 10
108.060227
 20
171.49731
 30
0.0
 11
108.060227
 21
173.99731
 31
0.0
  0
LINE
  8
LC-001-002-----0
  6
CONTINUOUS
  5
133
 10
107.060227
 20
174.99731
 30
0.0
 11
105.560227
 21
174.99731
 31
0.0
  0
LINE
  8
LC-001-002-----0
  6
CONTINUOUS
  5
134
 10
104.560227
 20
173.99731
 30
0.0
 11
104.560227
 21
172.49731
 31
0.0
  0
LINE
  8
LC-001-002-----0
  6
CONTINUOUS
  5
135
 10
103.060227
 20
173.99731
 30
0.0
 11
103.060227
 21
172.49731
 31
0.0
  0
LINE
  8
LC-001-002-----0
  6
CONTINUOUS
  5
136
 10
97.060227
 20
173.99731
 30
0.0
 11
97.060227
 21
172.49731
 31
0.0
  0
LINE
  8
LC-001-002-----0
  6
CONTINUOUS
  5
137
 10
91.060227
 20
173.99731
 30
0.0
 11
91.060227
 21
172.49731
 31
0.0
  0
LINE
  8
LC-001-002-----0
  6
CONTINUOUS
  5
138
 10
85.060227
 20
173.99731
 30
0.0
 11
85.060227
 21
172.49731
 31
0.0
  0
LINE
  8
LC-001-002-----0
  6
CONTINUOUS
  5
139
 10
79.060227
 20
173.99731
 30
0.0
 11
79.060227
 21
172.49731
 31
0.0
  0
LINE
  8
LC-001-002-----0
  6
CONTINUOUS
  5
13A
 10
73.060227
 20
173.99731
 30
0.0
 11
73.060227
 21
172.49731
 31
0.0
  0
LINE
  8
LC-001-002-----0
  6
CONTINUOUS
  5
13B
 10
95.560227
 20
173.99731
 30
0.0
 11
95.560227
 21
172.49731
 31
0.0
  0
LINE
  8
LC-001-002-----0
  6
CONTINUOUS
  5
13C
 10
92.560227
 20
173.99731
 30
0.0
 11
92.560227
 21
172.49731
 31
0.0
  0
LINE
  8
LC-001-002-----0
  6
CONTINUOUS
  5
13D
 10
83.560227
 20
173.99731
 30
0.0
 11
83.560227
 21
172.49731
 31
0.0
  0
ARC
  8
LC-002-002-RND-0
  6
CONTINUOUS
  5
13E
 10
302.321783
 20
216.32231
 30
0.0
 40
2.5
 50
0.0
 51
90.0
  0
ARC
  8
LC-002-002-RND-0
  6
CONTINUOUS
  5
13F
 10
216.321783
 20
216.32231
 30
0.0
 40
2.5
 50
90.0
 51
180.0
  0
ARC
  8
LC-002-002-RND-0
  6
CONTINUOUS
  5
140
 10
216.321783
 20
130.32231
 30
0.0
 40
2.5
 50
180.0
 51
270.0
  0
ARC
  8
LC-002-002-RND-0
  6
CONTINUOUS
  5
141
 10
302.321783
 20
130.32231
 30
0.0
 40
2.5
 50
270.0
 51
0.0
  0
ARC
  8
LC-001-002-----0
  6
CONTINUOUS
  5
142
 10
262.821783
 20
161.32231
 30
0.0
 40
3.0
 50
270.0
 51
90.0
  0
ARC
  8
LC-001-002-----0
  6
CONTINUOUS
  5
143
 10
255.821783
 20
185.32231
 30
0.0
 40
3.0
 50
90.0
 51
270.0
  0
LINE
  8
LC-001-002-----0
  6
CONTINUOUS
  5
144
 10
255.821783
 20
158.32231
 30
0.0
 11
262.821783
 21
158.32231
 31
0.0
  0
LINE
  8
LC-001-002-----0
  6
CONTINUOUS
  5
145
 10
262.821783
 20
188.32231
 30
0.0
 11
255.821783
 21
188.32231
 31
0.0
  0
LINE
  8
LC-001-002-----0
  6
CONTINUOUS
  5
146
 10
255.821783
 20
164.32231
 30
0.0
 11
262.821783
 21
164.32231
 31
0.0
  0
ARC
  8
LC-001-002-----0
  6
CONTINUOUS
  5
147
 10
223.321783
 20
199.32231
 30
0.0
 40
3.0
 50
0.0
 51
180.0
  0
ARC
  8
LC-001-002-----0
  6
CONTINUOUS
  5
148
 10
223.321783
 20
147.32231
 30
0.0
 40
3.0
 50
180.0
 51
0.0
  0
LINE
  8
LC-001-002-----0
  6
CONTINUOUS
  5
149
 10
226.321783
 20
199.32231
 30
0.0
 11
226.321783
 21
147.32231
 31
0.0
  0
LINE
  8
LC-001-002-----0
  6
CONTINUOUS
  5
14A
 10
220.321783
 20
199.32231
 30
0.0
 11
220.321783
 21
147.32231
 31
0.0
  0
LINE
  8
LC-001-002-----0
  6
CONTINUOUS
  5
14B
 10
262.821783
 20
182.32231
 30
0.0
 11
255.821783
 21
182.32231
 31
0.0
  0
ARC
  8
LC-001-002-----0
  6
CONTINUOUS
  5
14C
 10
235.321783
 20
158.32231
 30
0.0
 40
3.0
 50
180.0
 51
0.0
  0
ARC
  8
LC-001-002-----0
  6
CONTINUOUS
  5
14D
 10
235.321783
 20
188.32231
 30
0.0
 40
3.0
 50
0.0
 51
180.0
  0
LINE
  8
LC-001-002-----0
  6
CONTINUOUS
  5
14E
 10
232.321783
 20
158.32231
 30
0.0
 11
232.321783
 21
188.32231
 31
0.0
  0
LINE
  8
LC-001-002-----0
  6
CONTINUOUS
  5
14F
 10
238.321783
 20
158.32231
 30
0.0
 11
238.321783
 21
188.32231
 31
0.0
  0
ARC
  8
LC-001-002-----0
  6
CONTINUOUS
  5
150
 10
255.821783
 20
161.32231
 30
0.0
 40
3.0
 50
90.0
 51
270.0
  0
ARC
  8
LC-001-002-----0
  6
CONTINUOUS
  5
151
 10
262.821783
 20
185.32231
 30
0.0
 40
3.0
 50
270.0
 51
90.0
  0
LINE
  8
LC-001-002-----0
  6
CONTINUOUS
  5
152
 10
274.321783
 20
152.32231
 30
0.0
 11
244.321783
 21
152.32231
 31
0.0
  0
LINE
  8
LC-001-002-----0
  6
CONTINUOUS
  5
153
 10
280.321783
 20
188.32231
 30
0.0
 11
280.321783
 21
158.32231
 31
0.0
  0
LINE
  8
LC-001-002-----0
  6
CONTINUOUS
  5
154
 10
244.321783
 20
194.32231
 30
0.0
 11
274.321783
 21
194.32231
 31
0.0
  0
ARC
  8
LC-001-002-----0
  6
CONTINUOUS
  5
155
 10
244.321783
 20
149.32231
 30
0.0
 40
3.0
 50
90.0
 51
270.0
  0
ARC
  8
LC-001-002-----0
  6
CONTINUOUS
  5
156
 10
283.321783
 20
158.32231
 30
0.0
 40
3.0
 50
180.0
 51
0.0
  0
ARC
  8
LC-001-002-----0
  6
CONTINUOUS
  5
157
 10
274.321783
 20
197.32231
 30
0.0
 40
3.0
 50
270.0
 51
90.0
  0
LINE
  8
LC-001-002-----0
  6
CONTINUOUS
  5
158
 10
274.321783
 20
146.32231
 30
0.0
 11
244.321783
 21
146.32231
 31
0.0
  0
LINE
  8
LC-001-002-----0
  6
CONTINUOUS
  5
159
 10
286.321783
 20
188.32231
 30
0.0
 11
286.321783
 21
158.32231
 31
0.0
  0
LINE
  8
LC-001-002-----0
  6
CONTINUOUS
  5
15A
 10
244.321783
 20
200.32231
 30
0.0
 11
274.321783
 21
200.32231
 31
0.0
  0
ARC
  8
LC-001-002-----0
  6
CONTINUOUS
  5
15B
 10
274.321783
 20
149.32231
 30
0.0
 40
3.0
 50
270.0
 51
90.0
  0
ARC
  8
LC-001-002-----0
  6
CONTINUOUS
  5
15C
 10
283.321783
 20
188.32231
 30
0.0
 40
3.0
 50
0.0
 51
180.0
  0
ARC
  8
LC-001-002-----0
  6
CONTINUOUS
  5
15D
 10
244.321783
 20
197.32231
 30
0.0
 40
3.0
 50
90.0
 51
270.0
  0
LINE
  8
LC-001-002-----0
  6
CONTINUOUS
  5
15E
 10
233.321783
 20
140.32231
 30
0.0
 11
285.321783
 21
140.32231
 31
0.0
  0
LINE
  8
LC-001-002-----0
  6
CONTINUOUS
  5
15F
 10
292.321783
 20
147.32231
 30
0.0
 11
292.321783
 21
199.32231
 31
0.0
  0
LINE
  8
LC-001-002-----0
  6
CONTINUOUS
  5
160
 10
285.321783
 20
206.32231
 30
0.0
 11
233.321783
 21
206.32231
 31
0.0
  0
ARC
  8
LC-001-002-----0
  6
CONTINUOUS
  5
161
 10
285.321783
 20
137.32231
 30
0.0
 40
3.0
 50
270.0
 51
90.0
  0
ARC
  8
LC-001-002-----0
  6
CONTINUOUS
  5
162
 10
295.321783
 20
199.32231
 30
0.0
 40
3.0
 50
0.0
 51
180.0
  0
ARC
  8
LC-001-002-----0
  6
CONTINUOUS
  5
163
 10
233.321783
 20
209.32231
 30
0.0
 40
3.0
 50
90.0
 51
270.0
  0
LINE
  8
LC-001-002-----0
  6
CONTINUOUS
  5
164
 10
233.321783
 20
134.32231
 30
0.0
 11
285.321783
 21
134.32231
 31
0.0
  0
LINE
  8
LC-001-002-----0
  6
CONTINUOUS
  5
165
 10
298.321783
 20
147.32231
 30
0.0
 11
298.321783
 21
199.32231
 31
0.0
  0
LINE
  8
LC-001-002-----0
  6
CONTINUOUS
  5
166
 10
285.321783
 20
212.32231
 30
0.0
 11
233.321783
 21
212.32231
 31
0.0
  0
ARC
  8
LC-001-002-----0
  6
CONTINUOUS
  5
167
 10
233.321783
 20
137.32231
 30
0.0
 40
3.0
 50
90.0
 51
270.0
  0
ARC
  8
LC-001-002-----0
  6
CONTINUOUS
  5
168
 10
295.321783
 20
147.32231
 30
0.0
 40
3.0
 50
180.0
 51
0.0
  0
ARC
  8
LC-001-002-----0
  6
CONTINUOUS
  5
169
 10
285.321783
 20
209.32231
 30
0.0
 40
3.0
 50
270.0
 51
90.0
  0
LINE
  8
LC-001-002-----0
  6
CONTINUOUS
  5
16A
 10
213.821783
 20
130.32231
 30
0.0
 11
213.821783
 21
216.32231
 31
0.0
  0
LINE
  8
LC-001-002-----0
  6
CONTINUOUS
  5
16B
 10
216.321783
 20
218.82231
 30
0.0
 11
302.321783
 21
218.82231
 31
0.0
  0
LINE
  8
LC-001-002-----0
  6
CONTINUOUS
  5
16C
 10
304.821783
 20
216.32231
 30
0.0
 11
304.821783
 21
130.32231
 31
0.0
  0
LINE
  8
LC-001-002-----0
  6
CONTINUOUS
  5
16D
 10
302.321783
 20
127.82231
 30
0.0
 11
216.321783
 21
127.82231
 31
0.0
  0
ENDSEC
  0
EOF
