  0
SECTION
  2
HEADER
  9
$ACADVER
  1
AC1009
  9
$DWGCODEPAGE
  3
ansi_1252
  9
$INSBASE
 10
0.0
 20
0.0
 30
0.0
  9
$EXTMIN
 10
0.0
 20
0.0
 30
0.0
  9
$EXTMAX
 10
297.0
 20
210.0
 30
0.0
  9
$LIMMIN
 10
0.0
 20
0.0
  9
$LIMMAX
 10
297.0
 20
210.0
  9
$ORTHOMODE
 70
     0
  9
$REGENMODE
 70
     1
  9
$FILLMODE
 70
     1
  9
$QTEXTMODE
 70
     0
  9
$MIRRTEXT
 70
     1
  9
$DRAGMODE
 70
     2
  9
$LTSCALE
 40
1.0
  9
$OSMODE
 70
    37
  9
$ATTMODE
 70
     1
  9
$TEXTSIZE
 40
3.5
  9
$TRACEWID
 40
1.0
  9
$TEXTSTYLE
  7
STANDARD
  9
$CLAYER
  8
0
  9
$CELTYPE
  6
BYLAYER
  9
$CECOLOR
 62
   256
  9
$DIMSCALE
 40
1.0
  9
$DIMASZ
 40
4.0
  9
$DIMEXO
 40
1.0
  9
$DIMDLI
 40
3.75
  9
$DIMRND
 40
0.0
  9
$DIMDLE
 40
0.0
  9
$DIMEXE
 40
1.0
  9
$DIMTP
 40
0.0
  9
$DIMTM
 40
0.0
  9
$DIMTXT
 40
9.8777777778
  9
$DIMCEN
 40
2.5
  9
$DIMTSZ
 40
0.0
  9
$DIMTOL
 70
     0
  9
$DIMLIM
 70
     0
  9
$DIMTIH
 70
     1
  9
$DIMTOH
 70
     1
  9
$DIMSE1
 70
     0
  9
$DIMSE2
 70
     0
  9
$DIMTAD
 70
     1
  9
$DIMZIN
 70
     0
  9
$DIMBLK
  1

  9
$DIMASO
 70
     1
  9
$DIMSHO
 70
     1
  9
$DIMPOST
  1

  9
$DIMAPOST
  1

  9
$DIMALT
 70
     0
  9
$DIMALTD
 70
     3
  9
$DIMALTF
 40
0.0393700787
  9
$DIMLFAC
 40
1.0
  9
$DIMTOFL
 70
     1
  9
$DIMTVP
 40
0.0
  9
$DIMTIX
 70
     0
  9
$DIMSOXD
 70
     0
  9
$DIMSAH
 70
     0
  9
$DIMBLK1
  1

  9
$DIMBLK2
  1

  9
$DIMSTYLE
  2
ISO-25
  9
$DIMCLRD
 70
     0
  9
$DIMCLRE
 70
     0
  9
$DIMCLRT
 70
     0
  9
$DIMTFAC
 40
1.0
  9
$DIMGAP
 40
1.524
  9
$LUNITS
 70
     2
  9
$LUPREC
 70
     2
  9
$SKETCHINC
 40
1.0
  9
$FILLETRAD
 40
10.0
  9
$AUNITS
 70
     0
  9
$AUPREC
 70
     2
  9
$MENU
  1
.
  9
$ELEVATION
 40
0.0
  9
$PELEVATION
 40
0.0
  9
$THICKNESS
 40
0.0
  9
$LIMCHECK
 70
     0
  9
$CHAMFERA
 40
0.0
  9
$CHAMFERB
 40
0.0
  9
$SKPOLY
 70
     0
  9
$TDCREATE
 40
2460356.625299803
  9
$TDUPDATE
 40
2460356.625300891
  9
$TDINDWG
 40
0.0000000116
  9
$TDUSRTIMER
 40
0.0000000116
  9
$USRTIMER
 70
     1
  9
$ANGBASE
 50
0.0
  9
$ANGDIR
 70
     0
  9
$PDMODE
 70
     0
  9
$PDSIZE
 40
-1.0
  9
$PLINEWID
 40
0.0
  9
$COORDS
 70
     1
  9
$SPLFRAME
 70
     0
  9
$SPLINETYPE
 70
     6
  9
$SPLINESEGS
 70
     8
  9
$ATTDIA
 70
     0
  9
$ATTREQ
 70
     1
  9
$HANDLING
 70
     1
  9
$HANDSEED
  5
4CE
  9
$SURFTAB1
 70
     6
  9
$SURFTAB2
 70
     6
  9
$SURFTYPE
 70
     6
  9
$SURFU
 70
     6
  9
$SURFV
 70
     6
  9
$UCSNAME
  2

  9
$UCSORG
 10
0.0
 20
0.0
 30
0.0
  9
$UCSXDIR
 10
1.0
 20
0.0
 30
0.0
  9
$UCSYDIR
 10
0.0
 20
1.0
 30
0.0
  9
$PUCSNAME
  2

  9
$PUCSORG
 10
0.0
 20
0.0
 30
0.0
  9
$PUCSXDIR
 10
1.0
 20
0.0
 30
0.0
  9
$PUCSYDIR
 10
0.0
 20
1.0
 30
0.0
  9
$USERI1
 70
     0
  9
$USERI2
 70
     0
  9
$USERI3
 70
     0
  9
$USERI4
 70
     0
  9
$USERI5
 70
     0
  9
$USERR1
 40
0.0
  9
$USERR2
 40
0.0
  9
$USERR3
 40
0.0
  9
$USERR4
 40
0.0
  9
$USERR5
 40
0.0
  9
$WORLDVIEW
 70
     1
  9
$SHADEDGE
 70
     3
  9
$SHADEDIF
 70
    70
  9
$TILEMODE
 70
     1
  9
$MAXACTVP
 70
    64
  9
$PLIMCHECK
 70
     0
  9
$PEXTMIN
 10
1.0000000000E+20
 20
1.0000000000E+20
 30
1.0000000000E+20
  9
$PEXTMAX
 10
-1.0000000000E+20
 20
-1.0000000000E+20
 30
-1.0000000000E+20
  9
$PLIMMIN
 10
0.0
 20
0.0
  9
$PLIMMAX
 10
420.0
 20
297.0
  9
$UNITMODE
 70
     0
  9
$VISRETAIN
 70
     1
  9
$PLINEGEN
 70
     0
  9
$PSLTSCALE
 70
     1
  0
ENDSEC
  0
SECTION
  2
TABLES
  0
TABLE
  2
VPORT
 70
     1
  0
VPORT
  2
*ACTIVE
 70
     0
 10
0.0
 20
0.0
 11
1.0
 21
1.0
 12
148.5
 22
105.0
 13
0.0
 23
0.0
 14
10.0
 24
10.0
 15
10.0
 25
10.0
 16
0.0
 26
0.0
 36
1.0
 17
0.0
 27
0.0
 37
0.0
 40
210.0
 41
1.4142857143
 42
50.0
 43
0.0
 44
0.0
 50
0.0
 51
0.0
 71
     0
 72
  2000
 73
     1
 74
     3
 75
     0
 76
     0
 77
     0
 78
     0
  0
ENDTAB
  0
TABLE
  2
LTYPE
 70
     6
  0
LTYPE
  2
CONTINUOUS
 70
     0
  3
Solid line
 72
    65
 73
     0
 40
0.0
  0
LTYPE
  2
HIDDEN
 70
     0
  3
Hidden __ __ __ __ __ __ __ __ __ __ __ __ __ __
 72
    65
 73
     2
 40
1.905
 49
1.27
 49
-0.635
  0
LTYPE
  2
PHANTOM
 70
     0
  3
Phantom ______  __  __  ______  __  __  ______
 72
    65
 73
     6
 40
12.7
 49
6.35
 49
-1.27
 49
1.27
 49
-1.27
 49
1.27
 49
-1.27
  0
LTYPE
  2
CENTER
 70
     0
  3
Center ____ _ ____ _ ____ _ ____ _ ____ _ ____
 72
    65
 73
     4
 40
10.16
 49
6.35
 49
-1.27
 49
1.27
 49
-1.27
  0
LTYPE
  2
CENTERX2
 70
     0
  3
Center (2x) ________  __  ________  __  _____
 72
    65
 73
     4
 40
20.32
 49
12.7
 49
-2.54
 49
2.54
 49
-2.54
  0
LTYPE
  2
DOT2
 70
     0
  3
Dot (.5x) ........................................
 72
    65
 73
     2
 40
0.635
 49
0.0
 49
-0.635
  0
ENDTAB
  0
TABLE
  2
LAYER
 70
     8
  0
LAYER
  2
0
 70
     0
 62
     7
  6
CONTINUOUS
  0
LAYER
  2
FORMAT
 70
     0
 62
     7
  6
CONTINUOUS
  0
LAYER
  2
RED
 70
     0
 62
     1
  6
CONTINUOUS
  0
LAYER
  2
GREEN
 70
     0
 62
   114
  6
CONTINUOUS
  0
LAYER
  2
BLUE
 70
     0
 62
     5
  6
CONTINUOUS
  0
LAYER
  2
BLATTFORMAT
 70
     0
 62
     7
  6
CONTINUOUS
  0
LAYER
  2
BEMAßUNG
 70
     0
 62
     7
  6
CONTINUOUS
  0
LAYER
  2
BLATTFORM
 70
     0
 62
     7
  6
CONTINUOUS
  0
ENDTAB
  0
TABLE
  2
STYLE
 70
     1
  0
STYLE
  2
STANDARD
 70
     0
 40
0.0
 41
1.0
 50
0.0
 71
     0
 42
3.5
  3
txt
  4

  0
ENDTAB
  0
TABLE
  2
VIEW
 70
     0
  0
ENDTAB
  0
TABLE
  2
UCS
 70
     0
  0
ENDTAB
  0
TABLE
  2
APPID
 70
     1
  0
APPID
  2
ACAD
 70
     0
  0
ENDTAB
  0
TABLE
  2
DIMSTYLE
 70
     3
  0
DIMSTYLE
  2
ISO-25
 70
     0
  3

  4

  5

  6

  7

 40
1.0
 41
2.5
 42
0.625
 43
3.75
 44
1.25
 45
0.0
 46
0.0
 47
0.0
 48
0.0
140
2.5
141
2.5
142
0.0
143
0.0393700787
144
1.0
145
0.0
146
1.0
147
0.625
 71
     0
 72
     0
 73
     0
 74
     0
 75
     0
 76
     0
 77
     1
 78
     8
170
     0
171
     3
172
     1
173
     0
174
     0
175
     0
176
     0
177
     0
178
     0
  0
DIMSTYLE
  2
SLDDIMSTYLE0
 70
     0
  3

  4

  5

  6

  7

 40
1.0
 41
4.0
 42
0.0625
 43
0.38
 44
0.0
 45
0.000000001
 46
0.0
 47
0.0
 48
0.0
140
7.1912923177
141
0.09
142
0.0
143
25.4
144
1.0
145
0.0
146
1.0
147
1.7978230794
 71
     0
 72
     0
 73
     0
 74
     0
 75
     0
 76
     0
 77
     1
 78
    12
170
     0
171
     2
172
     0
173
     1
174
     0
175
     0
176
     0
177
     0
178
     0
  0
DIMSTYLE
  2
SLDDIMSTYLE1
 70
     0
  3

  4

  5

  6

  7

 40
1.0
 41
4.0
 42
0.0625
 43
0.38
 44
0.0
 45
0.000000001
 46
0.0
 47
0.0
 48
0.0
140
7.1912923177
141
0.09
142
0.0
143
25.4
144
1.0
145
0.0
146
1.0
147
1.7978230794
 71
     0
 72
     0
 73
     0
 74
     0
 75
     0
 76
     0
 77
     1
 78
    12
170
     0
171
     2
172
     1
173
     1
174
     0
175
     0
176
     0
177
     0
178
     0
  0
ENDTAB
  0
ENDSEC
  0
SECTION
  2
BLOCKS
  0
BLOCK
  8
0
  2
$MODEL_SPACE
 70
     0
 10
0.0
 20
0.0
 30
0.0
  3
$MODEL_SPACE
  1

  0
ENDBLK
  5
21
  8
0
  0
BLOCK
 67
     1
  8
0
  2
$PAPER_SPACE
 70
     0
 10
0.0
 20
0.0
 30
0.0
  3
$PAPER_SPACE
  1

  0
ENDBLK
  5
1D
 67
     1
  8
0
  0
BLOCK
  8
0
  2
_D
 70
     0
 10
0.0
 20
0.0
 30
0.0
  3
_D
  1

  0
SOLID
  5
368
  8
BEMAßUNG
 10
123.0946949602
 20
116.2076444215
 30
0.0
 11
127.0946949602
 21
115.3076444215
 31
0.0
 12
127.0946949602
 22
117.1076444215
 32
0.0
 13
127.0946949602
 23
117.1076444215
 33
0.0
  0
SOLID
  5
369
  8
BEMAßUNG
 10
174.0946949602
 20
116.2076444215
 30
0.0
 11
170.0946949602
 21
117.1076444215
 31
0.0
 12
170.0946949602
 22
115.3076444215
 32
0.0
 13
170.0946949602
 23
115.3076444215
 33
0.0
  0
LINE
  5
36A
  8
BEMAßUNG
 10
123.0946949602
 20
131.7076444215
 30
0.0
 11
123.0946949602
 21
115.2076444215
 31
0.0
  0
LINE
  5
36B
  8
BEMAßUNG
 10
174.0946949602
 20
131.7076444215
 30
0.0
 11
174.0946949602
 21
115.2076444215
 31
0.0
  0
LINE
  5
36C
  8
BEMAßUNG
 10
123.0946949602
 20
116.2076444215
 30
0.0
 11
174.0946949602
 21
116.2076444215
 31
0.0
  0
TEXT
  5
36D
  8
BEMAßUNG
 10
137.861185524
 20
118.8247127135
 30
12.7864616989
 40
7.4083333333
  1
%%c
 41
0.7
 11
137.861185524
 21
116.2076444215
 31
12.7864616989
 73
     1
  0
TEXT
  5
36E
  8
BEMAßUNG
 10
148.3528947488
 20
118.8247127135
 30
12.7864616989
 40
7.4083333333
  1
51
 41
0.7
 11
148.3528947488
 21
116.2076444215
 31
12.7864616989
 73
     1
  0
ENDBLK
  5
367
  8
0
  0
BLOCK
  8
0
  2
_D_1
 70
     0
 10
0.0
 20
0.0
 30
0.0
  3
_D_1
  1

  0
SOLID
  5
374
  8
BEMAßUNG
 10
186.7024143429
 20
138.2076444215
 30
0.0
 11
187.6024143429
 21
142.2076444215
 31
0.0
 12
185.8024143429
 22
142.2076444215
 32
0.0
 13
185.8024143429
 23
142.2076444215
 33
0.0
  0
SOLID
  5
375
  8
BEMAßUNG
 10
186.7024143429
 20
132.2076444215
 30
0.0
 11
185.8024143429
 21
128.2076444215
 31
0.0
 12
187.6024143429
 22
128.2076444215
 32
0.0
 13
187.6024143429
 23
128.2076444215
 33
0.0
  0
LINE
  5
376
  8
BEMAßUNG
 10
174.5946949602
 20
138.2076444215
 30
0.0
 11
187.7024143429
 21
138.2076444215
 31
0.0
  0
LINE
  5
377
  8
BEMAßUNG
 10
173.1614167785
 20
132.2076444215
 30
0.0
 11
187.7024143429
 21
132.2076444215
 31
0.0
  0
LINE
  5
378
  8
BEMAßUNG
 10
186.7024143429
 20
138.2076444215
 30
0.0
 11
186.7024143429
 21
154.5762493536
 31
0.0
  0
LINE
  5
379
  8
BEMAßUNG
 10
186.7024143429
 20
138.2076444215
 30
0.0
 11
186.7024143429
 21
132.2076444215
 31
0.0
  0
LINE
  5
37A
  8
BEMAßUNG
 10
186.7024143429
 20
132.2076444215
 30
0.0
 11
186.7024143429
 21
120.2076444215
 31
0.0
  0
TEXT
  5
37B
  8
BEMAßUNG
 10
184.0853460509
 20
149.0885949954
 30
12.7864616989
 40
7.4083333333
  1
6
 50
90.0
 41
0.7
 11
186.7024143429
 21
149.0885949954
 31
12.7864616989
 73
     1
  0
ENDBLK
  5
373
  8
0
  0
BLOCK
  8
0
  2
_D_2
 70
     0
 10
0.0
 20
0.0
 30
0.0
  3
_D_2
  1

  0
SOLID
  5
380
  8
BEMAßUNG
 10
202.0946949602
 20
148.2076444215
 30
0.0
 11
201.1946949602
 21
144.2076444215
 31
0.0
 12
202.9946949602
 22
144.2076444215
 32
0.0
 13
202.9946949602
 23
144.2076444215
 33
0.0
  0
SOLID
  5
381
  8
BEMAßUNG
 10
202.0946949602
 20
132.2076444215
 30
0.0
 11
202.9946949602
 21
136.2076444215
 31
0.0
 12
201.1946949602
 22
136.2076444215
 32
0.0
 13
201.1946949602
 23
136.2076444215
 33
0.0
  0
LINE
  5
382
  8
BEMAßUNG
 10
151.1025593365
 20
148.2076444215
 30
0.0
 11
203.0946949602
 21
148.2076444215
 31
0.0
  0
LINE
  5
383
  8
BEMAßUNG
 10
144.0250830201
 20
132.2076444215
 30
0.0
 11
203.0946949602
 21
132.2076444215
 31
0.0
  0
LINE
  5
384
  8
BEMAßUNG
 10
202.0946949602
 20
148.2076444215
 30
0.0
 11
202.0946949602
 21
160.4922179305
 31
0.0
  0
LINE
  5
385
  8
BEMAßUNG
 10
202.0946949602
 20
148.2076444215
 30
0.0
 11
202.0946949602
 21
132.2076444215
 31
0.0
  0
TEXT
  5
386
  8
BEMAßUNG
 10
199.4776266682
 20
149.5169092142
 30
12.7864616989
 40
7.4083333333
  1
16
 50
90.0
 41
0.7
 11
202.0946949602
 21
149.5169092142
 31
12.7864616989
 73
     1
  0
ENDBLK
  5
37F
  8
0
  0
ENDSEC
  0
SECTION
  2
ENTITIES
  0
LINE
  5
7A
  8
0
  6
CONTINUOUS
 62
     7
 10
135.7954644238
 20
56.8629365692
 30
0.0
 11
135.7688742995
 21
56.9811946576
 31
0.0
  0
LINE
  5
7B
  8
0
  6
CONTINUOUS
 62
     7
 10
130.1063142255
 20
62.1354077648
 30
0.0
 11
130.1099090555
 21
62.1305894273
 31
0.0
  0
LINE
  5
7C
  8
0
  6
CONTINUOUS
 62
     7
 10
167.0830756949
 20
89.7218866649
 30
0.0
 11
167.0794808649
 21
89.7267050024
 31
0.0
  0
ARC
  5
7D
  8
0
  6
CONTINUOUS
 62
     7
 10
148.5314377137
 20
73.3900372274
 30
0.0
 40
27.53795055796088
 50
71.7099034897
 51
86.7293301188
  0
LINE
  5
7E
  8
0
  6
CONTINUOUS
 62
     7
 10
150.1025593365
 20
100.8831326839
 30
0.0
 11
150.132716624
 21
101.3822223932
 31
0.0
  0
ARC
  5
7F
  8
0
  6
CONTINUOUS
 62
     7
 10
156.7913606001
 20
99.6576367383
 30
0.0
 40
0.4009215751664415
 50
342.4529384751
 51
61.1877205197
  0
ARC
  5
80
  8
0
  6
CONTINUOUS
 62
     7
 10
148.5939921576
 20
75.9251406836
 30
0.0
 40
25.50354254130395
 50
70.7920907599
 51
86.5410298197
  0
ARC
  5
81
  8
0
  6
CONTINUOUS
 62
     7
 10
140.3980293203
 20
52.1996576914
 30
0.0
 40
0.4009215751665075
 50
162.4529384751
 51
241.1877205197
  0
ARC
  5
82
  8
0
  6
CONTINUOUS
 62
     7
 10
148.6579522068
 20
78.4672572023
 30
0.0
 40
27.5379505579615
 50
251.7099034897
 51
266.7293301188
  0
LINE
  5
83
  8
0
  6
CONTINUOUS
 62
     7
 10
147.0566732964
 20
50.4750720365
 30
0.0
 11
147.0868305839
 21
50.9741617458
 31
0.0
  0
ARC
  5
84
  8
0
  6
CONTINUOUS
 62
     7
 10
148.5953977628
 20
75.9321537461
 30
0.0
 40
25.50354254130415
 50
250.7920907599
 51
266.5410298197
  0
ARC
  5
85
  8
0
  6
CONTINUOUS
 62
     7
 10
148.6542792526
 20
73.4093274073
 30
0.0
 40
27.51848236550834
 50
93.2653264018
 51
108.2954399897
  0
ARC
  5
86
  8
0
  6
CONTINUOUS
 62
     7
 10
140.3980293203
 20
99.6576367383
 30
0.0
 40
0.4009215751665087
 50
118.8122794803
 51
197.5470615249
  0
LINE
  5
87
  8
0
  6
CONTINUOUS
 62
     7
 10
147.0868305839
 20
100.8831326839
 30
0.0
 11
147.0566732964
 21
101.3822223932
 31
0.0
  0
ARC
  5
88
  8
0
  6
CONTINUOUS
 62
     7
 10
148.5946949602
 20
75.9286472149
 30
0.0
 40
25.50000000000081
 50
93.4578692923
 51
109.2090101281
  0
LINE
  5
89
  8
0
  6
CONTINUOUS
 62
     7
 10
150.132716624
 20
50.4750720365
 30
0.0
 11
150.1025593365
 21
50.9741617458
 31
0.0
  0
ARC
  5
8A
  8
0
  6
CONTINUOUS
 62
     7
 10
148.5351106679
 20
78.4479670224
 30
0.0
 40
27.51848236550802
 50
273.2653264018
 51
288.2954399897
  0
ARC
  5
8B
  8
0
  6
CONTINUOUS
 62
     7
 10
156.7913606001
 20
52.1996576914
 30
0.0
 40
0.4009215751664415
 50
298.8122794803
 51
17.5470615249
  0
ARC
  5
8C
  8
0
  6
CONTINUOUS
 62
     7
 10
148.5946949602
 20
75.9286472149
 30
0.0
 40
25.50000000000054
 50
273.4578692923
 51
289.2090101281
  0
LINE
  5
8D
  8
0
  6
CONTINUOUS
 62
     7
 10
144.289560351
 20
98.0690259688
 30
0.0
 11
144.289560351
 21
53.7882684609
 31
0.0
  0
ARC
  5
8E
  8
0
  6
CONTINUOUS
 62
     7
 10
143.2523789647
 20
98.0285763038
 30
0.0
 40
1.037969847103951
 50
2.2333809591
 51
104.6895681669
  0
ARC
  5
8F
  8
0
  6
CONTINUOUS
 62
     7
 10
148.4152041005
 20
75.3600433332
 30
0.0
 40
24.28647153037713
 50
102.9098695874
 51
110.2336039314
  0
LINE
  5
90
  8
0
  6
CONTINUOUS
 62
     7
 10
140.0157627721
 20
98.1478050654
 30
0.0
 11
140.0157627721
 21
99.5367632692
 31
0.0
  0
LINE
  5
91
  8
0
  6
CONTINUOUS
 62
     7
 10
147.0868305839
 20
100.8831326839
 30
0.0
 11
147.0868305839
 21
50.9741617458
 31
0.0
  0
LINE
  5
92
  8
0
  6
CONTINUOUS
 62
     7
 10
140.0157627721
 20
52.3205311605
 30
0.0
 11
140.0157627721
 21
53.7094893643
 31
0.0
  0
ARC
  5
93
  8
0
  6
CONTINUOUS
 62
     7
 10
148.4164839337
 20
76.5015519597
 30
0.0
 40
24.29094961893389
 50
249.767072062
 51
257.0894544191
  0
ARC
  5
94
  8
0
  6
CONTINUOUS
 62
     7
 10
143.2496707088
 20
53.8323729815
 30
0.0
 40
1.040824517731582
 50
255.5056636778
 51
357.5713871962
  0
ARC
  5
95
  8
0
  6
CONTINUOUS
 62
     7
 10
148.5946949602
 20
75.9286472149
 30
0.0
 40
25.0
 50
266.5421307077
 51
273.4578692923
  0
ARC
  5
96
  8
0
  6
CONTINUOUS
 62
     7
 10
148.5946949602
 20
75.9286472149
 30
0.0
 40
25.5
 50
266.5421307077
 51
273.4578692923
  0
ARC
  5
97
  8
0
  6
CONTINUOUS
 62
     7
 10
148.5946949602
 20
75.9286472149
 30
0.0
 40
25.00000000000001
 50
86.5421307077
 51
93.4578692923
  0
ARC
  5
98
  8
0
  6
CONTINUOUS
 62
     7
 10
148.5946949602
 20
75.9286472149
 30
0.0
 40
25.50000000000001
 50
86.5421307077
 51
93.4578692923
  0
ARC
  5
99
  8
0
  6
CONTINUOUS
 62
     7
 10
148.7729059867
 20
75.35574247
 30
0.0
 40
24.29094961893108
 50
69.767072062
 51
77.0894544191
  0
ARC
  5
9A
  8
0
  6
CONTINUOUS
 62
     7
 10
153.9397192116
 20
98.0249214482
 30
0.0
 40
1.040824517731464
 50
75.5056636778
 51
177.5713871962
  0
LINE
  5
9B
  8
0
  6
CONTINUOUS
 62
     7
 10
152.8998295694
 20
53.7882684609
 30
0.0
 11
152.8998295694
 21
98.0690259688
 31
0.0
  0
ARC
  5
9C
  8
0
  6
CONTINUOUS
 62
     7
 10
153.9370109557
 20
53.8287181259
 30
0.0
 40
1.037969847103884
 50
182.2333809591
 51
284.6895681669
  0
ARC
  5
9D
  8
0
  6
CONTINUOUS
 62
     7
 10
148.77418582
 20
76.4972510965
 30
0.0
 40
24.2864715303772
 50
282.9098695874
 51
290.2336039314
  0
LINE
  5
9E
  8
0
  6
CONTINUOUS
 62
     7
 10
157.1736271483
 20
53.7094893643
 30
0.0
 11
157.1736271483
 21
52.3205311605
 31
0.0
  0
LINE
  5
9F
  8
0
  6
CONTINUOUS
 62
     7
 10
150.1025593365
 20
50.9741617458
 30
0.0
 11
150.1025593365
 21
100.8831326839
 31
0.0
  0
LINE
  5
A0
  8
0
  6
CONTINUOUS
 62
     7
 10
157.1736271483
 20
99.5367632692
 30
0.0
 11
157.1736271483
 21
98.1478050654
 31
0.0
  0
POLYLINE
  5
A1
  8
0
  6
CONTINUOUS
 62
     7
 66
     1
 10
0.0
 20
0.0
 30
0.0
 70
   128
  0
VERTEX
  5
387
  8
0
  6
CONTINUOUS
 62
     7
 10
142.9891686713
 20
52.8246754252
 30
0.0
  0
VERTEX
  5
388
  8
0
  6
CONTINUOUS
 62
     7
 10
143.013598969
 20
52.9245603354
 30
0.0
  0
VERTEX
  5
389
  8
0
  6
CONTINUOUS
 62
     7
 10
143.0456618545
 20
53.0202204271
 30
0.0
  0
VERTEX
  5
38A
  8
0
  6
CONTINUOUS
 62
     7
 10
143.0840011682
 20
53.1076095782
 30
0.0
  0
VERTEX
  5
38B
  8
0
  6
CONTINUOUS
 62
     7
 10
143.1269952772
 20
53.1830315014
 30
0.0
  0
VERTEX
  5
38C
  8
0
  6
CONTINUOUS
 62
     7
 10
143.1728256655
 20
53.2432960859
 30
0.0
  0
VERTEX
  5
38D
  8
0
  6
CONTINUOUS
 62
     7
 10
143.2195538514
 20
53.2858543286
 30
0.0
  0
VERTEX
  5
38E
  8
0
  6
CONTINUOUS
 62
     7
 10
143.2652033791
 20
53.3089061492
 30
0.0
  0
VERTEX
  5
38F
  8
0
  6
CONTINUOUS
 62
     7
 10
143.3078434166
 20
53.3114765281
 30
0.0
  0
SEQEND
  5
4A7
  8
0
  6
CONTINUOUS
 62
     7
  0
ARC
  5
A2
  8
0
  6
CONTINUOUS
 62
     7
 10
143.4343522267
 20
53.7901941501
 30
0.0
 40
0.4951515329757737
 50
255.197073517
 51
359.7771709663
  0
LINE
  5
A3
  8
0
  6
CONTINUOUS
 62
     7
 10
144.289560351
 20
53.7882684609
 30
0.0
 11
143.9295000151
 21
53.7882684609
 31
0.0
  0
POLYLINE
  5
A4
  8
0
  6
CONTINUOUS
 62
     7
 66
     1
 10
0.0
 20
0.0
 30
0.0
 70
   128
  0
VERTEX
  5
390
  8
0
  6
CONTINUOUS
 62
     7
 10
154.2002212491
 20
99.0326190046
 30
0.0
  0
VERTEX
  5
391
  8
0
  6
CONTINUOUS
 62
     7
 10
154.1757909514
 20
98.9327340943
 30
0.0
  0
VERTEX
  5
392
  8
0
  6
CONTINUOUS
 62
     7
 10
154.1437280659
 20
98.8370740026
 30
0.0
  0
VERTEX
  5
393
  8
0
  6
CONTINUOUS
 62
     7
 10
154.1053887523
 20
98.7496848516
 30
0.0
  0
VERTEX
  5
394
  8
0
  6
CONTINUOUS
 62
     7
 10
154.0623946432
 20
98.6742629283
 30
0.0
  0
VERTEX
  5
395
  8
0
  6
CONTINUOUS
 62
     7
 10
154.0165642549
 20
98.6139983438
 30
0.0
  0
VERTEX
  5
396
  8
0
  6
CONTINUOUS
 62
     7
 10
153.969836069
 20
98.5714401011
 30
0.0
  0
VERTEX
  5
397
  8
0
  6
CONTINUOUS
 62
     7
 10
153.9241865414
 20
98.5483882805
 30
0.0
  0
VERTEX
  5
398
  8
0
  6
CONTINUOUS
 62
     7
 10
153.8815465039
 20
98.5458179016
 30
0.0
  0
SEQEND
  5
4A8
  8
0
  6
CONTINUOUS
 62
     7
  0
ARC
  5
A5
  8
0
  6
CONTINUOUS
 62
     7
 10
153.7550376937
 20
98.0671002796
 30
0.0
 40
0.4951515329756684
 50
75.1970735169
 51
179.7771709663
  0
LINE
  5
A6
  8
0
  6
CONTINUOUS
 62
     7
 10
152.8998295694
 20
98.0690259688
 30
0.0
 11
153.2598899053
 21
98.0690259688
 31
0.0
  0
LINE
  5
A7
  8
0
  6
CONTINUOUS
 62
     7
 10
152.8998295694
 20
53.7882684609
 30
0.0
 11
153.2598899053
 21
53.7882684609
 31
0.0
  0
ARC
  5
A8
  8
0
  6
CONTINUOUS
 62
     7
 10
153.7557630916
 20
53.791139947
 30
0.0
 40
0.4958815002000785
 50
180.3317827999
 51
284.6939727168
  0
POLYLINE
  5
A9
  8
0
  6
CONTINUOUS
 62
     7
 66
     1
 10
0.0
 20
0.0
 30
0.0
 70
   128
  0
VERTEX
  5
399
  8
0
  6
CONTINUOUS
 62
     7
 10
154.2002212491
 20
52.8246754252
 30
0.0
  0
VERTEX
  5
39A
  8
0
  6
CONTINUOUS
 62
     7
 10
154.1757909514
 20
52.9245603354
 30
0.0
  0
VERTEX
  5
39B
  8
0
  6
CONTINUOUS
 62
     7
 10
154.1437280659
 20
53.0202204271
 30
0.0
  0
VERTEX
  5
39C
  8
0
  6
CONTINUOUS
 62
     7
 10
154.1053887523
 20
53.1076095782
 30
0.0
  0
VERTEX
  5
39D
  8
0
  6
CONTINUOUS
 62
     7
 10
154.0623946432
 20
53.1830315014
 30
0.0
  0
VERTEX
  5
39E
  8
0
  6
CONTINUOUS
 62
     7
 10
154.0165642549
 20
53.2432960859
 30
0.0
  0
VERTEX
  5
39F
  8
0
  6
CONTINUOUS
 62
     7
 10
153.969836069
 20
53.2858543286
 30
0.0
  0
VERTEX
  5
3A0
  8
0
  6
CONTINUOUS
 62
     7
 10
153.9241865414
 20
53.3089061492
 30
0.0
  0
VERTEX
  5
3A1
  8
0
  6
CONTINUOUS
 62
     7
 10
153.8815465039
 20
53.3114765281
 30
0.0
  0
SEQEND
  5
4A9
  8
0
  6
CONTINUOUS
 62
     7
  0
LINE
  5
AA
  8
0
  6
CONTINUOUS
 62
     7
 10
144.289560351
 20
98.0690259688
 30
0.0
 11
143.9295000151
 21
98.0690259688
 31
0.0
  0
ARC
  5
AB
  8
0
  6
CONTINUOUS
 62
     7
 10
143.4336268289
 20
98.0661544827
 30
0.0
 40
0.4958815002000579
 50
0.3317827999
 51
104.6939727168
  0
POLYLINE
  5
AC
  8
0
  6
CONTINUOUS
 62
     7
 66
     1
 10
0.0
 20
0.0
 30
0.0
 70
   128
  0
VERTEX
  5
3A2
  8
0
  6
CONTINUOUS
 62
     7
 10
142.9891686713
 20
99.0326190046
 30
0.0
  0
VERTEX
  5
3A3
  8
0
  6
CONTINUOUS
 62
     7
 10
143.013598969
 20
98.9327340943
 30
0.0
  0
VERTEX
  5
3A4
  8
0
  6
CONTINUOUS
 62
     7
 10
143.0456618545
 20
98.8370740026
 30
0.0
  0
VERTEX
  5
3A5
  8
0
  6
CONTINUOUS
 62
     7
 10
143.0840011682
 20
98.7496848516
 30
0.0
  0
VERTEX
  5
3A6
  8
0
  6
CONTINUOUS
 62
     7
 10
143.1269952772
 20
98.6742629283
 30
0.0
  0
VERTEX
  5
3A7
  8
0
  6
CONTINUOUS
 62
     7
 10
143.1728256655
 20
98.6139983438
 30
0.0
  0
VERTEX
  5
3A8
  8
0
  6
CONTINUOUS
 62
     7
 10
143.2195538514
 20
98.5714401011
 30
0.0
  0
VERTEX
  5
3A9
  8
0
  6
CONTINUOUS
 62
     7
 10
143.2652033791
 20
98.5483882805
 30
0.0
  0
VERTEX
  5
3AA
  8
0
  6
CONTINUOUS
 62
     7
 10
143.3078434166
 20
98.5458179016
 30
0.0
  0
SEQEND
  5
4AA
  8
0
  6
CONTINUOUS
 62
     7
  0
LINE
  5
AD
  8
0
  6
CONTINUOUS
 62
     7
 10
153.2598899053
 20
98.0690259688
 30
0.0
 11
153.2598899053
 21
53.7882684609
 31
0.0
  0
LINE
  5
AE
  8
0
  6
CONTINUOUS
 62
     7
 10
143.9295000151
 20
53.7882684609
 30
0.0
 11
143.9295000151
 21
98.0690259688
 31
0.0
  0
ARC
  5
AF
  8
0
  6
CONTINUOUS
 62
     7
 10
143.2614167429
 20
54.0011969417
 30
0.0
 40
0.5000000449554123
 50
256.3410981453
 51
359.9888915568
  0
POLYLINE
  5
B0
  8
0
  6
CONTINUOUS
 62
     7
 66
     1
 10
0.0
 20
0.0
 30
0.0
 70
   128
  0
VERTEX
  5
3AB
  8
0
  6
CONTINUOUS
 62
     7
 10
143.7614167785
 20
54.0011000022
 30
0.0
  0
VERTEX
  5
3AC
  8
0
  6
CONTINUOUS
 62
     7
 10
143.8488445242
 20
53.8901401198
 30
0.0
  0
VERTEX
  5
3AD
  8
0
  6
CONTINUOUS
 62
     7
 10
143.9295000151
 20
53.7882684609
 30
0.0
  0
SEQEND
  5
4AB
  8
0
  6
CONTINUOUS
 62
     7
  0
ARC
  5
B1
  8
0
  6
CONTINUOUS
 62
     7
 10
189.3068055154
 20
90.5967533495
 30
0.0
 40
59.21229924450167
 50
218.7736373726
 51
219.0271106488
  0
ARC
  5
B2
  8
0
  6
CONTINUOUS
 62
     7
 10
153.9279731775
 20
97.8560974881
 30
0.0
 40
0.5000000449554035
 50
76.3410981453
 51
179.9888915568
  0
POLYLINE
  5
B3
  8
0
  6
CONTINUOUS
 62
     7
 66
     1
 10
0.0
 20
0.0
 30
0.0
 70
   128
  0
VERTEX
  5
3AE
  8
0
  6
CONTINUOUS
 62
     7
 10
153.427973142
 20
97.8561944275
 30
0.0
  0
VERTEX
  5
3AF
  8
0
  6
CONTINUOUS
 62
     7
 10
153.3405453962
 20
97.9671543099
 30
0.0
  0
VERTEX
  5
3B0
  8
0
  6
CONTINUOUS
 62
     7
 10
153.2598899053
 20
98.0690259688
 30
0.0
  0
SEQEND
  5
4AC
  8
0
  6
CONTINUOUS
 62
     7
  0
ARC
  5
B4
  8
0
  6
CONTINUOUS
 62
     7
 10
107.8825843929
 20
61.2605410705
 30
0.0
 40
59.21229926000534
 50
38.7736373726
 51
39.0271106488
  0
ARC
  5
B5
  8
0
  6
CONTINUOUS
 62
     7
 10
153.9279731772
 20
54.0011969413
 30
0.0
 40
0.5000000446487713
 50
180.0111083985
 51
283.6589018994
  0
ARC
  5
B6
  8
0
  6
CONTINUOUS
 62
     7
 10
107.9501161095
 20
90.5422614054
 30
0.0
 40
59.12552444289308
 50
320.9727033475
 51
321.2265486311
  0
POLYLINE
  5
B7
  8
0
  6
CONTINUOUS
 62
     7
 66
     1
 10
0.0
 20
0.0
 30
0.0
 70
   128
  0
VERTEX
  5
3B1
  8
0
  6
CONTINUOUS
 62
     7
 10
153.2598899053
 20
53.7882684609
 30
0.0
  0
VERTEX
  5
3B2
  8
0
  6
CONTINUOUS
 62
     7
 10
153.3405453962
 20
53.8901401198
 30
0.0
  0
VERTEX
  5
3B3
  8
0
  6
CONTINUOUS
 62
     7
 10
153.427973142
 20
54.0011000022
 30
0.0
  0
SEQEND
  5
4AD
  8
0
  6
CONTINUOUS
 62
     7
  0
ARC
  5
B8
  8
0
  6
CONTINUOUS
 62
     7
 10
143.2614167432
 20
97.8560974884
 30
0.0
 40
0.5000000446486861
 50
0.0111083985
 51
103.6589018994
  0
ARC
  5
B9
  8
0
  6
CONTINUOUS
 62
     7
 10
189.2392738108
 20
61.3150330244
 30
0.0
 40
59.12552444273219
 50
140.9727033475
 51
141.2265486311
  0
POLYLINE
  5
BA
  8
0
  6
CONTINUOUS
 62
     7
 66
     1
 10
0.0
 20
0.0
 30
0.0
 70
   128
  0
VERTEX
  5
3B4
  8
0
  6
CONTINUOUS
 62
     7
 10
143.9295000151
 20
98.0690259688
 30
0.0
  0
VERTEX
  5
3B5
  8
0
  6
CONTINUOUS
 62
     7
 10
143.8488445242
 20
97.9671543099
 30
0.0
  0
VERTEX
  5
3B6
  8
0
  6
CONTINUOUS
 62
     7
 10
143.7614167785
 20
97.8561944275
 30
0.0
  0
SEQEND
  5
4AE
  8
0
  6
CONTINUOUS
 62
     7
  0
LINE
  5
BB
  8
0
  6
CONTINUOUS
 62
     7
 10
153.4279731513
 20
54.0011000022
 30
0.0
 11
153.427973142
 21
54.0011968966
 31
0.0
  0
LINE
  5
BC
  8
0
  6
CONTINUOUS
 62
     7
 10
153.427973142
 20
97.8560975331
 30
0.0
 11
153.4279731513
 21
97.8561944275
 31
0.0
  0
LINE
  5
BD
  8
0
  6
CONTINUOUS
 62
     7
 10
153.427973142
 20
97.8560975331
 30
0.0
 11
153.427973142
 21
89.4286472149
 31
0.0
  0
LINE
  5
BE
  8
0
  6
CONTINUOUS
 62
     7
 10
153.4279731434
 20
89.4286091412
 30
0.0
 11
153.427973142
 21
89.4286472149
 31
0.0
  0
ARC
  5
BF
  8
0
  6
CONTINUOUS
 62
     7
 10
168.0397528593
 20
88.6756449038
 30
0.0
 40
14.63116747389106
 50
177.0500823834
 51
180.9672910538
  0
LINE
  5
C0
  8
0
  6
CONTINUOUS
 62
     7
 10
153.4106703935
 20
87.4286472149
 30
0.0
 11
153.4106703935
 21
88.4286472149
 31
0.0
  0
ARC
  5
C1
  8
0
  6
CONTINUOUS
 62
     7
 10
168.0397528593
 20
87.1816495259
 30
0.0
 40
14.6311674738916
 50
179.0327089462
 51
182.9499176166
  0
LINE
  5
C2
  8
0
  6
CONTINUOUS
 62
     7
 10
153.427973142
 20
86.4286472149
 30
0.0
 11
153.4279731434
 21
86.4286852885
 31
0.0
  0
LINE
  5
C3
  8
0
  6
CONTINUOUS
 62
     7
 10
153.427973142
 20
86.4286472149
 30
0.0
 11
153.427973142
 21
77.4286472149
 31
0.0
  0
LINE
  5
C4
  8
0
  6
CONTINUOUS
 62
     7
 10
153.4279731434
 20
77.4286091412
 30
0.0
 11
153.427973142
 21
77.4286472149
 31
0.0
  0
ARC
  5
C5
  8
0
  6
CONTINUOUS
 62
     7
 10
168.0397528593
 20
76.6756449038
 30
0.0
 40
14.63116747389075
 50
177.0500823834
 51
180.9672910538
  0
LINE
  5
C6
  8
0
  6
CONTINUOUS
 62
     7
 10
153.4106703935
 20
75.4286472149
 30
0.0
 11
153.4106703935
 21
76.4286472149
 31
0.0
  0
ARC
  5
C7
  8
0
  6
CONTINUOUS
 62
     7
 10
168.0397528593
 20
75.1816495259
 30
0.0
 40
14.63116747389163
 50
179.0327089462
 51
182.9499176166
  0
LINE
  5
C8
  8
0
  6
CONTINUOUS
 62
     7
 10
153.427973142
 20
74.4286472149
 30
0.0
 11
153.4279731434
 21
74.4286852885
 31
0.0
  0
LINE
  5
C9
  8
0
  6
CONTINUOUS
 62
     7
 10
153.427973142
 20
74.4286472149
 30
0.0
 11
153.427973142
 21
65.4286472149
 31
0.0
  0
LINE
  5
CA
  8
0
  6
CONTINUOUS
 62
     7
 10
153.4279731434
 20
65.4286091412
 30
0.0
 11
153.427973142
 21
65.4286472149
 31
0.0
  0
ARC
  5
CB
  8
0
  6
CONTINUOUS
 62
     7
 10
168.0397528593
 20
64.6756449038
 30
0.0
 40
14.63116747389123
 50
177.0500823834
 51
180.9672910538
  0
LINE
  5
CC
  8
0
  6
CONTINUOUS
 62
     7
 10
153.4106703935
 20
63.4286472149
 30
0.0
 11
153.4106703935
 21
64.4286472149
 31
0.0
  0
ARC
  5
CD
  8
0
  6
CONTINUOUS
 62
     7
 10
168.0397528593
 20
63.1816495259
 30
0.0
 40
14.63116747389146
 50
179.0327089462
 51
182.9499176166
  0
LINE
  5
CE
  8
0
  6
CONTINUOUS
 62
     7
 10
153.427973142
 20
62.4286472149
 30
0.0
 11
153.4279731434
 21
62.4286852885
 31
0.0
  0
LINE
  5
CF
  8
0
  6
CONTINUOUS
 62
     7
 10
153.427973142
 20
62.4286472149
 30
0.0
 11
153.427973142
 21
54.0011968966
 31
0.0
  0
ARC
  5
D0
  8
0
  6
CONTINUOUS
 62
     7
 10
129.1496370612
 20
88.6756449038
 30
0.0
 40
14.63116747381956
 50
359.0327089462
 51
2.9499176166
  0
LINE
  5
D1
  8
0
  6
CONTINUOUS
 62
     7
 10
143.7614167785
 20
89.4286472149
 30
0.0
 11
143.761416777
 21
89.4286091412
 31
0.0
  0
LINE
  5
D2
  8
0
  6
CONTINUOUS
 62
     7
 10
143.7614167785
 20
97.8560975331
 30
0.0
 11
143.7614167785
 21
89.4286472149
 31
0.0
  0
LINE
  5
D3
  8
0
  6
CONTINUOUS
 62
     7
 10
143.7614167691
 20
97.8561944275
 30
0.0
 11
143.7614167785
 21
97.8560975331
 31
0.0
  0
LINE
  5
D4
  8
0
  6
CONTINUOUS
 62
     7
 10
143.7614167785
 20
54.0011968966
 30
0.0
 11
143.7614167691
 21
54.0011000022
 31
0.0
  0
LINE
  5
D5
  8
0
  6
CONTINUOUS
 62
     7
 10
143.7614167785
 20
62.4286472149
 30
0.0
 11
143.7614167785
 21
54.0011968966
 31
0.0
  0
LINE
  5
D6
  8
0
  6
CONTINUOUS
 62
     7
 10
143.761416777
 20
62.4286852885
 30
0.0
 11
143.7614167785
 21
62.4286472149
 31
0.0
  0
ARC
  5
D7
  8
0
  6
CONTINUOUS
 62
     7
 10
129.1496370612
 20
63.1816495259
 30
0.0
 40
14.63116747381893
 50
357.0500823834
 51
0.9672910538
  0
LINE
  5
D8
  8
0
  6
CONTINUOUS
 62
     7
 10
143.778719527
 20
64.4286472149
 30
0.0
 11
143.778719527
 21
63.4286472149
 31
0.0
  0
ARC
  5
D9
  8
0
  6
CONTINUOUS
 62
     7
 10
129.1496370612
 20
64.6756449038
 30
0.0
 40
14.63116747381927
 50
359.0327089462
 51
2.9499176166
  0
LINE
  5
DA
  8
0
  6
CONTINUOUS
 62
     7
 10
143.7614167785
 20
65.4286472149
 30
0.0
 11
143.761416777
 21
65.4286091412
 31
0.0
  0
LINE
  5
DB
  8
0
  6
CONTINUOUS
 62
     7
 10
143.7614167785
 20
74.4286472149
 30
0.0
 11
143.7614167785
 21
65.4286472149
 31
0.0
  0
LINE
  5
DC
  8
0
  6
CONTINUOUS
 62
     7
 10
143.761416777
 20
74.4286852885
 30
0.0
 11
143.7614167785
 21
74.4286472149
 31
0.0
  0
ARC
  5
DD
  8
0
  6
CONTINUOUS
 62
     7
 10
129.1496370612
 20
75.1816495259
 30
0.0
 40
14.63116747381916
 50
357.0500823834
 51
0.9672910538
  0
LINE
  5
DE
  8
0
  6
CONTINUOUS
 62
     7
 10
143.778719527
 20
76.4286472149
 30
0.0
 11
143.778719527
 21
75.4286472149
 31
0.0
  0
ARC
  5
DF
  8
0
  6
CONTINUOUS
 62
     7
 10
129.1496370612
 20
76.6756449038
 30
0.0
 40
14.63116747381927
 50
359.0327089462
 51
2.9499176166
  0
LINE
  5
E0
  8
0
  6
CONTINUOUS
 62
     7
 10
143.7614167785
 20
77.4286472149
 30
0.0
 11
143.761416777
 21
77.4286091412
 31
0.0
  0
LINE
  5
E1
  8
0
  6
CONTINUOUS
 62
     7
 10
143.7614167785
 20
86.4286472149
 30
0.0
 11
143.7614167785
 21
77.4286472149
 31
0.0
  0
LINE
  5
E2
  8
0
  6
CONTINUOUS
 62
     7
 10
143.761416777
 20
86.4286852885
 30
0.0
 11
143.7614167785
 21
86.4286472149
 31
0.0
  0
ARC
  5
E3
  8
0
  6
CONTINUOUS
 62
     7
 10
129.1496370612
 20
87.1816495259
 30
0.0
 40
14.63116747381916
 50
357.0500823834
 51
0.9672910538
  0
LINE
  5
E4
  8
0
  6
CONTINUOUS
 62
     7
 10
143.778719527
 20
88.4286472149
 30
0.0
 11
143.778719527
 21
87.4286472149
 31
0.0
  0
ARC
  5
E5
  8
0
  6
CONTINUOUS
 62
     7
 10
148.7818475121
 20
74.4211264831
 30
0.0
 40
21.71691163651413
 50
283.5813757942
 51
291.2319797074
  0
POLYLINE
  5
E6
  8
0
  6
CONTINUOUS
 62
     7
 66
     1
 10
0.0
 20
0.0
 30
0.0
 70
   128
  0
VERTEX
  5
3B7
  8
0
  6
CONTINUOUS
 62
     7
 10
157.1736271483
 20
53.7094893643
 30
0.0
  0
VERTEX
  5
3B8
  8
0
  6
CONTINUOUS
 62
     7
 10
157.1436759048
 20
53.8174079575
 30
0.0
  0
VERTEX
  5
3B9
  8
0
  6
CONTINUOUS
 62
     7
 10
157.0973015998
 20
53.9198495979
 30
0.0
  0
VERTEX
  5
3BA
  8
0
  6
CONTINUOUS
 62
     7
 10
157.0368577656
 20
54.0116152924
 30
0.0
  0
VERTEX
  5
3BB
  8
0
  6
CONTINUOUS
 62
     7
 10
156.9654119739
 20
54.0880478603
 30
0.0
  0
VERTEX
  5
3BC
  8
0
  6
CONTINUOUS
 62
     7
 10
156.8865901544
 20
54.1452682893
 30
0.0
  0
VERTEX
  5
3BD
  8
0
  6
CONTINUOUS
 62
     7
 10
156.8043925759
 20
54.1803725979
 30
0.0
  0
VERTEX
  5
3BE
  8
0
  6
CONTINUOUS
 62
     7
 10
156.7229908295
 20
54.191579215
 30
0.0
  0
VERTEX
  5
3BF
  8
0
  6
CONTINUOUS
 62
     7
 10
156.6465161175
 20
54.1783193962
 30
0.0
  0
SEQEND
  5
4AF
  8
0
  6
CONTINUOUS
 62
     7
  0
ARC
  5
E7
  8
0
  6
CONTINUOUS
 62
     7
 10
148.4075424083
 20
77.4361679466
 30
0.0
 40
21.71691163651342
 50
103.5813757942
 51
111.2319797074
  0
POLYLINE
  5
E8
  8
0
  6
CONTINUOUS
 62
     7
 66
     1
 10
0.0
 20
0.0
 30
0.0
 70
   128
  0
VERTEX
  5
3C0
  8
0
  6
CONTINUOUS
 62
     7
 10
140.0157627721
 20
98.1478050654
 30
0.0
  0
VERTEX
  5
3C1
  8
0
  6
CONTINUOUS
 62
     7
 10
140.0457140156
 20
98.0398864722
 30
0.0
  0
VERTEX
  5
3C2
  8
0
  6
CONTINUOUS
 62
     7
 10
140.0920883206
 20
97.9374448318
 30
0.0
  0
VERTEX
  5
3C3
  8
0
  6
CONTINUOUS
 62
     7
 10
140.1525321548
 20
97.8456791374
 30
0.0
  0
VERTEX
  5
3C4
  8
0
  6
CONTINUOUS
 62
     7
 10
140.2239779465
 20
97.7692465694
 30
0.0
  0
VERTEX
  5
3C5
  8
0
  6
CONTINUOUS
 62
     7
 10
140.302799766
 20
97.7120261404
 30
0.0
  0
VERTEX
  5
3C6
  8
0
  6
CONTINUOUS
 62
     7
 10
140.3849973446
 20
97.6769218318
 30
0.0
  0
VERTEX
  5
3C7
  8
0
  6
CONTINUOUS
 62
     7
 10
140.4663990909
 20
97.6657152147
 30
0.0
  0
VERTEX
  5
3C8
  8
0
  6
CONTINUOUS
 62
     7
 10
140.5428738029
 20
97.6789750335
 30
0.0
  0
SEQEND
  5
4B0
  8
0
  6
CONTINUOUS
 62
     7
  0
POLYLINE
  5
E9
  8
0
  6
CONTINUOUS
 62
     7
 66
     1
 10
0.0
 20
0.0
 30
0.0
 70
   128
  0
VERTEX
  5
3C9
  8
0
  6
CONTINUOUS
 62
     7
 10
140.0157627721
 20
53.7094893643
 30
0.0
  0
VERTEX
  5
3CA
  8
0
  6
CONTINUOUS
 62
     7
 10
140.0457140156
 20
53.8174079575
 30
0.0
  0
VERTEX
  5
3CB
  8
0
  6
CONTINUOUS
 62
     7
 10
140.0920883206
 20
53.9198495979
 30
0.0
  0
VERTEX
  5
3CC
  8
0
  6
CONTINUOUS
 62
     7
 10
140.1525321548
 20
54.0116152924
 30
0.0
  0
VERTEX
  5
3CD
  8
0
  6
CONTINUOUS
 62
     7
 10
140.2239779465
 20
54.0880478603
 30
0.0
  0
VERTEX
  5
3CE
  8
0
  6
CONTINUOUS
 62
     7
 10
140.302799766
 20
54.1452682893
 30
0.0
  0
VERTEX
  5
3CF
  8
0
  6
CONTINUOUS
 62
     7
 10
140.3849973446
 20
54.1803725979
 30
0.0
  0
VERTEX
  5
3D0
  8
0
  6
CONTINUOUS
 62
     7
 10
140.4663990909
 20
54.191579215
 30
0.0
  0
VERTEX
  5
3D1
  8
0
  6
CONTINUOUS
 62
     7
 10
140.5428738029
 20
54.1783193962
 30
0.0
  0
SEQEND
  5
4B1
  8
0
  6
CONTINUOUS
 62
     7
  0
ARC
  5
EA
  8
0
  6
CONTINUOUS
 62
     7
 10
148.406580786
 20
74.4180591954
 30
0.0
 40
21.71370430515451
 50
248.767454416
 51
256.4191900824
  0
POLYLINE
  5
EB
  8
0
  6
CONTINUOUS
 62
     7
 66
     1
 10
0.0
 20
0.0
 30
0.0
 70
   128
  0
VERTEX
  5
3D2
  8
0
  6
CONTINUOUS
 62
     7
 10
157.1736271483
 20
98.1478050654
 30
0.0
  0
VERTEX
  5
3D3
  8
0
  6
CONTINUOUS
 62
     7
 10
157.1436759048
 20
98.0398864722
 30
0.0
  0
VERTEX
  5
3D4
  8
0
  6
CONTINUOUS
 62
     7
 10
157.0973015998
 20
97.9374448318
 30
0.0
  0
VERTEX
  5
3D5
  8
0
  6
CONTINUOUS
 62
     7
 10
157.0368577656
 20
97.8456791374
 30
0.0
  0
VERTEX
  5
3D6
  8
0
  6
CONTINUOUS
 62
     7
 10
156.9654119739
 20
97.7692465694
 30
0.0
  0
VERTEX
  5
3D7
  8
0
  6
CONTINUOUS
 62
     7
 10
156.8865901544
 20
97.7120261404
 30
0.0
  0
VERTEX
  5
3D8
  8
0
  6
CONTINUOUS
 62
     7
 10
156.8043925759
 20
97.6769218318
 30
0.0
  0
VERTEX
  5
3D9
  8
0
  6
CONTINUOUS
 62
     7
 10
156.7229908295
 20
97.6657152147
 30
0.0
  0
VERTEX
  5
3DA
  8
0
  6
CONTINUOUS
 62
     7
 10
156.6465161175
 20
97.6789750335
 30
0.0
  0
SEQEND
  5
4B2
  8
0
  6
CONTINUOUS
 62
     7
  0
ARC
  5
EC
  8
0
  6
CONTINUOUS
 62
     7
 10
148.7828091345
 20
77.4392352343
 30
0.0
 40
21.71370430515312
 50
68.767454416
 51
76.4191900824
  0
LINE
  5
ED
  8
0
  6
CONTINUOUS
 62
     7
 10
154.0461400212
 20
53.5153609277
 30
0.0
 11
154.0460437856
 21
53.5153375212
 31
0.0
  0
ARC
  5
EE
  8
0
  6
CONTINUOUS
 62
     7
 10
148.5946949602
 20
75.9286472149
 30
0.0
 40
23.06672181825371
 50
283.6702563076
 51
303.1289294098
  0
ARC
  5
EF
  8
0
  6
CONTINUOUS
 62
     7
 10
157.1851724335
 20
63.7036097373
 30
0.0
 40
8.150186770471503
 50
299.5219367869
 51
308.1803537853
  0
ARC
  5
F0
  8
0
  6
CONTINUOUS
 62
     7
 10
148.5946949602
 20
75.9286472149
 30
0.0
 40
23.08402456673835
 50
306.1842201908
 51
307.8171501294
  0
ARC
  5
F1
  8
0
  6
CONTINUOUS
 62
     7
 10
148.1793518855
 20
75.9332640068
 30
0.0
 40
23.34460291245424
 50
291.2663072948
 51
308.6155224614
  0
LINE
  5
F2
  8
0
  6
CONTINUOUS
 62
     7
 10
143.1433461348
 20
53.5153375212
 30
0.0
 11
143.1432498993
 21
53.5153609277
 31
0.0
  0
ARC
  5
F3
  8
0
  6
CONTINUOUS
 62
     7
 10
149.0099909305
 20
75.9331822249
 30
0.0
 40
23.34450961456506
 50
231.3844426026
 51
248.7337276412
  0
ARC
  5
F4
  8
0
  6
CONTINUOUS
 62
     7
 10
148.5946949602
 20
75.9286472149
 30
0.0
 40
23.08402456673818
 50
232.1828498705
 51
233.8157798092
  0
ARC
  5
F5
  8
0
  6
CONTINUOUS
 62
     7
 10
140.595106427
 20
64.5845669434
 30
0.0
 40
9.208279431269464
 50
232.3178922445
 51
239.9798171833
  0
ARC
  5
F6
  8
0
  6
CONTINUOUS
 62
     7
 10
148.5946949602
 20
75.9286472149
 30
0.0
 40
23.06672181825373
 50
236.8710705902
 51
256.3297436924
  0
ARC
  5
F7
  8
0
  6
CONTINUOUS
 62
     7
 10
148.5946949602
 20
75.9286472149
 30
0.0
 40
23.06672181825371
 50
56.8710705902
 51
76.3297436924
  0
LINE
  5
F8
  8
0
  6
CONTINUOUS
 62
     7
 10
154.0460437856
 20
98.3419569085
 30
0.0
 11
154.0461400212
 21
98.341933502
 31
0.0
  0
ARC
  5
F9
  8
0
  6
CONTINUOUS
 62
     7
 10
148.17939899
 20
75.9241122048
 30
0.0
 40
23.34450961456298
 50
51.3844426026
 51
68.7337276412
  0
ARC
  5
FA
  8
0
  6
CONTINUOUS
 62
     7
 10
148.5946949602
 20
75.9286472149
 30
0.0
 40
23.08402456673818
 50
52.1828498705
 51
53.8157798092
  0
ARC
  5
FB
  8
0
  6
CONTINUOUS
 62
     7
 10
156.5942834934
 20
87.2727274863
 30
0.0
 40
9.208279431264202
 50
52.3178922445
 51
59.9798171833
  0
ARC
  5
FC
  8
0
  6
CONTINUOUS
 62
     7
 10
149.0100380349
 20
75.9240304229
 30
0.0
 40
23.34460291245517
 50
111.2663072948
 51
128.6155224614
  0
LINE
  5
FD
  8
0
  6
CONTINUOUS
 62
     7
 10
143.1432498993
 20
98.341933502
 30
0.0
 11
143.1433461348
 21
98.3419569085
 31
0.0
  0
ARC
  5
FE
  8
0
  6
CONTINUOUS
 62
     7
 10
148.5946949602
 20
75.9286472149
 30
0.0
 40
23.06672181825372
 50
103.6702563076
 51
123.1289294098
  0
ARC
  5
FF
  8
0
  6
CONTINUOUS
 62
     7
 10
140.0042174869
 20
88.1536846924
 30
0.0
 40
8.150186770470398
 50
119.5219367869
 51
128.1803537853
  0
ARC
  5
100
  8
0
  6
CONTINUOUS
 62
     7
 10
148.5946949602
 20
75.9286472149
 30
0.0
 40
23.08402456673843
 50
126.1842201908
 51
127.8171501294
  0
ARC
  5
101
  8
0
  6
CONTINUOUS
 62
     7
 10
148.5329709384
 20
75.9240175608
 30
0.0
 40
23.84444737854195
 50
50.6275479778
 51
68.7538118688
  0
ARC
  5
102
  8
0
  6
CONTINUOUS
 62
     7
 10
163.0589068707
 20
94.5603318694
 30
0.0
 40
0.6336158246432411
 50
272.5320880084
 51
341.2533021043
  0
LINE
  5
103
  8
0
  6
CONTINUOUS
 62
     7
 10
162.7485155077
 20
94.1643691394
 30
0.0
 11
163.0868993138
 21
93.9273346843
 31
0.0
  0
ARC
  5
104
  8
0
  6
CONTINUOUS
 62
     7
 10
148.656418982
 20
75.9332768689
 30
0.0
 40
23.84444737854187
 50
230.6275479778
 51
248.7538118688
  0
ARC
  5
105
  8
0
  6
CONTINUOUS
 62
     7
 10
134.1304830497
 20
57.2969625603
 30
0.0
 40
0.6336158246432707
 50
92.5320880084
 51
161.2533021043
  0
LINE
  5
106
  8
0
  6
CONTINUOUS
 62
     7
 10
134.4408744128
 20
57.6929252903
 30
0.0
 11
134.1024906066
 21
57.9299597454
 31
0.0
  0
ARC
  5
107
  8
0
  6
CONTINUOUS
 62
     7
 10
148.656418982
 20
75.9240175608
 30
0.0
 40
23.8444473785418
 50
111.2461881312
 51
129.3724520222
  0
LINE
  5
108
  8
0
  6
CONTINUOUS
 62
     7
 10
134.1024906066
 20
93.9273346843
 30
0.0
 11
134.4408744128
 21
94.1643691394
 31
0.0
  0
ARC
  5
109
  8
0
  6
CONTINUOUS
 62
     7
 10
134.1304830497
 20
94.5603318694
 30
0.0
 40
0.6336158246432411
 50
198.7466978957
 51
267.4679119916
  0
ARC
  5
10A
  8
0
  6
CONTINUOUS
 62
     7
 10
148.5329709384
 20
75.9332768689
 30
0.0
 40
23.84444737854203
 50
291.2461881312
 51
309.3724520222
  0
LINE
  5
10B
  8
0
  6
CONTINUOUS
 62
     7
 10
163.0868993138
 20
57.9299597454
 30
0.0
 11
162.7485155077
 21
57.6929252903
 31
0.0
  0
ARC
  5
10C
  8
0
  6
CONTINUOUS
 62
     7
 10
163.0589068707
 20
57.2969625603
 30
0.0
 40
0.6336158246432778
 50
18.7466978957
 51
87.4679119916
  0
ARC
  5
10D
  8
0
  6
CONTINUOUS
 62
     7
 10
148.9482483508
 20
75.9286472149
 30
0.0
 40
24.99999999999984
 50
53.9545794
 51
70.7909898719
  0
ARC
  5
10E
  8
0
  6
CONTINUOUS
 62
     7
 10
163.3527801453
 20
96.3039754194
 30
0.0
 40
0.3461441882696982
 50
332.1772281255
 51
44.5234474817
  0
ARC
  5
10F
  8
0
  6
CONTINUOUS
 62
     7
 10
148.5946949602
 20
75.9286472149
 30
0.0
 40
25.49999999999798
 50
53.9545794
 51
70.7909898719
  0
ARC
  5
110
  8
0
  6
CONTINUOUS
 62
     7
 10
148.9482483508
 20
75.9286472149
 30
0.0
 40
24.99999999999981
 50
289.2090101281
 51
306.0454206
  0
LINE
  5
111
  8
0
  6
CONTINUOUS
 62
     7
 10
163.6589085226
 20
55.714877717
 30
0.0
 11
163.6589085226
 21
57.5005971128
 31
0.0
  0
LINE
  5
112
  8
0
  6
CONTINUOUS
 62
     7
 10
133.5304813978
 20
96.1424167127
 30
0.0
 11
133.5304813978
 21
94.3566973169
 31
0.0
  0
ARC
  5
113
  8
0
  6
CONTINUOUS
 62
     7
 10
148.2411415696
 20
75.9286472149
 30
0.0
 40
24.99999999999998
 50
109.2090101281
 51
126.0454206
  0
LINE
  5
114
  8
0
  6
CONTINUOUS
 62
     7
 10
163.6589085226
 20
94.3566973169
 30
0.0
 11
163.6589085226
 21
96.1424167127
 31
0.0
  0
ARC
  5
115
  8
0
  6
CONTINUOUS
 62
     7
 10
133.8366097751
 20
96.3039754194
 30
0.0
 40
0.3461441882696679
 50
135.4765525183
 51
207.8227718745
  0
ARC
  5
116
  8
0
  6
CONTINUOUS
 62
     7
 10
148.5946949602
 20
75.9286472149
 30
0.0
 40
25.50000000000099
 50
109.2090101281
 51
126.0454206
  0
ARC
  5
117
  8
0
  6
CONTINUOUS
 62
     7
 10
163.3527801453
 20
55.5533190103
 30
0.0
 40
0.3461441882696971
 50
315.4765525183
 51
27.8227718745
  0
ARC
  5
118
  8
0
  6
CONTINUOUS
 62
     7
 10
148.5946949602
 20
75.9286472149
 30
0.0
 40
25.49999999999975
 50
289.2090101281
 51
306.0454206
  0
ARC
  5
119
  8
0
  6
CONTINUOUS
 62
     7
 10
133.8366097751
 20
55.5533190103
 30
0.0
 40
0.3461441882696619
 50
152.1772281255
 51
224.5234474817
  0
ARC
  5
11A
  8
0
  6
CONTINUOUS
 62
     7
 10
148.2411415696
 20
75.9286472149
 30
0.0
 40
24.99999999999968
 50
233.9545794
 51
250.7909898719
  0
ARC
  5
11B
  8
0
  6
CONTINUOUS
 62
     7
 10
148.5946949602
 20
75.9286472149
 30
0.0
 40
25.49999999999984
 50
233.9545794
 51
250.7909898719
  0
LINE
  5
11C
  8
0
  6
CONTINUOUS
 62
     7
 10
133.5304813978
 20
57.5005971128
 30
0.0
 11
133.5304813978
 21
55.714877717
 31
0.0
  0
LINE
  5
11D
  8
0
  6
CONTINUOUS
 62
     7
 10
151.8076916057
 20
50.6318756312
 30
0.0
 11
151.9489658776
 21
50.6502203134
 31
0.0
  0
LINE
  5
11E
  8
0
  6
CONTINUOUS
 62
     7
 10
145.3816983148
 20
101.2254187985
 30
0.0
 11
145.2404240428
 21
101.2070741163
 31
0.0
  0
LINE
  5
11F
  8
0
  6
CONTINUOUS
 62
     7
 10
151.9489658776
 20
101.2070741163
 30
0.0
 11
151.8076916057
 21
101.2254187985
 31
0.0
  0
LINE
  5
120
  8
0
  6
CONTINUOUS
 62
     7
 10
145.2404240428
 20
50.6502203134
 30
0.0
 11
145.3816983148
 21
50.6318756312
 31
0.0
  0
ARC
  5
121
  8
0
  6
CONTINUOUS
 62
     7
 10
150.7720618872
 20
74.3555647376
 30
0.0
 40
24.11145021357551
 50
219.3098122052
 51
224.3503642616
  0
LINE
  5
122
  8
0
  6
CONTINUOUS
 62
     7
 10
132.1162678355
 20
59.0806382336
 30
0.0
 11
132.4658256624
 21
59.4380360218
 31
0.0
  0
LINE
  5
123
  8
0
  6
CONTINUOUS
 62
     7
 10
132.4658256624
 20
59.4380360218
 30
0.0
 11
132.9236932868
 21
59.001274462
 31
0.0
  0
ARC
  5
124
  8
0
  6
CONTINUOUS
 62
     7
 10
150.0353658959
 20
73.0789378654
 30
0.0
 40
22.15829294823757
 50
219.4439122537
 51
220.5359810376
  0
ARC
  5
125
  8
0
  6
CONTINUOUS
 62
     7
 10
135.8481069115
 20
60.9800609933
 30
0.0
 40
3.51272980975022
 50
220.9525447092
 51
239.290849465
  0
LINE
  5
126
  8
0
  6
CONTINUOUS
 62
     7
 10
134.1024906066
 20
57.9299597454
 30
0.0
 11
134.0542252239
 21
57.9599187438
 31
0.0
  0
ARC
  5
127
  8
0
  6
CONTINUOUS
 62
     7
 10
149.1552025395
 20
80.2140874719
 30
0.0
 40
21.54226449669822
 50
42.3608601472
 51
47.680246366
  0
LINE
  5
128
  8
0
  6
CONTINUOUS
 62
     7
 10
165.073122085
 20
94.7292174055
 30
0.0
 11
165.073122085
 21
92.7766561961
 31
0.0
  0
ARC
  5
129
  8
0
  6
CONTINUOUS
 62
     7
 10
146.4173280332
 20
77.5017296922
 30
0.0
 40
24.11145021356856
 50
39.3098122052
 51
44.3503642616
  0
LINE
  5
12A
  8
0
  6
CONTINUOUS
 62
     7
 10
165.073122085
 20
92.7766561961
 30
0.0
 11
164.723564258
 21
92.4192584079
 31
0.0
  0
LINE
  5
12B
  8
0
  6
CONTINUOUS
 62
     7
 10
164.723564258
 20
92.4192584079
 30
0.0
 11
164.2656966336
 21
92.8560199677
 31
0.0
  0
ARC
  5
12C
  8
0
  6
CONTINUOUS
 62
     7
 10
147.1540240292
 20
78.7783565683
 30
0.0
 40
22.15829294213562
 50
39.4439122536
 51
40.5359810377
  0
ARC
  5
12D
  8
0
  6
CONTINUOUS
 62
     7
 10
161.3412830089
 20
90.8772334364
 30
0.0
 40
3.512729809750995
 50
40.9525447092
 51
59.290849465
  0
LINE
  5
12E
  8
0
  6
CONTINUOUS
 62
     7
 10
163.0868993138
 20
93.9273346843
 30
0.0
 11
163.1351646965
 21
93.8973756859
 31
0.0
  0
ARC
  5
12F
  8
0
  6
CONTINUOUS
 62
     7
 10
148.0341873809
 20
71.6432069578
 30
0.0
 40
21.54226449670542
 50
222.3608601472
 51
227.680246366
  0
LINE
  5
130
  8
0
  6
CONTINUOUS
 62
     7
 10
132.1162678355
 20
57.1280770242
 30
0.0
 11
132.1162678355
 21
59.0806382336
 31
0.0
  0
ARC
  5
131
  8
0
  6
CONTINUOUS
 62
     7
 10
148.021858164
 20
80.2264255376
 30
0.0
 40
21.52484089753714
 50
132.3175991567
 51
137.6412943302
  0
ARC
  5
132
  8
0
  6
CONTINUOUS
 62
     7
 10
150.772716858
 20
77.5011434615
 30
0.0
 40
24.11232837029882
 50
135.6497275846
 51
140.6900959486
  0
LINE
  5
133
  8
0
  6
CONTINUOUS
 62
     7
 10
132.1162678355
 20
92.7766561961
 30
0.0
 11
132.1162678355
 21
94.7292174055
 31
0.0
  0
LINE
  5
134
  8
0
  6
CONTINUOUS
 62
     7
 10
164.2656966336
 20
59.001274462
 30
0.0
 11
164.723564258
 21
59.4380360218
 31
0.0
  0
LINE
  5
135
  8
0
  6
CONTINUOUS
 62
     7
 10
165.073122085
 20
59.0806382336
 30
0.0
 11
164.723564258
 21
59.4380360218
 31
0.0
  0
ARC
  5
136
  8
0
  6
CONTINUOUS
 62
     7
 10
146.4166730624
 20
74.3561509682
 30
0.0
 40
24.11232837028664
 50
315.6497275846
 51
320.6900959486
  0
LINE
  5
137
  8
0
  6
CONTINUOUS
 62
     7
 10
163.1351646965
 20
57.9599187438
 30
0.0
 11
163.0868993138
 21
57.9299597454
 31
0.0
  0
ARC
  5
138
  8
0
  6
CONTINUOUS
 62
     7
 10
161.3510325105
 20
60.968271551
 30
0.0
 40
3.497615512024022
 50
300.6704626066
 51
319.0555214313
  0
ARC
  5
139
  8
0
  6
CONTINUOUS
 62
     7
 10
144.1307798967
 20
75.6181555462
 30
0.0
 40
26.10623697446993
 50
319.5365801831
 51
320.4679309371
  0
LINE
  5
13A
  8
0
  6
CONTINUOUS
 62
     7
 10
132.9236932868
 20
92.8560199677
 30
0.0
 11
132.4658256624
 21
92.4192584079
 31
0.0
  0
LINE
  5
13B
  8
0
  6
CONTINUOUS
 62
     7
 10
132.1162678355
 20
92.7766561961
 30
0.0
 11
132.4658256624
 21
92.4192584079
 31
0.0
  0
LINE
  5
13C
  8
0
  6
CONTINUOUS
 62
     7
 10
134.0542252239
 20
93.8973756859
 30
0.0
 11
134.1024906066
 21
93.9273346843
 31
0.0
  0
ARC
  5
13D
  8
0
  6
CONTINUOUS
 62
     7
 10
135.83835741
 20
90.8890228787
 30
0.0
 40
3.497615512022571
 50
120.6704626066
 51
139.0555214313
  0
ARC
  5
13E
  8
0
  6
CONTINUOUS
 62
     7
 10
153.0586100272
 20
76.2391388806
 30
0.0
 40
26.10623697900364
 50
139.5365801832
 51
140.467930937
  0
ARC
  5
13F
  8
0
  6
CONTINUOUS
 62
     7
 10
149.1675317564
 20
71.6308688922
 30
0.0
 40
21.52484089754237
 50
312.3175991567
 51
317.6412943302
  0
LINE
  5
140
  8
0
  6
CONTINUOUS
 62
     7
 10
165.073122085
 20
59.0806382336
 30
0.0
 11
165.073122085
 21
57.1280770242
 31
0.0
  0
LINE
  5
141
  8
0
  6
CONTINUOUS
 62
     7
 10
131.786699293
 20
95.1052288093
 30
0.0
 11
132.1162678355
 21
94.7292174055
 31
0.0
  0
ARC
  5
142
  8
0
  6
CONTINUOUS
 62
     7
 10
148.5946949602
 20
75.9286472148
 30
0.0
 40
25.5000000000063
 50
126.0454206
 51
131.2340951505
  0
LINE
  5
143
  8
0
  6
CONTINUOUS
 62
     7
 10
165.073122085
 20
57.1280770242
 30
0.0
 11
165.4026906275
 21
56.7520656204
 31
0.0
  0
ARC
  5
144
  8
0
  6
CONTINUOUS
 62
     7
 10
148.5946949602
 20
75.9286472149
 30
0.0
 40
25.50000000000252
 50
306.0454206
 51
311.2340951505
  0
LINE
  5
145
  8
0
  6
CONTINUOUS
 62
     7
 10
131.786699293
 20
56.7520656204
 30
0.0
 11
132.1162678355
 21
57.1280770242
 31
0.0
  0
ARC
  5
146
  8
0
  6
CONTINUOUS
 62
     7
 10
148.5946949602
 20
75.9286472148
 30
0.0
 40
25.4999999999897
 50
228.7659048495
 51
233.9545794
  0
LINE
  5
147
  8
0
  6
CONTINUOUS
 62
     7
 10
165.073122085
 20
94.7292174055
 30
0.0
 11
165.4026906275
 21
95.1052288093
 31
0.0
  0
ARC
  5
148
  8
0
  6
CONTINUOUS
 62
     7
 10
148.5946949602
 20
75.9286472149
 30
0.0
 40
25.49999999996021
 50
48.7659048495
 51
53.9545794
  0
LINE
  5
149
  8
0
  6
CONTINUOUS
 62
     7
 10
134.9662700373
 20
94.5602929907
 30
0.0
 11
135.2614167785
 21
94.1567929851
 31
0.0
  0
ARC
  5
14A
  8
0
  6
CONTINUOUS
 62
     7
 10
136.2614167785
 20
94.8269853141
 30
0.0
 40
0.5000000000507043
 50
123.1284443125
 51
179.9999999994
  0
LINE
  5
14B
  8
0
  6
CONTINUOUS
 62
     7
 10
135.7614167785
 20
94.8269853141
 30
0.0
 11
135.7614167785
 21
94.8268943657
 31
0.0
  0
ARC
  5
14C
  8
0
  6
CONTINUOUS
 62
     7
 10
139.5464162034
 20
91.4811056426
 30
0.0
 40
5.051784123110665
 50
138.5245989594
 51
148.0180580812
  0
LINE
  5
14D
  8
0
  6
CONTINUOUS
 62
     7
 10
162.2231198831
 20
57.297001439
 30
0.0
 11
161.927973142
 21
57.7005014446
 31
0.0
  0
ARC
  5
14E
  8
0
  6
CONTINUOUS
 62
     7
 10
160.9279731419
 20
57.0303091156
 30
0.0
 40
0.500000000051898
 50
303.1284443126
 51
359.9999999993
  0
LINE
  5
14F
  8
0
  6
CONTINUOUS
 62
     7
 10
161.427973142
 20
57.0303091156
 30
0.0
 11
161.427973142
 21
57.030400064
 31
0.0
  0
ARC
  5
150
  8
0
  6
CONTINUOUS
 62
     7
 10
157.642973717
 20
60.3761887871
 30
0.0
 40
5.051784123101781
 50
318.5245989594
 51
328.0180580812
  0
ARC
  5
151
  8
0
  6
CONTINUOUS
 62
     7
 10
139.5464162034
 20
60.3761887871
 30
0.0
 40
5.051784123108153
 50
211.9819419188
 51
221.4754010406
  0
LINE
  5
152
  8
0
  6
CONTINUOUS
 62
     7
 10
135.7614167785
 20
57.030400064
 30
0.0
 11
135.7614167785
 21
57.0303091156
 31
0.0
  0
POLYLINE
  5
153
  8
0
  6
CONTINUOUS
 62
     7
 66
     1
 10
0.0
 20
0.0
 30
0.0
 70
   128
  0
VERTEX
  5
3DB
  8
0
  6
CONTINUOUS
 62
     7
 10
135.7930444341
 20
56.861598709
 30
0.0
  0
VERTEX
  5
3DC
  8
0
  6
CONTINUOUS
 62
     7
 10
135.8649630126
 20
56.7256381267
 30
0.0
  0
VERTEX
  5
3DD
  8
0
  6
CONTINUOUS
 62
     7
 10
135.9881578902
 20
56.6115853642
 30
0.0
  0
SEQEND
  5
4B3
  8
0
  6
CONTINUOUS
 62
     7
  0
LINE
  5
154
  8
0
  6
CONTINUOUS
 62
     7
 10
135.2614167785
 20
57.7005014446
 30
0.0
 11
134.9662700373
 21
57.297001439
 31
0.0
  0
ARC
  5
155
  8
0
  6
CONTINUOUS
 62
     7
 10
160.9279731419
 20
94.8269853141
 30
0.0
 40
0.5000000000306386
 50
359.9999999994
 51
56.8715556887
  0
LINE
  5
156
  8
0
  6
CONTINUOUS
 62
     7
 10
162.2231198831
 20
94.5602929907
 30
0.0
 11
161.927973142
 21
94.1567929851
 31
0.0
  0
ARC
  5
157
  8
0
  6
CONTINUOUS
 62
     7
 10
157.642973717
 20
91.4811056426
 30
0.0
 40
5.051784123100627
 50
31.9819419188
 51
41.4754010406
  0
LINE
  5
158
  8
0
  6
CONTINUOUS
 62
     7
 10
161.427973142
 20
94.8268943657
 30
0.0
 11
161.427973142
 21
94.8269853141
 31
0.0
  0
LINE
  5
159
  8
0
  6
CONTINUOUS
 62
     7
 10
134.7473994906
 20
93.7694435387
 30
0.0
 11
134.3209464248
 21
93.4979720518
 31
0.0
  0
LINE
  5
15A
  8
0
  6
CONTINUOUS
 62
     7
 10
134.3209464248
 20
93.4979720518
 30
0.0
 11
134.1024906066
 21
93.9273346843
 31
0.0
  0
LINE
  5
15B
  8
0
  6
CONTINUOUS
 62
     7
 10
134.7473994906
 20
93.7694435387
 30
0.0
 11
134.4408744128
 21
94.1643691394
 31
0.0
  0
ARC
  5
15C
  8
0
  6
CONTINUOUS
 62
     7
 10
148.5946949602
 20
75.9286472149
 30
0.0
 40
22.58410071915999
 50
126.1842201908
 51
127.8171501294
  0
ARC
  5
15D
  8
0
  6
CONTINUOUS
 62
     7
 10
148.5946949602
 20
75.9286472149
 30
0.0
 40
22.58410071915998
 50
306.1842201908
 51
307.8171501294
  0
LINE
  5
15E
  8
0
  6
CONTINUOUS
 62
     7
 10
162.7485155077
 20
57.6929252903
 30
0.0
 11
162.4419904299
 21
58.087850891
 31
0.0
  0
LINE
  5
15F
  8
0
  6
CONTINUOUS
 62
     7
 10
162.4419904299
 20
58.087850891
 30
0.0
 11
162.8684434956
 21
58.3593223779
 31
0.0
  0
LINE
  5
160
  8
0
  6
CONTINUOUS
 62
     7
 10
163.0868993138
 20
57.9299597454
 30
0.0
 11
162.8684434956
 21
58.3593223779
 31
0.0
  0
ARC
  5
161
  8
0
  6
CONTINUOUS
 62
     7
 10
148.5946949602
 20
75.9286472149
 30
0.0
 40
22.58410071916
 50
232.1828498705
 51
233.8157798092
  0
LINE
  5
162
  8
0
  6
CONTINUOUS
 62
     7
 10
134.7473994905
 20
58.087850891
 30
0.0
 11
134.4408744128
 21
57.6929252903
 31
0.0
  0
LINE
  5
163
  8
0
  6
CONTINUOUS
 62
     7
 10
153.9105942411
 20
87.4286472149
 30
0.0
 11
153.4106703935
 21
87.4286472149
 31
0.0
  0
ARC
  5
164
  8
0
  6
CONTINUOUS
 62
     7
 10
157.5412921173
 20
87.3045382304
 30
0.0
 40
3.632818479998721
 50
178.0422074475
 51
185.938998951
  0
ARC
  5
165
  8
0
  6
CONTINUOUS
 62
     7
 10
153.9279929715
 20
86.4286322417
 30
0.0
 40
0.5000198323734519
 50
90.0023624038
 51
179.9939214819
  0
LINE
  5
166
  8
0
  6
CONTINUOUS
 62
     7
 10
143.2787956794
 20
87.4286472149
 30
0.0
 11
143.2787956794
 21
88.4286472149
 31
0.0
  0
LINE
  5
167
  8
0
  6
CONTINUOUS
 62
     7
 10
143.2787956794
 20
88.4286472149
 30
0.0
 11
143.778719527
 21
88.4286472149
 31
0.0
  0
LINE
  5
168
  8
0
  6
CONTINUOUS
 62
     7
 10
143.2787956794
 20
87.4286472149
 30
0.0
 11
143.778719527
 21
87.4286472149
 31
0.0
  0
LINE
  5
169
  8
0
  6
CONTINUOUS
 62
     7
 10
153.9105942411
 20
88.4286472149
 30
0.0
 11
153.9105942411
 21
87.4286472149
 31
0.0
  0
LINE
  5
16A
  8
0
  6
CONTINUOUS
 62
     7
 10
153.9105942411
 20
88.4286472149
 30
0.0
 11
153.4106703935
 21
88.4286472149
 31
0.0
  0
LINE
  5
16B
  8
0
  6
CONTINUOUS
 62
     7
 10
153.9105942411
 20
64.4286472149
 30
0.0
 11
153.9105942411
 21
63.4286472149
 31
0.0
  0
LINE
  5
16C
  8
0
  6
CONTINUOUS
 62
     7
 10
153.9105942411
 20
63.4286472149
 30
0.0
 11
153.4106703935
 21
63.4286472149
 31
0.0
  0
LINE
  5
16D
  8
0
  6
CONTINUOUS
 62
     7
 10
153.9105942411
 20
64.4286472149
 30
0.0
 11
153.4106703935
 21
64.4286472149
 31
0.0
  0
LINE
  5
16E
  8
0
  6
CONTINUOUS
 62
     7
 10
153.4106703935
 20
76.4286472149
 30
0.0
 11
153.9105942411
 21
76.4286472149
 31
0.0
  0
LINE
  5
16F
  8
0
  6
CONTINUOUS
 62
     7
 10
153.9105942411
 20
76.4286472149
 30
0.0
 11
153.9105942411
 21
75.4286472149
 31
0.0
  0
LINE
  5
170
  8
0
  6
CONTINUOUS
 62
     7
 10
153.4106703935
 20
75.4286472149
 30
0.0
 11
153.9105942411
 21
75.4286472149
 31
0.0
  0
ARC
  5
171
  8
0
  6
CONTINUOUS
 62
     7
 10
157.5412918774
 20
63.3045382256
 30
0.0
 40
3.63281824036646
 50
178.0422072429
 51
185.9389992693
  0
ARC
  5
172
  8
0
  6
CONTINUOUS
 62
     7
 10
153.9279940761
 20
62.4286311369
 30
0.0
 40
0.5000209371222744
 50
90.0024889175
 51
179.9937949039
  0
LINE
  5
173
  8
0
  6
CONTINUOUS
 62
     7
 10
143.2787956794
 20
63.4286472149
 30
0.0
 11
143.2787956794
 21
64.4286472149
 31
0.0
  0
LINE
  5
174
  8
0
  6
CONTINUOUS
 62
     7
 10
143.2787956794
 20
64.4286472149
 30
0.0
 11
143.778719527
 21
64.4286472149
 31
0.0
  0
LINE
  5
175
  8
0
  6
CONTINUOUS
 62
     7
 10
143.2787956794
 20
63.4286472149
 30
0.0
 11
143.778719527
 21
63.4286472149
 31
0.0
  0
ARC
  5
176
  8
0
  6
CONTINUOUS
 62
     7
 10
139.648098043
 20
76.5527562041
 30
0.0
 40
3.632818240377779
 50
358.0422072429
 51
5.9389992693
  0
ARC
  5
177
  8
0
  6
CONTINUOUS
 62
     7
 10
143.2613958443
 20
77.4286632928
 30
0.0
 40
0.5000209371222458
 50
270.0024889175
 51
359.9937949039
  0
LINE
  5
178
  8
0
  6
CONTINUOUS
 62
     7
 10
143.2787956794
 20
76.4286472149
 30
0.0
 11
143.778719527
 21
76.4286472149
 31
0.0
  0
ARC
  5
179
  8
0
  6
CONTINUOUS
 62
     7
 10
143.2613969491
 20
62.4286322419
 30
0.0
 40
0.5000198321383688
 50
0.0060784978
 51
89.9976376753
  0
ARC
  5
17A
  8
0
  6
CONTINUOUS
 62
     7
 10
139.6480980225
 20
63.304538226
 30
0.0
 40
3.632818260917769
 50
354.0610007579
 51
1.9577927396
  0
ARC
  5
17B
  8
0
  6
CONTINUOUS
 62
     7
 10
143.2613969491
 20
86.4286322419
 30
0.0
 40
0.5000198321383879
 50
0.0060784978
 51
89.9976376753
  0
ARC
  5
17C
  8
0
  6
CONTINUOUS
 62
     7
 10
139.6480980225
 20
87.304538226
 30
0.0
 40
3.632818260919358
 50
354.0610007579
 51
1.9577927396
  0
ARC
  5
17D
  8
0
  6
CONTINUOUS
 62
     7
 10
157.5412921173
 20
75.3045382304
 30
0.0
 40
3.63281848001007
 50
178.0422074476
 51
185.938998951
  0
ARC
  5
17E
  8
0
  6
CONTINUOUS
 62
     7
 10
153.9279929715
 20
74.4286322417
 30
0.0
 40
0.5000198323733973
 50
90.0023624038
 51
179.9939214819
  0
LINE
  5
17F
  8
0
  6
CONTINUOUS
 62
     7
 10
143.2787956794
 20
75.4286472149
 30
0.0
 11
143.2787956794
 21
76.4286472149
 31
0.0
  0
LINE
  5
180
  8
0
  6
CONTINUOUS
 62
     7
 10
143.2787956794
 20
75.4286472149
 30
0.0
 11
143.778719527
 21
75.4286472149
 31
0.0
  0
ARC
  5
181
  8
0
  6
CONTINUOUS
 62
     7
 10
153.9279940765
 20
77.428663293
 30
0.0
 40
0.5000209374249889
 50
180.0062051227
 51
269.9975109841
  0
ARC
  5
182
  8
0
  6
CONTINUOUS
 62
     7
 10
157.5412921449
 20
76.5527561988
 30
0.0
 40
3.632818507609604
 50
174.0610010856
 51
181.9577925289
  0
ARC
  5
183
  8
0
  6
CONTINUOUS
 62
     7
 10
139.6480978103
 20
64.5527561995
 30
0.0
 40
3.632818472830939
 50
358.0422074414
 51
5.9389989606
  0
ARC
  5
184
  8
0
  6
CONTINUOUS
 62
     7
 10
143.2613969489
 20
65.428662188
 30
0.0
 40
0.5000198323656376
 50
270.0023624012
 51
359.9939214826
  0
ARC
  5
185
  8
0
  6
CONTINUOUS
 62
     7
 10
139.6480978103
 20
88.5527561995
 30
0.0
 40
3.632818472832328
 50
358.0422074414
 51
5.9389989606
  0
ARC
  5
186
  8
0
  6
CONTINUOUS
 62
     7
 10
143.2613969489
 20
89.428662188
 30
0.0
 40
0.5000198323657629
 50
270.0023624012
 51
359.9939214826
  0
ARC
  5
187
  8
0
  6
CONTINUOUS
 62
     7
 10
157.5412918979
 20
88.5527562037
 30
0.0
 40
3.632818260905881
 50
174.0610007579
 51
181.9577927396
  0
ARC
  5
188
  8
0
  6
CONTINUOUS
 62
     7
 10
153.9279929713
 20
89.4286621878
 30
0.0
 40
0.5000198321383026
 50
180.0060784978
 51
269.9976376753
  0
ARC
  5
189
  8
0
  6
CONTINUOUS
 62
     7
 10
143.261395844
 20
74.4286311367
 30
0.0
 40
0.5000209374249605
 50
0.0062051227
 51
89.9975109841
  0
ARC
  5
18A
  8
0
  6
CONTINUOUS
 62
     7
 10
139.6480977755
 20
75.3045382309
 30
0.0
 40
3.632818507609825
 50
354.0610010856
 51
1.9577925289
  0
LINE
  5
18B
  8
0
  6
CONTINUOUS
 62
     7
 10
162.7485155077
 20
94.1643691394
 30
0.0
 11
162.4419904299
 21
93.7694435387
 31
0.0
  0
ARC
  5
18C
  8
0
  6
CONTINUOUS
 62
     7
 10
148.5946949602
 20
75.9286472149
 30
0.0
 40
22.58410071915998
 50
52.1828498705
 51
53.8157798092
  0
ARC
  5
18D
  8
0
  6
CONTINUOUS
 62
     7
 10
157.5412921449
 20
64.5527561988
 30
0.0
 40
3.632818507608499
 50
174.0610010856
 51
181.9577925289
  0
ARC
  5
18E
  8
0
  6
CONTINUOUS
 62
     7
 10
153.9279940765
 20
65.428663293
 30
0.0
 40
0.500020937424946
 50
180.0062051227
 51
269.9975109841
  0
LINE
  5
18F
  8
0
  6
CONTINUOUS
 62
     7
 10
163.0868993138
 20
93.9273346843
 30
0.0
 11
162.8684434956
 21
93.4979720518
 31
0.0
  0
LINE
  5
190
  8
0
  6
CONTINUOUS
 62
     7
 10
162.8684434956
 20
93.4979720518
 30
0.0
 11
162.4419904299
 21
93.7694435387
 31
0.0
  0
LINE
  5
191
  8
0
  6
CONTINUOUS
 62
     7
 10
134.3209464248
 20
58.3593223779
 30
0.0
 11
134.7473994905
 21
58.087850891
 31
0.0
  0
LINE
  5
192
  8
0
  6
CONTINUOUS
 62
     7
 10
134.1024906066
 20
57.9299597454
 30
0.0
 11
134.3209464248
 21
58.3593223779
 31
0.0
  0
LINE
  5
193
  8
0
  6
CONTINUOUS
 62
     7
 10
134.0542252239
 20
57.9599187438
 30
0.0
 11
134.2614167785
 21
58.3888316056
 31
0.0
  0
LINE
  5
194
  8
0
  6
CONTINUOUS
 62
     7
 10
134.2614167785
 20
58.3888316056
 30
0.0
 11
134.3209464248
 21
58.3593223779
 31
0.0
  0
LINE
  5
195
  8
0
  6
CONTINUOUS
 62
     7
 10
162.927973142
 20
93.4684628241
 30
0.0
 11
162.8684434956
 21
93.4979720518
 31
0.0
  0
LINE
  5
196
  8
0
  6
CONTINUOUS
 62
     7
 10
162.927973142
 20
93.4684628241
 30
0.0
 11
163.1351646965
 21
93.8973756859
 31
0.0
  0
LINE
  5
197
  8
0
  6
CONTINUOUS
 62
     7
 10
134.3209464248
 20
93.4979720518
 30
0.0
 11
134.2614167785
 21
93.4684628241
 31
0.0
  0
LINE
  5
198
  8
0
  6
CONTINUOUS
 62
     7
 10
134.2614167785
 20
93.4684628241
 30
0.0
 11
134.0542252239
 21
93.8973756859
 31
0.0
  0
LINE
  5
199
  8
0
  6
CONTINUOUS
 62
     7
 10
162.8684434956
 20
58.3593223779
 30
0.0
 11
162.927973142
 21
58.3888316056
 31
0.0
  0
LINE
  5
19A
  8
0
  6
CONTINUOUS
 62
     7
 10
163.1351646965
 20
57.9599187438
 30
0.0
 11
162.927973142
 21
58.3888316056
 31
0.0
  0
ARC
  5
19B
  8
0
  6
CONTINUOUS
 62
     7
 10
135.1999071397
 20
59.4224408081
 30
0.0
 40
1.396106063967313
 50
195.5921033279
 51
227.7613656086
  0
ARC
  5
19C
  8
0
  6
CONTINUOUS
 62
     7
 10
133.2316655852
 20
59.3867269985
 30
0.0
 40
0.7099693747376196
 50
267.0484516138
 51
331.4289598012
  0
ARC
  5
19D
  8
0
  6
CONTINUOUS
 62
     7
 10
135.1860805745
 20
92.4435446705
 30
0.0
 40
1.380384133971946
 50
132.0562425696
 51
164.5357861164
  0
ARC
  5
19E
  8
0
  6
CONTINUOUS
 62
     7
 10
133.2315803015
 20
92.4709789453
 30
0.0
 40
0.7109955240756328
 50
28.6255823596
 51
92.8320471979
  0
ARC
  5
19F
  8
0
  6
CONTINUOUS
 62
     7
 10
162.0033093459
 20
59.4137497592
 30
0.0
 40
1.380384133971543
 50
312.0562425696
 51
344.5357861164
  0
ARC
  5
1A0
  8
0
  6
CONTINUOUS
 62
     7
 10
163.9578096189
 20
59.3863154844
 30
0.0
 40
0.7109955240755143
 50
208.6255823596
 51
272.8320471979
  0
ARC
  5
1A1
  8
0
  6
CONTINUOUS
 62
     7
 10
161.9894827807
 20
92.4348536216
 30
0.0
 40
1.39610606396727
 50
15.5921033279
 51
47.7613656086
  0
ARC
  5
1A2
  8
0
  6
CONTINUOUS
 62
     7
 10
163.9577243352
 20
92.4705674312
 30
0.0
 40
0.7099693747375145
 50
87.0484516138
 51
151.4289598012
  0
ARC
  5
1A3
  8
0
  6
CONTINUOUS
 62
     7
 10
148.5946949602
 20
75.9286472149
 30
0.0
 40
23.56679798227566
 50
32.0329737392
 51
45.6353698453
  0
ARC
  5
1A4
  8
0
  6
CONTINUOUS
 62
     7
 10
142.8818054736
 20
60.3867478894
 30
0.0
 40
38.03156739664146
 50
47.5046532205
 51
49.9670414515
  0
ARC
  5
1A5
  8
0
  6
CONTINUOUS
 62
     7
 10
154.4596963697
 20
74.2831803958
 30
0.0
 40
19.9443331708838
 50
49.7553737363
 51
50.7483230654
  0
ARC
  5
1A6
  8
0
  6
CONTINUOUS
 62
     7
 10
148.5946949602
 20
75.9286472149
 30
0.0
 40
23.06687413469747
 50
36.7420348943
 51
45.6353698453
  0
ARC
  5
1A7
  8
0
  6
CONTINUOUS
 62
     7
 10
147.2381488667
 20
11.4057581244
 30
0.0
 40
79.92317172465326
 50
74.5174111031
 51
75.6791702411
  0
ARC
  5
1A8
  8
0
  6
CONTINUOUS
 62
     7
 10
166.5755244377
 20
89.4825267892
 30
0.0
 40
0.7696311886828614
 50
304.121399911
 51
1.7888367564
  0
ARC
  5
1A9
  8
0
  6
CONTINUOUS
 62
     7
 10
149.967119793
 20
11.3460885991
 30
0.0
 40
79.9849147003619
 50
104.3212781742
 51
105.4821404816
  0
ARC
  5
1AA
  8
0
  6
CONTINUOUS
 62
     7
 10
154.2383025646
 20
60.4657093812
 30
0.0
 40
37.92654460057487
 50
130.0295487088
 51
132.4987566192
  0
ARC
  5
1AB
  8
0
  6
CONTINUOUS
 62
     7
 10
130.6138654827
 20
89.4825267892
 30
0.0
 40
0.7696311886829453
 50
178.2111632436
 51
235.878600089
  0
ARC
  5
1AC
  8
0
  6
CONTINUOUS
 62
     7
 10
148.5946949602
 20
75.9286472149
 30
0.0
 40
23.0668741346975
 50
134.3646301547
 51
143.2579651057
  0
ARC
  5
1AD
  8
0
  6
CONTINUOUS
 62
     7
 10
141.9433267848
 20
75.2287457086
 30
0.0
 40
18.7145586267179
 50
129.2190516007
 51
130.2772515976
  0
ARC
  5
1AE
  8
0
  6
CONTINUOUS
 62
     7
 10
148.5946949602
 20
75.9286472149
 30
0.0
 40
23.56679798227568
 50
134.3646301547
 51
147.9670262608
  0
ARC
  5
1AF
  8
0
  6
CONTINUOUS
 62
     7
 10
148.5946949602
 20
75.9286472149
 30
0.0
 40
23.56679798227568
 50
212.0329737392
 51
225.6353698453
  0
ARC
  5
1B0
  8
0
  6
CONTINUOUS
 62
     7
 10
154.3075844483
 20
91.4705465421
 30
0.0
 40
38.03156739892692
 50
227.5046532206
 51
229.9670414514
  0
ARC
  5
1B1
  8
0
  6
CONTINUOUS
 62
     7
 10
142.7296935597
 20
77.5741140447
 30
0.0
 40
19.94433318490026
 50
229.7553737367
 51
230.748323065
  0
ARC
  5
1B2
  8
0
  6
CONTINUOUS
 62
     7
 10
148.5946949602
 20
75.9286472149
 30
0.0
 40
23.0668741346975
 50
216.7420348943
 51
225.6353698453
  0
ARC
  5
1B3
  8
0
  6
CONTINUOUS
 62
     7
 10
149.9512410529
 20
140.4515363023
 30
0.0
 40
79.92317172150744
 50
254.5174111031
 51
255.6791702411
  0
ARC
  5
1B4
  8
0
  6
CONTINUOUS
 62
     7
 10
130.6138654827
 20
62.3747676405
 30
0.0
 40
0.7696311886830568
 50
124.121399911
 51
181.7888367564
  0
ARC
  5
1B5
  8
0
  6
CONTINUOUS
 62
     7
 10
147.2222701299
 20
140.5112058213
 30
0.0
 40
79.98491469074786
 50
284.3212781742
 51
285.4821404817
  0
ARC
  5
1B6
  8
0
  6
CONTINUOUS
 62
     7
 10
142.951087357
 20
91.3915850471
 30
0.0
 40
37.92654459876452
 50
310.0295487088
 51
312.4987566193
  0
ARC
  5
1B7
  8
0
  6
CONTINUOUS
 62
     7
 10
166.5755244377
 20
62.3747676405
 30
0.0
 40
0.7696311886829728
 50
358.2111632436
 51
55.878600089
  0
ARC
  5
1B8
  8
0
  6
CONTINUOUS
 62
     7
 10
148.5946949602
 20
75.9286472149
 30
0.0
 40
23.06687413469747
 50
314.3646301547
 51
323.2579651057
  0
ARC
  5
1B9
  8
0
  6
CONTINUOUS
 62
     7
 10
155.2460631044
 20
76.6285487586
 30
0.0
 40
18.71455867552318
 50
309.219051602
 51
310.2772515963
  0
ARC
  5
1BA
  8
0
  6
CONTINUOUS
 62
     7
 10
148.5946949602
 20
75.9286472149
 30
0.0
 40
23.56679798227567
 50
314.3646301547
 51
327.9670262608
  0
ARC
  5
1BB
  8
0
  6
CONTINUOUS
 62
     7
 10
126.0778353403
 20
77.4286763851
 30
0.0
 40
0.5001053602938454
 50
176.2114132156
 51
269.9777779085
  0
ARC
  5
1BC
  8
0
  6
CONTINUOUS
 62
     7
 10
153.8630449026
 20
17.5383888511
 30
0.0
 40
65.56845577162046
 50
115.072311331
 51
116.0841512059
  0
ARC
  5
1BD
  8
0
  6
CONTINUOUS
 62
     7
 10
178.4854825089
 20
48.8582737601
 30
0.0
 40
60.14375962433803
 50
151.6025784996
 51
152.7155813448
  0
ARC
  5
1BE
  8
0
  6
CONTINUOUS
 62
     7
 10
148.5946949602
 20
75.9286472149
 30
0.0
 40
23.56679798227568
 50
150.7924520859
 51
178.7843049603
  0
POLYLINE
  5
1BF
  8
0
  6
CONTINUOUS
 62
     7
 66
     1
 10
0.0
 20
0.0
 30
0.0
 70
   128
  0
VERTEX
  5
3DE
  8
0
  6
CONTINUOUS
 62
     7
 10
128.1768469748
 20
86.6614085552
 30
0.0
  0
VERTEX
  5
3DF
  8
0
  6
CONTINUOUS
 62
     7
 10
128.1712765314
 20
86.6893638189
 30
0.0
  0
VERTEX
  5
3E0
  8
0
  6
CONTINUOUS
 62
     7
 10
128.1690363101
 20
86.7006076801
 30
0.0
  0
VERTEX
  5
3E1
  8
0
  6
CONTINUOUS
 62
     7
 10
128.1488550305
 20
86.8019317897
 30
0.0
  0
VERTEX
  5
3E2
  8
0
  6
CONTINUOUS
 62
     7
 10
128.1175897364
 20
86.959011766
 30
0.0
  0
VERTEX
  5
3E3
  8
0
  6
CONTINUOUS
 62
     7
 10
128.0744257309
 20
87.1760524791
 30
0.0
  0
VERTEX
  5
3E4
  8
0
  6
CONTINUOUS
 62
     7
 10
128.0255070176
 20
87.4222261945
 30
0.0
  0
VERTEX
  5
3E5
  8
0
  6
CONTINUOUS
 62
     7
 10
128.0242314959
 20
87.4286472149
 30
0.0
  0
SEQEND
  5
4B4
  8
0
  6
CONTINUOUS
 62
     7
  0
ARC
  5
1C0
  8
0
  6
CONTINUOUS
 62
     7
 10
148.5946949602
 20
75.9286472149
 30
0.0
 40
23.06687413469749
 50
152.2710768594
 51
176.189191124
  0
POLYLINE
  5
1C1
  8
0
  6
CONTINUOUS
 62
     7
 66
     1
 10
0.0
 20
0.0
 30
0.0
 70
   128
  0
VERTEX
  5
3E6
  8
0
  6
CONTINUOUS
 62
     7
 10
169.0125429457
 20
65.1958858745
 30
0.0
  0
VERTEX
  5
3E7
  8
0
  6
CONTINUOUS
 62
     7
 10
169.018113389
 20
65.1679306108
 30
0.0
  0
VERTEX
  5
3E8
  8
0
  6
CONTINUOUS
 62
     7
 10
169.0203536103
 20
65.1566867496
 30
0.0
  0
VERTEX
  5
3E9
  8
0
  6
CONTINUOUS
 62
     7
 10
169.0405348899
 20
65.05536264
 30
0.0
  0
VERTEX
  5
3EA
  8
0
  6
CONTINUOUS
 62
     7
 10
169.0718001841
 20
64.8982826637
 30
0.0
  0
VERTEX
  5
3EB
  8
0
  6
CONTINUOUS
 62
     7
 10
169.1149641896
 20
64.6812419507
 30
0.0
  0
VERTEX
  5
3EC
  8
0
  6
CONTINUOUS
 62
     7
 10
169.1638829028
 20
64.4350682352
 30
0.0
  0
VERTEX
  5
3ED
  8
0
  6
CONTINUOUS
 62
     7
 10
169.1651584245
 20
64.4286472149
 30
0.0
  0
SEQEND
  5
4B5
  8
0
  6
CONTINUOUS
 62
     7
  0
ARC
  5
1C2
  8
0
  6
CONTINUOUS
 62
     7
 10
148.5946949602
 20
75.9286472149
 30
0.0
 40
23.06687413469747
 50
332.2710768594
 51
356.189191124
  0
ARC
  5
1C3
  8
0
  6
CONTINUOUS
 62
     7
 10
118.7039074107
 20
102.9990206701
 30
0.0
 40
60.14375962527154
 50
331.6025784996
 51
332.7155813448
  0
ARC
  5
1C4
  8
0
  6
CONTINUOUS
 62
     7
 10
148.5946949602
 20
75.9286472149
 30
0.0
 40
23.56679798227568
 50
330.7924520859
 51
358.7843049603
  0
ARC
  5
1C5
  8
0
  6
CONTINUOUS
 62
     7
 10
143.3263450166
 20
134.318905581
 30
0.0
 40
65.56845577435045
 50
295.072311331
 51
296.0841512059
  0
ARC
  5
1C6
  8
0
  6
CONTINUOUS
 62
     7
 10
171.1115545801
 20
74.4286180446
 30
0.0
 40
0.5001053602938456
 50
356.2114132156
 51
89.9777779085
  0
ARC
  5
1C7
  8
0
  6
CONTINUOUS
 62
     7
 10
171.1115545801
 20
77.4286763851
 30
0.0
 40
0.5001053602938169
 50
270.0222220915
 51
3.7885867844
  0
ARC
  5
1C8
  8
0
  6
CONTINUOUS
 62
     7
 10
118.3884413477
 20
48.6916593317
 30
0.0
 40
60.5005050084008
 50
27.2877002064
 51
28.3941399493
  0
ARC
  5
1C9
  8
0
  6
CONTINUOUS
 62
     7
 10
143.3685956227
 20
17.6266587157
 30
0.0
 40
65.47059906601024
 50
63.9150925929
 51
64.9284448702
  0
POLYLINE
  5
1CA
  8
0
  6
CONTINUOUS
 62
     7
 66
     1
 10
0.0
 20
0.0
 30
0.0
 70
   128
  0
VERTEX
  5
3EE
  8
0
  6
CONTINUOUS
 62
     7
 10
128.0242314959
 20
64.4286472149
 30
0.0
  0
VERTEX
  5
3EF
  8
0
  6
CONTINUOUS
 62
     7
 10
128.0255070176
 20
64.4350682352
 30
0.0
  0
VERTEX
  5
3F0
  8
0
  6
CONTINUOUS
 62
     7
 10
128.0744257309
 20
64.6812419507
 30
0.0
  0
VERTEX
  5
3F1
  8
0
  6
CONTINUOUS
 62
     7
 10
128.1175897364
 20
64.8982826637
 30
0.0
  0
VERTEX
  5
3F2
  8
0
  6
CONTINUOUS
 62
     7
 10
128.1488550305
 20
65.05536264
 30
0.0
  0
VERTEX
  5
3F3
  8
0
  6
CONTINUOUS
 62
     7
 10
128.1690363101
 20
65.1566867496
 30
0.0
  0
VERTEX
  5
3F4
  8
0
  6
CONTINUOUS
 62
     7
 10
128.1712765314
 20
65.1679306108
 30
0.0
  0
VERTEX
  5
3F5
  8
0
  6
CONTINUOUS
 62
     7
 10
128.1768469748
 20
65.1958858745
 30
0.0
  0
SEQEND
  5
4B6
  8
0
  6
CONTINUOUS
 62
     7
  0
ARC
  5
1CB
  8
0
  6
CONTINUOUS
 62
     7
 10
148.5946949602
 20
75.9286472149
 30
0.0
 40
23.56679798227568
 50
181.2156950397
 51
209.2075479141
  0
ARC
  5
1CC
  8
0
  6
CONTINUOUS
 62
     7
 10
178.8009485605
 20
103.1656350916
 30
0.0
 40
60.50050499463935
 50
207.2877002062
 51
208.3941399494
  0
ARC
  5
1CD
  8
0
  6
CONTINUOUS
 62
     7
 10
148.5946949602
 20
75.9286472149
 30
0.0
 40
23.06687413469749
 50
183.810808876
 51
207.7289231406
  0
ARC
  5
1CE
  8
0
  6
CONTINUOUS
 62
     7
 10
126.0778353403
 20
74.4286180446
 30
0.0
 40
0.5001053602938456
 50
90.0222220915
 51
183.7885867844
  0
ARC
  5
1CF
  8
0
  6
CONTINUOUS
 62
     7
 10
153.8207942969
 20
134.2306357123
 30
0.0
 40
65.47059906416136
 50
243.9150925928
 51
244.9284448702
  0
POLYLINE
  5
1D0
  8
0
  6
CONTINUOUS
 62
     7
 66
     1
 10
0.0
 20
0.0
 30
0.0
 70
   128
  0
VERTEX
  5
3F6
  8
0
  6
CONTINUOUS
 62
     7
 10
169.1651584245
 20
87.4286472149
 30
0.0
  0
VERTEX
  5
3F7
  8
0
  6
CONTINUOUS
 62
     7
 10
169.1638829028
 20
87.4222261945
 30
0.0
  0
VERTEX
  5
3F8
  8
0
  6
CONTINUOUS
 62
     7
 10
169.1149641896
 20
87.1760524791
 30
0.0
  0
VERTEX
  5
3F9
  8
0
  6
CONTINUOUS
 62
     7
 10
169.0718001841
 20
86.959011766
 30
0.0
  0
VERTEX
  5
3FA
  8
0
  6
CONTINUOUS
 62
     7
 10
169.0405348899
 20
86.8019317897
 30
0.0
  0
VERTEX
  5
3FB
  8
0
  6
CONTINUOUS
 62
     7
 10
169.0203536103
 20
86.7006076801
 30
0.0
  0
VERTEX
  5
3FC
  8
0
  6
CONTINUOUS
 62
     7
 10
169.018113389
 20
86.6893638189
 30
0.0
  0
VERTEX
  5
3FD
  8
0
  6
CONTINUOUS
 62
     7
 10
169.0125429457
 20
86.6614085552
 30
0.0
  0
SEQEND
  5
4B7
  8
0
  6
CONTINUOUS
 62
     7
  0
ARC
  5
1D1
  8
0
  6
CONTINUOUS
 62
     7
 10
148.5946949602
 20
75.9286472149
 30
0.0
 40
23.56679798227568
 50
1.2156950397
 51
29.2075479141
  0
ARC
  5
1D2
  8
0
  6
CONTINUOUS
 62
     7
 10
148.5946949602
 20
75.9286472149
 30
0.0
 40
23.06687413469747
 50
3.810808876
 51
27.7289231406
  0
ARC
  5
1D3
  8
0
  6
CONTINUOUS
 62
     7
 10
128.6194574349
 20
86.4286365662
 30
0.0
 40
0.5000868107196607
 50
90.011278173
 51
152.2597986863
  0
ARC
  5
1D4
  8
0
  6
CONTINUOUS
 62
     7
 10
162.8144324264
 20
128.2399730795
 30
0.0
 40
53.62762720477125
 50
229.5535905463
 51
230.384000381
  0
ARC
  5
1D5
  8
0
  6
CONTINUOUS
 62
     7
 10
128.6194574349
 20
65.4286578635
 30
0.0
 40
0.5000868107196027
 50
207.7402013136
 51
269.988721827
  0
ARC
  5
1D6
  8
0
  6
CONTINUOUS
 62
     7
 10
162.8901557721
 20
23.5271775297
 30
0.0
 40
53.74535233898687
 50
129.6169091098
 51
130.4454999629
  0
ARC
  5
1D7
  8
0
  6
CONTINUOUS
 62
     7
 10
168.5699324855
 20
86.4286365662
 30
0.0
 40
0.5000868107195123
 50
27.7402013136
 51
89.988721827
  0
ARC
  5
1D8
  8
0
  6
CONTINUOUS
 62
     7
 10
134.2992341445
 20
128.3301169045
 30
0.0
 40
53.74535234486646
 50
309.6169091099
 51
310.4454999628
  0
ARC
  5
1D9
  8
0
  6
CONTINUOUS
 62
     7
 10
168.5699324855
 20
65.4286578635
 30
0.0
 40
0.5000868107195507
 50
270.011278173
 51
332.2597986864
  0
ARC
  5
1DA
  8
0
  6
CONTINUOUS
 62
     7
 10
134.3749574943
 20
23.6173213505
 30
0.0
 40
53.62762720443601
 50
49.5535905462
 51
50.384000381
  0
LINE
  5
1DB
  8
0
  6
CONTINUOUS
 62
     7
 10
134.2614167785
 20
63.4286472149
 30
0.0
 11
133.7614167785
 21
62.4286472149
 31
0.0
  0
LINE
  5
1DC
  8
0
  6
CONTINUOUS
 62
     7
 10
134.2614167785
 20
63.4286472149
 30
0.0
 11
134.2614167785
 21
58.3888316056
 31
0.0
  0
ARC
  5
1DD
  8
0
  6
CONTINUOUS
 62
     7
 10
156.2324415454
 20
65.6922832331
 30
0.0
 40
23.34307677345004
 50
195.719149667
 51
196.5391854206
  0
LINE
  5
1DE
  8
0
  6
CONTINUOUS
 62
     7
 10
133.7614167785
 20
59.3713503289
 30
0.0
 11
133.7623666342
 21
59.3681258397
 31
0.0
  0
LINE
  5
1DF
  8
0
  6
CONTINUOUS
 62
     7
 10
133.7614167785
 20
59.3712985427
 30
0.0
 11
133.7614167785
 21
62.4286472149
 31
0.0
  0
LINE
  5
1E0
  8
0
  6
CONTINUOUS
 62
     7
 10
133.7614167785
 20
89.4286472149
 30
0.0
 11
134.2614167785
 21
88.4286472149
 31
0.0
  0
LINE
  5
1E1
  8
0
  6
CONTINUOUS
 62
     7
 10
133.7614167785
 20
89.4286472149
 30
0.0
 11
133.7614167785
 21
92.485995887
 31
0.0
  0
LINE
  5
1E2
  8
0
  6
CONTINUOUS
 62
     7
 10
133.7623666342
 20
92.48916859
 30
0.0
 11
133.7614167785
 21
92.4859441008
 31
0.0
  0
ARC
  5
1E3
  8
0
  6
CONTINUOUS
 62
     7
 10
154.7243057264
 20
86.5981259917
 30
0.0
 40
21.77400453291812
 50
163.4194954478
 51
164.302768163
  0
LINE
  5
1E4
  8
0
  6
CONTINUOUS
 62
     7
 10
134.2614167785
 20
93.4684628241
 30
0.0
 11
134.2614167785
 21
88.4286472149
 31
0.0
  0
ARC
  5
1E5
  8
0
  6
CONTINUOUS
 62
     7
 10
132.847399865
 20
79.0013096371
 30
0.0
 40
10.19850263993872
 50
103.2438587447
 51
105.1494770403
  0
LINE
  5
1E6
  8
0
  6
CONTINUOUS
 62
     7
 10
130.5109631145
 20
88.9286472149
 30
0.0
 11
133.2614167785
 21
88.9286472149
 31
0.0
  0
LINE
  5
1E7
  8
0
  6
CONTINUOUS
 62
     7
 10
134.2614167785
 20
88.4286472149
 30
0.0
 11
133.2614167785
 21
88.9286472149
 31
0.0
  0
LINE
  5
1E8
  8
0
  6
CONTINUOUS
 62
     7
 10
134.2614167785
 20
88.4286472149
 30
0.0
 11
128.6161072439
 21
88.4286472149
 31
0.0
  0
ARC
  5
1E9
  8
0
  6
CONTINUOUS
 62
     7
 10
163.1948930187
 20
74.4669174309
 30
0.0
 40
14.87529607787019
 50
75.1501021352
 51
76.4565620798
  0
LINE
  5
1EA
  8
0
  6
CONTINUOUS
 62
     7
 10
168.5732826765
 20
88.4286472149
 30
0.0
 11
162.927973142
 21
88.4286472149
 31
0.0
  0
LINE
  5
1EB
  8
0
  6
CONTINUOUS
 62
     7
 10
163.927973142
 20
88.9286472149
 30
0.0
 11
162.927973142
 21
88.4286472149
 31
0.0
  0
LINE
  5
1EC
  8
0
  6
CONTINUOUS
 62
     7
 10
163.927973142
 20
88.9286472149
 30
0.0
 11
166.678426806
 21
88.9286472149
 31
0.0
  0
LINE
  5
1ED
  8
0
  6
CONTINUOUS
 62
     7
 10
163.427973142
 20
62.4286472149
 30
0.0
 11
162.927973142
 21
63.4286472149
 31
0.0
  0
LINE
  5
1EE
  8
0
  6
CONTINUOUS
 62
     7
 10
163.427973142
 20
62.4286472149
 30
0.0
 11
163.427973142
 21
59.3712985427
 31
0.0
  0
LINE
  5
1EF
  8
0
  6
CONTINUOUS
 62
     7
 10
163.4270232863
 20
59.3681258397
 30
0.0
 11
163.427973142
 21
59.3713503289
 31
0.0
  0
ARC
  5
1F0
  8
0
  6
CONTINUOUS
 62
     7
 10
142.4650842193
 20
65.2591684307
 30
0.0
 40
21.77400450665937
 50
343.4194954473
 51
344.3027681636
  0
LINE
  5
1F1
  8
0
  6
CONTINUOUS
 62
     7
 10
162.927973142
 20
58.3888316056
 30
0.0
 11
162.927973142
 21
63.4286472149
 31
0.0
  0
ARC
  5
1F2
  8
0
  6
CONTINUOUS
 62
     7
 10
133.9944969094
 20
77.3903770291
 30
0.0
 40
14.87529610913691
 50
255.1501021366
 51
256.4565620784
  0
LINE
  5
1F3
  8
0
  6
CONTINUOUS
 62
     7
 10
128.6161072439
 20
63.4286472149
 30
0.0
 11
134.2614167785
 21
63.4286472149
 31
0.0
  0
LINE
  5
1F4
  8
0
  6
CONTINUOUS
 62
     7
 10
133.2614167785
 20
62.9286472149
 30
0.0
 11
134.2614167785
 21
63.4286472149
 31
0.0
  0
LINE
  5
1F5
  8
0
  6
CONTINUOUS
 62
     7
 10
133.2614167785
 20
62.9286472149
 30
0.0
 11
130.5109631145
 21
62.9286472149
 31
0.0
  0
ARC
  5
1F6
  8
0
  6
CONTINUOUS
 62
     7
 10
164.3419900516
 20
72.8559848077
 30
0.0
 40
10.19850265542905
 50
283.2438587462
 51
285.1494770388
  0
LINE
  5
1F7
  8
0
  6
CONTINUOUS
 62
     7
 10
166.678426806
 20
62.9286472149
 30
0.0
 11
163.927973142
 21
62.9286472149
 31
0.0
  0
LINE
  5
1F8
  8
0
  6
CONTINUOUS
 62
     7
 10
162.927973142
 20
63.4286472149
 30
0.0
 11
163.927973142
 21
62.9286472149
 31
0.0
  0
LINE
  5
1F9
  8
0
  6
CONTINUOUS
 62
     7
 10
162.927973142
 20
63.4286472149
 30
0.0
 11
168.5732826765
 21
63.4286472149
 31
0.0
  0
LINE
  5
1FA
  8
0
  6
CONTINUOUS
 62
     7
 10
162.927973142
 20
88.4286472149
 30
0.0
 11
163.427973142
 21
89.4286472149
 31
0.0
  0
LINE
  5
1FB
  8
0
  6
CONTINUOUS
 62
     7
 10
162.927973142
 20
88.4286472149
 30
0.0
 11
162.927973142
 21
93.4684628241
 31
0.0
  0
ARC
  5
1FC
  8
0
  6
CONTINUOUS
 62
     7
 10
140.9569483956
 20
86.1650112025
 30
0.0
 40
23.34307675204015
 50
15.7191496666
 51
16.5391854209
  0
LINE
  5
1FD
  8
0
  6
CONTINUOUS
 62
     7
 10
163.427973142
 20
92.4859441008
 30
0.0
 11
163.4270232863
 21
92.48916859
 31
0.0
  0
LINE
  5
1FE
  8
0
  6
CONTINUOUS
 62
     7
 10
163.427973142
 20
92.485995887
 30
0.0
 11
163.427973142
 21
89.4286472149
 31
0.0
  0
ARC
  5
1FF
  8
0
  6
CONTINUOUS
 62
     7
 10
160.927973142
 20
65.4286472149
 30
0.0
 40
0.5
 50
270.0
 51
0.0
  0
LINE
  5
200
  8
0
  6
CONTINUOUS
 62
     7
 10
161.427973142
 20
65.4286472149
 30
0.0
 11
161.927973142
 21
64.4286472149
 31
0.0
  0
LINE
  5
201
  8
0
  6
CONTINUOUS
 62
     7
 10
161.927973142
 20
64.4286472149
 30
0.0
 11
160.927973142
 21
64.9286472149
 31
0.0
  0
LINE
  5
202
  8
0
  6
CONTINUOUS
 62
     7
 10
135.2614167785
 20
88.4286472149
 30
0.0
 11
135.7614167785
 21
89.4286472149
 31
0.0
  0
LINE
  5
203
  8
0
  6
CONTINUOUS
 62
     7
 10
135.2614167785
 20
88.4286472149
 30
0.0
 11
135.2614167785
 21
94.1567929851
 31
0.0
  0
LINE
  5
204
  8
0
  6
CONTINUOUS
 62
     7
 10
135.7614167785
 20
94.8268943657
 30
0.0
 11
135.7614167785
 21
89.4286472149
 31
0.0
  0
LINE
  5
205
  8
0
  6
CONTINUOUS
 62
     7
 10
161.427973142
 20
89.4286472149
 30
0.0
 11
161.927973142
 21
88.4286472149
 31
0.0
  0
LINE
  5
206
  8
0
  6
CONTINUOUS
 62
     7
 10
161.427973142
 20
89.4286472149
 30
0.0
 11
161.427973142
 21
94.8268943657
 31
0.0
  0
LINE
  5
207
  8
0
  6
CONTINUOUS
 62
     7
 10
161.927973142
 20
94.1567929851
 30
0.0
 11
161.927973142
 21
88.4286472149
 31
0.0
  0
LINE
  5
208
  8
0
  6
CONTINUOUS
 62
     7
 10
135.2614167785
 20
76.4286472149
 30
0.0
 11
135.7614167785
 21
77.4286472149
 31
0.0
  0
LINE
  5
209
  8
0
  6
CONTINUOUS
 62
     7
 10
135.2614167785
 20
76.4286472149
 30
0.0
 11
135.2614167785
 21
87.4286472149
 31
0.0
  0
LINE
  5
20A
  8
0
  6
CONTINUOUS
 62
     7
 10
135.7614167785
 20
86.4286472149
 30
0.0
 11
135.2614167785
 21
87.4286472149
 31
0.0
  0
LINE
  5
20B
  8
0
  6
CONTINUOUS
 62
     7
 10
135.7614167785
 20
86.4286472149
 30
0.0
 11
135.7614167785
 21
77.4286472149
 31
0.0
  0
LINE
  5
20C
  8
0
  6
CONTINUOUS
 62
     7
 10
162.927973142
 20
75.4286472149
 30
0.0
 11
163.927973142
 21
74.9286472149
 31
0.0
  0
LINE
  5
20D
  8
0
  6
CONTINUOUS
 62
     7
 10
162.927973142
 20
75.4286472149
 30
0.0
 11
172.1561882732
 21
75.4286472149
 31
0.0
  0
LINE
  5
20E
  8
0
  6
CONTINUOUS
 62
     7
 10
171.111510299
 20
74.9286520043
 30
0.0
 11
171.1117485453
 21
74.9287233673
 31
0.0
  0
LINE
  5
20F
  8
0
  6
CONTINUOUS
 62
     7
 10
171.1115094246
 20
74.9286472149
 30
0.0
 11
171.111510299
 21
74.9286520043
 31
0.0
  0
LINE
  5
210
  8
0
  6
CONTINUOUS
 62
     7
 10
171.1115094246
 20
74.9286472149
 30
0.0
 11
163.927973142
 21
74.9286472149
 31
0.0
  0
ARC
  5
211
  8
0
  6
CONTINUOUS
 62
     7
 10
148.5946949602
 20
75.9286472149
 30
0.0
 40
25.00000000000001
 50
131.2340951505
 51
228.7659048495
  0
LINE
  5
212
  8
0
  6
CONTINUOUS
 62
     7
 10
143.2787956794
 20
88.4286472149
 30
0.0
 11
135.2614167785
 21
88.4286472149
 31
0.0
  0
LINE
  5
213
  8
0
  6
CONTINUOUS
 62
     7
 10
135.2614167785
 20
87.4286472149
 30
0.0
 11
143.2787956794
 21
87.4286472149
 31
0.0
  0
LINE
  5
214
  8
0
  6
CONTINUOUS
 62
     7
 10
143.2787956794
 20
76.4286472149
 30
0.0
 11
135.2614167785
 21
76.4286472149
 31
0.0
  0
LINE
  5
215
  8
0
  6
CONTINUOUS
 62
     7
 10
135.2614167785
 20
75.4286472149
 30
0.0
 11
143.2787956794
 21
75.4286472149
 31
0.0
  0
LINE
  5
216
  8
0
  6
CONTINUOUS
 62
     7
 10
135.2614167785
 20
64.4286472149
 30
0.0
 11
135.2614167785
 21
75.4286472149
 31
0.0
  0
LINE
  5
217
  8
0
  6
CONTINUOUS
 62
     7
 10
143.2787956794
 20
64.4286472149
 30
0.0
 11
135.2614167785
 21
64.4286472149
 31
0.0
  0
LINE
  5
218
  8
0
  6
CONTINUOUS
 62
     7
 10
135.2614167785
 20
63.4286472149
 30
0.0
 11
143.2787956794
 21
63.4286472149
 31
0.0
  0
LINE
  5
219
  8
0
  6
CONTINUOUS
 62
     7
 10
135.2614167785
 20
57.7005014446
 30
0.0
 11
135.2614167785
 21
63.4286472149
 31
0.0
  0
LINE
  5
21A
  8
0
  6
CONTINUOUS
 62
     7
 10
134.2614167785
 20
75.4286472149
 30
0.0
 11
134.2614167785
 21
64.4286472149
 31
0.0
  0
LINE
  5
21B
  8
0
  6
CONTINUOUS
 62
     7
 10
125.0332016472
 20
75.4286472149
 30
0.0
 11
134.2614167785
 21
75.4286472149
 31
0.0
  0
LINE
  5
21C
  8
0
  6
CONTINUOUS
 62
     7
 10
134.2614167785
 20
64.4286472149
 30
0.0
 11
128.0242314959
 21
64.4286472149
 31
0.0
  0
LINE
  5
21D
  8
0
  6
CONTINUOUS
 62
     7
 10
134.2614167785
 20
87.4286472149
 30
0.0
 11
134.2614167785
 21
76.4286472149
 31
0.0
  0
LINE
  5
21E
  8
0
  6
CONTINUOUS
 62
     7
 10
128.0242314959
 20
87.4286472149
 30
0.0
 11
134.2614167785
 21
87.4286472149
 31
0.0
  0
LINE
  5
21F
  8
0
  6
CONTINUOUS
 62
     7
 10
134.2614167785
 20
76.4286472149
 30
0.0
 11
125.0332016472
 21
76.4286472149
 31
0.0
  0
LINE
  5
220
  8
0
  6
CONTINUOUS
 62
     7
 10
169.1651584245
 20
64.4286472149
 30
0.0
 11
162.927973142
 21
64.4286472149
 31
0.0
  0
LINE
  5
221
  8
0
  6
CONTINUOUS
 62
     7
 10
163.927973142
 20
64.9286472149
 30
0.0
 11
162.927973142
 21
64.4286472149
 31
0.0
  0
LINE
  5
222
  8
0
  6
CONTINUOUS
 62
     7
 10
163.927973142
 20
64.9286472149
 30
0.0
 11
168.569766827
 21
64.9286472149
 31
0.0
  0
LINE
  5
223
  8
0
  6
CONTINUOUS
 62
     7
 10
168.5700309233
 20
64.9285710624
 30
0.0
 11
168.569766827
 21
64.9286472149
 31
0.0
  0
LINE
  5
224
  8
0
  6
CONTINUOUS
 62
     7
 10
153.927973142
 20
76.9286472149
 30
0.0
 11
153.9279723548
 21
76.928642356
 31
0.0
  0
LINE
  5
225
  8
0
  6
CONTINUOUS
 62
     7
 10
153.927973142
 20
76.9286472149
 30
0.0
 11
160.927973142
 21
76.9286472149
 31
0.0
  0
LINE
  5
226
  8
0
  6
CONTINUOUS
 62
     7
 10
161.927973142
 20
76.4286472149
 30
0.0
 11
160.927973142
 21
76.9286472149
 31
0.0
  0
LINE
  5
227
  8
0
  6
CONTINUOUS
 62
     7
 10
161.927973142
 20
76.4286472149
 30
0.0
 11
153.9105942411
 21
76.4286472149
 31
0.0
  0
LINE
  5
228
  8
0
  6
CONTINUOUS
 62
     7
 10
161.927973142
 20
75.4286472149
 30
0.0
 11
161.427973142
 21
74.4286472149
 31
0.0
  0
LINE
  5
229
  8
0
  6
CONTINUOUS
 62
     7
 10
161.927973142
 20
75.4286472149
 30
0.0
 11
161.927973142
 21
64.4286472149
 31
0.0
  0
LINE
  5
22A
  8
0
  6
CONTINUOUS
 62
     7
 10
161.427973142
 20
65.4286472149
 30
0.0
 11
161.427973142
 21
74.4286472149
 31
0.0
  0
ARC
  5
22B
  8
0
  6
CONTINUOUS
 62
     7
 10
133.2614167785
 20
74.4286472149
 30
0.0
 40
0.5
 50
0.0
 51
90.0
  0
LINE
  5
22C
  8
0
  6
CONTINUOUS
 62
     7
 10
133.2614167785
 20
74.9286472149
 30
0.0
 11
134.2614167785
 21
75.4286472149
 31
0.0
  0
LINE
  5
22D
  8
0
  6
CONTINUOUS
 62
     7
 10
134.2614167785
 20
75.4286472149
 30
0.0
 11
133.7614167785
 21
74.4286472149
 31
0.0
  0
LINE
  5
22E
  8
0
  6
CONTINUOUS
 62
     7
 10
143.2614175656
 20
64.9286423561
 30
0.0
 11
143.2614167785
 21
64.9286472149
 31
0.0
  0
LINE
  5
22F
  8
0
  6
CONTINUOUS
 62
     7
 10
136.2614167785
 20
64.9286472149
 30
0.0
 11
135.2614167785
 21
64.4286472149
 31
0.0
  0
LINE
  5
230
  8
0
  6
CONTINUOUS
 62
     7
 10
136.2614167785
 20
64.9286472149
 30
0.0
 11
143.2614167785
 21
64.9286472149
 31
0.0
  0
ARC
  5
231
  8
0
  6
CONTINUOUS
 62
     7
 10
163.927973142
 20
74.4286472149
 30
0.0
 40
0.5
 50
90.0
 51
180.0
  0
LINE
  5
232
  8
0
  6
CONTINUOUS
 62
     7
 10
163.427973142
 20
74.4286472149
 30
0.0
 11
162.927973142
 21
75.4286472149
 31
0.0
  0
LINE
  5
233
  8
0
  6
CONTINUOUS
 62
     7
 10
126.0778796217
 20
74.9286520043
 30
0.0
 11
126.0778804959
 21
74.9286472149
 31
0.0
  0
LINE
  5
234
  8
0
  6
CONTINUOUS
 62
     7
 10
126.0776413751
 20
74.9287233673
 30
0.0
 11
126.0778796217
 21
74.9286520043
 31
0.0
  0
LINE
  5
235
  8
0
  6
CONTINUOUS
 62
     7
 10
133.2614167785
 20
74.9286472149
 30
0.0
 11
126.0778804959
 21
74.9286472149
 31
0.0
  0
LINE
  5
236
  8
0
  6
CONTINUOUS
 62
     7
 10
161.927973142
 20
88.4286472149
 30
0.0
 11
160.927973142
 21
88.9286472149
 31
0.0
  0
LINE
  5
237
  8
0
  6
CONTINUOUS
 62
     7
 10
161.927973142
 20
88.4286472149
 30
0.0
 11
153.9105942411
 21
88.4286472149
 31
0.0
  0
LINE
  5
238
  8
0
  6
CONTINUOUS
 62
     7
 10
153.927973142
 20
88.9286472149
 30
0.0
 11
153.9279723553
 21
88.9286423561
 31
0.0
  0
LINE
  5
239
  8
0
  6
CONTINUOUS
 62
     7
 10
153.927973142
 20
88.9286472149
 30
0.0
 11
160.927973142
 21
88.9286472149
 31
0.0
  0
ARC
  5
23A
  8
0
  6
CONTINUOUS
 62
     7
 10
148.5946949602
 20
75.9286472149
 30
0.0
 40
25.0
 50
311.2340951505
 51
48.7659048495
  0
ARC
  5
23B
  8
0
  6
CONTINUOUS
 62
     7
 10
148.5946949602
 20
75.9286472149
 30
0.0
 40
25.5
 50
311.2340951505
 51
48.7659048495
  0
LINE
  5
23C
  8
0
  6
CONTINUOUS
 62
     7
 10
153.9279723548
 20
74.9286520737
 30
0.0
 11
153.927973142
 21
74.9286472149
 31
0.0
  0
LINE
  5
23D
  8
0
  6
CONTINUOUS
 62
     7
 10
153.9105942411
 20
75.4286472149
 30
0.0
 11
161.927973142
 21
75.4286472149
 31
0.0
  0
LINE
  5
23E
  8
0
  6
CONTINUOUS
 62
     7
 10
160.927973142
 20
74.9286472149
 30
0.0
 11
161.927973142
 21
75.4286472149
 31
0.0
  0
LINE
  5
23F
  8
0
  6
CONTINUOUS
 62
     7
 10
160.927973142
 20
74.9286472149
 30
0.0
 11
153.927973142
 21
74.9286472149
 31
0.0
  0
LINE
  5
240
  8
0
  6
CONTINUOUS
 62
     7
 10
171.1115102988
 20
76.9286424255
 30
0.0
 11
171.1115094246
 21
76.9286472149
 31
0.0
  0
LINE
  5
241
  8
0
  6
CONTINUOUS
 62
     7
 10
171.1117485453
 20
76.9285710624
 30
0.0
 11
171.1115102988
 21
76.9286424255
 31
0.0
  0
LINE
  5
242
  8
0
  6
CONTINUOUS
 62
     7
 10
172.1561882732
 20
76.4286472149
 30
0.0
 11
162.927973142
 21
76.4286472149
 31
0.0
  0
LINE
  5
243
  8
0
  6
CONTINUOUS
 62
     7
 10
163.927973142
 20
76.9286472149
 30
0.0
 11
162.927973142
 21
76.4286472149
 31
0.0
  0
LINE
  5
244
  8
0
  6
CONTINUOUS
 62
     7
 10
163.927973142
 20
76.9286472149
 30
0.0
 11
171.1115094246
 21
76.9286472149
 31
0.0
  0
LINE
  5
245
  8
0
  6
CONTINUOUS
 62
     7
 10
143.2614175656
 20
88.9286423561
 30
0.0
 11
143.2614167785
 21
88.9286472149
 31
0.0
  0
LINE
  5
246
  8
0
  6
CONTINUOUS
 62
     7
 10
136.2614167785
 20
88.9286472149
 30
0.0
 11
135.2614167785
 21
88.4286472149
 31
0.0
  0
LINE
  5
247
  8
0
  6
CONTINUOUS
 62
     7
 10
136.2614167785
 20
88.9286472149
 30
0.0
 11
143.2614167785
 21
88.9286472149
 31
0.0
  0
LINE
  5
248
  8
0
  6
CONTINUOUS
 62
     7
 10
153.9279723548
 20
86.9286520737
 30
0.0
 11
153.927973142
 21
86.9286472149
 31
0.0
  0
LINE
  5
249
  8
0
  6
CONTINUOUS
 62
     7
 10
153.9105942411
 20
87.4286472149
 30
0.0
 11
161.927973142
 21
87.4286472149
 31
0.0
  0
LINE
  5
24A
  8
0
  6
CONTINUOUS
 62
     7
 10
160.927973142
 20
86.9286472149
 30
0.0
 11
161.927973142
 21
87.4286472149
 31
0.0
  0
LINE
  5
24B
  8
0
  6
CONTINUOUS
 62
     7
 10
160.927973142
 20
86.9286472149
 30
0.0
 11
153.927973142
 21
86.9286472149
 31
0.0
  0
ARC
  5
24C
  8
0
  6
CONTINUOUS
 62
     7
 10
136.2614167785
 20
77.4286472149
 30
0.0
 40
0.5
 50
180.0
 51
270.0
  0
LINE
  5
24D
  8
0
  6
CONTINUOUS
 62
     7
 10
136.2614167785
 20
76.9286472149
 30
0.0
 11
135.2614167785
 21
76.4286472149
 31
0.0
  0
ARC
  5
24E
  8
0
  6
CONTINUOUS
 62
     7
 10
163.927973142
 20
65.4286472149
 30
0.0
 40
0.5
 50
180.0
 51
270.0
  0
LINE
  5
24F
  8
0
  6
CONTINUOUS
 62
     7
 10
162.927973142
 20
64.4286472149
 30
0.0
 11
163.427973142
 21
65.4286472149
 31
0.0
  0
LINE
  5
250
  8
0
  6
CONTINUOUS
 62
     7
 10
143.2614167785
 20
62.9286472149
 30
0.0
 11
143.2614175651
 21
62.9286520736
 31
0.0
  0
LINE
  5
251
  8
0
  6
CONTINUOUS
 62
     7
 10
143.2614167785
 20
62.9286472149
 30
0.0
 11
136.2614167785
 21
62.9286472149
 31
0.0
  0
LINE
  5
252
  8
0
  6
CONTINUOUS
 62
     7
 10
135.2614167785
 20
63.4286472149
 30
0.0
 11
136.2614167785
 21
62.9286472149
 31
0.0
  0
LINE
  5
253
  8
0
  6
CONTINUOUS
 62
     7
 10
134.2614167785
 20
64.4286472149
 30
0.0
 11
133.2614167785
 21
64.9286472149
 31
0.0
  0
LINE
  5
254
  8
0
  6
CONTINUOUS
 62
     7
 10
128.6196230934
 20
64.9286472149
 30
0.0
 11
128.6193589972
 21
64.9285710624
 31
0.0
  0
LINE
  5
255
  8
0
  6
CONTINUOUS
 62
     7
 10
128.6196230934
 20
64.9286472149
 30
0.0
 11
133.2614167785
 21
64.9286472149
 31
0.0
  0
LINE
  5
256
  8
0
  6
CONTINUOUS
 62
     7
 10
143.2614167785
 20
74.9286472149
 30
0.0
 11
143.2614175656
 21
74.9286520737
 31
0.0
  0
LINE
  5
257
  8
0
  6
CONTINUOUS
 62
     7
 10
143.2614167785
 20
74.9286472149
 30
0.0
 11
136.2614167785
 21
74.9286472149
 31
0.0
  0
LINE
  5
258
  8
0
  6
CONTINUOUS
 62
     7
 10
135.2614167785
 20
75.4286472149
 30
0.0
 11
136.2614167785
 21
74.9286472149
 31
0.0
  0
LINE
  5
259
  8
0
  6
CONTINUOUS
 62
     7
 10
143.2614167785
 20
86.9286472149
 30
0.0
 11
143.2614175651
 21
86.9286520736
 31
0.0
  0
LINE
  5
25A
  8
0
  6
CONTINUOUS
 62
     7
 10
143.2614167785
 20
86.9286472149
 30
0.0
 11
136.2614167785
 21
86.9286472149
 31
0.0
  0
LINE
  5
25B
  8
0
  6
CONTINUOUS
 62
     7
 10
135.2614167785
 20
87.4286472149
 30
0.0
 11
136.2614167785
 21
86.9286472149
 31
0.0
  0
LINE
  5
25C
  8
0
  6
CONTINUOUS
 62
     7
 10
153.927973142
 20
64.9286472149
 30
0.0
 11
153.9279723548
 21
64.928642356
 31
0.0
  0
LINE
  5
25D
  8
0
  6
CONTINUOUS
 62
     7
 10
153.927973142
 20
64.9286472149
 30
0.0
 11
160.927973142
 21
64.9286472149
 31
0.0
  0
LINE
  5
25E
  8
0
  6
CONTINUOUS
 62
     7
 10
161.927973142
 20
64.4286472149
 30
0.0
 11
153.9105942411
 21
64.4286472149
 31
0.0
  0
LINE
  5
25F
  8
0
  6
CONTINUOUS
 62
     7
 10
163.427973142
 20
86.4286472149
 30
0.0
 11
162.927973142
 21
87.4286472149
 31
0.0
  0
LINE
  5
260
  8
0
  6
CONTINUOUS
 62
     7
 10
163.427973142
 20
86.4286472149
 30
0.0
 11
163.427973142
 21
77.4286472149
 31
0.0
  0
LINE
  5
261
  8
0
  6
CONTINUOUS
 62
     7
 10
162.927973142
 20
76.4286472149
 30
0.0
 11
163.427973142
 21
77.4286472149
 31
0.0
  0
LINE
  5
262
  8
0
  6
CONTINUOUS
 62
     7
 10
162.927973142
 20
76.4286472149
 30
0.0
 11
162.927973142
 21
87.4286472149
 31
0.0
  0
LINE
  5
263
  8
0
  6
CONTINUOUS
 62
     7
 10
163.427973142
 20
74.4286472149
 30
0.0
 11
163.427973142
 21
65.4286472149
 31
0.0
  0
LINE
  5
264
  8
0
  6
CONTINUOUS
 62
     7
 10
162.927973142
 20
64.4286472149
 30
0.0
 11
162.927973142
 21
75.4286472149
 31
0.0
  0
LINE
  5
265
  8
0
  6
CONTINUOUS
 62
     7
 10
161.427973142
 20
77.4286472149
 30
0.0
 11
161.927973142
 21
76.4286472149
 31
0.0
  0
LINE
  5
266
  8
0
  6
CONTINUOUS
 62
     7
 10
161.427973142
 20
77.4286472149
 30
0.0
 11
161.427973142
 21
86.4286472149
 31
0.0
  0
LINE
  5
267
  8
0
  6
CONTINUOUS
 62
     7
 10
161.927973142
 20
87.4286472149
 30
0.0
 11
161.427973142
 21
86.4286472149
 31
0.0
  0
LINE
  5
268
  8
0
  6
CONTINUOUS
 62
     7
 10
161.927973142
 20
87.4286472149
 30
0.0
 11
161.927973142
 21
76.4286472149
 31
0.0
  0
LINE
  5
269
  8
0
  6
CONTINUOUS
 62
     7
 10
161.927973142
 20
63.4286472149
 30
0.0
 11
161.927973142
 21
57.7005014446
 31
0.0
  0
LINE
  5
26A
  8
0
  6
CONTINUOUS
 62
     7
 10
153.9105942411
 20
63.4286472149
 30
0.0
 11
161.927973142
 21
63.4286472149
 31
0.0
  0
LINE
  5
26B
  8
0
  6
CONTINUOUS
 62
     7
 10
162.927973142
 20
87.4286472149
 30
0.0
 11
169.1651584245
 21
87.4286472149
 31
0.0
  0
LINE
  5
26C
  8
0
  6
CONTINUOUS
 62
     7
 10
135.7614167785
 20
62.4286472149
 30
0.0
 11
135.2614167785
 21
63.4286472149
 31
0.0
  0
LINE
  5
26D
  8
0
  6
CONTINUOUS
 62
     7
 10
135.7614167785
 20
62.4286472149
 30
0.0
 11
135.7614167785
 21
57.030400064
 31
0.0
  0
ARC
  5
26E
  8
0
  6
CONTINUOUS
 62
     7
 10
133.2614167785
 20
65.4286472149
 30
0.0
 40
0.5
 50
270.0
 51
360.0
  0
LINE
  5
26F
  8
0
  6
CONTINUOUS
 62
     7
 10
133.7614167785
 20
65.4286472149
 30
0.0
 11
134.2614167785
 21
64.4286472149
 31
0.0
  0
ARC
  5
270
  8
0
  6
CONTINUOUS
 62
     7
 10
148.5946949602
 20
75.9286472149
 30
0.0
 40
25.5
 50
131.2340951505
 51
228.7659048495
  0
ARC
  5
271
  8
0
  6
CONTINUOUS
 62
     7
 10
133.2614167785
 20
77.4286472149
 30
0.0
 40
0.5
 50
270.0
 51
0.0
  0
LINE
  5
272
  8
0
  6
CONTINUOUS
 62
     7
 10
133.7614167785
 20
77.4286472149
 30
0.0
 11
134.2614167785
 21
76.4286472149
 31
0.0
  0
LINE
  5
273
  8
0
  6
CONTINUOUS
 62
     7
 10
134.2614167785
 20
76.4286472149
 30
0.0
 11
133.2614167785
 21
76.9286472149
 31
0.0
  0
LINE
  5
274
  8
0
  6
CONTINUOUS
 62
     7
 10
133.7614167785
 20
77.4286472149
 30
0.0
 11
133.7614167785
 21
86.4286472149
 31
0.0
  0
LINE
  5
275
  8
0
  6
CONTINUOUS
 62
     7
 10
134.2614167785
 20
87.4286472149
 30
0.0
 11
133.7614167785
 21
86.4286472149
 31
0.0
  0
ARC
  5
276
  8
0
  6
CONTINUOUS
 62
     7
 10
160.927973142
 20
74.4286472149
 30
0.0
 40
0.5
 50
0.0
 51
90.0
  0
LINE
  5
277
  8
0
  6
CONTINUOUS
 62
     7
 10
133.2614167785
 20
86.9286472149
 30
0.0
 11
134.2614167785
 21
87.4286472149
 31
0.0
  0
LINE
  5
278
  8
0
  6
CONTINUOUS
 62
     7
 10
133.2614167785
 20
86.9286472149
 30
0.0
 11
128.6196230934
 21
86.9286472149
 31
0.0
  0
LINE
  5
279
  8
0
  6
CONTINUOUS
 62
     7
 10
128.6193589972
 20
86.9287233673
 30
0.0
 11
128.6196230934
 21
86.9286472149
 31
0.0
  0
LINE
  5
27A
  8
0
  6
CONTINUOUS
 62
     7
 10
135.2614167785
 20
64.4286472149
 30
0.0
 11
135.7614167785
 21
65.4286472149
 31
0.0
  0
LINE
  5
27B
  8
0
  6
CONTINUOUS
 62
     7
 10
135.7614167785
 20
74.4286472149
 30
0.0
 11
135.2614167785
 21
75.4286472149
 31
0.0
  0
LINE
  5
27C
  8
0
  6
CONTINUOUS
 62
     7
 10
135.7614167785
 20
74.4286472149
 30
0.0
 11
135.7614167785
 21
65.4286472149
 31
0.0
  0
LINE
  5
27D
  8
0
  6
CONTINUOUS
 62
     7
 10
143.2614175651
 20
76.9286423561
 30
0.0
 11
143.2614167785
 21
76.9286472149
 31
0.0
  0
LINE
  5
27E
  8
0
  6
CONTINUOUS
 62
     7
 10
136.2614167785
 20
76.9286472149
 30
0.0
 11
143.2614167785
 21
76.9286472149
 31
0.0
  0
LINE
  5
27F
  8
0
  6
CONTINUOUS
 62
     7
 10
161.927973142
 20
63.4286472149
 30
0.0
 11
161.427973142
 21
62.4286472149
 31
0.0
  0
LINE
  5
280
  8
0
  6
CONTINUOUS
 62
     7
 10
161.427973142
 20
57.030400064
 30
0.0
 11
161.427973142
 21
62.4286472149
 31
0.0
  0
ARC
  5
281
  8
0
  6
CONTINUOUS
 62
     7
 10
136.2614167785
 20
74.4286472149
 30
0.0
 40
0.5
 50
90.0
 51
180.0
  0
LINE
  5
282
  8
0
  6
CONTINUOUS
 62
     7
 10
160.927973142
 20
62.9286472149
 30
0.0
 11
161.927973142
 21
63.4286472149
 31
0.0
  0
LINE
  5
283
  8
0
  6
CONTINUOUS
 62
     7
 10
160.927973142
 20
62.9286472149
 30
0.0
 11
153.927973142
 21
62.9286472149
 31
0.0
  0
LINE
  5
284
  8
0
  6
CONTINUOUS
 62
     7
 10
153.9279723553
 20
62.9286520736
 30
0.0
 11
153.927973142
 21
62.9286472149
 31
0.0
  0
ARC
  5
285
  8
0
  6
CONTINUOUS
 62
     7
 10
160.927973142
 20
77.4286472149
 30
0.0
 40
0.5
 50
270.0
 51
0.0
  0
LINE
  5
286
  8
0
  6
CONTINUOUS
 62
     7
 10
162.927973142
 20
87.4286472149
 30
0.0
 11
163.927973142
 21
86.9286472149
 31
0.0
  0
LINE
  5
287
  8
0
  6
CONTINUOUS
 62
     7
 10
168.569766827
 20
86.9286472149
 30
0.0
 11
168.5700309233
 21
86.9287233673
 31
0.0
  0
LINE
  5
288
  8
0
  6
CONTINUOUS
 62
     7
 10
168.569766827
 20
86.9286472149
 30
0.0
 11
163.927973142
 21
86.9286472149
 31
0.0
  0
ARC
  5
289
  8
0
  6
CONTINUOUS
 62
     7
 10
163.927973142
 20
77.4286472149
 30
0.0
 40
0.5
 50
180.0
 51
270.0
  0
LINE
  5
28A
  8
0
  6
CONTINUOUS
 62
     7
 10
126.0778796214
 20
76.9286424254
 30
0.0
 11
126.0776413751
 21
76.9285710624
 31
0.0
  0
LINE
  5
28B
  8
0
  6
CONTINUOUS
 62
     7
 10
126.0778804959
 20
76.9286472149
 30
0.0
 11
126.0778796214
 21
76.9286424254
 31
0.0
  0
LINE
  5
28C
  8
0
  6
CONTINUOUS
 62
     7
 10
126.0778804959
 20
76.9286472149
 30
0.0
 11
133.2614167785
 21
76.9286472149
 31
0.0
  0
LINE
  5
28D
  8
0
  6
CONTINUOUS
 62
     7
 10
133.7614167785
 20
65.4286472149
 30
0.0
 11
133.7614167785
 21
74.4286472149
 31
0.0
  0
ARC
  5
28E
  8
0
  6
CONTINUOUS
 62
     7
 10
136.2614167785
 20
62.4286472149
 30
0.0
 40
0.5
 50
90.0
 51
180.0
  0
ARC
  5
28F
  8
0
  6
CONTINUOUS
 62
     7
 10
133.2614167785
 20
86.4286472149
 30
0.0
 40
0.5
 50
0.0
 51
90.0
  0
ARC
  5
290
  8
0
  6
CONTINUOUS
 62
     7
 10
136.2614167785
 20
65.4286472149
 30
0.0
 40
0.5
 50
180.0
 51
270.0
  0
ARC
  5
291
  8
0
  6
CONTINUOUS
 62
     7
 10
160.927973142
 20
62.4286472149
 30
0.0
 40
0.5
 50
0.0
 51
90.0
  0
ARC
  5
292
  8
0
  6
CONTINUOUS
 62
     7
 10
163.927973142
 20
86.4286472149
 30
0.0
 40
0.5
 50
90.0
 51
180.0
  0
ARC
  5
293
  8
0
  6
CONTINUOUS
 62
     7
 10
136.2614167785
 20
86.4286472149
 30
0.0
 40
0.5
 50
90.0
 51
180.0
  0
ARC
  5
294
  8
0
  6
CONTINUOUS
 62
     7
 10
133.2614167785
 20
89.4286472149
 30
0.0
 40
0.5
 50
270.0
 51
0.0
  0
ARC
  5
295
  8
0
  6
CONTINUOUS
 62
     7
 10
163.927973142
 20
89.4286472149
 30
0.0
 40
0.5
 50
180.0
 51
270.0
  0
ARC
  5
296
  8
0
  6
CONTINUOUS
 62
     7
 10
136.2614167785
 20
89.4286472149
 30
0.0
 40
0.5
 50
180.0
 51
270.0
  0
ARC
  5
297
  8
0
  6
CONTINUOUS
 62
     7
 10
133.2614167785
 20
62.4286472149
 30
0.0
 40
0.5
 50
0.0
 51
90.0
  0
ARC
  5
298
  8
0
  6
CONTINUOUS
 62
     7
 10
163.927973142
 20
62.4286472149
 30
0.0
 40
0.5
 50
90.0
 51
180.0
  0
ARC
  5
299
  8
0
  6
CONTINUOUS
 62
     7
 10
160.927973142
 20
86.4286472149
 30
0.0
 40
0.5
 50
0.0
 51
90.0
  0
ARC
  5
29A
  8
0
  6
CONTINUOUS
 62
     7
 10
160.927973142
 20
89.4286472149
 30
0.0
 40
0.5
 50
270.0
 51
0.0
  0
ARC
  5
29B
  8
0
  6
CONTINUOUS
 62
     7
 10
133.2616953825
 20
92.4866521047
 30
0.0
 40
0.5006775758073696
 50
0.2879789308
 51
132.4610885882
  0
ARC
  5
29C
  8
0
  6
CONTINUOUS
 62
     7
 10
163.9276945379
 20
59.370642325
 30
0.0
 40
0.5006775758073982
 50
180.2879789308
 51
312.4610885882
  0
ARC
  5
29D
  8
0
  6
CONTINUOUS
 62
     7
 10
163.9276945379
 20
92.4866521047
 30
0.0
 40
0.5006775758073696
 50
47.5389114118
 51
179.7120210692
  0
ARC
  5
29E
  8
0
  6
CONTINUOUS
 62
     7
 10
133.2616953825
 20
59.370642325
 30
0.0
 40
0.5006775758073696
 50
227.5389114118
 51
359.7120210692
  0
ARC
  5
29F
  8
0
  6
CONTINUOUS
 62
     7
 10
166.6780279943
 20
62.4286472149
 30
0.0
 40
0.4999999999999876
 50
323.2692719609
 51
89.9725333721
  0
ARC
  5
2A0
  8
0
  6
CONTINUOUS
 62
     7
 10
130.5113619261
 20
62.4286472149
 30
0.0
 40
0.4999999999999932
 50
90.0002466517
 51
216.7126760181
  0
ARC
  5
2A1
  8
0
  6
CONTINUOUS
 62
     7
 10
130.5113619261
 20
89.4286472149
 30
0.0
 40
0.5000000000000231
 50
143.2692719609
 51
269.9725333721
  0
ARC
  5
2A2
  8
0
  6
CONTINUOUS
 62
     7
 10
166.6780279943
 20
89.4286472149
 30
0.0
 40
0.4999999999999996
 50
270.0
 51
36.7126760181
  0
ARC
  5
2A3
  8
0
  6
CONTINUOUS
 62
     7
 10
133.2614167785
 20
92.4860477905
 30
0.0
 40
0.5000000000000094
 50
359.9881045893
 51
132.787445852
  0
LINE
  5
2A4
  8
0
  6
CONTINUOUS
 62
     7
 10
132.9217765162
 20
92.8529871691
 30
0.0
 11
132.9236932868
 21
92.8560199677
 31
0.0
  0
LINE
  5
2A5
  8
0
  6
CONTINUOUS
 62
     7
 10
164.2676134042
 20
59.0043072606
 30
0.0
 11
164.2656966336
 21
59.001274462
 31
0.0
  0
ARC
  5
2A6
  8
0
  6
CONTINUOUS
 62
     7
 10
163.927973142
 20
59.3712466392
 30
0.0
 40
0.5000000000000379
 50
179.9881045893
 51
312.787445852
  0
LINE
  5
2A7
  8
0
  6
CONTINUOUS
 62
     7
 10
132.9236932868
 20
59.001274462
 30
0.0
 11
132.9217765162
 21
59.0043072606
 31
0.0
  0
ARC
  5
2A8
  8
0
  6
CONTINUOUS
 62
     7
 10
133.2614167785
 20
59.3712466392
 30
0.0
 40
0.4999999999999963
 50
227.2125553795
 51
0.0118941954
  0
LINE
  5
2A9
  8
0
  6
CONTINUOUS
 62
     7
 10
164.2656966336
 20
92.8560199677
 30
0.0
 11
164.2676134042
 21
92.8529871691
 31
0.0
  0
ARC
  5
2AA
  8
0
  6
CONTINUOUS
 62
     7
 10
163.927973142
 20
92.4860477905
 30
0.0
 40
0.5000000000000248
 50
47.2125553795
 51
180.0118941954
  0
ARC
  5
2AB
  8
0
  6
CONTINUOUS
 62
     7
 10
148.5946949602
 20
75.9286472149
 30
0.0
 40
23.06672181825373
 50
216.7429504953
 51
227.198372347
  0
ARC
  5
2AC
  8
0
  6
CONTINUOUS
 62
     7
 10
148.5946949602
 20
75.9286472149
 30
0.0
 40
23.06672181825371
 50
36.7429504953
 51
47.198372347
  0
ARC
  5
2AD
  8
0
  6
CONTINUOUS
 62
     7
 10
148.5946949602
 20
75.9286472149
 30
0.0
 40
23.06672181825373
 50
132.801627653
 51
143.2570495047
  0
ARC
  5
2AE
  8
0
  6
CONTINUOUS
 62
     7
 10
148.5946949602
 20
75.9286472149
 30
0.0
 40
23.06672181825371
 50
312.801627653
 51
323.2570495047
  0
ARC
  5
2AF
  8
0
  6
CONTINUOUS
 62
     7
 10
126.0779002523
 20
74.4286332188
 30
0.0
 40
0.5000187859298882
 50
90.0023640083
 51
183.8044208456
  0
LINE
  5
2B0
  8
0
  6
CONTINUOUS
 62
     7
 10
125.5789833319
 20
74.3954565278
 30
0.0
 11
125.5788228852
 21
74.3955735135
 31
0.0
  0
LINE
  5
2B1
  8
0
  6
CONTINUOUS
 62
     7
 10
171.6104065885
 20
77.4618379019
 30
0.0
 11
171.6105670352
 21
77.4617209162
 31
0.0
  0
ARC
  5
2B2
  8
0
  6
CONTINUOUS
 62
     7
 10
171.1114896681
 20
77.428661211
 30
0.0
 40
0.5000187859298598
 50
270.0023640083
 51
3.8044208456
  0
LINE
  5
2B3
  8
0
  6
CONTINUOUS
 62
     7
 10
125.5788228852
 20
77.4617209162
 30
0.0
 11
125.5789833319
 21
77.4618379019
 31
0.0
  0
ARC
  5
2B4
  8
0
  6
CONTINUOUS
 62
     7
 10
126.0779009442
 20
77.4286618583
 30
0.0
 40
0.5000194333538395
 50
176.1956584308
 51
269.9975566812
  0
LINE
  5
2B5
  8
0
  6
CONTINUOUS
 62
     7
 10
171.6105670352
 20
74.3955735135
 30
0.0
 11
171.6104065885
 21
74.3954565278
 31
0.0
  0
ARC
  5
2B6
  8
0
  6
CONTINUOUS
 62
     7
 10
171.1114889762
 20
74.4286325714
 30
0.0
 40
0.5000194333538405
 50
356.1956584308
 51
89.9975566812
  0
LINE
  5
2B7
  8
0
  6
CONTINUOUS
 62
     7
 10
128.1768469748
 20
65.1958858745
 30
0.0
 11
128.1769570827
 21
65.1960037657
 31
0.0
  0
ARC
  5
2B8
  8
0
  6
CONTINUOUS
 62
     7
 10
128.6195370479
 20
65.4286472148
 30
0.0
 40
0.4999999999840696
 50
207.728791193
 51
270.0000000011
  0
LINE
  5
2B9
  8
0
  6
CONTINUOUS
 62
     7
 10
128.6195370479
 20
64.9286472149
 30
0.0
 11
128.6196230934
 21
64.9286472149
 31
0.0
  0
LINE
  5
2BA
  8
0
  6
CONTINUOUS
 62
     7
 10
169.0125429457
 20
86.6614085552
 30
0.0
 11
169.0124328377
 21
86.661290664
 31
0.0
  0
ARC
  5
2BB
  8
0
  6
CONTINUOUS
 62
     7
 10
168.5698528725
 20
86.4286472149
 30
0.0
 40
0.4999999999985221
 50
27.728791194
 51
90.0000000001
  0
LINE
  5
2BC
  8
0
  6
CONTINUOUS
 62
     7
 10
168.5698528725
 20
86.9286472149
 30
0.0
 11
168.569766827
 21
86.9286472149
 31
0.0
  0
ARC
  5
2BD
  8
0
  6
CONTINUOUS
 62
     7
 10
168.5698528725
 20
65.4286472149
 30
0.0
 40
0.5000000000004263
 50
270.0
 51
332.2712088059
  0
LINE
  5
2BE
  8
0
  6
CONTINUOUS
 62
     7
 10
169.0124328377
 20
65.1960037657
 30
0.0
 11
169.0125429457
 21
65.1958858745
 31
0.0
  0
LINE
  5
2BF
  8
0
  6
CONTINUOUS
 62
     7
 10
168.569766827
 20
64.9286472149
 30
0.0
 11
168.5698528725
 21
64.9286472149
 31
0.0
  0
LINE
  5
2C0
  8
0
  6
CONTINUOUS
 62
     7
 10
128.6196230934
 20
86.9286472149
 30
0.0
 11
128.6195370479
 21
86.9286472149
 31
0.0
  0
ARC
  5
2C1
  8
0
  6
CONTINUOUS
 62
     7
 10
128.6195370479
 20
86.4286472149
 30
0.0
 40
0.5000000000002337
 50
90.0
 51
152.2712088059
  0
LINE
  5
2C2
  8
0
  6
CONTINUOUS
 62
     7
 10
128.1769570827
 20
86.661290664
 30
0.0
 11
128.1768469748
 21
86.6614085552
 31
0.0
  0
LINE
  5
2C3
  8
0
  6
CONTINUOUS
 62
     7
 10
125.5789833319
 20
77.4618379019
 30
0.0
 11
125.5789862691
 21
77.4618819933
 31
0.0
  0
ARC
  5
2C4
  8
0
  6
CONTINUOUS
 62
     7
 10
148.5946949602
 20
75.9286472149
 30
0.0
 40
23.06672181825373
 50
152.2712088059
 51
176.1887649345
  0
LINE
  5
2C5
  8
0
  6
CONTINUOUS
 62
     7
 10
171.6104065885
 20
74.3954565278
 30
0.0
 11
171.6104036513
 21
74.3954124364
 31
0.0
  0
ARC
  5
2C6
  8
0
  6
CONTINUOUS
 62
     7
 10
148.5946949602
 20
75.9286472149
 30
0.0
 40
23.06672181825373
 50
332.2712088059
 51
356.1887649345
  0
LINE
  5
2C7
  8
0
  6
CONTINUOUS
 62
     7
 10
171.6104036513
 20
77.4618819933
 30
0.0
 11
171.6104065866
 21
77.4618379017
 31
0.0
  0
ARC
  5
2C8
  8
0
  6
CONTINUOUS
 62
     7
 10
148.5946949602
 20
75.9286472149
 30
0.0
 40
23.06672181825373
 50
3.8112350655
 51
27.7287911941
  0
LINE
  5
2C9
  8
0
  6
CONTINUOUS
 62
     7
 10
125.5789862691
 20
74.3954124364
 30
0.0
 11
125.5789833338
 21
74.395456528
 31
0.0
  0
ARC
  5
2CA
  8
0
  6
CONTINUOUS
 62
     7
 10
148.5946949602
 20
75.9286472149
 30
0.0
 40
23.06672181825373
 50
183.8112350655
 51
207.7287911941
  0
ARC
  5
2CB
  8
0
  6
CONTINUOUS
 62
     7
 10
147.5387583164
 20
74.4324756197
 30
0.0
 40
21.23576194148765
 50
233.6969546634
 51
236.2871592082
  0
LINE
  5
2CC
  8
0
  6
CONTINUOUS
 62
     7
 10
171.6104036513
 20
74.3954124364
 30
0.0
 11
171.611027499
 21
74.4049567403
 31
0.0
  0
LINE
  5
2CD
  8
0
  6
CENTER
 62
     7
 10
180.2146949602
 20
75.9286472149
 30
0.0
 11
116.9746949602
 21
75.9286472149
 31
0.0
  0
LINE
  5
2CE
  8
0
  6
CONTINUOUS
 62
     7
 10
178.2146949602
 20
63.9286472149
 30
0.0
 11
178.2146949602
 21
75.9286472149
 31
0.0
  0
SOLID
  5
2CF
  8
0
  6
CONTINUOUS
 62
     7
 10
178.2146949602
 20
75.9286472149
 30
0.0
 11
176.7146949602
 21
69.9286472149
 31
0.0
 12
179.7146949602
 22
69.9286472149
 32
0.0
 13
179.7146949602
 23
69.9286472149
 33
0.0
  0
LINE
  5
2D0
  8
0
  6
CONTINUOUS
 62
     7
 10
118.9746949602
 20
63.9286472149
 30
0.0
 11
118.9746949602
 21
75.9286472149
 31
0.0
  0
SOLID
  5
2D1
  8
0
  6
CONTINUOUS
 62
     7
 10
118.9746949602
 20
75.9286472149
 30
0.0
 11
117.4746949602
 21
69.9286472149
 31
0.0
 12
120.4746949602
 22
69.9286472149
 32
0.0
 13
120.4746949602
 23
69.9286472149
 33
0.0
  0
TEXT
  5
2D2
  8
0
  6
CONTINUOUS
 62
     7
 10
180.7194979761
 20
67.6650845496
 30
0.0
 40
6.35
  1
A
 41
0.7
 11
180.7194979761
 21
74.0150845496
 31
0.0
 73
     3
  0
TEXT
  5
2D3
  8
0
  6
CONTINUOUS
 62
     7
 10
110.2078844046
 20
67.6650845496
 30
0.0
 40
6.35
  1
A
 41
0.7
 11
110.2078844046
 21
74.0150845496
 31
0.0
 73
     3
  0
LINE
  5
2D4
  8
0
  6
CONTINUOUS
 62
     7
 10
127.653926597
 20
138.2076444215
 30
0.0
 11
123.0946949602
 21
133.6484127847
 31
0.0
  0
LINE
  5
2D5
  8
0
  6
CONTINUOUS
 62
     7
 10
132.1440546575
 20
138.2076444215
 30
0.0
 11
130.1440546575
 21
136.2076444215
 31
0.0
  0
LINE
  5
2D6
  8
0
  6
CONTINUOUS
 62
     7
 10
136.6341827181
 20
138.2076444215
 30
0.0
 11
134.6341827181
 21
136.2076444215
 31
0.0
  0
LINE
  5
2D7
  8
0
  6
CONTINUOUS
 62
     7
 10
146.6234404263
 20
148.1969021297
 30
0.0
 11
143.8969157882
 21
145.4703774916
 31
0.0
  0
LINE
  5
2D8
  8
0
  6
CONTINUOUS
 62
     7
 10
141.1243107786
 20
138.2076444215
 30
0.0
 11
139.1243107786
 21
136.2076444215
 31
0.0
  0
LINE
  5
2D9
  8
0
  6
CONTINUOUS
 62
     7
 10
145.941504057
 20
143.0248376999
 30
0.0
 11
143.8171479588
 21
140.9004816016
 31
0.0
  0
LINE
  5
2DA
  8
0
  6
CONTINUOUS
 62
     7
 10
151.076745703
 20
148.1600793458
 30
0.0
 11
148.7685985009
 21
145.8519321438
 31
0.0
  0
LINE
  5
2DB
  8
0
  6
CONTINUOUS
 62
     7
 10
145.8617362275
 20
138.4549418099
 30
0.0
 11
143.5337592292
 21
136.1269648116
 31
0.0
  0
LINE
  5
2DC
  8
0
  6
CONTINUOUS
 62
     7
 10
153.2853493682
 20
145.8785549505
 30
0.0
 11
151.1829865732
 21
143.7761921556
 31
0.0
  0
LINE
  5
2DD
  8
0
  6
CONTINUOUS
 62
     7
 10
145.3295562159
 20
133.4326337377
 30
0.0
 11
144.1238608012
 21
132.226938323
 31
0.0
  0
LINE
  5
2DE
  8
0
  6
CONTINUOUS
 62
     7
 10
153.3623802657
 20
141.4654577875
 30
0.0
 11
151.3109134279
 21
139.4139909497
 31
0.0
  0
LINE
  5
2DF
  8
0
  6
CONTINUOUS
 62
     7
 10
154.5946949602
 20
138.2076444215
 30
0.0
 11
151.4286994012
 21
135.0416488625
 31
0.0
  0
LINE
  5
2E0
  8
0
  6
CONTINUOUS
 62
     7
 10
153.3873066723
 20
132.510128073
 30
0.0
 11
153.1254894904
 21
132.2483108912
 31
0.0
  0
LINE
  5
2E1
  8
0
  6
CONTINUOUS
 62
     7
 10
159.0848230207
 20
138.2076444215
 30
0.0
 11
157.0848230207
 21
136.2076444215
 31
0.0
  0
LINE
  5
2E2
  8
0
  6
CONTINUOUS
 62
     7
 10
163.5749510813
 20
138.2076444215
 30
0.0
 11
161.5749510813
 21
136.2076444215
 31
0.0
  0
LINE
  5
2E3
  8
0
  6
CONTINUOUS
 62
     7
 10
168.0650791418
 20
138.2076444215
 30
0.0
 11
166.0650791418
 21
136.2076444215
 31
0.0
  0
LINE
  5
2E4
  8
0
  6
CONTINUOUS
 62
     7
 10
172.5552072024
 20
138.2076444215
 30
0.0
 11
170.5552072024
 21
136.2076444215
 31
0.0
  0
LINE
  5
2E5
  8
0
  6
CONTINUOUS
 62
     7
 10
174.0946949602
 20
135.2570041188
 30
0.0
 11
171.6614167785
 21
132.8237259371
 31
0.0
  0
ARC
  5
2E6
  8
0
  6
CONTINUOUS
 62
     7
 10
171.1779446317
 20
135.7225195508
 30
0.0
 40
0.4738485730393334
 50
9.8971791778
 51
50.042293496
  0
POLYLINE
  5
2E7
  8
0
  6
CONTINUOUS
 62
     7
 66
     1
 10
0.0
 20
0.0
 30
0.0
 70
   128
  0
VERTEX
  5
3FE
  8
0
  6
CONTINUOUS
 62
     7
 10
125.5775982236
 20
136.7077341831
 30
0.0
  0
VERTEX
  5
3FF
  8
0
  6
CONTINUOUS
 62
     7
 10
125.576788733
 20
136.5307623072
 30
0.0
  0
VERTEX
  5
400
  8
0
  6
CONTINUOUS
 62
     7
 10
125.5725908856
 20
136.3189089265
 30
0.0
  0
VERTEX
  5
401
  8
0
  6
CONTINUOUS
 62
     7
 10
125.565847753
 20
136.1276981692
 30
0.0
  0
VERTEX
  5
402
  8
0
  6
CONTINUOUS
 62
     7
 10
125.5577023531
 20
135.9695975181
 30
0.0
  0
VERTEX
  5
403
  8
0
  6
CONTINUOUS
 62
     7
 10
125.5496651043
 20
135.8556781054
 30
0.0
  0
VERTEX
  5
404
  8
0
  6
CONTINUOUS
 62
     7
 10
125.5451814307
 20
135.8086510607
 30
0.0
  0
VERTEX
  5
405
  8
0
  6
CONTINUOUS
 62
     7
 10
125.5445047431
 20
135.8029513883
 30
0.0
  0
VERTEX
  5
406
  8
0
  6
CONTINUOUS
 62
     7
 10
125.5475477878
 20
135.81942688
 30
0.0
  0
VERTEX
  5
407
  8
0
  6
CONTINUOUS
 62
     7
 10
125.5537349647
 20
135.8448761245
 30
0.0
  0
VERTEX
  5
408
  8
0
  6
CONTINUOUS
 62
     7
 10
125.5690991902
 20
135.8911997362
 30
0.0
  0
VERTEX
  5
409
  8
0
  6
CONTINUOUS
 62
     7
 10
125.6339384933
 20
136.0078338573
 30
0.0
  0
VERTEX
  5
40A
  8
0
  6
CONTINUOUS
 62
     7
 10
125.7478865051
 20
136.1179942027
 30
0.0
  0
VERTEX
  5
40B
  8
0
  6
CONTINUOUS
 62
     7
 10
125.8274714694
 20
136.1583289152
 30
0.0
  0
SEQEND
  5
4B8
  8
0
  6
CONTINUOUS
 62
     7
  0
LINE
  5
2E8
  8
0
  6
CONTINUOUS
 62
     7
 10
167.381407022
 20
136.2075637206
 30
0.0
 11
167.3835065915
 21
136.2075698492
 31
0.0
  0
ARC
  5
2E9
  8
0
  6
CONTINUOUS
 62
     7
 10
123.5946949602
 20
132.7076444215
 30
0.0
 40
0.5
 50
180.0
 51
270.0
  0
ARC
  5
2EA
  8
0
  6
CONTINUOUS
 62
     7
 10
142.5257117278
 20
132.5896261272
 30
0.0
 40
0.6287143317952614
 50
322.5867135703
 51
10.8193883973
  0
LINE
  5
2EB
  8
0
  6
CONTINUOUS
 62
     7
 10
143.0250830201
 20
132.2076444215
 30
0.0
 11
125.027973142
 21
132.2076444215
 31
0.0
  0
ARC
  5
2EC
  8
0
  6
CONTINUOUS
 62
     7
 10
125.027973142
 20
132.7076444215
 30
0.0
 40
0.5
 50
270.0
 51
0.0
  0
LINE
  5
2ED
  8
0
  6
CONTINUOUS
 62
     7
 10
125.527973142
 20
132.7076444215
 30
0.0
 11
143.1432498993
 21
132.7076444215
 31
0.0
  0
ARC
  5
2EE
  8
0
  6
CONTINUOUS
 62
     7
 10
126.0335157888
 20
135.7078657094
 30
0.0
 40
0.4997787120648373
 50
90.0003252543
 51
114.6613426762
  0
LINE
  5
2EF
  8
0
  6
CONTINUOUS
 62
     7
 10
125.5336356946
 20
135.7076444215
 30
0.0
 11
125.527973142
 21
135.7076444215
 31
0.0
  0
ARC
  5
2F0
  8
0
  6
CONTINUOUS
 62
     7
 10
126.027973142
 20
135.7076444215
 30
0.0
 40
0.5
 50
90.0
 51
180.0
  0
LINE
  5
2F1
  8
0
  6
CONTINUOUS
 62
     7
 10
129.3899289276
 20
135.7076444215
 30
0.0
 11
128.7478228351
 21
135.7076444215
 31
0.0
  0
LINE
  5
2F2
  8
0
  6
CONTINUOUS
 62
     7
 10
134.9659977475
 20
135.7076444215
 30
0.0
 11
133.9438412286
 21
135.7076444215
 31
0.0
  0
LINE
  5
2F3
  8
0
  6
CONTINUOUS
 62
     7
 10
125.527973142
 20
132.7076444215
 30
0.0
 11
125.527973142
 21
135.7076444215
 31
0.0
  0
ARC
  5
2F4
  8
0
  6
CONTINUOUS
 62
     7
 10
153.9105942411
 20
138.7076444215
 30
0.0
 40
0.5000000000000058
 50
181.0
 51
270.0
  0
LINE
  5
2F5
  8
0
  6
CONTINUOUS
 62
     7
 10
153.9105942411
 20
138.2076444215
 30
0.0
 11
173.5946949602
 21
138.2076444215
 31
0.0
  0
ARC
  5
2F6
  8
0
  6
CONTINUOUS
 62
     7
 10
173.5946949602
 20
137.7076444215
 30
0.0
 40
0.5
 50
0.0
 51
90.0
  0
LINE
  5
2F7
  8
0
  6
CONTINUOUS
 62
     7
 10
174.0946949602
 20
132.7076444215
 30
0.0
 11
174.0946949602
 21
137.7076444215
 31
0.0
  0
ARC
  5
2F8
  8
0
  6
CONTINUOUS
 62
     7
 10
173.5946949602
 20
132.7076444215
 30
0.0
 40
0.5
 50
270.0
 51
0.0
  0
ARC
  5
2F9
  8
0
  6
CONTINUOUS
 62
     7
 10
172.1614167785
 20
132.7076444215
 30
0.0
 40
0.5
 50
180.0
 51
270.0
  0
LINE
  5
2FA
  8
0
  6
CONTINUOUS
 62
     7
 10
171.6614167785
 20
132.7076444215
 30
0.0
 11
171.6614167785
 21
135.7076444215
 31
0.0
  0
ARC
  5
2FB
  8
0
  6
CONTINUOUS
 62
     7
 10
171.1614167785
 20
135.7076444215
 30
0.0
 40
0.5
 50
0.0
 51
90.0
  0
LINE
  5
2FC
  8
0
  6
CONTINUOUS
 62
     7
 10
153.927973142
 20
136.2076444215
 30
0.0
 11
171.1614167785
 21
136.2076444215
 31
0.0
  0
ARC
  5
2FD
  8
0
  6
CONTINUOUS
 62
     7
 10
153.927973142
 20
135.7076444215
 30
0.0
 40
0.5
 50
90.0
 51
180.0
  0
LINE
  5
2FE
  8
0
  6
CONTINUOUS
 62
     7
 10
153.427973142
 20
135.7076444215
 30
0.0
 11
153.427973142
 21
132.7076444215
 31
0.0
  0
ARC
  5
2FF
  8
0
  6
CONTINUOUS
 62
     7
 10
152.927973142
 20
132.7076444215
 30
0.0
 40
0.5
 50
270.0
 51
0.0
  0
ARC
  5
300
  8
0
  6
CONTINUOUS
 62
     7
 10
152.5717320965
 20
132.7076444215
 30
0.0
 40
0.5000000000000152
 50
195.0
 51
270.0
  0
LINE
  5
301
  8
0
  6
CONTINUOUS
 62
     7
 10
152.0887691834
 20
132.5782348989
 30
0.0
 11
151.3843434551
 21
135.207187507
 31
0.0
  0
LINE
  5
302
  8
0
  6
CONTINUOUS
 62
     7
 10
123.0946949602
 20
137.7076444215
 30
0.0
 11
123.0946949602
 21
132.7076444215
 31
0.0
  0
ARC
  5
303
  8
0
  6
CONTINUOUS
 62
     7
 10
123.5946949602
 20
137.7076444215
 30
0.0
 40
0.5
 50
90.0
 51
180.0
  0
LINE
  5
304
  8
0
  6
CONTINUOUS
 62
     7
 10
123.5946949602
 20
138.2076444215
 30
0.0
 11
143.2787956794
 21
138.2076444215
 31
0.0
  0
ARC
  5
305
  8
0
  6
CONTINUOUS
 62
     7
 10
143.2787956794
 20
138.7076444215
 30
0.0
 40
0.5
 50
270.0
 51
359.0
  0
LINE
  5
306
  8
0
  6
CONTINUOUS
 62
     7
 10
143.778719527
 20
138.6989182183
 30
0.0
 11
143.9295000151
 21
147.3371265976
 31
0.0
  0
ARC
  5
307
  8
0
  6
CONTINUOUS
 62
     7
 10
144.4294238627
 20
147.3284003944
 30
0.0
 40
0.4999999999999774
 50
106.2439132866
 51
179.0
  0
ARC
  5
308
  8
0
  6
CONTINUOUS
 62
     7
 10
147.0868305839
 20
138.2076444215
 30
0.0
 40
10.0
 50
90.0
 51
106.2439132866
  0
LINE
  5
309
  8
0
  6
CONTINUOUS
 62
     7
 10
150.1025593365
 20
148.2076444215
 30
0.0
 11
147.0868305839
 21
148.2076444215
 31
0.0
  0
ARC
  5
30A
  8
0
  6
CONTINUOUS
 62
     7
 10
150.1025593365
 20
138.2076444215
 30
0.0
 40
10.0
 50
73.7560867134
 51
90.0
  0
ARC
  5
30B
  8
0
  6
CONTINUOUS
 62
     7
 10
152.7599660578
 20
147.3284003944
 30
0.0
 40
0.5000000000000083
 50
1.0
 51
73.7560867134
  0
LINE
  5
30C
  8
0
  6
CONTINUOUS
 62
     7
 10
153.2598899053
 20
147.3371265976
 30
0.0
 11
153.4106703935
 21
138.6989182183
 31
0.0
  0
LINE
  5
30D
  8
0
  6
CONTINUOUS
 62
     7
 10
145.8050464653
 20
135.207187507
 30
0.0
 11
145.1006207371
 21
132.5782348989
 31
0.0
  0
LINE
  5
30E
  8
0
  6
CONTINUOUS
 62
     7
 10
143.7614167785
 20
135.7076444215
 30
0.0
 11
143.7614167785
 21
132.7076444215
 31
0.0
  0
LINE
  5
30F
  8
0
  6
CONTINUOUS
 62
     7
 10
126.027973142
 20
136.2076444215
 30
0.0
 11
143.2614167785
 21
136.2076444215
 31
0.0
  0
ARC
  5
310
  8
0
  6
CONTINUOUS
 62
     7
 10
143.2614167785
 20
135.7076444215
 30
0.0
 40
0.5
 50
0.0
 51
90.0
  0
LINE
  5
311
  8
0
  6
CONTINUOUS
 62
     7
 10
125.027973142
 20
132.2076444215
 30
0.0
 11
123.5946949602
 21
132.2076444215
 31
0.0
  0
LINE
  5
312
  8
0
  6
CONTINUOUS
 62
     7
 10
144.6176578239
 20
132.2076444215
 30
0.0
 11
144.2614167785
 21
132.2076444215
 31
0.0
  0
ARC
  5
313
  8
0
  6
CONTINUOUS
 62
     7
 10
144.6176578239
 20
132.7076444215
 30
0.0
 40
0.5
 50
270.0
 51
345.0
  0
ARC
  5
314
  8
0
  6
CONTINUOUS
 62
     7
 10
144.2614167785
 20
132.7076444215
 30
0.0
 40
0.5
 50
180.0
 51
270.0
  0
LINE
  5
315
  8
0
  6
CONTINUOUS
 62
     7
 10
152.927973142
 20
132.2076444215
 30
0.0
 11
152.5717320965
 21
132.2076444215
 31
0.0
  0
LINE
  5
316
  8
0
  6
CONTINUOUS
 62
     7
 10
173.5946949602
 20
132.2076444215
 30
0.0
 11
172.1614167785
 21
132.2076444215
 31
0.0
  0
LINE
  5
317
  8
0
  6
CONTINUOUS
 62
     7
 10
145.8050464653
 20
135.207187507
 30
0.0
 11
145.9446949602
 21
143.2076444215
 31
0.0
  0
LINE
  5
318
  8
0
  6
CONTINUOUS
 62
     7
 10
151.2446949602
 20
143.2076444215
 30
0.0
 11
151.3843434551
 21
135.207187507
 31
0.0
  0
ARC
  5
319
  8
0
  6
CONTINUOUS
 62
     7
 10
148.5946949602
 20
143.2076444215
 30
0.0
 40
2.650000000000034
 50
0.0
 51
180.0
  0
ARC
  5
31A
  8
0
  6
CONTINUOUS
 62
     7
 10
154.6636781926
 20
132.5896261272
 30
0.0
 40
0.6287143317954121
 50
169.1806116027
 51
217.4132864297
  0
LINE
  5
31B
  8
0
  6
CONTINUOUS
 62
     7
 10
154.0461400212
 20
132.7076444215
 30
0.0
 11
171.6614167785
 21
132.7076444215
 31
0.0
  0
LINE
  5
31C
  8
0
  6
CONTINUOUS
 62
     7
 10
172.1614167785
 20
132.2076444215
 30
0.0
 11
154.1643069003
 21
132.2076444215
 31
0.0
  0
LINE
  5
31D
  8
0
  6
CONTINUOUS
 62
     7
 10
171.6614167785
 20
135.7076444215
 30
0.0
 11
171.6557542259
 21
135.7076444215
 31
0.0
  0
ARC
  5
31E
  8
0
  6
CONTINUOUS
 62
     7
 10
171.155867788
 20
135.7078353326
 30
0.0
 40
0.4998090890130047
 50
49.1368639095
 51
89.9989475578
  0
LINE
  5
31F
  8
0
  6
CONTINUOUS
 62
     7
 10
163.2455486919
 20
135.7076444215
 30
0.0
 11
162.2233921729
 21
135.7076444215
 31
0.0
  0
LINE
  5
320
  8
0
  6
CONTINUOUS
 62
     7
 10
168.4415670853
 20
135.7076444215
 30
0.0
 11
167.7994609928
 21
135.7076444215
 31
0.0
  0
ARC
  5
321
  8
0
  6
CONTINUOUS
 62
     7
 10
129.215756465
 20
135.7401059334
 30
0.0
 40
0.4690582392105666
 50
94.6134711256
 51
183.96836753
  0
ARC
  5
322
  8
0
  6
CONTINUOUS
 62
     7
 10
167.9736334554
 20
135.7401059334
 30
0.0
 40
0.4690582392106193
 50
356.03163247
 51
85.3865288744
  0
ARC
  5
323
  8
0
  6
CONTINUOUS
 62
     7
 10
129.8522810935
 20
135.7459968694
 30
0.0
 40
0.4639401206747711
 50
95.6983199613
 51
184.7418704069
  0
ARC
  5
324
  8
0
  6
CONTINUOUS
 62
     7
 10
167.3371088269
 20
135.7459968694
 30
0.0
 40
0.4639401206748248
 50
355.2581295931
 51
84.3016800387
  0
ARC
  5
325
  8
0
  6
CONTINUOUS
 62
     7
 10
132.1162678355
 20
140.2076444215
 30
0.0
 40
2.000000000000257
 50
270.0
 51
315.0
  0
POLYLINE
  5
326
  8
0
  6
CONTINUOUS
 62
     7
 66
     1
 10
0.0
 20
0.0
 30
0.0
 70
   128
  0
VERTEX
  5
40C
  8
0
  6
CONTINUOUS
 62
     7
 10
133.5304813978
 20
138.7934308591
 30
0.0
  0
VERTEX
  5
40D
  8
0
  6
CONTINUOUS
 62
     7
 10
133.575569028
 20
138.8227864764
 30
0.0
  0
VERTEX
  5
40E
  8
0
  6
CONTINUOUS
 62
     7
 10
133.6343824134
 20
138.8351038483
 30
0.0
  0
VERTEX
  5
40F
  8
0
  6
CONTINUOUS
 62
     7
 10
133.7043045436
 20
138.8298348905
 30
0.0
  0
VERTEX
  5
410
  8
0
  6
CONTINUOUS
 62
     7
 10
133.7822241039
 20
138.807214055
 30
0.0
  0
VERTEX
  5
411
  8
0
  6
CONTINUOUS
 62
     7
 10
133.8646739192
 20
138.7682478978
 30
0.0
  0
VERTEX
  5
412
  8
0
  6
CONTINUOUS
 62
     7
 10
133.9479852321
 20
138.7146702902
 30
0.0
  0
VERTEX
  5
413
  8
0
  6
CONTINUOUS
 62
     7
 10
134.0284509517
 20
138.6488652672
 30
0.0
  0
VERTEX
  5
414
  8
0
  6
CONTINUOUS
 62
     7
 10
134.1024906066
 20
138.573760945
 30
0.0
  0
SEQEND
  5
4B9
  8
0
  6
CONTINUOUS
 62
     7
  0
LINE
  5
327
  8
0
  6
CONTINUOUS
 62
     7
 10
134.0542252239
 20
138.5556397613
 30
0.0
 11
134.1024906066
 21
138.573760945
 31
0.0
  0
ARC
  5
328
  8
0
  6
CONTINUOUS
 62
     7
 10
165.073122085
 20
140.2076444215
 30
0.0
 40
2.000000000000227
 50
225.0
 51
270.0
  0
LINE
  5
329
  8
0
  6
CONTINUOUS
 62
     7
 10
163.0868993138
 20
138.573760945
 30
0.0
 11
163.1351646965
 21
138.5556397613
 31
0.0
  0
POLYLINE
  5
32A
  8
0
  6
CONTINUOUS
 62
     7
 66
     1
 10
0.0
 20
0.0
 30
0.0
 70
   128
  0
VERTEX
  5
415
  8
0
  6
CONTINUOUS
 62
     7
 10
163.6589085226
 20
138.7934308591
 30
0.0
  0
VERTEX
  5
416
  8
0
  6
CONTINUOUS
 62
     7
 10
163.6138208924
 20
138.8227864764
 30
0.0
  0
VERTEX
  5
417
  8
0
  6
CONTINUOUS
 62
     7
 10
163.555007507
 20
138.8351038483
 30
0.0
  0
VERTEX
  5
418
  8
0
  6
CONTINUOUS
 62
     7
 10
163.4850853768
 20
138.8298348905
 30
0.0
  0
VERTEX
  5
419
  8
0
  6
CONTINUOUS
 62
     7
 10
163.4071658165
 20
138.807214055
 30
0.0
  0
VERTEX
  5
41A
  8
0
  6
CONTINUOUS
 62
     7
 10
163.3247160013
 20
138.7682478978
 30
0.0
  0
VERTEX
  5
41B
  8
0
  6
CONTINUOUS
 62
     7
 10
163.2414046883
 20
138.7146702902
 30
0.0
  0
VERTEX
  5
41C
  8
0
  6
CONTINUOUS
 62
     7
 10
163.1609389687
 20
138.6488652672
 30
0.0
  0
VERTEX
  5
41D
  8
0
  6
CONTINUOUS
 62
     7
 10
163.0868993138
 20
138.573760945
 30
0.0
  0
SEQEND
  5
4BA
  8
0
  6
CONTINUOUS
 62
     7
  0
POLYLINE
  5
32B
  8
0
  6
CONTINUOUS
 62
     7
 66
     1
 10
0.0
 20
0.0
 30
0.0
 70
   128
  0
VERTEX
  5
41E
  8
0
  6
CONTINUOUS
 62
     7
 10
162.927973142
 20
136.2076444215
 30
0.0
  0
VERTEX
  5
41F
  8
0
  6
CONTINUOUS
 62
     7
 10
162.9899290583
 20
136.1980370617
 30
0.0
  0
VERTEX
  5
420
  8
0
  6
CONTINUOUS
 62
     7
 10
163.0495040434
 20
136.1695841877
 30
0.0
  0
VERTEX
  5
421
  8
0
  6
CONTINUOUS
 62
     7
 10
163.1044086642
 20
136.1233792276
 30
0.0
  0
VERTEX
  5
422
  8
0
  6
CONTINUOUS
 62
     7
 10
163.1525329668
 20
136.0611978121
 30
0.0
  0
VERTEX
  5
423
  8
0
  6
CONTINUOUS
 62
     7
 10
163.1920275613
 20
135.985429538
 30
0.0
  0
VERTEX
  5
424
  8
0
  6
CONTINUOUS
 62
     7
 10
163.2213746925
 20
135.8989861377
 30
0.0
  0
VERTEX
  5
425
  8
0
  6
CONTINUOUS
 62
     7
 10
163.2394465667
 20
135.8051895825
 30
0.0
  0
VERTEX
  5
426
  8
0
  6
CONTINUOUS
 62
     7
 10
163.2455486919
 20
135.7076444215
 30
0.0
  0
SEQEND
  5
4BB
  8
0
  6
CONTINUOUS
 62
     7
  0
POLYLINE
  5
32C
  8
0
  6
CONTINUOUS
 62
     7
 66
     1
 10
0.0
 20
0.0
 30
0.0
 70
   128
  0
VERTEX
  5
427
  8
0
  6
CONTINUOUS
 62
     7
 10
133.9438412286
 20
135.7076444215
 30
0.0
  0
VERTEX
  5
428
  8
0
  6
CONTINUOUS
 62
     7
 10
133.9499433537
 20
135.8051895825
 30
0.0
  0
VERTEX
  5
429
  8
0
  6
CONTINUOUS
 62
     7
 10
133.9680152279
 20
135.8989861377
 30
0.0
  0
VERTEX
  5
42A
  8
0
  6
CONTINUOUS
 62
     7
 10
133.9973623591
 20
135.985429538
 30
0.0
  0
VERTEX
  5
42B
  8
0
  6
CONTINUOUS
 62
     7
 10
134.0368569536
 20
136.0611978121
 30
0.0
  0
VERTEX
  5
42C
  8
0
  6
CONTINUOUS
 62
     7
 10
134.0849812562
 20
136.1233792276
 30
0.0
  0
VERTEX
  5
42D
  8
0
  6
CONTINUOUS
 62
     7
 10
134.139885877
 20
136.1695841877
 30
0.0
  0
VERTEX
  5
42E
  8
0
  6
CONTINUOUS
 62
     7
 10
134.1994608622
 20
136.1980370617
 30
0.0
  0
VERTEX
  5
42F
  8
0
  6
CONTINUOUS
 62
     7
 10
134.2614167785
 20
136.2076444215
 30
0.0
  0
SEQEND
  5
4BC
  8
0
  6
CONTINUOUS
 62
     7
  0
POLYLINE
  5
32D
  8
0
  6
CONTINUOUS
 62
     7
 66
     1
 10
0.0
 20
0.0
 30
0.0
 70
   128
  0
VERTEX
  5
430
  8
0
  6
CONTINUOUS
 62
     7
 10
162.927973142
 20
138.2076444215
 30
0.0
  0
VERTEX
  5
431
  8
0
  6
CONTINUOUS
 62
     7
 10
162.962136598
 20
138.2138517947
 30
0.0
  0
VERTEX
  5
432
  8
0
  6
CONTINUOUS
 62
     7
 10
162.9954517927
 20
138.2323197883
 30
0.0
  0
VERTEX
  5
433
  8
0
  6
CONTINUOUS
 62
     7
 10
163.0270915268
 20
138.2625898515
 30
0.0
  0
VERTEX
  5
434
  8
0
  6
CONTINUOUS
 62
     7
 10
163.0562702016
 20
138.3039103939
 30
0.0
  0
VERTEX
  5
435
  8
0
  6
CONTINUOUS
 62
     7
 10
163.0822633256
 20
138.3552554474
 30
0.0
  0
VERTEX
  5
436
  8
0
  6
CONTINUOUS
 62
     7
 10
163.1044255025
 20
138.4153501404
 30
0.0
  0
VERTEX
  5
437
  8
0
  6
CONTINUOUS
 62
     7
 10
163.1222064568
 20
138.4827023521
 30
0.0
  0
VERTEX
  5
438
  8
0
  6
CONTINUOUS
 62
     7
 10
163.1351646965
 20
138.5556397613
 30
0.0
  0
SEQEND
  5
4BD
  8
0
  6
CONTINUOUS
 62
     7
  0
POLYLINE
  5
32E
  8
0
  6
CONTINUOUS
 62
     7
 66
     1
 10
0.0
 20
0.0
 30
0.0
 70
   128
  0
VERTEX
  5
439
  8
0
  6
CONTINUOUS
 62
     7
 10
134.2614167785
 20
138.2076444215
 30
0.0
  0
VERTEX
  5
43A
  8
0
  6
CONTINUOUS
 62
     7
 10
134.2272533224
 20
138.2138517947
 30
0.0
  0
VERTEX
  5
43B
  8
0
  6
CONTINUOUS
 62
     7
 10
134.1939381277
 20
138.2323197883
 30
0.0
  0
VERTEX
  5
43C
  8
0
  6
CONTINUOUS
 62
     7
 10
134.1622983936
 20
138.2625898515
 30
0.0
  0
VERTEX
  5
43D
  8
0
  6
CONTINUOUS
 62
     7
 10
134.1331197188
 20
138.3039103939
 30
0.0
  0
VERTEX
  5
43E
  8
0
  6
CONTINUOUS
 62
     7
 10
134.1071265949
 20
138.3552554474
 30
0.0
  0
VERTEX
  5
43F
  8
0
  6
CONTINUOUS
 62
     7
 10
134.0849644179
 20
138.4153501404
 30
0.0
  0
VERTEX
  5
440
  8
0
  6
CONTINUOUS
 62
     7
 10
134.0671834636
 20
138.4827023521
 30
0.0
  0
VERTEX
  5
441
  8
0
  6
CONTINUOUS
 62
     7
 10
134.0542252239
 20
138.5556397613
 30
0.0
  0
SEQEND
  5
4BE
  8
0
  6
CONTINUOUS
 62
     7
  0
POLYLINE
  5
32F
  8
0
  6
CONTINUOUS
 62
     7
 66
     1
 10
0.0
 20
0.0
 30
0.0
 70
   128
  0
VERTEX
  5
442
  8
0
  6
CONTINUOUS
 62
     7
 10
161.927973142
 20
136.2076444215
 30
0.0
  0
VERTEX
  5
443
  8
0
  6
CONTINUOUS
 62
     7
 10
161.9856065358
 20
136.1980370617
 30
0.0
  0
VERTEX
  5
444
  8
0
  6
CONTINUOUS
 62
     7
 10
162.0410251107
 20
136.1695841877
 30
0.0
  0
VERTEX
  5
445
  8
0
  6
CONTINUOUS
 62
     7
 10
162.0920991618
 20
136.1233792276
 30
0.0
  0
VERTEX
  5
446
  8
0
  6
CONTINUOUS
 62
     7
 10
162.136865942
 20
136.0611978121
 30
0.0
  0
VERTEX
  5
447
  8
0
  6
CONTINUOUS
 62
     7
 10
162.1736050891
 20
135.985429538
 30
0.0
  0
VERTEX
  5
448
  8
0
  6
CONTINUOUS
 62
     7
 10
162.2009047382
 20
135.8989861377
 30
0.0
  0
VERTEX
  5
449
  8
0
  6
CONTINUOUS
 62
     7
 10
162.217715779
 20
135.8051895825
 30
0.0
  0
VERTEX
  5
44A
  8
0
  6
CONTINUOUS
 62
     7
 10
162.2233921729
 20
135.7076444215
 30
0.0
  0
SEQEND
  5
4BF
  8
0
  6
CONTINUOUS
 62
     7
  0
POLYLINE
  5
330
  8
0
  6
CONTINUOUS
 62
     7
 66
     1
 10
0.0
 20
0.0
 30
0.0
 70
   128
  0
VERTEX
  5
44B
  8
0
  6
CONTINUOUS
 62
     7
 10
134.9659977475
 20
135.7076444215
 30
0.0
  0
VERTEX
  5
44C
  8
0
  6
CONTINUOUS
 62
     7
 10
134.9716741414
 20
135.8051895825
 30
0.0
  0
VERTEX
  5
44D
  8
0
  6
CONTINUOUS
 62
     7
 10
134.9884851823
 20
135.8989861377
 30
0.0
  0
VERTEX
  5
44E
  8
0
  6
CONTINUOUS
 62
     7
 10
135.0157848313
 20
135.985429538
 30
0.0
  0
VERTEX
  5
44F
  8
0
  6
CONTINUOUS
 62
     7
 10
135.0525239784
 20
136.0611978121
 30
0.0
  0
VERTEX
  5
450
  8
0
  6
CONTINUOUS
 62
     7
 10
135.0972907586
 20
136.1233792276
 30
0.0
  0
VERTEX
  5
451
  8
0
  6
CONTINUOUS
 62
     7
 10
135.1483648097
 20
136.1695841877
 30
0.0
  0
VERTEX
  5
452
  8
0
  6
CONTINUOUS
 62
     7
 10
135.2037833846
 20
136.1980370617
 30
0.0
  0
VERTEX
  5
453
  8
0
  6
CONTINUOUS
 62
     7
 10
135.2614167785
 20
136.2076444215
 30
0.0
  0
SEQEND
  5
4C0
  8
0
  6
CONTINUOUS
 62
     7
  0
POLYLINE
  5
331
  8
0
  6
CONTINUOUS
 62
     7
 66
     1
 10
0.0
 20
0.0
 30
0.0
 70
   128
  0
VERTEX
  5
454
  8
0
  6
CONTINUOUS
 62
     7
 10
163.0868993138
 20
138.573760945
 30
0.0
  0
VERTEX
  5
455
  8
0
  6
CONTINUOUS
 62
     7
 10
163.0742022932
 20
138.4976015429
 30
0.0
  0
VERTEX
  5
456
  8
0
  6
CONTINUOUS
 62
     7
 10
163.0560862155
 20
138.4269740274
 30
0.0
  0
VERTEX
  5
457
  8
0
  6
CONTINUOUS
 62
     7
 10
163.0330282028
 20
138.3637385111
 30
0.0
  0
VERTEX
  5
458
  8
0
  6
CONTINUOUS
 62
     7
 10
163.0056355327
 20
138.3095604239
 30
0.0
  0
VERTEX
  5
459
  8
0
  6
CONTINUOUS
 62
     7
 10
162.9746296442
 20
138.265866651
 30
0.0
  0
VERTEX
  5
45A
  8
0
  6
CONTINUOUS
 62
     7
 10
162.9408271375
 20
138.2338079525
 30
0.0
  0
VERTEX
  5
45B
  8
0
  6
CONTINUOUS
 62
     7
 10
162.9051182672
 20
138.2142286564
 30
0.0
  0
VERTEX
  5
45C
  8
0
  6
CONTINUOUS
 62
     7
 10
162.8684434956
 20
138.2076444215
 30
0.0
  0
SEQEND
  5
4C1
  8
0
  6
CONTINUOUS
 62
     7
  0
POLYLINE
  5
332
  8
0
  6
CONTINUOUS
 62
     7
 66
     1
 10
0.0
 20
0.0
 30
0.0
 70
   128
  0
VERTEX
  5
45D
  8
0
  6
CONTINUOUS
 62
     7
 10
134.3209464248
 20
138.2076444215
 30
0.0
  0
VERTEX
  5
45E
  8
0
  6
CONTINUOUS
 62
     7
 10
134.2842716532
 20
138.2142286564
 30
0.0
  0
VERTEX
  5
45F
  8
0
  6
CONTINUOUS
 62
     7
 10
134.2485627829
 20
138.2338079525
 30
0.0
  0
VERTEX
  5
460
  8
0
  6
CONTINUOUS
 62
     7
 10
134.2147602763
 20
138.265866651
 30
0.0
  0
VERTEX
  5
461
  8
0
  6
CONTINUOUS
 62
     7
 10
134.1837543877
 20
138.3095604239
 30
0.0
  0
VERTEX
  5
462
  8
0
  6
CONTINUOUS
 62
     7
 10
134.1563617176
 20
138.3637385111
 30
0.0
  0
VERTEX
  5
463
  8
0
  6
CONTINUOUS
 62
     7
 10
134.1333037049
 20
138.4269740274
 30
0.0
  0
VERTEX
  5
464
  8
0
  6
CONTINUOUS
 62
     7
 10
134.1151876273
 20
138.4976015429
 30
0.0
  0
VERTEX
  5
465
  8
0
  6
CONTINUOUS
 62
     7
 10
134.1024906066
 20
138.573760945
 30
0.0
  0
SEQEND
  5
4C2
  8
0
  6
CONTINUOUS
 62
     7
  0
LINE
  5
333
  8
0
  6
CONTINUOUS
 62
     7
 10
162.7485155077
 20
138.6989182183
 30
0.0
 11
163.0868993138
 21
138.573760945
 31
0.0
  0
POLYLINE
  5
334
  8
0
  6
CONTINUOUS
 62
     7
 66
     1
 10
0.0
 20
0.0
 30
0.0
 70
   128
  0
VERTEX
  5
466
  8
0
  6
CONTINUOUS
 62
     7
 10
162.7485155077
 20
138.6989182183
 30
0.0
  0
VERTEX
  5
467
  8
0
  6
CONTINUOUS
 62
     7
 10
162.741723099
 20
138.6026218308
 30
0.0
  0
VERTEX
  5
468
  8
0
  6
CONTINUOUS
 62
     7
 10
162.7236658776
 20
138.5102724933
 30
0.0
  0
VERTEX
  5
469
  8
0
  6
CONTINUOUS
 62
     7
 10
162.6950224856
 20
138.4253409585
 30
0.0
  0
VERTEX
  5
46A
  8
0
  6
CONTINUOUS
 62
     7
 10
162.6568694238
 20
138.3510191969
 30
0.0
  0
VERTEX
  5
46B
  8
0
  6
CONTINUOUS
 62
     7
 10
162.6106405935
 20
138.2901004333
 30
0.0
  0
VERTEX
  5
46C
  8
0
  6
CONTINUOUS
 62
     7
 10
162.5580734068
 20
138.2448741695
 30
0.0
  0
VERTEX
  5
46D
  8
0
  6
CONTINUOUS
 62
     7
 10
162.5011434891
 20
138.217040138
 30
0.0
  0
VERTEX
  5
46E
  8
0
  6
CONTINUOUS
 62
     7
 10
162.4419904299
 20
138.2076444215
 30
0.0
  0
SEQEND
  5
4C3
  8
0
  6
CONTINUOUS
 62
     7
  0
LINE
  5
335
  8
0
  6
CONTINUOUS
 62
     7
 10
134.1024906066
 20
138.573760945
 30
0.0
 11
134.4408744128
 21
138.6989182183
 31
0.0
  0
POLYLINE
  5
336
  8
0
  6
CONTINUOUS
 62
     7
 66
     1
 10
0.0
 20
0.0
 30
0.0
 70
   128
  0
VERTEX
  5
46F
  8
0
  6
CONTINUOUS
 62
     7
 10
134.7473994906
 20
138.2076444215
 30
0.0
  0
VERTEX
  5
470
  8
0
  6
CONTINUOUS
 62
     7
 10
134.6882464314
 20
138.217040138
 30
0.0
  0
VERTEX
  5
471
  8
0
  6
CONTINUOUS
 62
     7
 10
134.6313165137
 20
138.2448741695
 30
0.0
  0
VERTEX
  5
472
  8
0
  6
CONTINUOUS
 62
     7
 10
134.5787493269
 20
138.2901004333
 30
0.0
  0
VERTEX
  5
473
  8
0
  6
CONTINUOUS
 62
     7
 10
134.5325204967
 20
138.3510191969
 30
0.0
  0
VERTEX
  5
474
  8
0
  6
CONTINUOUS
 62
     7
 10
134.4943674349
 20
138.4253409585
 30
0.0
  0
VERTEX
  5
475
  8
0
  6
CONTINUOUS
 62
     7
 10
134.4657240429
 20
138.5102724933
 30
0.0
  0
VERTEX
  5
476
  8
0
  6
CONTINUOUS
 62
     7
 10
134.4476668214
 20
138.6026218308
 30
0.0
  0
VERTEX
  5
477
  8
0
  6
CONTINUOUS
 62
     7
 10
134.4408744128
 20
138.6989182183
 30
0.0
  0
SEQEND
  5
4C4
  8
0
  6
CONTINUOUS
 62
     7
  0
LINE
  5
337
  8
0
  6
CONTINUOUS
 62
     7
 10
162.2231198831
 20
138.6989182183
 30
0.0
 11
162.7485155077
 21
138.6989182183
 31
0.0
  0
POLYLINE
  5
338
  8
0
  6
CONTINUOUS
 62
     7
 66
     1
 10
0.0
 20
0.0
 30
0.0
 70
   128
  0
VERTEX
  5
478
  8
0
  6
CONTINUOUS
 62
     7
 10
162.2231198831
 20
138.6989182183
 30
0.0
  0
VERTEX
  5
479
  8
0
  6
CONTINUOUS
 62
     7
 10
162.2165796114
 20
138.6026218308
 30
0.0
  0
VERTEX
  5
47A
  8
0
  6
CONTINUOUS
 62
     7
 10
162.1991926815
 20
138.5102724933
 30
0.0
  0
VERTEX
  5
47B
  8
0
  6
CONTINUOUS
 62
     7
 10
162.171612544
 20
138.4253409585
 30
0.0
  0
VERTEX
  5
47C
  8
0
  6
CONTINUOUS
 62
     7
 10
162.1348757394
 20
138.3510191969
 30
0.0
  0
VERTEX
  5
47D
  8
0
  6
CONTINUOUS
 62
     7
 10
162.0903629423
 20
138.2901004333
 30
0.0
  0
VERTEX
  5
47E
  8
0
  6
CONTINUOUS
 62
     7
 10
162.0397470711
 20
138.2448741695
 30
0.0
  0
VERTEX
  5
47F
  8
0
  6
CONTINUOUS
 62
     7
 10
161.9849304153
 20
138.217040138
 30
0.0
  0
VERTEX
  5
480
  8
0
  6
CONTINUOUS
 62
     7
 10
161.927973142
 20
138.2076444215
 30
0.0
  0
SEQEND
  5
4C5
  8
0
  6
CONTINUOUS
 62
     7
  0
LINE
  5
339
  8
0
  6
CONTINUOUS
 62
     7
 10
134.4408744128
 20
138.6989182183
 30
0.0
 11
134.9662700373
 21
138.6989182183
 31
0.0
  0
POLYLINE
  5
33A
  8
0
  6
CONTINUOUS
 62
     7
 66
     1
 10
0.0
 20
0.0
 30
0.0
 70
   128
  0
VERTEX
  5
481
  8
0
  6
CONTINUOUS
 62
     7
 10
134.9662700373
 20
138.6989182183
 30
0.0
  0
VERTEX
  5
482
  8
0
  6
CONTINUOUS
 62
     7
 10
134.972810309
 20
138.6026218308
 30
0.0
  0
VERTEX
  5
483
  8
0
  6
CONTINUOUS
 62
     7
 10
134.9901972389
 20
138.5102724933
 30
0.0
  0
VERTEX
  5
484
  8
0
  6
CONTINUOUS
 62
     7
 10
135.0177773765
 20
138.4253409585
 30
0.0
  0
VERTEX
  5
485
  8
0
  6
CONTINUOUS
 62
     7
 10
135.054514181
 20
138.3510191969
 30
0.0
  0
VERTEX
  5
486
  8
0
  6
CONTINUOUS
 62
     7
 10
135.0990269781
 20
138.2901004333
 30
0.0
  0
VERTEX
  5
487
  8
0
  6
CONTINUOUS
 62
     7
 10
135.1496428493
 20
138.2448741695
 30
0.0
  0
VERTEX
  5
488
  8
0
  6
CONTINUOUS
 62
     7
 10
135.2044595051
 20
138.217040138
 30
0.0
  0
VERTEX
  5
489
  8
0
  6
CONTINUOUS
 62
     7
 10
135.2614167785
 20
138.2076444215
 30
0.0
  0
SEQEND
  5
4C6
  8
0
  6
CONTINUOUS
 62
     7
  0
ARC
  5
33B
  8
0
  6
CONTINUOUS
 62
     7
 10
157.2683108058
 20
144.5586857292
 30
0.0
 40
0.7262252830411369
 50
97.4914246897
 51
148.8926512997
  0
LINE
  5
33C
  8
0
  6
CONTINUOUS
 62
     7
 10
157.1736271483
 20
145.2787122334
 30
0.0
 11
163.6589085226
 21
138.7934308591
 31
0.0
  0
POLYLINE
  5
33D
  8
0
  6
CONTINUOUS
 62
     7
 66
     1
 10
0.0
 20
0.0
 30
0.0
 70
   128
  0
VERTEX
  5
48A
  8
0
  6
CONTINUOUS
 62
     7
 10
162.7485155077
 20
138.6989182183
 30
0.0
  0
VERTEX
  5
48B
  8
0
  6
CONTINUOUS
 62
     7
 10
162.381853147
 20
139.0736058479
 30
0.0
  0
VERTEX
  5
48C
  8
0
  6
CONTINUOUS
 62
     7
 10
161.1304173405
 20
140.3523980621
 30
0.0
  0
VERTEX
  5
48D
  8
0
  6
CONTINUOUS
 62
     7
 10
159.8429368896
 20
141.6679677579
 30
0.0
  0
VERTEX
  5
48E
  8
0
  6
CONTINUOUS
 62
     7
 10
158.2633190758
 20
143.2819723491
 30
0.0
  0
VERTEX
  5
48F
  8
0
  6
CONTINUOUS
 62
     7
 10
156.6465161175
 20
144.933885046
 30
0.0
  0
SEQEND
  5
4C7
  8
0
  6
CONTINUOUS
 62
     7
  0
LINE
  5
33E
  8
0
  6
CONTINUOUS
 62
     7
 10
133.5304813978
 20
138.7934308591
 30
0.0
 11
140.0157627721
 21
145.2787122334
 31
0.0
  0
ARC
  5
33F
  8
0
  6
CONTINUOUS
 62
     7
 10
139.9210791146
 20
144.5586857292
 30
0.0
 40
0.7262252830412532
 50
31.1073487003
 51
82.5085753103
  0
POLYLINE
  5
340
  8
0
  6
CONTINUOUS
 62
     7
 66
     1
 10
0.0
 20
0.0
 30
0.0
 70
   128
  0
VERTEX
  5
490
  8
0
  6
CONTINUOUS
 62
     7
 10
140.5428738029
 20
144.933885046
 30
0.0
  0
VERTEX
  5
491
  8
0
  6
CONTINUOUS
 62
     7
 10
139.8701109661
 20
144.2465234176
 30
0.0
  0
VERTEX
  5
492
  8
0
  6
CONTINUOUS
 62
     7
 10
138.5388822732
 20
142.8863627928
 30
0.0
  0
VERTEX
  5
493
  8
0
  6
CONTINUOUS
 62
     7
 10
137.2274557002
 20
141.5463765756
 30
0.0
  0
VERTEX
  5
494
  8
0
  6
CONTINUOUS
 62
     7
 10
135.8163932283
 20
140.1045200519
 30
0.0
  0
VERTEX
  5
495
  8
0
  6
CONTINUOUS
 62
     7
 10
134.4408744128
 20
138.6989182183
 30
0.0
  0
SEQEND
  5
4C8
  8
0
  6
CONTINUOUS
 62
     7
  0
ARC
  5
341
  8
0
  6
CONTINUOUS
 62
     7
 10
149.9971789543
 20
138.4334576488
 30
0.0
 40
9.298883860763208
 50
44.3512023423
 51
65.3090187492
  0
ARC
  5
342
  8
0
  6
CONTINUOUS
 62
     7
 10
147.1917774981
 20
138.4340728149
 30
0.0
 40
9.29814386783879
 50
114.690137861
 51
135.6496410476
  0
ARC
  5
343
  8
0
  6
CONTINUOUS
 62
     7
 10
142.5964250286
 20
146.7126014886
 30
0.0
 40
0.7313503977384088
 50
13.4073125969
 51
57.5195641372
  0
ARC
  5
344
  8
0
  6
CONTINUOUS
 62
     7
 10
147.0888538692
 20
138.204710963
 30
0.0
 40
10.00350496788062
 50
114.1938343553
 51
134.9963137948
  0
ARC
  5
345
  8
0
  6
CONTINUOUS
 62
     7
 10
154.5929648918
 20
146.7126014886
 30
0.0
 40
0.7313503977385941
 50
122.4804358628
 51
166.5926874031
  0
ARC
  5
346
  8
0
  6
CONTINUOUS
 62
     7
 10
150.1005507207
 20
138.2047322315
 30
0.0
 40
10.00347955552387
 50
45.0036594882
 51
65.8061923616
  0
ARC
  5
347
  8
0
  6
CONTINUOUS
 62
     7
 10
152.2732687302
 20
145.33676413
 30
0.0
 40
2.230441961816897
 50
43.8581090403
 51
63.7465078989
  0
LINE
  5
348
  8
0
  6
CONTINUOUS
 62
     7
 10
153.427973142
 20
132.7076444215
 30
0.0
 11
154.0461400212
 21
132.7076444215
 31
0.0
  0
LINE
  5
349
  8
0
  6
CONTINUOUS
 62
     7
 10
143.1432498993
 20
132.7076444215
 30
0.0
 11
143.7614167785
 21
132.7076444215
 31
0.0
  0
ARC
  5
34A
  8
0
  6
CONTINUOUS
 62
     7
 10
145.2604866953
 20
144.8662085561
 30
0.0
 40
2.806592508902101
 50
118.3096055447
 51
134.085777516
  0
LINE
  5
34B
  8
0
  6
CONTINUOUS
 62
     7
 10
154.1643069003
 20
132.2076444215
 30
0.0
 11
152.927973142
 21
132.2076444215
 31
0.0
  0
LINE
  5
34C
  8
0
  6
CONTINUOUS
 62
     7
 10
144.2614167785
 20
132.2076444215
 30
0.0
 11
143.0250830201
 21
132.2076444215
 31
0.0
  0
ARC
  5
34D
  8
0
  6
CONTINUOUS
 62
     7
 10
150.1025593365
 20
138.2076444215
 30
0.0
 40
9.999999999965581
 50
65.8098518499
 51
73.7560867134
  0
ARC
  5
34E
  8
0
  6
CONTINUOUS
 62
     7
 10
147.0868305839
 20
138.2076444215
 30
0.0
 40
10.00000000000828
 50
106.2439132866
 51
114.1901481501
  0
ARC
  5
34F
  8
0
  6
CONTINUOUS
 62
     1
 10
126.0336391717
 20
135.7076750351
 30
0.0
 40
0.500003478024651
 50
114.6650748369
 51
180.0035080375
  0
POLYLINE
  5
350
  8
0
  6
CONTINUOUS
 62
     1
 66
     1
 10
0.0
 20
0.0
 30
0.0
 70
   128
  0
VERTEX
  5
496
  8
0
  6
CONTINUOUS
 62
     1
 10
125.5336356946
 20
135.7076444215
 30
0.0
  0
VERTEX
  5
497
  8
0
  6
CONTINUOUS
 62
     1
 10
125.5397373569
 20
135.7322884551
 30
0.0
  0
VERTEX
  5
498
  8
0
  6
CONTINUOUS
 62
     1
 10
125.5465826041
 20
135.8034094835
 30
0.0
  0
SEQEND
  5
4C9
  8
0
  6
CONTINUOUS
 62
     1
  0
ARC
  5
351
  8
0
  6
CONTINUOUS
 62
     1
 10
128.8445835789
 20
136.289356336
 30
0.0
 40
0.589704496315804
 50
187.9647695092
 51
260.5560060777
  0
ARC
  5
352
  8
0
  6
CONTINUOUS
 62
     1
 10
129.3297005368
 20
136.4105532365
 30
0.0
 40
0.7054844160466585
 50
274.8973983353
 51
343.2846991351
  0
ARC
  5
353
  8
0
  6
CONTINUOUS
 62
     1
 10
133.9296426019
 20
136.7046195913
 30
0.0
 40
0.9970762710472569
 50
209.8963458845
 51
270.8159344518
  0
ARC
  5
354
  8
0
  6
CONTINUOUS
 62
     1
 10
135.0063268452
 20
136.6577376975
 30
0.0
 40
0.9509488257430042
 50
267.5693957097
 51
331.7506501709
  0
LINE
  5
355
  8
0
  6
CONTINUOUS
 62
     1
 10
143.1432498993
 20
132.7076444215
 30
0.0
 11
143.1432498993
 21
136.2076444215
 31
0.0
  0
ARC
  5
356
  8
0
  6
CONTINUOUS
 62
     1
 10
171.1557127344
 20
135.7076621702
 30
0.0
 40
0.5000414917482008
 50
359.9979663116
 51
49.1364089211
  0
LINE
  5
357
  8
0
  6
CONTINUOUS
 62
     1
 10
154.0461400212
 20
136.2076444215
 30
0.0
 11
154.0461400212
 21
132.7076444215
 31
0.0
  0
ARC
  5
358
  8
0
  6
CONTINUOUS
 62
     1
 10
162.2080077031
 20
136.7012978506
 30
0.0
 40
0.9937725188243455
 50
209.7850097476
 51
270.887024326
  0
ARC
  5
359
  8
0
  6
CONTINUOUS
 62
     1
 10
163.286774052
 20
136.6669195762
 30
0.0
 40
0.960160586950255
 50
267.539197598
 51
331.4235069027
  0
ARC
  5
35A
  8
0
  6
CONTINUOUS
 62
     1
 10
167.8755189584
 20
136.4224610329
 30
0.0
 40
0.7188515855461167
 50
197.3875268507
 51
263.9264621085
  0
ARC
  5
35B
  8
0
  6
CONTINUOUS
 62
     1
 10
168.3391084081
 20
136.3014139059
 30
0.0
 40
0.602544588527525
 50
279.7903372915
 51
351.0471000541
  0
POLYLINE
  5
35C
  8
0
  6
CONTINUOUS
 62
     1
 66
     1
 10
0.0
 20
0.0
 30
0.0
 70
   128
  0
VERTEX
  5
499
  8
0
  6
CONTINUOUS
 62
     1
 10
171.6557542259
 20
135.7076444215
 30
0.0
  0
VERTEX
  5
49A
  8
0
  6
CONTINUOUS
 62
     1
 10
171.6457708568
 20
135.7640246957
 30
0.0
  0
VERTEX
  5
49B
  8
0
  6
CONTINUOUS
 62
     1
 10
171.6425527718
 20
135.8042505644
 30
0.0
  0
SEQEND
  5
4CA
  8
0
  6
CONTINUOUS
 62
     1
  0
ARC
  5
35D
  8
0
  6
CONTINUOUS
 62
     1
 10
135.4677801717
 20
135.114720005
 30
0.0
 40
3.71995515559821
 50
112.333216231
 51
123.752917898
  0
POLYLINE
  5
35E
  8
0
  6
CONTINUOUS
 62
     1
 66
     1
 10
0.0
 20
0.0
 30
0.0
 70
   128
  0
VERTEX
  5
49C
  8
0
  6
CONTINUOUS
 62
     1
 10
163.1351646965
 20
138.5556397613
 30
0.0
  0
VERTEX
  5
49D
  8
0
  6
CONTINUOUS
 62
     1
 10
163.474333526
 20
138.3946748762
 30
0.0
  0
VERTEX
  5
49E
  8
0
  6
CONTINUOUS
 62
     1
 10
163.7876077355
 20
138.2076444215
 30
0.0
  0
SEQEND
  5
4CB
  8
0
  6
CONTINUOUS
 62
     1
  0
ARC
  5
35F
  8
0
  6
CONTINUOUS
 62
     1
 10
162.2066823267
 20
137.7086185817
 30
0.0
 40
0.9904360471608081
 50
89.0490594003
 51
149.7453166165
  0
ARC
  5
360
  8
0
  6
CONTINUOUS
 62
     1
 10
134.9827075937
 20
137.7086185817
 30
0.0
 40
0.9904360471607866
 50
30.2546833835
 51
90.9509405997
  0
POLYLINE
  5
361
  8
0
  6
CONTINUOUS
 62
     1
 66
     1
 10
0.0
 20
0.0
 30
0.0
 70
   128
  0
VERTEX
  5
49F
  8
0
  6
CONTINUOUS
 62
     1
 10
153.8815465039
 20
146.8821812089
 30
0.0
  0
VERTEX
  5
4A0
  8
0
  6
CONTINUOUS
 62
     1
 10
153.8889208744
 20
146.4708157764
 30
0.0
  0
VERTEX
  5
4A1
  8
0
  6
CONTINUOUS
 62
     1
 10
153.9606044254
 20
142.4724406854
 30
0.0
  0
VERTEX
  5
4A2
  8
0
  6
CONTINUOUS
 62
     1
 10
154.0370780969
 20
138.2076444215
 30
0.0
  0
SEQEND
  5
4CC
  8
0
  6
CONTINUOUS
 62
     1
  0
POLYLINE
  5
362
  8
0
  6
CONTINUOUS
 62
     1
 66
     1
 10
0.0
 20
0.0
 30
0.0
 70
   128
  0
VERTEX
  5
4A3
  8
0
  6
CONTINUOUS
 62
     1
 10
143.1523125166
 20
138.2076444215
 30
0.0
  0
VERTEX
  5
4A4
  8
0
  6
CONTINUOUS
 62
     1
 10
143.1612715549
 20
138.707234923
 30
0.0
  0
VERTEX
  5
4A5
  8
0
  6
CONTINUOUS
 62
     1
 10
143.2329659743
 20
142.7056021887
 30
0.0
  0
VERTEX
  5
4A6
  8
0
  6
CONTINUOUS
 62
     1
 10
143.3078434166
 20
146.8821812089
 30
0.0
  0
SEQEND
  5
4CD
  8
0
  6
CONTINUOUS
 62
     1
  0
DIMENSION
  5
363
  8
BEMAßUNG
  2
_D
 10
174.0946949602
 20
116.2076444215
 30
0.0
 11
148.5946949602
 21
116.2076444215
 31
0.0
 70
   160
  1
%%c<>
  3
SLDDIMSTYLE0
 13
123.0946949602
 23
132.7076444215
 33
0.0
 14
174.0946949602
 24
132.7076444215
 34
0.0
  0
DIMENSION
  5
36F
  8
BEMAßUNG
  2
_D_1
 10
186.7024143429
 20
132.2076444215
 30
0.0
 11
186.7024143429
 21
151.8324221745
 31
0.0
 70
   160
  1
<>
  3
SLDDIMSTYLE1
 13
173.5946949602
 23
138.2076444215
 33
0.0
 14
172.1614167785
 24
132.2076444215
 34
0.0
 50
90.0
  0
DIMENSION
  5
37C
  8
BEMAßUNG
  2
_D_2
 10
202.0946949602
 20
132.2076444215
 30
0.0
 11
202.0946949602
 21
155.0045635724
 31
0.0
 70
   160
  1
<>
  3
SLDDIMSTYLE0
 13
150.1025593365
 23
148.2076444215
 33
0.0
 14
143.0250830201
 24
132.2076444215
 34
0.0
 50
90.0
  0
ENDSEC
  0
EOF
