  0
SECTION
  2
HEADER
  9
$ACADVER
  1
AC1027
  9
$ACADMAINTVER
 70
   105
  9
$DWGCODEPAGE
  3
ANSI_1252
  9
$REQUIREDVERSIONS
160
                 0
  9
$INSBASE
 10
0.0
 20
0.0
 30
0.0
  9
$EXTMIN
 10
0.0
 20
0.0
 30
0.0
  9
$EXTMAX
 10
840.0
 20
594.0
 30
0.0
  9
$LIMMIN
 10
0.0
 20
0.0
  9
$LIMMAX
 10
840.0
 20
594.0
  9
$ORTHOMODE
 70
     0
  9
$REGENMODE
 70
     1
  9
$FILLMODE
 70
     1
  9
$QTEXTMODE
 70
     0
  9
$MIRRTEXT
 70
     1
  9
$LTSCALE
 40
2.0
  9
$ATTMODE
 70
     1
  9
$TEXTSIZE
 40
7.0
  9
$TRACEWID
 40
1.0
  9
$TEXTSTYLE
  7
Standard
  9
$CLAYER
  8
0
  9
$CELTYPE
  6
ByLayer
  9
$CECOLOR
 62
   256
  9
$CELTSCALE
 40
1.0
  9
$DISPSILH
 70
     0
  9
$DIMSCALE
 40
1.0
  9
$DIMASZ
 40
14.0
  9
$DIMEXO
 40
2.0
  9
$DIMDLI
 40
3.75
  9
$DIMRND
 40
0.0
  9
$DIMDLE
 40
0.0
  9
$DIMEXE
 40
2.0
  9
$DIMTP
 40
0.0
  9
$DIMTM
 40
0.0
  9
$DIMTXT
 40
14.0
  9
$DIMCEN
 40
2.5
  9
$DIMTSZ
 40
0.0
  9
$DIMTOL
 70
     0
  9
$DIMLIM
 70
     0
  9
$DIMTIH
 70
     1
  9
$DIMTOH
 70
     1
  9
$DIMSE1
 70
     0
  9
$DIMSE2
 70
     0
  9
$DIMTAD
 70
     1
  9
$DIMZIN
 70
     1
  9
$DIMBLK
  1

  9
$DIMASO
 70
     1
  9
$DIMSHO
 70
     1
  9
$DIMPOST
  1

  9
$DIMAPOST
  1

  9
$DIMALT
 70
     0
  9
$DIMALTD
 70
     3
  9
$DIMALTF
 40
0.0393700787
  9
$DIMLFAC
 40
1.0
  9
$DIMTOFL
 70
     1
  9
$DIMTVP
 40
0.0
  9
$DIMTIX
 70
     0
  9
$DIMSOXD
 70
     0
  9
$DIMSAH
 70
     0
  9
$DIMBLK1
  1

  9
$DIMBLK2
  1

  9
$DIMSTYLE
  2
ISO-25
  9
$DIMCLRD
 70
     0
  9
$DIMCLRE
 70
     0
  9
$DIMCLRT
 70
     0
  9
$DIMTFAC
 40
1.0
  9
$DIMGAP
 40
3.048
  9
$DIMJUST
 70
     0
  9
$DIMSD1
 70
     0
  9
$DIMSD2
 70
     0
  9
$DIMTOLJ
 70
     0
  9
$DIMTZIN
 70
     1
  9
$DIMALTZ
 70
     0
  9
$DIMALTTZ
 70
     0
  9
$DIMUPT
 70
     0
  9
$DIMDEC
 70
     2
  9
$DIMTDEC
 70
     2
  9
$DIMALTU
 70
     2
  9
$DIMALTTD
 70
     3
  9
$DIMTXSTY
  7
Standard
  9
$DIMAUNIT
 70
     0
  9
$DIMADEC
 70
     2
  9
$DIMALTRND
 40
0.0
  9
$DIMAZIN
 70
     0
  9
$DIMDSEP
 70
    44
  9
$DIMATFIT
 70
     3
  9
$DIMFRAC
 70
     0
  9
$DIMLDRBLK
  1

  9
$DIMLUNIT
 70
     2
  9
$DIMLWD
 70
    -2
  9
$DIMLWE
 70
    -2
  9
$DIMTMOVE
 70
     0
  9
$DIMFXL
 40
1.0
  9
$DIMFXLON
 70
     0
  9
$DIMJOGANG
 40
0.7853981634
  9
$DIMTFILL
 70
     0
  9
$DIMTFILLCLR
 70
     0
  9
$DIMARCSYM
 70
     0
  9
$DIMLTYPE
  6

  9
$DIMLTEX1
  6

  9
$DIMLTEX2
  6

  9
$DIMTXTDIRECTION
 70
     0
  9
$LUNITS
 70
     2
  9
$LUPREC
 70
     2
  9
$SKETCHINC
 40
1.0
  9
$FILLETRAD
 40
10.0
  9
$AUNITS
 70
     0
  9
$AUPREC
 70
     2
  9
$MENU
  1
.
  9
$ELEVATION
 40
0.0
  9
$PELEVATION
 40
0.0
  9
$THICKNESS
 40
0.0
  9
$LIMCHECK
 70
     0
  9
$CHAMFERA
 40
0.0
  9
$CHAMFERB
 40
0.0
  9
$CHAMFERC
 40
0.0
  9
$CHAMFERD
 40
0.0
  9
$SKPOLY
 70
     0
  9
$TDCREATE
 40
2458897.384483449
  9
$TDUCREATE
 40
2458897.342816782
  9
$TDUPDATE
 40
2458897.384485798
  9
$TDUUPDATE
 40
2458897.342819132
  9
$TDINDWG
 40
0.0000000116
  9
$TDUSRTIMER
 40
0.0000000116
  9
$USRTIMER
 70
     1
  9
$ANGBASE
 50
0.0
  9
$ANGDIR
 70
     0
  9
$PDMODE
 70
     0
  9
$PDSIZE
 40
-1.0
  9
$PLINEWID
 40
0.0
  9
$SPLFRAME
 70
     0
  9
$SPLINETYPE
 70
     6
  9
$SPLINESEGS
 70
     8
  9
$HANDSEED
  5
2A6
  9
$SURFTAB1
 70
     6
  9
$SURFTAB2
 70
     6
  9
$SURFTYPE
 70
     6
  9
$SURFU
 70
     6
  9
$SURFV
 70
     6
  9
$UCSBASE
  2

  9
$UCSNAME
  2

  9
$UCSORG
 10
0.0
 20
0.0
 30
0.0
  9
$UCSXDIR
 10
1.0
 20
0.0
 30
0.0
  9
$UCSYDIR
 10
0.0
 20
1.0
 30
0.0
  9
$UCSORTHOREF
  2

  9
$UCSORTHOVIEW
 70
     0
  9
$UCSORGTOP
 10
0.0
 20
0.0
 30
0.0
  9
$UCSORGBOTTOM
 10
0.0
 20
0.0
 30
0.0
  9
$UCSORGLEFT
 10
0.0
 20
0.0
 30
0.0
  9
$UCSORGRIGHT
 10
0.0
 20
0.0
 30
0.0
  9
$UCSORGFRONT
 10
0.0
 20
0.0
 30
0.0
  9
$UCSORGBACK
 10
0.0
 20
0.0
 30
0.0
  9
$PUCSBASE
  2

  9
$PUCSNAME
  2

  9
$PUCSORG
 10
0.0
 20
0.0
 30
0.0
  9
$PUCSXDIR
 10
1.0
 20
0.0
 30
0.0
  9
$PUCSYDIR
 10
0.0
 20
1.0
 30
0.0
  9
$PUCSORTHOREF
  2

  9
$PUCSORTHOVIEW
 70
     0
  9
$PUCSORGTOP
 10
0.0
 20
0.0
 30
0.0
  9
$PUCSORGBOTTOM
 10
0.0
 20
0.0
 30
0.0
  9
$PUCSORGLEFT
 10
0.0
 20
0.0
 30
0.0
  9
$PUCSORGRIGHT
 10
0.0
 20
0.0
 30
0.0
  9
$PUCSORGFRONT
 10
0.0
 20
0.0
 30
0.0
  9
$PUCSORGBACK
 10
0.0
 20
0.0
 30
0.0
  9
$USERI1
 70
     0
  9
$USERI2
 70
     0
  9
$USERI3
 70
     0
  9
$USERI4
 70
     0
  9
$USERI5
 70
     0
  9
$USERR1
 40
0.0
  9
$USERR2
 40
0.0
  9
$USERR3
 40
0.0
  9
$USERR4
 40
0.0
  9
$USERR5
 40
0.0
  9
$WORLDVIEW
 70
     1
  9
$SHADEDGE
 70
     3
  9
$SHADEDIF
 70
    70
  9
$TILEMODE
 70
     1
  9
$MAXACTVP
 70
    64
  9
$PINSBASE
 10
0.0
 20
0.0
 30
0.0
  9
$PLIMCHECK
 70
     0
  9
$PEXTMIN
 10
1.0000000000E+20
 20
1.0000000000E+20
 30
1.0000000000E+20
  9
$PEXTMAX
 10
-1.0000000000E+20
 20
-1.0000000000E+20
 30
-1.0000000000E+20
  9
$PLIMMIN
 10
0.0
 20
0.0
  9
$PLIMMAX
 10
420.0
 20
297.0
  9
$UNITMODE
 70
     0
  9
$VISRETAIN
 70
     1
  9
$PLINEGEN
 70
     0
  9
$PSLTSCALE
 70
     1
  9
$TREEDEPTH
 70
  3020
  9
$CMLSTYLE
  2
Standard
  9
$CMLJUST
 70
     0
  9
$CMLSCALE
 40
20.0
  9
$PROXYGRAPHICS
 70
     1
  9
$MEASUREMENT
 70
     1
  9
$CELWEIGHT
370
    -1
  9
$ENDCAPS
280
     0
  9
$JOINSTYLE
280
     0
  9
$LWDISPLAY
290
     1
  9
$INSUNITS
 70
     4
  9
$HYPERLINKBASE
  1

  9
$STYLESHEET
  1

  9
$XEDIT
290
     1
  9
$CEPSNTYPE
380
     0
  9
$PSTYLEMODE
290
     1
  9
$FINGERPRINTGUID
  2
{BEA9237A-85E9-4C0C-8A08-F45836470E41}
  9
$VERSIONGUID
  2
{FAEB1C32-E019-11D5-929B-00C0DF256EC4}
  9
$EXTNAMES
290
     1
  9
$PSVPSCALE
 40
0.0
  9
$OLESTARTUP
290
     0
  9
$SORTENTS
280
   127
  9
$INDEXCTL
280
     0
  9
$HIDETEXT
280
     1
  9
$XCLIPFRAME
280
     2
  9
$HALOGAP
280
     0
  9
$OBSCOLOR
 70
   257
  9
$OBSLTYPE
280
     0
  9
$INTERSECTIONDISPLAY
280
     0
  9
$INTERSECTIONCOLOR
 70
   257
  9
$DIMASSOC
280
     2
  9
$PROJECTNAME
  1

  9
$CAMERADISPLAY
290
     0
  9
$LENSLENGTH
 40
50.0
  9
$CAMERAHEIGHT
 40
0.0
  9
$STEPSPERSEC
 40
2.0
  9
$STEPSIZE
 40
6.0
  9
$3DDWFPREC
 40
2.0
  9
$PSOLWIDTH
 40
5.0
  9
$PSOLHEIGHT
 40
80.0
  9
$LOFTANG1
 40
1.5707963268
  9
$LOFTANG2
 40
1.5707963268
  9
$LOFTMAG1
 40
0.0
  9
$LOFTMAG2
 40
0.0
  9
$LOFTPARAM
 70
     7
  9
$LOFTNORMALS
280
     1
  9
$LATITUDE
 40
37.795
  9
$LONGITUDE
 40
-122.394
  9
$NORTHDIRECTION
 40
0.0
  9
$TIMEZONE
 70
 -8000
  9
$LIGHTGLYPHDISPLAY
280
     1
  9
$TILEMODELIGHTSYNCH
280
     1
  9
$CMATERIAL
347
44
  9
$SOLIDHIST
280
     0
  9
$SHOWHIST
280
     1
  9
$DWFFRAME
280
     2
  9
$DGNFRAME
280
     2
  9
$REALWORLDSCALE
290
     1
  9
$INTERFERECOLOR
 62
   256
  9
$CSHADOW
280
     0
  9
$SHADOWPLANELOCATION
 40
0.0
  0
ENDSEC
  0
SECTION
  2
CLASSES
  0
CLASS
  1
ACDBDICTIONARYWDFLT
  2
AcDbDictionaryWithDefault
  3
ObjectDBX Classes
 90
        0
 91
        4
280
     0
281
     0
  0
CLASS
  1
VISUALSTYLE
  2
AcDbVisualStyle
  3
ObjectDBX Classes
 90
     4095
 91
        4
280
     0
281
     0
  0
CLASS
  1
MATERIAL
  2
AcDbMaterial
  3
ObjectDBX Classes
 90
     1153
 91
        4
280
     0
281
     0
  0
CLASS
  1
SCALE
  2
AcDbScale
  3
ObjectDBX Classes
 90
     1153
 91
        4
280
     0
281
     0
  0
CLASS
  1
TABLESTYLE
  2
AcDbTableStyle
  3
ObjectDBX Classes
 90
     4095
 91
        4
280
     0
281
     0
  0
CLASS
  1
MLEADERSTYLE
  2
AcDbMLeaderStyle
  3
ACDB_MLEADERSTYLE_CLASS
 90
     4095
 91
        4
280
     0
281
     0
  0
CLASS
  1
SUN
  2
AcDbSun
  3
SCENEOE
 90
     1153
 91
        4
280
     0
281
     0
  0
CLASS
  1
DICTIONARYVAR
  2
AcDbDictionaryVar
  3
ObjectDBX Classes
 90
        0
 91
        4
280
     0
281
     0
  0
CLASS
  1
CELLSTYLEMAP
  2
AcDbCellStyleMap
  3
ObjectDBX Classes
 90
     1152
 91
        4
280
     0
281
     0
  0
ENDSEC
  0
SECTION
  2
TABLES
  0
TABLE
  2
VPORT
  5
8
330
0
100
AcDbSymbolTable
 70
     1
  0
VPORT
  5
29
330
8
100
AcDbSymbolTableRecord
100
AcDbViewportTableRecord
  2
*Active
 70
     0
 10
0.0
 20
0.0
 11
1.0
 21
1.0
 12
420.0
 22
297.0
 13
0.0
 23
0.0
 14
10.0
 24
10.0
 15
10.0
 25
10.0
 16
0.0
 26
0.0
 36
1.0
 17
0.0
 27
0.0
 37
0.0
 40
594.0
 41
1.4141414141
 42
50.0
 43
0.0
 44
0.0
 50
0.0
 51
0.0
 71
     0
 72
  2000
 73
     1
 74
     3
 75
     0
 76
     0
 77
     0
 78
     0
281
     0
 65
     1
110
0.0
120
0.0
130
0.0
111
1.0
121
0.0
131
0.0
112
0.0
122
1.0
132
0.0
 79
     0
146
0.0
348
2F
 60
     3
 61
     5
292
     1
282
     1
141
0.0
142
0.0
 63
   250
361
6D
  0
ENDTAB
  0
TABLE
  2
LTYPE
  5
5
330
0
100
AcDbSymbolTable
 70
     8
  0
LTYPE
  5
14
330
5
100
AcDbSymbolTableRecord
100
AcDbLinetypeTableRecord
  2
ByBlock
 70
     0
  3

 72
    65
 73
     0
 40
0.0
  0
LTYPE
  5
15
330
5
100
AcDbSymbolTableRecord
100
AcDbLinetypeTableRecord
  2
ByLayer
 70
     0
  3

 72
    65
 73
     0
 40
0.0
  0
LTYPE
  5
16
330
5
100
AcDbSymbolTableRecord
100
AcDbLinetypeTableRecord
  2
Continuous
 70
     0
  3
Solid line
 72
    65
 73
     0
 40
0.0
  0
LTYPE
  5
6E
330
5
100
AcDbSymbolTableRecord
100
AcDbLinetypeTableRecord
  2
SLD-Durchgehend
 70
     0
  3
SolidWorks Line Style
 72
    65
 73
     0
 40
0.0
  0
LTYPE
  5
6F
330
5
100
AcDbSymbolTableRecord
100
AcDbLinetypeTableRecord
  2
SLD-Gestrichelt
 70
     0
  3
SolidWorks Line Style
 72
    65
 73
     2
 40
1.905
 49
1.27
 74
     0
 49
-0.635
 74
     0
  0
LTYPE
  5
70
330
5
100
AcDbSymbolTableRecord
100
AcDbLinetypeTableRecord
  2
SLD-Phantom
 70
     0
  3
SolidWorks Line Style
 72
    65
 73
     6
 40
12.7
 49
6.35
 74
     0
 49
-1.27
 74
     0
 49
1.27
 74
     0
 49
-1.27
 74
     0
 49
1.27
 74
     0
 49
-1.27
 74
     0
  0
LTYPE
  5
71
330
5
100
AcDbSymbolTableRecord
100
AcDbLinetypeTableRecord
  2
SLD-Kette
 70
     0
  3
SolidWorks Line Style
 72
    65
 73
     4
 40
10.16
 49
6.35
 74
     0
 49
-1.27
 74
     0
 49
1.27
 74
     0
 49
-1.27
 74
     0
  0
LTYPE
  5
72
330
5
100
AcDbSymbolTableRecord
100
AcDbLinetypeTableRecord
  2
SLD-Punktstrich
 70
     0
  3
SolidWorks Line Style
 72
    65
 73
     4
 40
19.05
 49
15.24
 74
     0
 49
-1.27
 74
     0
 49
1.27
 74
     0
 49
-1.27
 74
     0
  0
LTYPE
  5
73
330
5
100
AcDbSymbolTableRecord
100
AcDbLinetypeTableRecord
  2
SLD-Naht
 70
     0
  3
SolidWorks Line Style
 72
    65
 73
     2
 40
0.635
 49
0.0
 74
     0
 49
-0.635
 74
     0
  0
LTYPE
  5
74
330
5
100
AcDbSymbolTableRecord
100
AcDbLinetypeTableRecord
  2
SLD-Dicke-Dünne-Kette
 70
     0
  3
SolidWorks Line Style
 72
    65
 73
     4
 40
10.16
 49
6.35
 74
     0
 49
-1.27
 74
     0
 49
1.27
 74
     0
 49
-1.27
 74
     0
  0
ENDTAB
  0
TABLE
  2
LAYER
  5
2
330
0
100
AcDbSymbolTable
 70
     1
  0
LAYER
  5
10
330
2
100
AcDbSymbolTableRecord
100
AcDbLayerTableRecord
  2
0
 70
     0
 62
     7
  6
Continuous
370
    -3
390
F
347
46
348
0
  0
ENDTAB
  0
TABLE
  2
STYLE
  5
3
330
0
100
AcDbSymbolTable
 70
     3
  0
STYLE
  5
11
330
3
100
AcDbSymbolTableRecord
100
AcDbTextStyleTableRecord
  2
Standard
 70
     0
 40
0.0
 41
1.0
 50
0.0
 71
     0
 42
7.0
  3
txt
  4

  0
STYLE
  5
185
330
3
100
AcDbSymbolTableRecord
100
AcDbTextStyleTableRecord
  2
SLDTEXTSTYLE0
 70
     0
 40
0.0
 41
0.75
 50
0.0
 71
     0
 42
7.0
  3
TXT
  4

  0
STYLE
  5
267
330
3
100
AcDbSymbolTableRecord
100
AcDbTextStyleTableRecord
  2
SLDTEXTSTYLE1
 70
     0
 40
0.0
 41
0.605
 50
0.0
 71
     0
 42
7.0
  3
TXT
  4

  0
ENDTAB
  0
TABLE
  2
VIEW
  5
6
330
0
100
AcDbSymbolTable
 70
     0
  0
ENDTAB
  0
TABLE
  2
UCS
  5
7
330
0
100
AcDbSymbolTable
 70
     0
  0
ENDTAB
  0
TABLE
  2
APPID
  5
9
330
0
100
AcDbSymbolTable
 70
     1
  0
APPID
  5
12
330
9
100
AcDbSymbolTableRecord
100
AcDbRegAppTableRecord
  2
ACAD
 70
     0
  0
ENDTAB
  0
TABLE
  2
DIMSTYLE
  5
A
330
0
100
AcDbSymbolTable
 70
     3
100
AcDbDimStyleTable
  0
DIMSTYLE
105
27
330
A
100
AcDbSymbolTableRecord
100
AcDbDimStyleTableRecord
  2
ISO-25
 70
     0
 41
2.5
 42
0.625
 43
3.75
 44
1.25
 73
     0
 74
     0
 77
     1
 78
     8
140
2.5
141
2.5
143
0.0393700787
147
0.625
171
     3
172
     1
178
     0
271
     2
272
     2
274
     3
278
    44
283
     0
284
     8
340
11
  0
DIMSTYLE
105
268
102
{ACAD_REACTORS
330
266
330
27A
330
291
102
}
330
A
100
AcDbSymbolTableRecord
100
AcDbDimStyleTableRecord
  2
SLDDIMSTYLE0
 70
     0
 41
14.0
 44
0.0
 45
0.000000001
 73
     0
 74
     0
 77
     1
 78
    12
 79
     3
140
14.0
147
3.5
173
     1
178
     0
271
     0
272
     0
276
     2
284
    12
340
267
  0
DIMSTYLE
105
285
102
{ACAD_REACTORS
330
284
102
}
330
A
100
AcDbSymbolTableRecord
100
AcDbDimStyleTableRecord
  2
SLDDIMSTYLE1
 70
     0
 41
14.0
 44
0.0
 45
0.000000001
 73
     0
 74
     0
 77
     1
 78
    12
 79
     3
140
14.0
147
3.5
172
     1
173
     1
178
     0
271
     0
272
     0
276
     2
284
    12
289
     0
340
267
  0
ENDTAB
  0
TABLE
  2
BLOCK_RECORD
  5
1
330
0
100
AcDbSymbolTable
 70
     6
  0
BLOCK_RECORD
  5
1F
330
1
100
AcDbSymbolTableRecord
100
AcDbBlockTableRecord
  2
*Model_Space
340
22
 70
     0
280
     1
281
     0
  0
BLOCK_RECORD
  5
1B
330
1
100
AcDbSymbolTableRecord
100
AcDbBlockTableRecord
  2
*Paper_Space
340
1E
 70
     0
280
     1
281
     0
  0
BLOCK_RECORD
  5
23
330
1
100
AcDbSymbolTableRecord
100
AcDbBlockTableRecord
  2
*Paper_Space0
340
26
 70
     0
280
     1
281
     0
  0
BLOCK_RECORD
  5
269
330
1
100
AcDbSymbolTableRecord
100
AcDbBlockTableRecord
  2
_D
340
0
 70
     0
280
     1
281
     0
  0
BLOCK_RECORD
  5
271
330
1
100
AcDbSymbolTableRecord
100
AcDbBlockTableRecord
  2
SW_SYMBOL_MOD_BOX
340
0
102
{BLKREFS
331
278
102
}
 70
     0
280
     1
281
     0
  0
BLOCK_RECORD
  5
27B
330
1
100
AcDbSymbolTableRecord
100
AcDbBlockTableRecord
  2
_D_1
340
0
 70
     0
280
     1
281
     0
  0
BLOCK_RECORD
  5
286
330
1
100
AcDbSymbolTableRecord
100
AcDbBlockTableRecord
  2
_D_2
340
0
 70
     0
280
     1
281
     0
  0
BLOCK_RECORD
  5
292
330
1
100
AcDbSymbolTableRecord
100
AcDbBlockTableRecord
  2
_D_3
340
0
 70
     0
280
     1
281
     0
  0
ENDTAB
  0
ENDSEC
  0
SECTION
  2
BLOCKS
  0
BLOCK
  5
20
330
1F
100
AcDbEntity
  8
0
100
AcDbBlockBegin
  2
*Model_Space
 70
     0
 10
0.0
 20
0.0
 30
0.0
  3
*Model_Space
  1

  0
ENDBLK
  5
21
330
1F
100
AcDbEntity
  8
0
100
AcDbBlockEnd
  0
BLOCK
  5
1C
330
1B
100
AcDbEntity
 67
     1
  8
0
100
AcDbBlockBegin
  2
*Paper_Space
 70
     0
 10
0.0
 20
0.0
 30
0.0
  3
*Paper_Space
  1

  0
ENDBLK
  5
1D
330
1B
100
AcDbEntity
 67
     1
  8
0
100
AcDbBlockEnd
  0
BLOCK
  5
24
330
23
100
AcDbEntity
  8
0
100
AcDbBlockBegin
  2
*Paper_Space0
 70
     0
 10
0.0
 20
0.0
 30
0.0
  3
*Paper_Space0
  1

  0
ENDBLK
  5
25
330
23
100
AcDbEntity
  8
0
100
AcDbBlockEnd
  0
BLOCK
  5
26A
330
269
100
AcDbEntity
  8
0
100
AcDbBlockBegin
  2
_D
 70
     0
 10
0.0
 20
0.0
 30
0.0
  3
_D
  1

  0
SOLID
  5
26C
330
269
100
AcDbEntity
  8
0
  6
SLD-Durchgehend
 62
     7
370
    18
100
AcDbTrace
 10
341.0306377015
 20
418.2823693243
 30
0.0
 11
355.0306377015
 21
416.1285231705
 31
0.0
 12
355.0306377015
 22
420.4362154782
 32
0.0
 13
355.0306377015
 23
420.4362154782
 33
0.0
  0
SOLID
  5
26D
330
269
100
AcDbEntity
  8
0
  6
SLD-Durchgehend
 62
     7
370
    18
100
AcDbTrace
 10
462.0306377015
 20
418.2823693243
 30
0.0
 11
448.0306377015
 21
420.4362154782
 31
0.0
 12
448.0306377015
 22
416.1285231705
 32
0.0
 13
448.0306377015
 23
416.1285231705
 33
0.0
  0
LINE
  5
26E
330
269
100
AcDbEntity
  8
0
  6
SLD-Durchgehend
 62
     7
370
    18
100
AcDbLine
 10
341.0306377015
 20
410.5363297517
 30
0.0
 11
341.0306377015
 21
420.2823693243
 31
0.0
  0
LINE
  5
26F
330
269
100
AcDbEntity
  8
0
  6
SLD-Durchgehend
 62
     7
370
    18
100
AcDbLine
 10
462.0306377015
 20
410.5363297517
 30
0.0
 11
462.0306377015
 21
420.2823693243
 31
0.0
  0
LINE
  5
270
330
269
100
AcDbEntity
  8
0
  6
SLD-Durchgehend
 62
     7
370
    18
100
AcDbLine
 10
341.0306377015
 20
418.2823693243
 30
0.0
 11
462.0306377015
 21
418.2823693243
 31
0.0
  0
INSERT
  5
278
330
269
100
AcDbEntity
  8
0
  6
SLD-Durchgehend
 62
     7
370
    18
100
AcDbBlockReference
  2
SW_SYMBOL_MOD_BOX
 10
376.1914471612
 20
420.3058435027
 30
0.0
 41
0.0090234742
 42
0.0090234742
 43
0.0090234742
 50
0.0
  0
MTEXT
  5
279
330
269
100
AcDbEntity
  8
0
  6
SLD-Durchgehend
 62
     7
370
    18
100
AcDbMText
 10
395.5289466754
 20
436.4265403074
 30
0.0
 40
14.0
 41
0.0
 46
0.0
 71
     1
 72
     1
  1
120
  7
SLDTEXTSTYLE1
 73
     1
 44
1.0
  0
ENDBLK
  5
26B
330
269
100
AcDbEntity
  8
0
100
AcDbBlockEnd
  0
BLOCK
  5
272
330
271
100
AcDbEntity
  8
0
100
AcDbBlockBegin
  2
SW_SYMBOL_MOD_BOX
 70
     0
 10
0.0
 20
0.0
 30
0.0
  3
SW_SYMBOL_MOD_BOX
  1

  0
LINE
  5
274
330
271
100
AcDbEntity
  8
0
  6
SLD-Durchgehend
 62
     0
370
    18
100
AcDbLine
 10
400.0
 20
400.0
 30
0.0
 11
1600.0
 21
400.0
 31
0.0
  0
LINE
  5
275
330
271
100
AcDbEntity
  8
0
  6
SLD-Durchgehend
 62
     0
370
    18
100
AcDbLine
 10
400.0
 20
400.0
 30
0.0
 11
400.0
 21
1600.0
 31
0.0
  0
LINE
  5
276
330
271
100
AcDbEntity
  8
0
  6
SLD-Durchgehend
 62
     0
370
    18
100
AcDbLine
 10
400.0
 20
1600.0
 30
0.0
 11
1600.0
 21
1600.0
 31
0.0
  0
LINE
  5
277
330
271
100
AcDbEntity
  8
0
  6
SLD-Durchgehend
 62
     0
370
    18
100
AcDbLine
 10
1600.0
 20
1600.0
 30
0.0
 11
1600.0
 21
400.0
 31
0.0
  0
ENDBLK
  5
273
330
271
100
AcDbEntity
  8
0
100
AcDbBlockEnd
  0
BLOCK
  5
27C
330
27B
100
AcDbEntity
  8
0
100
AcDbBlockBegin
  2
_D_1
 70
     0
 10
0.0
 20
0.0
 30
0.0
  3
_D_1
  1

  0
SOLID
  5
27E
330
27B
100
AcDbEntity
  8
0
  6
SLD-Durchgehend
 62
     7
370
    18
100
AcDbTrace
 10
346.5306377015
 20
351.5363297517
 30
0.0
 11
360.5306377015
 21
349.3824835979
 31
0.0
 12
360.5306377015
 22
353.6901759056
 32
0.0
 13
360.5306377015
 23
353.6901759056
 33
0.0
  0
SOLID
  5
27F
330
27B
100
AcDbEntity
  8
0
  6
SLD-Durchgehend
 62
     7
370
    18
100
AcDbTrace
 10
456.5306377015
 20
351.5363297517
 30
0.0
 11
442.5306377015
 21
353.6901759056
 31
0.0
 12
442.5306377015
 22
349.3824835979
 32
0.0
 13
442.5306377015
 23
349.3824835979
 33
0.0
  0
LINE
  5
280
330
27B
100
AcDbEntity
  8
0
  6
SLD-Durchgehend
 62
     7
370
    18
100
AcDbLine
 10
346.5306377015
 20
369.7863297517
 30
0.0
 11
346.5306377015
 21
349.5363297517
 31
0.0
  0
LINE
  5
281
330
27B
100
AcDbEntity
  8
0
  6
SLD-Durchgehend
 62
     7
370
    18
100
AcDbLine
 10
456.5306377015
 20
369.7863297517
 30
0.0
 11
456.5306377015
 21
349.5363297517
 31
0.0
  0
LINE
  5
282
330
27B
100
AcDbEntity
  8
0
  6
SLD-Durchgehend
 62
     7
370
    18
100
AcDbLine
 10
346.5306377015
 20
351.5363297517
 30
0.0
 11
456.5306377015
 21
351.5363297517
 31
0.0
  0
MTEXT
  5
283
330
27B
100
AcDbEntity
  8
0
  6
SLD-Durchgehend
 62
     7
370
    18
100
AcDbMText
 10
385.8601959869
 20
369.5832781085
 30
0.0
 40
14.0
 41
0.0
 46
0.0
 71
     1
 72
     1
  1
110
  7
SLDTEXTSTYLE1
 73
     1
 44
1.0
  0
ENDBLK
  5
27D
330
27B
100
AcDbEntity
  8
0
100
AcDbBlockEnd
  0
BLOCK
  5
287
330
286
100
AcDbEntity
  8
0
100
AcDbBlockBegin
  2
_D_2
 70
     0
 10
0.0
 20
0.0
 30
0.0
  3
_D_2
  1

  0
SOLID
  5
289
330
286
100
AcDbEntity
  8
0
  6
SLD-Durchgehend
 62
     7
370
    18
100
AcDbTrace
 10
475.8266108118
 20
410.5363297517
 30
0.0
 11
477.9804569657
 21
424.5363297517
 31
0.0
 12
473.672764658
 22
424.5363297517
 32
0.0
 13
473.672764658
 23
424.5363297517
 33
0.0
  0
SOLID
  5
28A
330
286
100
AcDbEntity
  8
0
  6
SLD-Durchgehend
 62
     7
370
    18
100
AcDbTrace
 10
475.8266108118
 20
402.7363297517
 30
0.0
 11
473.672764658
 21
388.7363297517
 31
0.0
 12
477.9804569657
 22
388.7363297517
 32
0.0
 13
477.9804569657
 23
388.7363297517
 33
0.0
  0
LINE
  5
28B
330
286
100
AcDbEntity
  8
0
  6
SLD-Durchgehend
 62
     7
370
    18
100
AcDbLine
 10
459.5306377015
 20
410.5363297517
 30
0.0
 11
477.8266108118
 21
410.5363297517
 31
0.0
  0
LINE
  5
28C
330
286
100
AcDbEntity
  8
0
  6
SLD-Durchgehend
 62
     7
370
    18
100
AcDbLine
 10
463.5306377015
 20
402.7363297517
 30
0.0
 11
477.8266108118
 21
402.7363297517
 31
0.0
  0
LINE
  5
28D
330
286
100
AcDbEntity
  8
0
  6
SLD-Durchgehend
 62
     7
370
    18
100
AcDbLine
 10
475.8266108118
 20
410.5363297517
 30
0.0
 11
475.8266108118
 21
437.4594066748
 31
0.0
  0
LINE
  5
28E
330
286
100
AcDbEntity
  8
0
  6
SLD-Durchgehend
 62
     7
370
    18
100
AcDbLine
 10
475.8266108118
 20
410.5363297517
 30
0.0
 11
475.8266108118
 21
402.7363297517
 31
0.0
  0
LINE
  5
28F
330
286
100
AcDbEntity
  8
0
  6
SLD-Durchgehend
 62
     7
370
    18
100
AcDbLine
 10
475.8266108118
 20
402.7363297517
 30
0.0
 11
475.8266108118
 21
380.9097034629
 31
0.0
  0
MTEXT
  5
290
330
286
100
AcDbEntity
  8
0
  6
SLD-Durchgehend
 62
     7
370
    18
100
AcDbMText
 10
457.779662455
 20
380.9097034629
 30
0.0
 40
14.0
 41
0.0
 46
0.0
 71
     1
 72
     1
  1
8
  7
SLDTEXTSTYLE1
 11
-7.044195017643634E-15
 21
1.0
 31
0.0
 73
     1
 44
1.0
  0
ENDBLK
  5
288
330
286
100
AcDbEntity
  8
0
100
AcDbBlockEnd
  0
BLOCK
  5
293
330
292
100
AcDbEntity
  8
0
100
AcDbBlockBegin
  2
_D_3
 70
     0
 10
0.0
 20
0.0
 30
0.0
  3
_D_3
  1

  0
SOLID
  5
295
330
292
100
AcDbEntity
  8
0
  6
SLD-Durchgehend
 62
     7
370
    18
100
AcDbTrace
 10
497.8787554223
 20
410.5363297517
 30
0.0
 11
495.7249092684
 21
396.5363297517
 31
0.0
 12
500.0326015761
 22
396.5363297517
 32
0.0
 13
500.0326015761
 23
396.5363297517
 33
0.0
  0
SOLID
  5
296
330
292
100
AcDbEntity
  8
0
  6
SLD-Durchgehend
 62
     7
370
    18
100
AcDbTrace
 10
497.8787554223
 20
371.5363297517
 30
0.0
 11
500.0326015761
 21
385.5363297517
 31
0.0
 12
495.7249092684
 22
385.5363297517
 32
0.0
 13
495.7249092684
 23
385.5363297517
 33
0.0
  0
LINE
  5
297
330
292
100
AcDbEntity
  8
0
  6
SLD-Durchgehend
 62
     7
370
    18
100
AcDbLine
 10
462.5306377015
 20
410.5363297517
 30
0.0
 11
499.8787554223
 21
410.5363297517
 31
0.0
  0
LINE
  5
298
330
292
100
AcDbEntity
  8
0
  6
SLD-Durchgehend
 62
     7
370
    18
100
AcDbLine
 10
450.9988902966
 20
371.5363297517
 30
0.0
 11
499.8787554223
 21
371.5363297517
 31
0.0
  0
LINE
  5
299
330
292
100
AcDbEntity
  8
0
  6
SLD-Durchgehend
 62
     7
370
    18
100
AcDbLine
 10
497.8787554223
 20
410.5363297517
 30
0.0
 11
497.8787554223
 21
371.5363297517
 31
0.0
  0
MTEXT
  5
29A
330
292
100
AcDbEntity
  8
0
  6
SLD-Durchgehend
 62
     7
370
    18
100
AcDbMText
 10
479.8318070655
 20
381.212040258
 30
0.0
 40
14.0
 41
0.0
 46
0.0
 71
     1
 72
     1
  1
39
  7
SLDTEXTSTYLE1
 11
-7.044195017643634E-15
 21
1.0
 31
0.0
 73
     1
 44
1.0
  0
ENDBLK
  5
294
330
292
100
AcDbEntity
  8
0
100
AcDbBlockEnd
  0
ENDSEC
  0
SECTION
  2
ENTITIES
  0
SPLINE
  5
75
330
1F
100
AcDbEntity
  8
0
  6
SLD-Durchgehend
 62
     7
370
    25
100
AcDbSpline
210
0.0
220
0.0
230
1.0
 70
     8
 71
     3
 72
    11
 73
     7
 74
     0
 42
0.000000001
 43
0.00000001
 40
0.0
 40
0.0
 40
0.0
 40
0.0
 40
0.2747250492094327
 40
0.5494453099087234
 40
0.7708824127484648
 40
1.0
 40
1.0
 40
1.0
 40
1.0
 10
417.1346071801856
 20
240.5113088664868
 30
0.0
 10
417.1267558147268
 20
240.5670004168058
 30
0.0
 10
417.1110532206599
 20
240.6783825467295
 30
0.0
 10
417.0063954272318
 20
240.8016423478803
 30
0.0
 10
416.8803109142455
 20
240.8800961994134
 30
0.0
 10
416.7897631476163
 20
240.8934630985063
 30
0.0
 10
416.7437174926107
 20
240.9002604790166
 30
0.0
  0
LINE
  5
76
330
1F
100
AcDbEntity
  8
0
  6
SLD-Durchgehend
 62
     7
370
    25
100
AcDbLine
 10
416.7437174926
 20
240.900260479
 30
0.0
 11
415.9898731302
 21
240.900260479
 31
0.0
  0
LINE
  5
77
330
1F
100
AcDbEntity
  8
0
  6
SLD-Durchgehend
 62
     7
370
    25
100
AcDbLine
 10
415.9898731302
 20
240.900260479
 30
0.0
 11
415.9898731302
 21
238.6129308745
 31
0.0
  0
LINE
  5
78
330
1F
100
AcDbEntity
  8
0
  6
SLD-Durchgehend
 62
     7
370
    25
100
AcDbLine
 10
415.9898731302
 20
238.6129308745
 30
0.0
 11
416.7482619444
 21
238.6129308745
 31
0.0
  0
LINE
  5
79
330
1F
100
AcDbEntity
  8
0
  6
SLD-Durchgehend
 62
     7
370
    25
100
AcDbLine
 10
417.1346071802
 20
238.94922031
 30
0.0
 11
417.1346071802
 21
240.5113088665
 31
0.0
  0
SPLINE
  5
7A
330
1F
100
AcDbEntity
  8
0
  6
SLD-Durchgehend
 62
     7
370
    25
100
AcDbSpline
210
0.0
220
0.0
230
1.0
 70
     8
 71
     3
 72
     9
 73
     5
 74
     0
 42
0.000000001
 43
0.00000001
 40
0.0
 40
0.0
 40
0.0
 40
0.0
 40
0.5611492448852707
 40
1.0
 40
1.0
 40
1.0
 40
1.0
 10
416.7044216106267
 20
237.7530941778239
 30
0.0
 10
416.7172191644879
 20
237.7526841106548
 30
0.0
 10
416.7400251362998
 20
237.7519533475416
 30
0.0
 10
416.7628423493796
 20
237.7519098547449
 30
0.0
 10
416.7728557005693
 20
237.7518907678983
 30
0.0
  0
LINE
  5
7B
330
1F
100
AcDbEntity
  8
0
  6
SLD-Durchgehend
 62
     7
370
    25
100
AcDbLine
 10
415.1306377015
 20
237.7530941778
 30
0.0
 11
416.7044216106
 21
237.7530941778
 31
0.0
  0
LINE
  5
7C
330
1F
100
AcDbEntity
  8
0
  6
SLD-Durchgehend
 62
     7
370
    25
100
AcDbLine
 10
415.1306377015
 20
241.7515434867
 30
0.0
 11
415.1306377015
 21
237.7530941778
 31
0.0
  0
LINE
  5
7D
330
1F
100
AcDbEntity
  8
0
  6
SLD-Durchgehend
 62
     7
370
    25
100
AcDbLine
 10
416.7967809029
 20
241.7515434867
 30
0.0
 11
415.1306377015
 21
241.7515434867
 31
0.0
  0
SPLINE
  5
7E
330
1F
100
AcDbEntity
  8
0
  6
SLD-Durchgehend
 62
     7
370
    25
100
AcDbSpline
210
0.0
220
0.0
230
1.0
 70
     8
 71
     3
 72
    12
 73
     8
 74
     0
 42
0.000000001
 43
0.00000001
 40
0.0
 40
0.0
 40
0.0
 40
0.0
 40
0.2177775398264643
 40
0.3984647405276027
 40
0.5601427979986209
 40
0.7588538422333
 40
1.0
 40
1.0
 40
1.0
 40
1.0
 10
417.9429183865092
 20
240.5515408828186
 30
0.0
 10
417.9372805358859
 20
240.6901757811537
 30
0.0
 10
417.9269650337108
 20
240.9438342568495
 30
0.0
 10
417.8112458691511
 20
241.28723018831
 30
0.0
 10
417.5889534262766
 20
241.5600191251712
 30
0.0
 10
417.2315127174514
 20
241.7301482284605
 30
0.0
 10
416.950721269292
 20
241.7439673356498
 30
0.0
 10
416.796780902852
 20
241.751543486699
 30
0.0
  0
LINE
  5
7F
330
1F
100
AcDbEntity
  8
0
  6
SLD-Durchgehend
 62
     7
370
    25
100
AcDbLine
 10
417.9429183865
 20
238.920082209
 30
0.0
 11
417.9429183865
 21
240.5515408828
 31
0.0
  0
SPLINE
  5
80
330
1F
100
AcDbEntity
  8
0
  6
SLD-Durchgehend
 62
     7
370
    25
100
AcDbSpline
210
0.0
220
0.0
230
1.0
 70
     8
 71
     3
 72
    10
 73
     6
 74
     0
 42
0.000000001
 43
0.00000001
 40
0.0
 40
0.0
 40
0.0
 40
0.0
 40
0.2528872714856183
 40
0.5184621175552778
 40
1.0
 40
1.0
 40
1.0
 40
1.0
 10
417.5921268033188
 20
238.0046424858686
 30
0.0
 10
417.6522788600619
 20
238.0655375897768
 30
0.0
 10
417.7756008546058
 20
238.1903829579738
 30
0.0
 10
417.9162562321963
 20
238.5044597979417
 30
0.0
 10
417.9324688435596
 20
238.757189736594
 30
0.0
 10
417.9429183865092
 20
238.9200822089669
 30
0.0
  0
SPLINE
  5
81
330
1F
100
AcDbEntity
  8
0
  6
SLD-Durchgehend
 62
     7
370
    25
100
AcDbSpline
210
0.0
220
0.0
230
1.0
 70
     8
 71
     3
 72
     9
 73
     5
 74
     0
 42
0.000000001
 43
0.00000001
 40
0.0
 40
0.0
 40
0.0
 40
0.0
 40
0.5967093862650626
 40
0.9999999999999999
 40
0.9999999999999999
 40
0.9999999999999999
 40
0.9999999999999999
 10
416.7728557005693
 20
237.7518907678983
 30
0.0
 10
416.9501635776018
 20
237.7608798398567
 30
0.0
 10
417.2473063427631
 20
237.7759442450182
 30
0.0
 10
417.493029115495
 20
237.938917073748
 30
0.0
 10
417.5921268033188
 20
238.0046424858686
 30
0.0
  0
SPLINE
  5
82
330
1F
100
AcDbEntity
  8
0
  6
SLD-Durchgehend
 62
     7
370
    25
100
AcDbSpline
210
0.0
220
0.0
230
1.0
 70
     8
 71
     3
 72
    11
 73
     7
 74
     0
 42
0.000000001
 43
0.00000001
 40
0.0
 40
0.0
 40
0.0
 40
0.0
 40
0.2812497544593561
 40
0.5529773269316952
 40
0.7707968828816528
 40
1.0
 40
1.0
 40
1.0
 40
1.0
 10
416.7482619444409
 20
238.6129308745267
 30
0.0
 10
416.8007874888075
 20
238.6188330802465
 30
0.0
 10
416.9040602371706
 20
238.6304376626157
 30
0.0
 10
417.0242292678194
 20
238.7170928278772
 30
0.0
 10
417.1038279415818
 20
238.8267064347105
 30
0.0
 10
417.1241747217776
 20
238.907694886791
 30
0.0
 10
417.1346071801856
 20
238.9492203099648
 30
0.0
  0
SPLINE
  5
83
330
1F
100
AcDbEntity
  8
0
  6
SLD-Durchgehend
 62
     7
370
    25
100
AcDbSpline
210
0.0
220
0.0
230
1.0
 70
     8
 71
     3
 72
    12
 73
     8
 74
     0
 42
0.000000001
 43
0.00000001
 40
0.0
 40
0.0
 40
0.0
 40
0.0
 40
0.2114134532755177
 40
0.3895527681210751
 40
0.5523169649032853
 40
0.7549862544514422
 40
1.0
 40
1.0
 40
1.0
 40
1.0
 10
421.5910436713057
 20
240.5523425232574
 30
0.0
 10
421.5844627174558
 20
240.6896788789071
 30
0.0
 10
421.5723365790791
 20
240.9427363673408
 30
0.0
 10
421.4464386588937
 20
241.2854649126803
 30
0.0
 10
421.2106659371225
 20
241.5577788303789
 30
0.0
 10
420.8394565727151
 20
241.7289537309423
 30
0.0
 10
420.5480520025885
 20
241.7435530573792
 30
0.0
 10
420.3885683509884
 20
241.75154316505
 30
0.0
  0
LINE
  5
84
330
1F
100
AcDbEntity
  8
0
  6
SLD-Durchgehend
 62
     7
370
    25
100
AcDbLine
 10
421.5910436713
 20
237.7470791405
 30
0.0
 11
421.5910436713
 21
240.5523425233
 31
0.0
  0
LINE
  5
85
330
1F
100
AcDbEntity
  8
0
  6
SLD-Durchgehend
 62
     7
370
    25
100
AcDbLine
 10
420.7322759434
 20
237.7470791405
 30
0.0
 11
421.5910436713
 21
237.7470791405
 31
0.0
  0
LINE
  5
86
330
1F
100
AcDbEntity
  8
0
  6
SLD-Durchgehend
 62
     7
370
    25
100
AcDbLine
 10
420.7322759434
 20
238.6943300264
 30
0.0
 11
420.7322759434
 21
237.7470791405
 31
0.0
  0
LINE
  5
87
330
1F
100
AcDbEntity
  8
0
  6
SLD-Durchgehend
 62
     7
370
    25
100
AcDbLine
 10
419.5628815515
 20
238.6943300264
 30
0.0
 11
420.7322759434
 21
238.6943300264
 31
0.0
  0
LINE
  5
88
330
1F
100
AcDbEntity
  8
0
  6
SLD-Durchgehend
 62
     7
370
    25
100
AcDbLine
 10
419.5628815515
 20
237.7530938562
 30
0.0
 11
419.5628815515
 21
238.6943300264
 31
0.0
  0
LINE
  5
89
330
1F
100
AcDbEntity
  8
0
  6
SLD-Durchgehend
 62
     7
370
    25
100
AcDbLine
 10
418.704514797
 20
237.7530938562
 30
0.0
 11
419.5628815515
 21
237.7530938562
 31
0.0
  0
LINE
  5
8A
330
1F
100
AcDbEntity
  8
0
  6
SLD-Durchgehend
 62
     7
370
    25
100
AcDbLine
 10
418.704514797
 20
240.5726588961
 30
0.0
 11
418.704514797
 21
237.7530938562
 31
0.0
  0
SPLINE
  5
8B
330
1F
100
AcDbEntity
  8
0
  6
SLD-Durchgehend
 62
     7
370
    25
100
AcDbSpline
210
0.0
220
0.0
230
1.0
 70
     8
 71
     3
 72
    12
 73
     8
 74
     0
 42
0.000000001
 43
0.00000001
 40
0.0
 40
0.0
 40
0.0
 40
0.0
 40
0.2125693766514631
 40
0.3914658534855898
 40
0.5543778792716579
 40
0.7563584015614695
 40
1.0
 40
1.0
 40
1.0
 40
1.0
 10
419.9011090620207
 20
241.75154316505
 30
0.0
 10
419.7645366738285
 20
241.7454653791682
 30
0.0
 10
419.5130261912349
 20
241.7342725833149
 30
0.0
 10
419.1720964841637
 20
241.6117064910272
 30
0.0
 10
418.9004887010087
 20
241.3810561415741
 30
0.0
 10
418.7285536807402
 20
241.0163626315511
 30
0.0
 10
418.7130120846159
 20
240.7294997167505
 30
0.0
 10
418.704514797013
 20
240.5726588961456
 30
0.0
  0
LINE
  5
8C
330
1F
100
AcDbEntity
  8
0
  6
SLD-Durchgehend
 62
     7
370
    25
100
AcDbLine
 10
420.7325432564
 20
239.5480186688
 30
0.0
 11
420.7325432564
 21
240.4927300081
 31
0.0
  0
LINE
  5
8D
330
1F
100
AcDbEntity
  8
0
  6
SLD-Durchgehend
 62
     7
370
    25
100
AcDbLine
 10
419.5630152119
 20
239.5480186688
 30
0.0
 11
420.7325432564
 21
239.5480186688
 31
0.0
  0
LINE
  5
8E
330
1F
100
AcDbEntity
  8
0
  6
SLD-Durchgehend
 62
     7
370
    25
100
AcDbLine
 10
419.5630152119
 20
240.5285509813
 30
0.0
 11
419.5630152119
 21
239.5480186688
 31
0.0
  0
SPLINE
  5
8F
330
1F
100
AcDbEntity
  8
0
  6
SLD-Durchgehend
 62
     7
370
    25
100
AcDbSpline
210
0.0
220
0.0
230
1.0
 70
     8
 71
     3
 72
    11
 73
     7
 74
     0
 42
0.000000001
 43
0.00000001
 40
0.0
 40
0.0
 40
0.0
 40
0.0
 40
0.2919495674567527
 40
0.566071701334762
 40
0.7792501675821197
 40
1.0
 40
1.0
 40
1.0
 40
1.0
 10
419.951966824415
 20
240.8973198813121
 30
0.0
 10
419.8937205184928
 20
240.8905770078491
 30
0.0
 10
419.7807846241973
 20
240.8775030037109
 30
0.0
 10
419.6531375838322
 20
240.7803253924662
 30
0.0
 10
419.5765183633848
 20
240.6588478973342
 30
0.0
 10
419.5675683171276
 20
240.5724855821722
 30
0.0
 10
419.5630152118853
 20
240.5285509813226
 30
0.0
  0
LINE
  5
90
330
1F
100
AcDbEntity
  8
0
  6
SLD-Durchgehend
 62
     7
370
    25
100
AcDbLine
 10
420.3436584741
 20
240.8973198813
 30
0.0
 11
419.9519668244
 21
240.8973198813
 31
0.0
  0
SPLINE
  5
91
330
1F
100
AcDbEntity
  8
0
  6
SLD-Durchgehend
 62
     7
370
    25
100
AcDbSpline
210
0.0
220
0.0
230
1.0
 70
     8
 71
     3
 72
    11
 73
     7
 74
     0
 42
0.000000001
 43
0.00000001
 40
0.0
 40
0.0
 40
0.0
 40
0.0
 40
0.2923590658637903
 40
0.5666087142990045
 40
0.7800972401032087
 40
1.0
 40
1.0
 40
1.0
 40
1.0
 10
420.7325432564334
 20
240.4927300080724
 30
0.0
 10
420.725293818406
 20
240.553809900029
 30
0.0
 10
420.7112439898229
 20
240.6721862498397
 30
0.0
 10
420.6074122769657
 20
240.8046109734313
 30
0.0
 10
420.4796889096492
 20
240.8833467156927
 30
0.0
 10
420.38944714828
 20
240.8926164285485
 30
0.0
 10
420.3436584740778
 20
240.8973198813121
 30
0.0
  0
LINE
  5
92
330
1F
100
AcDbEntity
  8
0
  6
SLD-Durchgehend
 62
     7
370
    25
100
AcDbLine
 10
420.388568351
 20
241.7515431651
 30
0.0
 11
419.901109062
 21
241.7515431651
 31
0.0
  0
LINE
  5
93
330
1F
100
AcDbEntity
  8
0
  6
SLD-Durchgehend
 62
     7
370
    25
100
AcDbLine
 10
437.6185233145
 20
240.2140481826
 30
0.0
 11
437.6185233145
 21
240.507699967
 31
0.0
  0
SPLINE
  5
94
330
1F
100
AcDbEntity
  8
0
  6
SLD-Durchgehend
 62
     7
370
    25
100
AcDbSpline
210
0.0
220
0.0
230
1.0
 70
     8
 71
     3
 72
    11
 73
     7
 74
     0
 42
0.000000001
 43
0.00000001
 40
0.0
 40
0.0
 40
0.0
 40
0.0
 40
0.2709510930982724
 40
0.5362243368417792
 40
0.7543071012679028
 40
1.0
 40
1.0
 40
1.0
 40
1.0
 10
437.618523314489
 20
240.5076999670426
 30
0.0
 10
437.6124180233034
 20
240.563586433291
 30
0.0
 10
437.6003353788684
 20
240.6741882506144
 30
0.0
 10
437.5051685958986
 20
240.8042264746997
 30
0.0
 10
437.374083576947
 20
240.8837483066369
 30
0.0
 10
437.2783937435499
 20
240.8920957315464
 30
0.0
 10
437.227700457088
 20
240.8965179192244
 30
0.0
  0
LINE
  5
95
330
1F
100
AcDbEntity
  8
0
  6
SLD-Durchgehend
 62
     7
370
    25
100
AcDbLine
 10
436.5140878594
 20
239.8250965701
 30
0.0
 11
437.2293043813
 21
239.8250965701
 31
0.0
  0
SPLINE
  5
96
330
1F
100
AcDbEntity
  8
0
  6
SLD-Durchgehend
 62
     7
370
    25
100
AcDbSpline
210
0.0
220
0.0
230
1.0
 70
     8
 71
     3
 72
    11
 73
     7
 74
     0
 42
0.000000001
 43
0.00000001
 40
0.0
 40
0.0
 40
0.0
 40
0.0
 40
0.2882526378998046
 40
0.5667226730080029
 40
0.7824309356463831
 40
0.9999999999999999
 40
0.9999999999999999
 40
0.9999999999999999
 40
0.9999999999999999
 10
437.2293043812634
 20
239.8250965700704
 30
0.0
 10
437.2871340966043
 20
239.8352395457892
 30
0.0
 10
437.4008309255254
 20
239.8551812689716
 30
0.0
 10
437.5262744749887
 20
239.9589003920695
 30
0.0
 10
437.6040768893052
 20
240.0826807925853
 30
0.0
 10
437.6136940717487
 20
240.1701338573274
 30
0.0
 10
437.618523314489
 20
240.2140481826001
 30
0.0
  0
LINE
  5
97
330
1F
100
AcDbEntity
  8
0
  6
SLD-Durchgehend
 62
     7
370
    25
100
AcDbLine
 10
438.4306377015
 20
237.7485494043
 30
0.0
 11
438.4306377015
 21
238.9234238932
 31
0.0
  0
LINE
  5
98
330
1F
100
AcDbEntity
  8
0
  6
SLD-Durchgehend
 62
     7
370
    25
100
AcDbLine
 10
437.6382991588
 20
237.7485494043
 30
0.0
 11
438.4306377015
 21
237.7485494043
 31
0.0
  0
LINE
  5
99
330
1F
100
AcDbEntity
  8
0
  6
SLD-Durchgehend
 62
     7
370
    25
100
AcDbLine
 10
437.6381654985
 20
238.6118615917
 30
0.0
 11
437.6382991588
 21
237.7485494043
 31
0.0
  0
LINE
  5
9A
330
1F
100
AcDbEntity
  8
0
  6
SLD-Durchgehend
 62
     7
370
    25
100
AcDbLine
 10
436.5140878594
 20
240.8965179192
 30
0.0
 11
436.5140878594
 21
239.8250965701
 31
0.0
  0
LINE
  5
9B
330
1F
100
AcDbEntity
  8
0
  6
SLD-Durchgehend
 62
     7
370
    25
100
AcDbLine
 10
437.2277004571
 20
240.8965179192
 30
0.0
 11
436.5140878594
 21
240.8965179192
 31
0.0
  0
SPLINE
  5
9C
330
1F
100
AcDbEntity
  8
0
  6
SLD-Durchgehend
 62
     7
370
    25
100
AcDbSpline
210
0.0
220
0.0
230
1.0
 70
     8
 71
     3
 72
    13
 73
     9
 74
     0
 42
0.000000001
 43
0.00000001
 40
0.0
 40
0.0
 40
0.0
 40
0.0
 40
0.1786987827384264
 40
0.3258270793141556
 40
0.4518927463934492
 40
0.5696190978301053
 40
0.7655101285646113
 40
0.9999999999999999
 40
0.9999999999999999
 40
0.9999999999999999
 40
0.9999999999999999
 10
437.241595246123
 20
239.0175207477664
 30
0.0
 10
437.2808112516016
 20
239.0162136673955
 30
0.0
 10
437.3523150208588
 20
239.0138304268767
 30
0.0
 10
437.449115634721
 20
238.9888180944469
 30
0.0
 10
437.5249409988089
 20
238.9464287076094
 30
0.0
 10
437.5908206853348
 20
238.8739435235029
 30
0.0
 10
437.6332631753497
 20
238.7578494683011
 30
0.0
 10
437.6364365232209
 20
238.6633493090022
 30
0.0
 10
437.6381654984858
 20
238.6118615917431
 30
0.0
  0
LINE
  5
9D
330
1F
100
AcDbEntity
  8
0
  6
SLD-Durchgehend
 62
     7
370
    25
100
AcDbLine
 10
436.5346656532
 20
239.0175207478
 30
0.0
 11
437.2415952461
 21
239.0175207478
 31
0.0
  0
LINE
  5
9E
330
1F
100
AcDbEntity
  8
0
  6
SLD-Durchgehend
 62
     7
370
    25
100
AcDbLine
 10
436.5344259036
 20
237.7494850268
 30
0.0
 11
436.5346656532
 21
239.0175207478
 31
0.0
  0
LINE
  5
9F
330
1F
100
AcDbEntity
  8
0
  6
SLD-Durchgehend
 62
     7
370
    25
100
AcDbLine
 10
435.6753631554
 20
237.7494850268
 30
0.0
 11
436.5344259036
 21
237.7494850268
 31
0.0
  0
LINE
  5
A0
330
1F
100
AcDbEntity
  8
0
  6
SLD-Durchgehend
 62
     7
370
    25
100
AcDbLine
 10
435.6753631554
 20
241.7479343661
 30
0.0
 11
435.6753631554
 21
237.7494850268
 31
0.0
  0
LINE
  5
A1
330
1F
100
AcDbEntity
  8
0
  6
SLD-Durchgehend
 62
     7
370
    25
100
AcDbLine
 10
437.3494591469
 20
241.7479343661
 30
0.0
 11
435.6753631554
 21
241.7479343661
 31
0.0
  0
SPLINE
  5
A2
330
1F
100
AcDbEntity
  8
0
  6
SLD-Durchgehend
 62
     7
370
    25
100
AcDbSpline
210
0.0
220
0.0
230
1.0
 70
     8
 71
     3
 72
    13
 73
     9
 74
     0
 42
0.000000001
 43
0.00000001
 40
0.0
 40
0.0
 40
0.0
 40
0.0
 40
0.1941657261233314
 40
0.3470249713928881
 40
0.4706668946820234
 40
0.5811375112837301
 40
0.7664103779903053
 40
0.9999999999999999
 40
0.9999999999999999
 40
0.9999999999999999
 40
0.9999999999999999
 10
438.4295684186879
 20
240.6270586881724
 30
0.0
 10
438.4266887199749
 20
240.7459974480462
 30
0.0
 10
438.4215419446737
 20
240.9585721416689
 30
0.0
 10
438.3628389267038
 20
241.2426097745198
 30
0.0
 10
438.2581460772718
 20
241.4591178098176
 30
0.0
 10
438.0679411931096
 20
241.6401359236154
 30
0.0
 10
437.7487269999627
 20
241.7409246751274
 30
0.0
 10
437.4924042387337
 20
241.7454247702975
 30
0.0
 10
437.3494591469173
 20
241.7479343660673
 30
0.0
  0
SPLINE
  5
A3
330
1F
100
AcDbEntity
  8
0
  6
SLD-Durchgehend
 62
     7
370
    25
100
AcDbSpline
210
0.0
220
0.0
230
1.0
 70
     8
 71
     3
 72
     9
 73
     5
 74
     0
 42
0.000000001
 43
0.00000001
 40
0.0
 40
0.0
 40
0.0
 40
0.0
 40
0.5019771459250512
 40
1.0
 40
1.0
 40
1.0
 40
1.0
 10
438.4303703807757
 20
240.0378838744161
 30
0.0
 10
438.4303119274775
 20
240.1364680748115
 30
0.0
 10
438.4301954813433
 20
240.3328598850675
 30
0.0
 10
438.4297768878262
 20
240.5292512834394
 30
0.0
 10
438.4295684186879
 20
240.6270586881724
 30
0.0
  0
SPLINE
  5
A4
330
1F
100
AcDbEntity
  8
0
  6
SLD-Durchgehend
 62
     7
370
    25
100
AcDbSpline
210
0.0
220
0.0
230
1.0
 70
     8
 71
     3
 72
    11
 73
     7
 74
     0
 42
0.000000001
 43
0.00000001
 40
0.0
 40
0.0
 40
0.0
 40
0.0
 40
0.1992186042567473
 40
0.4625865760426254
 40
0.7086378742852818
 40
1.0
 40
1.0
 40
1.0
 40
1.0
 10
438.1233525615383
 20
239.4853319959976
 30
0.0
 10
438.15948667893
 20
239.5103948120116
 30
0.0
 10
438.2433902767135
 20
239.568590793703
 30
0.0
 10
438.3428823607091
 20
239.6916956661316
 30
0.0
 10
438.4172056892903
 20
239.8545538358744
 30
0.0
 10
438.4257422368867
 20
239.9734328541634
 30
0.0
 10
438.4303703807757
 20
240.0378838744161
 30
0.0
  0
SPLINE
  5
A5
330
1F
100
AcDbEntity
  8
0
  6
SLD-Durchgehend
 62
     7
370
    25
100
AcDbSpline
210
0.0
220
0.0
230
1.0
 70
     8
 71
     3
 72
    12
 73
     8
 74
     0
 42
0.000000001
 43
0.00000001
 40
0.0
 40
0.0
 40
0.0
 40
0.0
 40
0.2586060014828566
 40
0.476874022259641
 40
0.6654196460658703
 40
0.853804014758352
 40
1.0
 40
1.0
 40
1.0
 40
1.0
 10
438.4306377014715
 20
238.9234238932227
 30
0.0
 10
438.4273139395727
 20
238.9814683125096
 30
0.0
 10
438.4211848640809
 20
239.0885032441677
 30
0.0
 10
438.3695816415114
 20
239.2303769956349
 30
0.0
 10
438.2971835139718
 20
239.3429700089151
 30
0.0
 10
438.214228241058
 20
239.4273714871678
 30
0.0
 10
438.1509863247236
 20
239.4677071817066
 30
0.0
 10
438.1233525615383
 20
239.4853319959976
 30
0.0
  0
LINE
  5
A6
330
1F
100
AcDbEntity
  8
0
  6
SLD-Durchgehend
 62
     7
370
    25
100
AcDbLine
 10
428.5759329646
 20
237.7497523475
 30
0.0
 11
428.5759329646
 21
240.6508503506
 31
0.0
  0
LINE
  5
A7
330
1F
100
AcDbEntity
  8
0
  6
SLD-Durchgehend
 62
     7
370
    25
100
AcDbLine
 10
427.7225116429
 20
237.7497523475
 30
0.0
 11
428.5759329646
 21
237.7497523475
 31
0.0
  0
LINE
  5
A8
330
1F
100
AcDbEntity
  8
0
  6
SLD-Durchgehend
 62
     7
370
    25
100
AcDbLine
 10
427.7193037946
 20
240.5490010146
 30
0.0
 11
427.7225116429
 21
237.7497523475
 31
0.0
  0
SPLINE
  5
A9
330
1F
100
AcDbEntity
  8
0
  6
SLD-Durchgehend
 62
     7
370
    25
100
AcDbSpline
210
0.0
220
0.0
230
1.0
 70
     8
 71
     3
 72
    14
 73
    10
 74
     0
 42
0.000000001
 43
0.00000001
 40
0.0
 40
0.0
 40
0.0
 40
0.0
 40
0.1668439206458613
 40
0.3025425056681469
 40
0.4150564027276237
 40
0.5191619694587462
 40
0.6413065304085604
 40
0.7970413868896135
 40
1.0
 40
1.0
 40
1.0
 40
1.0
 10
428.8558845633427
 20
241.7482016563513
 30
0.0
 10
428.7458111435273
 20
241.7468490719681
 30
0.0
 10
428.5462120924531
 20
241.7443963948383
 30
0.0
 10
428.2740747636544
 20
241.706776596649
 30
0.0
 10
428.0532358815894
 20
241.6235659446367
 30
0.0
 10
427.8841054641519
 20
241.4683560847092
 30
0.0
 10
427.7792030211003
 20
241.2338561837615
 30
0.0
 10
427.7257601636596
 20
240.9196488841886
 30
0.0
 10
427.7216368682901
 20
240.6829383396203
 30
0.0
 10
427.7193037945639
 20
240.5490010145587
 30
0.0
  0
LINE
  5
AA
330
1F
100
AcDbEntity
  8
0
  6
SLD-Durchgehend
 62
     7
370
    25
100
AcDbLine
 10
429.2696980583
 20
241.7482016564
 30
0.0
 11
428.8558845633
 21
241.7482016564
 31
0.0
  0
SPLINE
  5
AB
330
1F
100
AcDbEntity
  8
0
  6
SLD-Durchgehend
 62
     7
370
    25
100
AcDbSpline
210
0.0
220
0.0
230
1.0
 70
     8
 71
     3
 72
    11
 73
     7
 74
     0
 42
0.000000001
 43
0.00000001
 40
0.0
 40
0.0
 40
0.0
 40
0.0
 40
0.1991911293572114
 40
0.4625571095361249
 40
0.7086041765618492
 40
1.0
 40
1.0
 40
1.0
 40
1.0
 10
429.8219157858508
 20
241.4411838371139
 30
0.0
 10
429.7968664749949
 20
241.4772943103162
 30
0.0
 10
429.7386975351292
 20
241.5611492297714
 30
0.0
 10
429.6157269263514
 20
241.6606691939044
 30
0.0
 10
429.4529598743594
 20
241.7350309820054
 30
0.0
 10
429.3341276353707
 20
241.743571226532
 30
0.0
 10
429.2696980583022
 20
241.7482016563513
 30
0.0
  0
SPLINE
  5
AC
330
1F
100
AcDbEntity
  8
0
  6
SLD-Durchgehend
 62
     7
370
    25
100
AcDbSpline
210
0.0
220
0.0
230
1.0
 70
     8
 71
     3
 72
    12
 73
     8
 74
     0
 42
0.000000001
 43
0.00000001
 40
0.0
 40
0.0
 40
0.0
 40
0.0
 40
0.2585139589177032
 40
0.4767397343402746
 40
0.6652911032508834
 40
0.8537276706446606
 40
1.0
 40
1.0
 40
1.0
 40
1.0
 10
430.3835565679298
 20
241.7484689770472
 30
0.0
 10
430.3255548107331
 20
241.7451446661301
 30
0.0
 10
430.2185905971447
 20
241.7390141225023
 30
0.0
 10
430.0768097445521
 20
241.6874057017655
 30
0.0
 10
429.9642746422384
 20
241.6150054917537
 30
0.0
 10
429.8799020663729
 20
241.5320472164509
 30
0.0
 10
429.8395501296927
 20
241.4688165126268
 30
0.0
 10
429.8219157858508
 20
241.4411838371139
 30
0.0
  0
LINE
  5
AD
330
1F
100
AcDbEntity
  8
0
  6
SLD-Durchgehend
 62
     7
370
    25
100
AcDbLine
 10
430.7973027147
 20
241.748468977
 30
0.0
 11
430.3835565679
 21
241.748468977
 31
0.0
  0
SPLINE
  5
AE
330
1F
100
AcDbEntity
  8
0
  6
SLD-Durchgehend
 62
     7
370
    25
100
AcDbSpline
210
0.0
220
0.0
230
1.0
 70
     8
 71
     3
 72
    14
 73
    10
 74
     0
 42
0.000000001
 43
0.00000001
 40
0.0
 40
0.0
 40
0.0
 40
0.0
 40
0.1948363021374171
 40
0.346185353445409
 40
0.4655428980217866
 40
0.5700830422527731
 40
0.6859658879948687
 40
0.8260627731951058
 40
1.0
 40
1.0
 40
1.0
 40
1.0
 10
431.9340839740408
 20
240.5492683352546
 30
0.0
 10
431.9319246907249
 20
240.6778449757011
 30
0.0
 10
431.9280880737816
 20
240.9063000902229
 30
0.0
 10
431.8791945714398
 20
241.2107738157482
 30
0.0
 10
431.7845742555562
 20
241.4436666781224
 30
0.0
 10
431.6247352568659
 20
241.6094072094185
 30
0.0
 10
431.4010121349317
 20
241.7028502813802
 30
0.0
 10
431.1192646339116
 20
241.7443542895676
 30
0.0
 10
430.9120659372975
 20
241.7470022980183
 30
0.0
 10
430.7973027147401
 20
241.7484689770472
 30
0.0
  0
LINE
  5
AF
330
1F
100
AcDbEntity
  8
0
  6
SLD-Durchgehend
 62
     7
370
    25
100
AcDbLine
 10
431.934083974
 20
237.7497505078
 30
0.0
 11
431.934083974
 21
240.5492683353
 31
0.0
  0
LINE
  5
B0
330
1F
100
AcDbEntity
  8
0
  6
SLD-Durchgehend
 62
     7
370
    25
100
AcDbLine
 10
431.0813309541
 20
237.7497505078
 30
0.0
 11
431.934083974
 21
237.7497505078
 31
0.0
  0
LINE
  5
B1
330
1F
100
AcDbEntity
  8
0
  6
SLD-Durchgehend
 62
     7
370
    25
100
AcDbLine
 10
431.0813309541
 20
240.6501802092
 30
0.0
 11
431.0813309541
 21
237.7497505078
 31
0.0
  0
SPLINE
  5
B2
330
1F
100
AcDbEntity
  8
0
  6
SLD-Durchgehend
 62
     7
370
    25
100
AcDbSpline
210
0.0
220
0.0
230
1.0
 70
     8
 71
     3
 72
    10
 73
     6
 74
     0
 42
0.000000001
 43
0.00000001
 40
0.0
 40
0.0
 40
0.0
 40
0.0
 40
0.1807043028123296
 40
0.413278387466079
 40
1.0
 40
1.0
 40
1.0
 40
1.0
 10
431.0580740535873
 20
240.793597762511
 30
0.0
 10
431.0631999587246
 20
240.7861737427077
 30
0.0
 10
431.0749231206883
 20
240.7691946952524
 30
0.0
 10
431.0813603978328
 20
240.7191173477711
 30
0.0
 10
431.0813432407903
 20
240.6789472156909
 30
0.0
 10
431.0813309541304
 20
240.6501802091624
 30
0.0
  0
SPLINE
  5
B3
330
1F
100
AcDbEntity
  8
0
  6
SLD-Durchgehend
 62
     7
370
    25
100
AcDbSpline
210
0.0
220
0.0
230
1.0
 70
     8
 71
     3
 72
    10
 73
     6
 74
     0
 42
0.000000001
 43
0.00000001
 40
0.0
 40
0.0
 40
0.0
 40
0.0
 40
0.6237435782698882
 40
0.8187871131398966
 40
1.0
 40
1.0
 40
1.0
 40
1.0
 10
430.9625069048042
 20
240.8180576061856
 30
0.0
 10
430.983669732945
 20
240.8177891741879
 30
0.0
 10
431.0114501407327
 20
240.8174368039702
 30
0.0
 10
431.043815614467
 20
240.8060513455225
 30
0.0
 10
431.0534391564275
 20
240.7976459669493
 30
0.0
 10
431.0580740535873
 20
240.793597762511
 30
0.0
  0
SPLINE
  5
B4
330
1F
100
AcDbEntity
  8
0
  6
SLD-Durchgehend
 62
     7
370
    25
100
AcDbSpline
210
0.0
220
0.0
230
1.0
 70
     8
 71
     3
 72
    10
 73
     6
 74
     0
 42
0.000000001
 43
0.00000001
 40
0.0
 40
0.0
 40
0.0
 40
0.0
 40
0.2440703980436188
 40
0.5018258422751775
 40
1.0
 40
1.0
 40
1.0
 40
1.0
 10
430.2893933925363
 20
240.7938650832069
 30
0.0
 10
430.2954924355515
 20
240.798751345796
 30
0.0
 10
430.3080324953976
 20
240.8087978440972
 30
0.0
 10
430.3392666894575
 20
240.81737295599
 30
0.0
 10
430.3632644418111
 20
240.8177856390282
 30
0.0
 10
430.3790794860097
 20
240.8180576061856
 30
0.0
  0
SPLINE
  5
B5
330
1F
100
AcDbEntity
  8
0
  6
SLD-Durchgehend
 62
     7
370
    25
100
AcDbSpline
210
0.0
220
0.0
230
1.0
 70
     8
 71
     3
 72
    10
 73
     6
 74
     0
 42
0.000000001
 43
0.00000001
 40
0.0
 40
0.0
 40
0.0
 40
0.0
 40
0.688086668702642
 40
0.8520806273578105
 40
1.0
 40
1.0
 40
1.0
 40
1.0
 10
430.2636637755563
 20
240.6495119074227
 30
0.0
 10
430.2627336059812
 20
240.6839923594988
 30
0.0
 10
430.2615817460322
 20
240.7266906511137
 30
0.0
 10
430.2742728896432
 20
240.7761652180624
 30
0.0
 10
430.2845294163928
 20
240.7881713756355
 30
0.0
 10
430.2893933925363
 20
240.7938650832069
 30
0.0
  0
LINE
  5
B6
330
1F
100
AcDbEntity
  8
0
  6
SLD-Durchgehend
 62
     7
370
    25
100
AcDbLine
 10
430.2636637756
 20
237.7497506209
 30
0.0
 11
430.2636637756
 21
240.6495119074
 31
0.0
  0
LINE
  5
B7
330
1F
100
AcDbEntity
  8
0
  6
SLD-Durchgehend
 62
     7
370
    25
100
AcDbLine
 10
429.393533313
 20
237.7497524606
 30
0.0
 11
429.3981461924
 21
237.7497506209
 31
0.0
  0
LINE
  5
B8
330
1F
100
AcDbEntity
  8
0
  6
SLD-Durchgehend
 62
     7
370
    25
100
AcDbLine
 10
429.3981461924
 20
237.7497506209
 30
0.0
 11
430.2636637756
 21
237.7497506209
 31
0.0
  0
LINE
  5
B9
330
1F
100
AcDbEntity
  8
0
  6
SLD-Durchgehend
 62
     7
370
    25
100
AcDbLine
 10
429.393533313
 20
240.6501820488
 30
0.0
 11
429.393533313
 21
237.7497524606
 31
0.0
  0
SPLINE
  5
BA
330
1F
100
AcDbEntity
  8
0
  6
SLD-Durchgehend
 62
     7
370
    25
100
AcDbSpline
210
0.0
220
0.0
230
1.0
 70
     8
 71
     3
 72
    10
 73
     6
 74
     0
 42
0.000000001
 43
0.00000001
 40
0.0
 40
0.0
 40
0.0
 40
0.0
 40
0.1894043484779551
 40
0.4199151876309208
 40
1.0
 40
1.0
 40
1.0
 40
1.0
 10
429.367736865811
 20
240.7946688849598
 30
0.0
 10
429.3736954399819
 20
240.7870990781059
 30
0.0
 10
429.3869057797185
 20
240.7703165866216
 30
0.0
 10
429.3936445201408
 20
240.7192694316304
 30
0.0
 10
429.3935797000362
 20
240.6789999854643
 30
0.0
 10
429.393533312965
 20
240.6501820488276
 30
0.0
  0
SPLINE
  5
BB
330
1F
100
AcDbEntity
  8
0
  6
SLD-Durchgehend
 62
     7
370
    25
100
AcDbSpline
210
0.0
220
0.0
230
1.0
 70
     8
 71
     3
 72
     9
 73
     5
 74
     0
 42
0.000000001
 43
0.00000001
 40
0.0
 40
0.0
 40
0.0
 40
0.0
 40
0.6137454904782599
 40
0.9999999999999999
 40
0.9999999999999999
 40
0.9999999999999999
 40
0.9999999999999999
 10
429.2781176025116
 20
240.8188614079385
 30
0.0
 10
429.2981310598562
 20
240.8191340808154
 30
0.0
 10
429.3307397839204
 20
240.8195783576062
 30
0.0
 10
429.3574283044168
 20
240.8016094547278
 30
0.0
 10
429.367736865811
 20
240.7946688849598
 30
0.0
  0
LINE
  5
BC
330
1F
100
AcDbEntity
  8
0
  6
SLD-Durchgehend
 62
     7
370
    25
100
AcDbLine
 10
428.6947570139
 20
240.8188614079
 30
0.0
 11
429.2781176025
 21
240.8188614079
 31
0.0
  0
SPLINE
  5
BD
330
1F
100
AcDbEntity
  8
0
  6
SLD-Durchgehend
 62
     7
370
    25
100
AcDbSpline
210
0.0
220
0.0
230
1.0
 70
     8
 71
     3
 72
    10
 73
     6
 74
     0
 42
0.000000001
 43
0.00000001
 40
0.0
 40
0.0
 40
0.0
 40
0.0
 40
0.2312025287502981
 40
0.491831075940471
 40
0.9999999999999999
 40
0.9999999999999999
 40
0.9999999999999999
 40
0.9999999999999999
 10
428.5991230349339
 20
240.794267903916
 30
0.0
 10
428.6052034523788
 20
240.7993009004265
 30
0.0
 10
428.6181381649454
 20
240.8100074619088
 30
0.0
 10
428.6517541569859
 20
240.8180736834906
 30
0.0
 10
428.6776440220337
 20
240.8185479329038
 30
0.0
 10
428.694757013891
 20
240.8188614079385
 30
0.0
  0
SPLINE
  5
BE
330
1F
100
AcDbEntity
  8
0
  6
SLD-Durchgehend
 62
     7
370
    25
100
AcDbSpline
210
0.0
220
0.0
230
1.0
 70
     8
 71
     3
 72
    10
 73
     6
 74
     0
 42
0.000000001
 43
0.00000001
 40
0.0
 40
0.0
 40
0.0
 40
0.0
 40
0.6958504163507512
 40
0.859955815471611
 40
1.0
 40
1.0
 40
1.0
 40
1.0
 10
428.5759329645649
 20
240.6508503505674
 30
0.0
 10
428.5752178881884
 20
240.6852253497801
 30
0.0
 10
428.5743341722718
 20
240.7277071530314
 30
0.0
 10
428.5858724501001
 20
240.7765599743647
 30
0.0
 10
428.5949454271408
 20
240.7886849967899
 30
0.0
 10
428.5991230349339
 20
240.794267903916
 30
0.0
  0
LINE
  5
BF
330
1F
100
AcDbEntity
  8
0
  6
SLD-Durchgehend
 62
     7
370
    25
100
AcDbLine
 10
430.379079486
 20
240.8180576062
 30
0.0
 11
430.9625069048
 21
240.8180576062
 31
0.0
  0
LINE
  5
C0
330
1F
100
AcDbEntity
  8
0
  6
SLD-Durchgehend
 62
     7
370
    25
100
AcDbLine
 10
422.411450887
 20
237.7498860078
 30
0.0
 11
424.4569220218
 21
237.7498860078
 31
0.0
  0
LINE
  5
C1
330
1F
100
AcDbEntity
  8
0
  6
SLD-Durchgehend
 62
     7
370
    25
100
AcDbLine
 10
422.411450887
 20
241.7486026374
 30
0.0
 11
422.411450887
 21
237.7498860078
 31
0.0
  0
LINE
  5
C2
330
1F
100
AcDbEntity
  8
0
  6
SLD-Durchgehend
 62
     7
370
    25
100
AcDbLine
 10
423.2716220562
 20
241.7486026374
 30
0.0
 11
422.411450887
 21
241.7486026374
 31
0.0
  0
LINE
  5
C3
330
1F
100
AcDbEntity
  8
0
  6
SLD-Durchgehend
 62
     7
370
    25
100
AcDbLine
 10
423.2716220562
 20
238.6095893658
 30
0.0
 11
423.2716220562
 21
241.7486026374
 31
0.0
  0
LINE
  5
C4
330
1F
100
AcDbEntity
  8
0
  6
SLD-Durchgehend
 62
     7
370
    25
100
AcDbLine
 10
424.4569220218
 20
238.6095893658
 30
0.0
 11
423.2716220562
 21
238.6095893658
 31
0.0
  0
LINE
  5
C5
330
1F
100
AcDbEntity
  8
0
  6
SLD-Durchgehend
 62
     7
370
    25
100
AcDbLine
 10
424.4569220218
 20
237.7498860078
 30
0.0
 11
424.4569220218
 21
238.6095893658
 31
0.0
  0
LINE
  5
C6
330
1F
100
AcDbEntity
  8
0
  6
SLD-Durchgehend
 62
     7
370
    25
100
AcDbLine
 10
425.050106646
 20
237.7498860078
 30
0.0
 11
427.0955777809
 21
237.7498860078
 31
0.0
  0
LINE
  5
C7
330
1F
100
AcDbEntity
  8
0
  6
SLD-Durchgehend
 62
     7
370
    25
100
AcDbLine
 10
425.050106646
 20
241.7486026374
 30
0.0
 11
425.050106646
 21
237.7498860078
 31
0.0
  0
LINE
  5
C8
330
1F
100
AcDbEntity
  8
0
  6
SLD-Durchgehend
 62
     7
370
    25
100
AcDbLine
 10
425.9102109851
 20
241.7486026374
 30
0.0
 11
425.050106646
 21
241.7486026374
 31
0.0
  0
LINE
  5
C9
330
1F
100
AcDbEntity
  8
0
  6
SLD-Durchgehend
 62
     7
370
    25
100
AcDbLine
 10
425.9102109851
 20
238.6095893658
 30
0.0
 11
425.9102109851
 21
241.7486026374
 31
0.0
  0
LINE
  5
CA
330
1F
100
AcDbEntity
  8
0
  6
SLD-Durchgehend
 62
     7
370
    25
100
AcDbLine
 10
427.0955777809
 20
238.6095893658
 30
0.0
 11
425.9102109851
 21
238.6095893658
 31
0.0
  0
LINE
  5
CB
330
1F
100
AcDbEntity
  8
0
  6
SLD-Durchgehend
 62
     7
370
    25
100
AcDbLine
 10
427.0955777809
 20
237.7498860078
 30
0.0
 11
427.0955777809
 21
238.6095893658
 31
0.0
  0
LINE
  5
CC
330
1F
100
AcDbEntity
  8
0
  6
SLD-Durchgehend
 62
     7
370
    25
100
AcDbLine
 10
432.7083767723
 20
237.7498860078
 30
0.0
 11
434.885971161
 21
237.7498860078
 31
0.0
  0
LINE
  5
CD
330
1F
100
AcDbEntity
  8
0
  6
SLD-Durchgehend
 62
     7
370
    25
100
AcDbLine
 10
432.7083767723
 20
241.7486026374
 30
0.0
 11
432.7083767723
 21
237.7498860078
 31
0.0
  0
LINE
  5
CE
330
1F
100
AcDbEntity
  8
0
  6
SLD-Durchgehend
 62
     7
370
    25
100
AcDbLine
 10
433.5686147717
 20
240.1791628318
 30
0.0
 11
433.5686147717
 21
240.8890329397
 31
0.0
  0
LINE
  5
CF
330
1F
100
AcDbEntity
  8
0
  6
SLD-Durchgehend
 62
     7
370
    25
100
AcDbLine
 10
434.885971161
 20
240.1791628318
 30
0.0
 11
433.5686147717
 21
240.1791628318
 31
0.0
  0
LINE
  5
D0
330
1F
100
AcDbEntity
  8
0
  6
SLD-Durchgehend
 62
     7
370
    25
100
AcDbLine
 10
434.885971161
 20
239.3195931341
 30
0.0
 11
434.885971161
 21
240.1791628318
 31
0.0
  0
LINE
  5
D1
330
1F
100
AcDbEntity
  8
0
  6
SLD-Durchgehend
 62
     7
370
    25
100
AcDbLine
 10
433.5686147717
 20
239.3195931341
 30
0.0
 11
434.885971161
 21
239.3195931341
 31
0.0
  0
LINE
  5
D2
330
1F
100
AcDbEntity
  8
0
  6
SLD-Durchgehend
 62
     7
370
    25
100
AcDbLine
 10
433.5686147717
 20
238.6095893658
 30
0.0
 11
433.5686147717
 21
239.3195931341
 31
0.0
  0
LINE
  5
D3
330
1F
100
AcDbEntity
  8
0
  6
SLD-Durchgehend
 62
     7
370
    25
100
AcDbLine
 10
434.885971161
 20
238.6095893658
 30
0.0
 11
433.5686147717
 21
238.6095893658
 31
0.0
  0
LINE
  5
D4
330
1F
100
AcDbEntity
  8
0
  6
SLD-Durchgehend
 62
     7
370
    25
100
AcDbLine
 10
433.5686147717
 20
240.8890329397
 30
0.0
 11
434.885971161
 21
240.8890329397
 31
0.0
  0
LINE
  5
D5
330
1F
100
AcDbEntity
  8
0
  6
SLD-Durchgehend
 62
     7
370
    25
100
AcDbLine
 10
434.885971161
 20
237.7498860078
 30
0.0
 11
434.885971161
 21
238.6095893658
 31
0.0
  0
LINE
  5
D6
330
1F
100
AcDbEntity
  8
0
  6
SLD-Durchgehend
 62
     7
370
    25
100
AcDbLine
 10
434.885971161
 20
241.7486026374
 30
0.0
 11
432.7083767723
 21
241.7486026374
 31
0.0
  0
LINE
  5
D7
330
1F
100
AcDbEntity
  8
0
  6
SLD-Durchgehend
 62
     7
370
    25
100
AcDbLine
 10
434.885971161
 20
240.8890329397
 30
0.0
 11
434.885971161
 21
241.7486026374
 31
0.0
  0
LINE
  5
D8
330
1F
100
AcDbEntity
  8
0
  6
SLD-Durchgehend
 62
     7
370
    25
100
AcDbLine
 10
431.1306377015
 20
256.1485494043
 30
0.0
 11
438.4306377015
 21
256.1485494043
 31
0.0
  0
LINE
  5
D9
330
1F
100
AcDbEntity
  8
0
  6
SLD-Durchgehend
 62
     7
370
    25
100
AcDbLine
 10
431.1306377015
 20
248.8485494043
 30
0.0
 11
431.1306377015
 21
256.1485494043
 31
0.0
  0
LINE
  5
DA
330
1F
100
AcDbEntity
  8
0
  6
SLD-Durchgehend
 62
     7
370
    25
100
AcDbLine
 10
438.4306377015
 20
248.8485494043
 30
0.0
 11
431.1306377015
 21
248.8485494043
 31
0.0
  0
LINE
  5
DB
330
1F
100
AcDbEntity
  8
0
  6
SLD-Durchgehend
 62
     7
370
    25
100
AcDbLine
 10
438.4306377015
 20
256.1485494043
 30
0.0
 11
438.4306377015
 21
248.8485494043
 31
0.0
  0
LINE
  5
DC
330
1F
100
AcDbEntity
  8
0
  6
SLD-Durchgehend
 62
     7
370
    25
100
AcDbLine
 10
417.8306377015
 20
256.1485494043
 30
0.0
 11
425.1306377015
 21
256.1485494043
 31
0.0
  0
LINE
  5
DD
330
1F
100
AcDbEntity
  8
0
  6
SLD-Durchgehend
 62
     7
370
    25
100
AcDbLine
 10
417.8306377015
 20
248.8485494043
 30
0.0
 11
417.8306377015
 21
256.1485494043
 31
0.0
  0
LINE
  5
DE
330
1F
100
AcDbEntity
  8
0
  6
SLD-Durchgehend
 62
     7
370
    25
100
AcDbLine
 10
425.1306377015
 20
248.8485494043
 30
0.0
 11
417.8306377015
 21
248.8485494043
 31
0.0
  0
LINE
  5
DF
330
1F
100
AcDbEntity
  8
0
  6
SLD-Durchgehend
 62
     7
370
    25
100
AcDbLine
 10
425.1306377015
 20
256.1485494043
 30
0.0
 11
425.1306377015
 21
248.8485494043
 31
0.0
  0
LINE
  5
E0
330
1F
100
AcDbEntity
  8
0
  6
SLD-Durchgehend
 62
     7
370
    25
100
AcDbLine
 10
404.5306377015
 20
256.1485494043
 30
0.0
 11
411.8306377015
 21
256.1485494043
 31
0.0
  0
LINE
  5
E1
330
1F
100
AcDbEntity
  8
0
  6
SLD-Durchgehend
 62
     7
370
    25
100
AcDbLine
 10
404.5306377015
 20
248.8485494043
 30
0.0
 11
404.5306377015
 21
256.1485494043
 31
0.0
  0
LINE
  5
E2
330
1F
100
AcDbEntity
  8
0
  6
SLD-Durchgehend
 62
     7
370
    25
100
AcDbLine
 10
411.8306377015
 20
248.8485494043
 30
0.0
 11
404.5306377015
 21
248.8485494043
 31
0.0
  0
LINE
  5
E3
330
1F
100
AcDbEntity
  8
0
  6
SLD-Durchgehend
 62
     7
370
    25
100
AcDbLine
 10
411.8306377015
 20
256.1485494043
 30
0.0
 11
411.8306377015
 21
248.8485494043
 31
0.0
  0
LINE
  5
E4
330
1F
100
AcDbEntity
  8
0
  6
SLD-Durchgehend
 62
     7
370
    25
100
AcDbLine
 10
391.2306377015
 20
256.1485494043
 30
0.0
 11
398.5306377015
 21
256.1485494043
 31
0.0
  0
LINE
  5
E5
330
1F
100
AcDbEntity
  8
0
  6
SLD-Durchgehend
 62
     7
370
    25
100
AcDbLine
 10
391.2306377015
 20
248.8485494043
 30
0.0
 11
391.2306377015
 21
256.1485494043
 31
0.0
  0
LINE
  5
E6
330
1F
100
AcDbEntity
  8
0
  6
SLD-Durchgehend
 62
     7
370
    25
100
AcDbLine
 10
398.5306377015
 20
248.8485494043
 30
0.0
 11
391.2306377015
 21
248.8485494043
 31
0.0
  0
LINE
  5
E7
330
1F
100
AcDbEntity
  8
0
  6
SLD-Durchgehend
 62
     7
370
    25
100
AcDbLine
 10
398.5306377015
 20
256.1485494043
 30
0.0
 11
398.5306377015
 21
248.8485494043
 31
0.0
  0
LINE
  5
E8
330
1F
100
AcDbEntity
  8
0
  6
SLD-Durchgehend
 62
     7
370
    25
100
AcDbLine
 10
377.9306377015
 20
256.1485494043
 30
0.0
 11
385.2306377015
 21
256.1485494043
 31
0.0
  0
LINE
  5
E9
330
1F
100
AcDbEntity
  8
0
  6
SLD-Durchgehend
 62
     7
370
    25
100
AcDbLine
 10
377.9306377015
 20
248.8485494043
 30
0.0
 11
377.9306377015
 21
256.1485494043
 31
0.0
  0
LINE
  5
EA
330
1F
100
AcDbEntity
  8
0
  6
SLD-Durchgehend
 62
     7
370
    25
100
AcDbLine
 10
385.2306377015
 20
248.8485494043
 30
0.0
 11
377.9306377015
 21
248.8485494043
 31
0.0
  0
LINE
  5
EB
330
1F
100
AcDbEntity
  8
0
  6
SLD-Durchgehend
 62
     7
370
    25
100
AcDbLine
 10
385.2306377015
 20
256.1485494043
 30
0.0
 11
385.2306377015
 21
248.8485494043
 31
0.0
  0
LINE
  5
EC
330
1F
100
AcDbEntity
  8
0
  6
SLD-Durchgehend
 62
     7
370
    25
100
AcDbLine
 10
364.6306377015
 20
256.1485494043
 30
0.0
 11
371.9306377015
 21
256.1485494043
 31
0.0
  0
LINE
  5
ED
330
1F
100
AcDbEntity
  8
0
  6
SLD-Durchgehend
 62
     7
370
    25
100
AcDbLine
 10
364.6306377015
 20
248.8485494043
 30
0.0
 11
364.6306377015
 21
256.1485494043
 31
0.0
  0
LINE
  5
EE
330
1F
100
AcDbEntity
  8
0
  6
SLD-Durchgehend
 62
     7
370
    25
100
AcDbLine
 10
371.9306377015
 20
248.8485494043
 30
0.0
 11
364.6306377015
 21
248.8485494043
 31
0.0
  0
LINE
  5
EF
330
1F
100
AcDbEntity
  8
0
  6
SLD-Durchgehend
 62
     7
370
    25
100
AcDbLine
 10
371.9306377015
 20
256.1485494043
 30
0.0
 11
371.9306377015
 21
248.8485494043
 31
0.0
  0
LINE
  5
F0
330
1F
100
AcDbEntity
  8
0
  6
SLD-Durchgehend
 62
     7
370
    25
100
AcDbLine
 10
431.1306377015
 20
269.4485494043
 30
0.0
 11
438.4306377015
 21
269.4485494043
 31
0.0
  0
LINE
  5
F1
330
1F
100
AcDbEntity
  8
0
  6
SLD-Durchgehend
 62
     7
370
    25
100
AcDbLine
 10
431.1306377015
 20
262.1485494043
 30
0.0
 11
431.1306377015
 21
269.4485494043
 31
0.0
  0
LINE
  5
F2
330
1F
100
AcDbEntity
  8
0
  6
SLD-Durchgehend
 62
     7
370
    25
100
AcDbLine
 10
438.4306377015
 20
262.1485494043
 30
0.0
 11
431.1306377015
 21
262.1485494043
 31
0.0
  0
LINE
  5
F3
330
1F
100
AcDbEntity
  8
0
  6
SLD-Durchgehend
 62
     7
370
    25
100
AcDbLine
 10
438.4306377015
 20
269.4485494043
 30
0.0
 11
438.4306377015
 21
262.1485494043
 31
0.0
  0
LINE
  5
F4
330
1F
100
AcDbEntity
  8
0
  6
SLD-Durchgehend
 62
     7
370
    25
100
AcDbLine
 10
417.8306377015
 20
269.4485494043
 30
0.0
 11
425.1306377015
 21
269.4485494043
 31
0.0
  0
LINE
  5
F5
330
1F
100
AcDbEntity
  8
0
  6
SLD-Durchgehend
 62
     7
370
    25
100
AcDbLine
 10
417.8306377015
 20
262.1485494043
 30
0.0
 11
417.8306377015
 21
269.4485494043
 31
0.0
  0
LINE
  5
F6
330
1F
100
AcDbEntity
  8
0
  6
SLD-Durchgehend
 62
     7
370
    25
100
AcDbLine
 10
425.1306377015
 20
262.1485494043
 30
0.0
 11
417.8306377015
 21
262.1485494043
 31
0.0
  0
LINE
  5
F7
330
1F
100
AcDbEntity
  8
0
  6
SLD-Durchgehend
 62
     7
370
    25
100
AcDbLine
 10
425.1306377015
 20
269.4485494043
 30
0.0
 11
425.1306377015
 21
262.1485494043
 31
0.0
  0
LINE
  5
F8
330
1F
100
AcDbEntity
  8
0
  6
SLD-Durchgehend
 62
     7
370
    25
100
AcDbLine
 10
404.5306377015
 20
269.4485494043
 30
0.0
 11
411.8306377015
 21
269.4485494043
 31
0.0
  0
LINE
  5
F9
330
1F
100
AcDbEntity
  8
0
  6
SLD-Durchgehend
 62
     7
370
    25
100
AcDbLine
 10
404.5306377015
 20
262.1485494043
 30
0.0
 11
404.5306377015
 21
269.4485494043
 31
0.0
  0
LINE
  5
FA
330
1F
100
AcDbEntity
  8
0
  6
SLD-Durchgehend
 62
     7
370
    25
100
AcDbLine
 10
411.8306377015
 20
262.1485494043
 30
0.0
 11
404.5306377015
 21
262.1485494043
 31
0.0
  0
LINE
  5
FB
330
1F
100
AcDbEntity
  8
0
  6
SLD-Durchgehend
 62
     7
370
    25
100
AcDbLine
 10
411.8306377015
 20
269.4485494043
 30
0.0
 11
411.8306377015
 21
262.1485494043
 31
0.0
  0
LINE
  5
FC
330
1F
100
AcDbEntity
  8
0
  6
SLD-Durchgehend
 62
     7
370
    25
100
AcDbLine
 10
391.2306377015
 20
269.4485494043
 30
0.0
 11
398.5306377015
 21
269.4485494043
 31
0.0
  0
LINE
  5
FD
330
1F
100
AcDbEntity
  8
0
  6
SLD-Durchgehend
 62
     7
370
    25
100
AcDbLine
 10
391.2306377015
 20
262.1485494043
 30
0.0
 11
391.2306377015
 21
269.4485494043
 31
0.0
  0
LINE
  5
FE
330
1F
100
AcDbEntity
  8
0
  6
SLD-Durchgehend
 62
     7
370
    25
100
AcDbLine
 10
398.5306377015
 20
262.1485494043
 30
0.0
 11
391.2306377015
 21
262.1485494043
 31
0.0
  0
LINE
  5
FF
330
1F
100
AcDbEntity
  8
0
  6
SLD-Durchgehend
 62
     7
370
    25
100
AcDbLine
 10
398.5306377015
 20
269.4485494043
 30
0.0
 11
398.5306377015
 21
262.1485494043
 31
0.0
  0
LINE
  5
100
330
1F
100
AcDbEntity
  8
0
  6
SLD-Durchgehend
 62
     7
370
    25
100
AcDbLine
 10
377.9306377015
 20
269.4485494043
 30
0.0
 11
385.2306377015
 21
269.4485494043
 31
0.0
  0
LINE
  5
101
330
1F
100
AcDbEntity
  8
0
  6
SLD-Durchgehend
 62
     7
370
    25
100
AcDbLine
 10
377.9306377015
 20
262.1485494043
 30
0.0
 11
377.9306377015
 21
269.4485494043
 31
0.0
  0
LINE
  5
102
330
1F
100
AcDbEntity
  8
0
  6
SLD-Durchgehend
 62
     7
370
    25
100
AcDbLine
 10
385.2306377015
 20
262.1485494043
 30
0.0
 11
377.9306377015
 21
262.1485494043
 31
0.0
  0
LINE
  5
103
330
1F
100
AcDbEntity
  8
0
  6
SLD-Durchgehend
 62
     7
370
    25
100
AcDbLine
 10
385.2306377015
 20
269.4485494043
 30
0.0
 11
385.2306377015
 21
262.1485494043
 31
0.0
  0
LINE
  5
104
330
1F
100
AcDbEntity
  8
0
  6
SLD-Durchgehend
 62
     7
370
    25
100
AcDbLine
 10
364.6306377015
 20
269.4485494043
 30
0.0
 11
371.9306377015
 21
269.4485494043
 31
0.0
  0
LINE
  5
105
330
1F
100
AcDbEntity
  8
0
  6
SLD-Durchgehend
 62
     7
370
    25
100
AcDbLine
 10
364.6306377015
 20
262.1485494043
 30
0.0
 11
364.6306377015
 21
269.4485494043
 31
0.0
  0
LINE
  5
106
330
1F
100
AcDbEntity
  8
0
  6
SLD-Durchgehend
 62
     7
370
    25
100
AcDbLine
 10
371.9306377015
 20
262.1485494043
 30
0.0
 11
364.6306377015
 21
262.1485494043
 31
0.0
  0
LINE
  5
107
330
1F
100
AcDbEntity
  8
0
  6
SLD-Durchgehend
 62
     7
370
    25
100
AcDbLine
 10
371.9306377015
 20
269.4485494043
 30
0.0
 11
371.9306377015
 21
262.1485494043
 31
0.0
  0
LINE
  5
108
330
1F
100
AcDbEntity
  8
0
  6
SLD-Durchgehend
 62
     7
370
    25
100
AcDbLine
 10
431.1306377015
 20
282.7485494043
 30
0.0
 11
438.4306377015
 21
282.7485494043
 31
0.0
  0
LINE
  5
109
330
1F
100
AcDbEntity
  8
0
  6
SLD-Durchgehend
 62
     7
370
    25
100
AcDbLine
 10
431.1306377015
 20
275.4485494043
 30
0.0
 11
431.1306377015
 21
282.7485494043
 31
0.0
  0
LINE
  5
10A
330
1F
100
AcDbEntity
  8
0
  6
SLD-Durchgehend
 62
     7
370
    25
100
AcDbLine
 10
438.4306377015
 20
275.4485494043
 30
0.0
 11
431.1306377015
 21
275.4485494043
 31
0.0
  0
LINE
  5
10B
330
1F
100
AcDbEntity
  8
0
  6
SLD-Durchgehend
 62
     7
370
    25
100
AcDbLine
 10
438.4306377015
 20
282.7485494043
 30
0.0
 11
438.4306377015
 21
275.4485494043
 31
0.0
  0
LINE
  5
10C
330
1F
100
AcDbEntity
  8
0
  6
SLD-Durchgehend
 62
     7
370
    25
100
AcDbLine
 10
417.8306377015
 20
282.7485494043
 30
0.0
 11
425.1306377015
 21
282.7485494043
 31
0.0
  0
LINE
  5
10D
330
1F
100
AcDbEntity
  8
0
  6
SLD-Durchgehend
 62
     7
370
    25
100
AcDbLine
 10
417.8306377015
 20
275.4485494043
 30
0.0
 11
417.8306377015
 21
282.7485494043
 31
0.0
  0
LINE
  5
10E
330
1F
100
AcDbEntity
  8
0
  6
SLD-Durchgehend
 62
     7
370
    25
100
AcDbLine
 10
425.1306377015
 20
275.4485494043
 30
0.0
 11
417.8306377015
 21
275.4485494043
 31
0.0
  0
LINE
  5
10F
330
1F
100
AcDbEntity
  8
0
  6
SLD-Durchgehend
 62
     7
370
    25
100
AcDbLine
 10
425.1306377015
 20
282.7485494043
 30
0.0
 11
425.1306377015
 21
275.4485494043
 31
0.0
  0
LINE
  5
110
330
1F
100
AcDbEntity
  8
0
  6
SLD-Durchgehend
 62
     7
370
    25
100
AcDbLine
 10
404.5306377015
 20
282.7485494043
 30
0.0
 11
411.8306377015
 21
282.7485494043
 31
0.0
  0
LINE
  5
111
330
1F
100
AcDbEntity
  8
0
  6
SLD-Durchgehend
 62
     7
370
    25
100
AcDbLine
 10
404.5306377015
 20
275.4485494043
 30
0.0
 11
404.5306377015
 21
282.7485494043
 31
0.0
  0
LINE
  5
112
330
1F
100
AcDbEntity
  8
0
  6
SLD-Durchgehend
 62
     7
370
    25
100
AcDbLine
 10
411.8306377015
 20
275.4485494043
 30
0.0
 11
404.5306377015
 21
275.4485494043
 31
0.0
  0
LINE
  5
113
330
1F
100
AcDbEntity
  8
0
  6
SLD-Durchgehend
 62
     7
370
    25
100
AcDbLine
 10
411.8306377015
 20
282.7485494043
 30
0.0
 11
411.8306377015
 21
275.4485494043
 31
0.0
  0
LINE
  5
114
330
1F
100
AcDbEntity
  8
0
  6
SLD-Durchgehend
 62
     7
370
    25
100
AcDbLine
 10
391.2306377015
 20
282.7485494043
 30
0.0
 11
398.5306377015
 21
282.7485494043
 31
0.0
  0
LINE
  5
115
330
1F
100
AcDbEntity
  8
0
  6
SLD-Durchgehend
 62
     7
370
    25
100
AcDbLine
 10
391.2306377015
 20
275.4485494043
 30
0.0
 11
391.2306377015
 21
282.7485494043
 31
0.0
  0
LINE
  5
116
330
1F
100
AcDbEntity
  8
0
  6
SLD-Durchgehend
 62
     7
370
    25
100
AcDbLine
 10
398.5306377015
 20
275.4485494043
 30
0.0
 11
391.2306377015
 21
275.4485494043
 31
0.0
  0
LINE
  5
117
330
1F
100
AcDbEntity
  8
0
  6
SLD-Durchgehend
 62
     7
370
    25
100
AcDbLine
 10
398.5306377015
 20
282.7485494043
 30
0.0
 11
398.5306377015
 21
275.4485494043
 31
0.0
  0
LINE
  5
118
330
1F
100
AcDbEntity
  8
0
  6
SLD-Durchgehend
 62
     7
370
    25
100
AcDbLine
 10
377.9306377015
 20
282.7485494043
 30
0.0
 11
385.2306377015
 21
282.7485494043
 31
0.0
  0
LINE
  5
119
330
1F
100
AcDbEntity
  8
0
  6
SLD-Durchgehend
 62
     7
370
    25
100
AcDbLine
 10
377.9306377015
 20
275.4485494043
 30
0.0
 11
377.9306377015
 21
282.7485494043
 31
0.0
  0
LINE
  5
11A
330
1F
100
AcDbEntity
  8
0
  6
SLD-Durchgehend
 62
     7
370
    25
100
AcDbLine
 10
385.2306377015
 20
275.4485494043
 30
0.0
 11
377.9306377015
 21
275.4485494043
 31
0.0
  0
LINE
  5
11B
330
1F
100
AcDbEntity
  8
0
  6
SLD-Durchgehend
 62
     7
370
    25
100
AcDbLine
 10
385.2306377015
 20
282.7485494043
 30
0.0
 11
385.2306377015
 21
275.4485494043
 31
0.0
  0
LINE
  5
11C
330
1F
100
AcDbEntity
  8
0
  6
SLD-Durchgehend
 62
     7
370
    25
100
AcDbLine
 10
364.6306377015
 20
282.7485494043
 30
0.0
 11
371.9306377015
 21
282.7485494043
 31
0.0
  0
LINE
  5
11D
330
1F
100
AcDbEntity
  8
0
  6
SLD-Durchgehend
 62
     7
370
    25
100
AcDbLine
 10
364.6306377015
 20
275.4485494043
 30
0.0
 11
364.6306377015
 21
282.7485494043
 31
0.0
  0
LINE
  5
11E
330
1F
100
AcDbEntity
  8
0
  6
SLD-Durchgehend
 62
     7
370
    25
100
AcDbLine
 10
371.9306377015
 20
275.4485494043
 30
0.0
 11
364.6306377015
 21
275.4485494043
 31
0.0
  0
LINE
  5
11F
330
1F
100
AcDbEntity
  8
0
  6
SLD-Durchgehend
 62
     7
370
    25
100
AcDbLine
 10
371.9306377015
 20
282.7485494043
 30
0.0
 11
371.9306377015
 21
275.4485494043
 31
0.0
  0
LINE
  5
120
330
1F
100
AcDbEntity
  8
0
  6
SLD-Durchgehend
 62
     7
370
    25
100
AcDbLine
 10
431.1306377015
 20
296.0485494043
 30
0.0
 11
438.4306377015
 21
296.0485494043
 31
0.0
  0
LINE
  5
121
330
1F
100
AcDbEntity
  8
0
  6
SLD-Durchgehend
 62
     7
370
    25
100
AcDbLine
 10
431.1306377015
 20
288.7485494043
 30
0.0
 11
431.1306377015
 21
296.0485494043
 31
0.0
  0
LINE
  5
122
330
1F
100
AcDbEntity
  8
0
  6
SLD-Durchgehend
 62
     7
370
    25
100
AcDbLine
 10
438.4306377015
 20
288.7485494043
 30
0.0
 11
431.1306377015
 21
288.7485494043
 31
0.0
  0
LINE
  5
123
330
1F
100
AcDbEntity
  8
0
  6
SLD-Durchgehend
 62
     7
370
    25
100
AcDbLine
 10
438.4306377015
 20
296.0485494043
 30
0.0
 11
438.4306377015
 21
288.7485494043
 31
0.0
  0
LINE
  5
124
330
1F
100
AcDbEntity
  8
0
  6
SLD-Durchgehend
 62
     7
370
    25
100
AcDbLine
 10
417.8306377015
 20
296.0485494043
 30
0.0
 11
425.1306377015
 21
296.0485494043
 31
0.0
  0
LINE
  5
125
330
1F
100
AcDbEntity
  8
0
  6
SLD-Durchgehend
 62
     7
370
    25
100
AcDbLine
 10
417.8306377015
 20
288.7485494043
 30
0.0
 11
417.8306377015
 21
296.0485494043
 31
0.0
  0
LINE
  5
126
330
1F
100
AcDbEntity
  8
0
  6
SLD-Durchgehend
 62
     7
370
    25
100
AcDbLine
 10
425.1306377015
 20
288.7485494043
 30
0.0
 11
417.8306377015
 21
288.7485494043
 31
0.0
  0
LINE
  5
127
330
1F
100
AcDbEntity
  8
0
  6
SLD-Durchgehend
 62
     7
370
    25
100
AcDbLine
 10
425.1306377015
 20
296.0485494043
 30
0.0
 11
425.1306377015
 21
288.7485494043
 31
0.0
  0
LINE
  5
128
330
1F
100
AcDbEntity
  8
0
  6
SLD-Durchgehend
 62
     7
370
    25
100
AcDbLine
 10
404.5306377015
 20
296.0485494043
 30
0.0
 11
411.8306377015
 21
296.0485494043
 31
0.0
  0
LINE
  5
129
330
1F
100
AcDbEntity
  8
0
  6
SLD-Durchgehend
 62
     7
370
    25
100
AcDbLine
 10
404.5306377015
 20
288.7485494043
 30
0.0
 11
404.5306377015
 21
296.0485494043
 31
0.0
  0
LINE
  5
12A
330
1F
100
AcDbEntity
  8
0
  6
SLD-Durchgehend
 62
     7
370
    25
100
AcDbLine
 10
411.8306377015
 20
288.7485494043
 30
0.0
 11
404.5306377015
 21
288.7485494043
 31
0.0
  0
LINE
  5
12B
330
1F
100
AcDbEntity
  8
0
  6
SLD-Durchgehend
 62
     7
370
    25
100
AcDbLine
 10
411.8306377015
 20
296.0485494043
 30
0.0
 11
411.8306377015
 21
288.7485494043
 31
0.0
  0
LINE
  5
12C
330
1F
100
AcDbEntity
  8
0
  6
SLD-Durchgehend
 62
     7
370
    25
100
AcDbLine
 10
391.2306377015
 20
296.0485494043
 30
0.0
 11
398.5306377015
 21
296.0485494043
 31
0.0
  0
LINE
  5
12D
330
1F
100
AcDbEntity
  8
0
  6
SLD-Durchgehend
 62
     7
370
    25
100
AcDbLine
 10
391.2306377015
 20
288.7485494043
 30
0.0
 11
391.2306377015
 21
296.0485494043
 31
0.0
  0
LINE
  5
12E
330
1F
100
AcDbEntity
  8
0
  6
SLD-Durchgehend
 62
     7
370
    25
100
AcDbLine
 10
398.5306377015
 20
288.7485494043
 30
0.0
 11
391.2306377015
 21
288.7485494043
 31
0.0
  0
LINE
  5
12F
330
1F
100
AcDbEntity
  8
0
  6
SLD-Durchgehend
 62
     7
370
    25
100
AcDbLine
 10
398.5306377015
 20
296.0485494043
 30
0.0
 11
398.5306377015
 21
288.7485494043
 31
0.0
  0
LINE
  5
130
330
1F
100
AcDbEntity
  8
0
  6
SLD-Durchgehend
 62
     7
370
    25
100
AcDbLine
 10
377.9306377015
 20
296.0485494043
 30
0.0
 11
385.2306377015
 21
296.0485494043
 31
0.0
  0
LINE
  5
131
330
1F
100
AcDbEntity
  8
0
  6
SLD-Durchgehend
 62
     7
370
    25
100
AcDbLine
 10
377.9306377015
 20
288.7485494043
 30
0.0
 11
377.9306377015
 21
296.0485494043
 31
0.0
  0
LINE
  5
132
330
1F
100
AcDbEntity
  8
0
  6
SLD-Durchgehend
 62
     7
370
    25
100
AcDbLine
 10
385.2306377015
 20
288.7485494043
 30
0.0
 11
377.9306377015
 21
288.7485494043
 31
0.0
  0
LINE
  5
133
330
1F
100
AcDbEntity
  8
0
  6
SLD-Durchgehend
 62
     7
370
    25
100
AcDbLine
 10
385.2306377015
 20
296.0485494043
 30
0.0
 11
385.2306377015
 21
288.7485494043
 31
0.0
  0
LINE
  5
134
330
1F
100
AcDbEntity
  8
0
  6
SLD-Durchgehend
 62
     7
370
    25
100
AcDbLine
 10
364.6306377015
 20
296.0485494043
 30
0.0
 11
371.9306377015
 21
296.0485494043
 31
0.0
  0
LINE
  5
135
330
1F
100
AcDbEntity
  8
0
  6
SLD-Durchgehend
 62
     7
370
    25
100
AcDbLine
 10
364.6306377015
 20
288.7485494043
 30
0.0
 11
364.6306377015
 21
296.0485494043
 31
0.0
  0
LINE
  5
136
330
1F
100
AcDbEntity
  8
0
  6
SLD-Durchgehend
 62
     7
370
    25
100
AcDbLine
 10
371.9306377015
 20
288.7485494043
 30
0.0
 11
364.6306377015
 21
288.7485494043
 31
0.0
  0
LINE
  5
137
330
1F
100
AcDbEntity
  8
0
  6
SLD-Durchgehend
 62
     7
370
    25
100
AcDbLine
 10
371.9306377015
 20
296.0485494043
 30
0.0
 11
371.9306377015
 21
288.7485494043
 31
0.0
  0
LINE
  5
138
330
1F
100
AcDbEntity
  8
0
  6
SLD-Durchgehend
 62
     7
370
    25
100
AcDbLine
 10
431.1306377015
 20
309.3485494043
 30
0.0
 11
438.4306377015
 21
309.3485494043
 31
0.0
  0
LINE
  5
139
330
1F
100
AcDbEntity
  8
0
  6
SLD-Durchgehend
 62
     7
370
    25
100
AcDbLine
 10
431.1306377015
 20
302.0485494043
 30
0.0
 11
431.1306377015
 21
309.3485494043
 31
0.0
  0
LINE
  5
13A
330
1F
100
AcDbEntity
  8
0
  6
SLD-Durchgehend
 62
     7
370
    25
100
AcDbLine
 10
438.4306377015
 20
302.0485494043
 30
0.0
 11
431.1306377015
 21
302.0485494043
 31
0.0
  0
LINE
  5
13B
330
1F
100
AcDbEntity
  8
0
  6
SLD-Durchgehend
 62
     7
370
    25
100
AcDbLine
 10
438.4306377015
 20
309.3485494043
 30
0.0
 11
438.4306377015
 21
302.0485494043
 31
0.0
  0
LINE
  5
13C
330
1F
100
AcDbEntity
  8
0
  6
SLD-Durchgehend
 62
     7
370
    25
100
AcDbLine
 10
417.8306377015
 20
309.3485494043
 30
0.0
 11
425.1306377015
 21
309.3485494043
 31
0.0
  0
LINE
  5
13D
330
1F
100
AcDbEntity
  8
0
  6
SLD-Durchgehend
 62
     7
370
    25
100
AcDbLine
 10
417.8306377015
 20
302.0485494043
 30
0.0
 11
417.8306377015
 21
309.3485494043
 31
0.0
  0
LINE
  5
13E
330
1F
100
AcDbEntity
  8
0
  6
SLD-Durchgehend
 62
     7
370
    25
100
AcDbLine
 10
425.1306377015
 20
302.0485494043
 30
0.0
 11
417.8306377015
 21
302.0485494043
 31
0.0
  0
LINE
  5
13F
330
1F
100
AcDbEntity
  8
0
  6
SLD-Durchgehend
 62
     7
370
    25
100
AcDbLine
 10
425.1306377015
 20
309.3485494043
 30
0.0
 11
425.1306377015
 21
302.0485494043
 31
0.0
  0
LINE
  5
140
330
1F
100
AcDbEntity
  8
0
  6
SLD-Durchgehend
 62
     7
370
    25
100
AcDbLine
 10
404.5306377015
 20
309.3485494043
 30
0.0
 11
411.8306377015
 21
309.3485494043
 31
0.0
  0
LINE
  5
141
330
1F
100
AcDbEntity
  8
0
  6
SLD-Durchgehend
 62
     7
370
    25
100
AcDbLine
 10
404.5306377015
 20
302.0485494043
 30
0.0
 11
404.5306377015
 21
309.3485494043
 31
0.0
  0
LINE
  5
142
330
1F
100
AcDbEntity
  8
0
  6
SLD-Durchgehend
 62
     7
370
    25
100
AcDbLine
 10
411.8306377015
 20
302.0485494043
 30
0.0
 11
404.5306377015
 21
302.0485494043
 31
0.0
  0
LINE
  5
143
330
1F
100
AcDbEntity
  8
0
  6
SLD-Durchgehend
 62
     7
370
    25
100
AcDbLine
 10
411.8306377015
 20
309.3485494043
 30
0.0
 11
411.8306377015
 21
302.0485494043
 31
0.0
  0
LINE
  5
144
330
1F
100
AcDbEntity
  8
0
  6
SLD-Durchgehend
 62
     7
370
    25
100
AcDbLine
 10
391.2306377015
 20
309.3485494043
 30
0.0
 11
398.5306377015
 21
309.3485494043
 31
0.0
  0
LINE
  5
145
330
1F
100
AcDbEntity
  8
0
  6
SLD-Durchgehend
 62
     7
370
    25
100
AcDbLine
 10
391.2306377015
 20
302.0485494043
 30
0.0
 11
391.2306377015
 21
309.3485494043
 31
0.0
  0
LINE
  5
146
330
1F
100
AcDbEntity
  8
0
  6
SLD-Durchgehend
 62
     7
370
    25
100
AcDbLine
 10
398.5306377015
 20
302.0485494043
 30
0.0
 11
391.2306377015
 21
302.0485494043
 31
0.0
  0
LINE
  5
147
330
1F
100
AcDbEntity
  8
0
  6
SLD-Durchgehend
 62
     7
370
    25
100
AcDbLine
 10
398.5306377015
 20
309.3485494043
 30
0.0
 11
398.5306377015
 21
302.0485494043
 31
0.0
  0
LINE
  5
148
330
1F
100
AcDbEntity
  8
0
  6
SLD-Durchgehend
 62
     7
370
    25
100
AcDbLine
 10
377.9306377015
 20
309.3485494043
 30
0.0
 11
385.2306377015
 21
309.3485494043
 31
0.0
  0
LINE
  5
149
330
1F
100
AcDbEntity
  8
0
  6
SLD-Durchgehend
 62
     7
370
    25
100
AcDbLine
 10
377.9306377015
 20
302.0485494043
 30
0.0
 11
377.9306377015
 21
309.3485494043
 31
0.0
  0
LINE
  5
14A
330
1F
100
AcDbEntity
  8
0
  6
SLD-Durchgehend
 62
     7
370
    25
100
AcDbLine
 10
385.2306377015
 20
302.0485494043
 30
0.0
 11
377.9306377015
 21
302.0485494043
 31
0.0
  0
LINE
  5
14B
330
1F
100
AcDbEntity
  8
0
  6
SLD-Durchgehend
 62
     7
370
    25
100
AcDbLine
 10
385.2306377015
 20
309.3485494043
 30
0.0
 11
385.2306377015
 21
302.0485494043
 31
0.0
  0
LINE
  5
14C
330
1F
100
AcDbEntity
  8
0
  6
SLD-Durchgehend
 62
     7
370
    25
100
AcDbLine
 10
364.6306377015
 20
309.3485494043
 30
0.0
 11
371.9306377015
 21
309.3485494043
 31
0.0
  0
LINE
  5
14D
330
1F
100
AcDbEntity
  8
0
  6
SLD-Durchgehend
 62
     7
370
    25
100
AcDbLine
 10
364.6306377015
 20
302.0485494043
 30
0.0
 11
364.6306377015
 21
309.3485494043
 31
0.0
  0
LINE
  5
14E
330
1F
100
AcDbEntity
  8
0
  6
SLD-Durchgehend
 62
     7
370
    25
100
AcDbLine
 10
371.9306377015
 20
302.0485494043
 30
0.0
 11
364.6306377015
 21
302.0485494043
 31
0.0
  0
LINE
  5
14F
330
1F
100
AcDbEntity
  8
0
  6
SLD-Durchgehend
 62
     7
370
    25
100
AcDbLine
 10
371.9306377015
 20
309.3485494043
 30
0.0
 11
371.9306377015
 21
302.0485494043
 31
0.0
  0
LINE
  5
150
330
1F
100
AcDbEntity
  8
0
  6
SLD-Durchgehend
 62
     7
370
    25
100
AcDbLine
 10
431.1306377015
 20
322.6485494043
 30
0.0
 11
438.4306377015
 21
322.6485494043
 31
0.0
  0
LINE
  5
151
330
1F
100
AcDbEntity
  8
0
  6
SLD-Durchgehend
 62
     7
370
    25
100
AcDbLine
 10
431.1306377015
 20
315.3485494043
 30
0.0
 11
431.1306377015
 21
322.6485494043
 31
0.0
  0
LINE
  5
152
330
1F
100
AcDbEntity
  8
0
  6
SLD-Durchgehend
 62
     7
370
    25
100
AcDbLine
 10
438.4306377015
 20
315.3485494043
 30
0.0
 11
431.1306377015
 21
315.3485494043
 31
0.0
  0
LINE
  5
153
330
1F
100
AcDbEntity
  8
0
  6
SLD-Durchgehend
 62
     7
370
    25
100
AcDbLine
 10
438.4306377015
 20
322.6485494043
 30
0.0
 11
438.4306377015
 21
315.3485494043
 31
0.0
  0
LINE
  5
154
330
1F
100
AcDbEntity
  8
0
  6
SLD-Durchgehend
 62
     7
370
    25
100
AcDbLine
 10
417.8306377015
 20
322.6485494043
 30
0.0
 11
425.1306377015
 21
322.6485494043
 31
0.0
  0
LINE
  5
155
330
1F
100
AcDbEntity
  8
0
  6
SLD-Durchgehend
 62
     7
370
    25
100
AcDbLine
 10
417.8306377015
 20
315.3485494043
 30
0.0
 11
417.8306377015
 21
322.6485494043
 31
0.0
  0
LINE
  5
156
330
1F
100
AcDbEntity
  8
0
  6
SLD-Durchgehend
 62
     7
370
    25
100
AcDbLine
 10
425.1306377015
 20
315.3485494043
 30
0.0
 11
417.8306377015
 21
315.3485494043
 31
0.0
  0
LINE
  5
157
330
1F
100
AcDbEntity
  8
0
  6
SLD-Durchgehend
 62
     7
370
    25
100
AcDbLine
 10
425.1306377015
 20
322.6485494043
 30
0.0
 11
425.1306377015
 21
315.3485494043
 31
0.0
  0
LINE
  5
158
330
1F
100
AcDbEntity
  8
0
  6
SLD-Durchgehend
 62
     7
370
    25
100
AcDbLine
 10
404.5306377015
 20
322.6485494043
 30
0.0
 11
411.8306377015
 21
322.6485494043
 31
0.0
  0
LINE
  5
159
330
1F
100
AcDbEntity
  8
0
  6
SLD-Durchgehend
 62
     7
370
    25
100
AcDbLine
 10
404.5306377015
 20
315.3485494043
 30
0.0
 11
404.5306377015
 21
322.6485494043
 31
0.0
  0
LINE
  5
15A
330
1F
100
AcDbEntity
  8
0
  6
SLD-Durchgehend
 62
     7
370
    25
100
AcDbLine
 10
411.8306377015
 20
315.3485494043
 30
0.0
 11
404.5306377015
 21
315.3485494043
 31
0.0
  0
LINE
  5
15B
330
1F
100
AcDbEntity
  8
0
  6
SLD-Durchgehend
 62
     7
370
    25
100
AcDbLine
 10
411.8306377015
 20
322.6485494043
 30
0.0
 11
411.8306377015
 21
315.3485494043
 31
0.0
  0
LINE
  5
15C
330
1F
100
AcDbEntity
  8
0
  6
SLD-Durchgehend
 62
     7
370
    25
100
AcDbLine
 10
391.2306377015
 20
322.6485494043
 30
0.0
 11
398.5306377015
 21
322.6485494043
 31
0.0
  0
LINE
  5
15D
330
1F
100
AcDbEntity
  8
0
  6
SLD-Durchgehend
 62
     7
370
    25
100
AcDbLine
 10
391.2306377015
 20
315.3485494043
 30
0.0
 11
391.2306377015
 21
322.6485494043
 31
0.0
  0
LINE
  5
15E
330
1F
100
AcDbEntity
  8
0
  6
SLD-Durchgehend
 62
     7
370
    25
100
AcDbLine
 10
398.5306377015
 20
315.3485494043
 30
0.0
 11
391.2306377015
 21
315.3485494043
 31
0.0
  0
LINE
  5
15F
330
1F
100
AcDbEntity
  8
0
  6
SLD-Durchgehend
 62
     7
370
    25
100
AcDbLine
 10
398.5306377015
 20
322.6485494043
 30
0.0
 11
398.5306377015
 21
315.3485494043
 31
0.0
  0
ARC
  5
160
330
1F
100
AcDbEntity
  8
0
  6
SLD-Durchgehend
 62
     7
370
    25
100
AcDbCircle
 10
347.0306377015
 20
340.2485494043
 30
0.0
 40
3.0
100
AcDbArc
 50
90.0
 51
180.0
  0
LINE
  5
161
330
1F
100
AcDbEntity
  8
0
  6
SLD-Durchgehend
 62
     7
370
    25
100
AcDbLine
 10
347.0306377015
 20
343.2485494043
 30
0.0
 11
456.0306377015
 21
343.2485494043
 31
0.0
  0
ARC
  5
162
330
1F
100
AcDbEntity
  8
0
  6
SLD-Durchgehend
 62
     7
370
    25
100
AcDbCircle
 10
456.0306377015
 20
340.2485494043
 30
0.0
 40
3.0
100
AcDbArc
 50
0.0
 51
90.0
  0
LINE
  5
163
330
1F
100
AcDbEntity
  8
0
  6
SLD-Durchgehend
 62
     7
370
    25
100
AcDbLine
 10
459.0306377015
 20
340.2485494043
 30
0.0
 11
459.0306377015
 21
231.2485494043
 31
0.0
  0
ARC
  5
164
330
1F
100
AcDbEntity
  8
0
  6
SLD-Durchgehend
 62
     7
370
    25
100
AcDbCircle
 10
456.0306377015
 20
231.2485494043
 30
0.0
 40
3.0
100
AcDbArc
 50
270.0
 51
0.0
  0
LINE
  5
165
330
1F
100
AcDbEntity
  8
0
  6
SLD-Durchgehend
 62
     7
370
    25
100
AcDbLine
 10
456.0306377015
 20
228.2485494043
 30
0.0
 11
347.0306377015
 21
228.2485494043
 31
0.0
  0
ARC
  5
166
330
1F
100
AcDbEntity
  8
0
  6
SLD-Durchgehend
 62
     7
370
    25
100
AcDbCircle
 10
347.0306377015
 20
231.2485494043
 30
0.0
 40
3.0
100
AcDbArc
 50
180.0
 51
270.0
  0
LINE
  5
167
330
1F
100
AcDbEntity
  8
0
  6
SLD-Durchgehend
 62
     7
370
    25
100
AcDbLine
 10
344.0306377015
 20
231.2485494043
 30
0.0
 11
344.0306377015
 21
340.2485494043
 31
0.0
  0
LINE
  5
168
330
1F
100
AcDbEntity
  8
0
  6
SLD-Durchgehend
 62
     7
370
    25
100
AcDbLine
 10
364.6306377015
 20
315.3485494043
 30
0.0
 11
364.6306377015
 21
322.6485494043
 31
0.0
  0
LINE
  5
169
330
1F
100
AcDbEntity
  8
0
  6
SLD-Durchgehend
 62
     7
370
    25
100
AcDbLine
 10
371.9306377015
 20
315.3485494043
 30
0.0
 11
364.6306377015
 21
315.3485494043
 31
0.0
  0
LINE
  5
16A
330
1F
100
AcDbEntity
  8
0
  6
SLD-Durchgehend
 62
     7
370
    25
100
AcDbLine
 10
371.9306377015
 20
322.6485494043
 30
0.0
 11
371.9306377015
 21
315.3485494043
 31
0.0
  0
LINE
  5
16B
330
1F
100
AcDbEntity
  8
0
  6
SLD-Durchgehend
 62
     7
370
    25
100
AcDbLine
 10
364.6306377015
 20
322.6485494043
 30
0.0
 11
371.9306377015
 21
322.6485494043
 31
0.0
  0
LINE
  5
16C
330
1F
100
AcDbEntity
  8
0
  6
SLD-Durchgehend
 62
     7
370
    25
100
AcDbLine
 10
377.9306377015
 20
315.3485494043
 30
0.0
 11
377.9306377015
 21
322.6485494043
 31
0.0
  0
LINE
  5
16D
330
1F
100
AcDbEntity
  8
0
  6
SLD-Durchgehend
 62
     7
370
    25
100
AcDbLine
 10
385.2306377015
 20
315.3485494043
 30
0.0
 11
377.9306377015
 21
315.3485494043
 31
0.0
  0
LINE
  5
16E
330
1F
100
AcDbEntity
  8
0
  6
SLD-Durchgehend
 62
     7
370
    25
100
AcDbLine
 10
385.2306377015
 20
322.6485494043
 30
0.0
 11
385.2306377015
 21
315.3485494043
 31
0.0
  0
LINE
  5
16F
330
1F
100
AcDbEntity
  8
0
  6
SLD-Durchgehend
 62
     7
370
    25
100
AcDbLine
 10
377.9306377015
 20
322.6485494043
 30
0.0
 11
385.2306377015
 21
322.6485494043
 31
0.0
  0
LINE
  5
170
330
1F
100
AcDbEntity
  8
0
  6
SLD-Durchgehend
 62
     7
370
    25
100
AcDbLine
 10
343.5306377015
 20
341.7485494043
 30
0.0
 11
343.5306377015
 21
229.7485494043
 31
0.0
  0
ARC
  5
171
330
1F
100
AcDbEntity
  8
0
  6
SLD-Durchgehend
 62
     7
370
    25
100
AcDbCircle
 10
345.5306377015
 20
341.7485494043
 30
0.0
 40
2.0
100
AcDbArc
 50
90.0
 51
180.0
  0
ARC
  5
172
330
1F
100
AcDbEntity
  8
0
  6
SLD-Durchgehend
 62
     7
370
    25
100
AcDbCircle
 10
457.5306377015
 20
229.7485494043
 30
0.0
 40
4.5
100
AcDbArc
 50
270.0
 51
0.0
  0
LINE
  5
173
330
1F
100
AcDbEntity
  8
0
  6
SLD-Durchgehend
 62
     7
370
    25
100
AcDbLine
 10
462.0306377015
 20
341.7485494043
 30
0.0
 11
462.0306377015
 21
229.7485494043
 31
0.0
  0
LINE
  5
174
330
1F
100
AcDbEntity
  8
0
  6
SLD-Durchgehend
 62
     7
370
    25
100
AcDbLine
 10
457.5306377015
 20
225.2485494043
 30
0.0
 11
345.5306377015
 21
225.2485494043
 31
0.0
  0
ARC
  5
175
330
1F
100
AcDbEntity
  8
0
  6
SLD-Durchgehend
 62
     7
370
    25
100
AcDbCircle
 10
457.5306377015
 20
341.7485494043
 30
0.0
 40
4.5
100
AcDbArc
 50
0.0
 51
90.0
  0
ARC
  5
176
330
1F
100
AcDbEntity
  8
0
  6
SLD-Durchgehend
 62
     7
370
    25
100
AcDbCircle
 10
345.5306377015
 20
229.7485494043
 30
0.0
 40
4.5
100
AcDbArc
 50
180.0
 51
270.0
  0
LINE
  5
177
330
1F
100
AcDbEntity
  8
0
  6
SLD-Durchgehend
 62
     7
370
    25
100
AcDbLine
 10
345.5306377015
 20
346.2485494043
 30
0.0
 11
457.5306377015
 21
346.2485494043
 31
0.0
  0
LINE
  5
178
330
1F
100
AcDbEntity
  8
0
  6
SLD-Durchgehend
 62
     7
370
    25
100
AcDbLine
 10
341.0306377015
 20
229.7485494043
 30
0.0
 11
341.0306377015
 21
341.7485494043
 31
0.0
  0
ARC
  5
179
330
1F
100
AcDbEntity
  8
0
  6
SLD-Durchgehend
 62
     7
370
    25
100
AcDbCircle
 10
345.5306377015
 20
341.7485494043
 30
0.0
 40
4.5
100
AcDbArc
 50
90.0
 51
180.0
  0
ARC
  5
17A
330
1F
100
AcDbEntity
  8
0
  6
SLD-Durchgehend
 62
     7
370
    25
100
AcDbCircle
 10
457.5306377015
 20
341.7485494043
 30
0.0
 40
2.0
100
AcDbArc
 50
0.0
 51
90.0
  0
ARC
  5
17B
330
1F
100
AcDbEntity
  8
0
  6
SLD-Durchgehend
 62
     7
370
    25
100
AcDbCircle
 10
457.5306377015
 20
229.7485494043
 30
0.0
 40
2.0
100
AcDbArc
 50
270.0
 51
0.0
  0
LINE
  5
17C
330
1F
100
AcDbEntity
  8
0
  6
SLD-Durchgehend
 62
     7
370
    25
100
AcDbLine
 10
459.5306377015
 20
229.7485494043
 30
0.0
 11
459.5306377015
 21
341.7485494043
 31
0.0
  0
LINE
  5
17D
330
1F
100
AcDbEntity
  8
0
  6
SLD-Durchgehend
 62
     7
370
    25
100
AcDbLine
 10
345.5306377015
 20
227.7485494043
 30
0.0
 11
457.5306377015
 21
227.7485494043
 31
0.0
  0
LINE
  5
17E
330
1F
100
AcDbEntity
  8
0
  6
SLD-Durchgehend
 62
     7
370
    25
100
AcDbLine
 10
457.5306377015
 20
343.7485494043
 30
0.0
 11
345.5306377015
 21
343.7485494043
 31
0.0
  0
ARC
  5
17F
330
1F
100
AcDbEntity
  8
0
  6
SLD-Durchgehend
 62
     7
370
    25
100
AcDbCircle
 10
345.5306377015
 20
229.7485494043
 30
0.0
 40
2.0
100
AcDbArc
 50
180.0
 51
270.0
  0
LINE
  5
180
330
1F
100
AcDbEntity
  8
0
  6
SLD-Phantom
 62
     7
370
    35
100
AcDbLine
 10
476.5506377015
 20
285.7485494043
 30
0.0
 11
326.5106377015
 21
285.7485494043
 31
0.0
  0
LINE
  5
181
330
1F
100
AcDbEntity
  8
0
  6
SLD-Durchgehend
 62
     7
370
    35
100
AcDbLine
 10
472.5506377015
 20
260.3485494043
 30
0.0
 11
472.5506377015
 21
285.7485494043
 31
0.0
  0
SOLID
  5
182
330
1F
100
AcDbEntity
  8
0
  6
SLD-Durchgehend
 62
     7
370
    35
100
AcDbTrace
 10
472.5506377015
 20
285.7485494043
 30
0.0
 11
470.5186377015
 21
273.0485494043
 31
0.0
 12
474.5826377015
 22
273.0485494043
 32
0.0
 13
474.5826377015
 23
273.0485494043
 33
0.0
  0
LINE
  5
183
330
1F
100
AcDbEntity
  8
0
  6
SLD-Durchgehend
 62
     7
370
    35
100
AcDbLine
 10
330.5106377015
 20
260.3485494043
 30
0.0
 11
330.5106377015
 21
285.7485494043
 31
0.0
  0
SOLID
  5
184
330
1F
100
AcDbEntity
  8
0
  6
SLD-Durchgehend
 62
     7
370
    35
100
AcDbTrace
 10
330.5106377015
 20
285.7485494043
 30
0.0
 11
328.4786377015
 21
273.0485494043
 31
0.0
 12
332.5426377015
 22
273.0485494043
 32
0.0
 13
332.5426377015
 23
273.0485494043
 33
0.0
  0
MTEXT
  5
186
330
1F
100
AcDbEntity
  8
0
  6
Continuous
 62
     7
100
AcDbMText
 10
474.1371410688
 20
266.7369196717
 30
0.0
 40
7.0
 41
0.0
 46
0.0
 71
     1
 72
     1
  1
A
  7
SLDTEXTSTYLE0
 73
     1
 44
1.0
  0
MTEXT
  5
187
330
1F
100
AcDbEntity
  8
0
  6
Continuous
 62
     7
100
AcDbMText
 10
324.957875916
 20
266.7369196717
 30
0.0
 40
7.0
 41
0.0
 46
0.0
 71
     1
 72
     1
  1
A
  7
SLDTEXTSTYLE0
 73
     1
 44
1.0
  0
LINE
  5
188
330
1F
100
AcDbEntity
  8
0
  6
SLD-Durchgehend
 62
     7
370
    25
100
AcDbLine
 10
459.0306377015
 20
405.0363297517
 30
0.0
 11
344.0306377015
 21
405.0363297517
 31
0.0
  0
LINE
  5
189
330
1F
100
AcDbEntity
  8
0
  6
SLD-Durchgehend
 62
     7
370
    25
100
AcDbLine
 10
344.0306377015
 20
405.0363297517
 30
0.0
 11
344.0306377015
 21
410.0363297517
 31
0.0
  0
LINE
  5
18A
330
1F
100
AcDbEntity
  8
0
  6
SLD-Durchgehend
 62
     7
370
    25
100
AcDbLine
 10
459.0306377015
 20
410.0363297517
 30
0.0
 11
344.0306377015
 21
410.0363297517
 31
0.0
  0
LINE
  5
18B
330
1F
100
AcDbEntity
  8
0
  6
SLD-Durchgehend
 62
     7
370
    25
100
AcDbLine
 10
459.0306377015
 20
410.0363297517
 30
0.0
 11
459.0306377015
 21
405.0363297517
 31
0.0
  0
LINE
  5
18C
330
1F
100
AcDbEntity
  8
0
  6
SLD-Durchgehend
 62
     7
370
    25
100
AcDbLine
 10
345.5306377015
 20
404.3363297517
 30
0.0
 11
345.5306377015
 21
405.0363297517
 31
0.0
  0
LINE
  5
18D
330
1F
100
AcDbEntity
  8
0
  6
SLD-Durchgehend
 62
     7
370
    25
100
AcDbLine
 10
344.0306377015
 20
404.3363297517
 30
0.0
 11
345.5306377015
 21
404.3363297517
 31
0.0
  0
LINE
  5
18E
330
1F
100
AcDbEntity
  8
0
  6
SLD-Durchgehend
 62
     7
370
    25
100
AcDbLine
 10
342.8306377015
 20
405.5363297517
 30
0.0
 11
342.8306377015
 21
409.5363297517
 31
0.0
  0
LINE
  5
18F
330
1F
100
AcDbEntity
  8
0
  6
SLD-Durchgehend
 62
     7
370
    25
100
AcDbLine
 10
341.0306377015
 20
409.5363297517
 30
0.0
 11
341.0306377015
 21
408.5363297517
 31
0.0
  0
ARC
  5
190
330
1F
100
AcDbEntity
  8
0
  6
SLD-Durchgehend
 62
     7
370
    25
100
AcDbCircle
 10
342.0306377015
 20
409.5363297517
 30
0.0
 40
1.0
100
AcDbArc
 50
90.0
 51
180.0
  0
LINE
  5
191
330
1F
100
AcDbEntity
  8
0
  6
SLD-Durchgehend
 62
     7
370
    25
100
AcDbLine
 10
342.0306377015
 20
410.5363297517
 30
0.0
 11
342.5306377015
 21
410.5363297517
 31
0.0
  0
LINE
  5
192
330
1F
100
AcDbEntity
  8
0
  6
SLD-Durchgehend
 62
     7
370
    25
100
AcDbLine
 10
343.5306377015
 20
405.5363297517
 30
0.0
 11
343.5306377015
 21
409.5363297517
 31
0.0
  0
ARC
  5
193
330
1F
100
AcDbEntity
  8
0
  6
SLD-Durchgehend
 62
     7
370
    25
100
AcDbCircle
 10
344.0306377015
 20
405.5363297517
 30
0.0
 40
0.5
100
AcDbArc
 50
180.0
 51
270.0
  0
LINE
  5
194
330
1F
100
AcDbEntity
  8
0
  6
SLD-Durchgehend
 62
     7
370
    25
100
AcDbLine
 10
344.0306377015
 20
405.0363297517
 30
0.0
 11
345.5306377015
 21
405.0363297517
 31
0.0
  0
ARC
  5
195
330
1F
100
AcDbEntity
  8
0
  6
SLD-Durchgehend
 62
     7
370
    25
100
AcDbCircle
 10
342.5306377015
 20
409.5363297517
 30
0.0
 40
0.2999999999999545
100
AcDbArc
 50
0.0
 51
90.0
  0
LINE
  5
196
330
1F
100
AcDbEntity
  8
0
  6
SLD-Durchgehend
 62
     7
370
    25
100
AcDbLine
 10
342.0306377015
 20
409.8363297517
 30
0.0
 11
342.5306377015
 21
409.8363297517
 31
0.0
  0
ARC
  5
197
330
1F
100
AcDbEntity
  8
0
  6
SLD-Durchgehend
 62
     7
370
    25
100
AcDbCircle
 10
342.5306377015
 20
409.5363297517
 30
0.0
 40
1.0
100
AcDbArc
 50
0.0
 51
90.0
  0
ARC
  5
198
330
1F
100
AcDbEntity
  8
0
  6
SLD-Durchgehend
 62
     7
370
    25
100
AcDbCircle
 10
342.0306377015
 20
409.5363297517
 30
0.0
 40
0.3000000000000114
100
AcDbArc
 50
90.0
 51
180.0
  0
ARC
  5
199
330
1F
100
AcDbEntity
  8
0
  6
SLD-Durchgehend
 62
     7
370
    25
100
AcDbCircle
 10
344.0306377015
 20
405.5363297517
 30
0.0
 40
1.200000000000045
100
AcDbArc
 50
180.0
 51
270.0
  0
LINE
  5
19A
330
1F
100
AcDbEntity
  8
0
  6
SLD-Durchgehend
 62
     7
370
    25
100
AcDbLine
 10
341.7306377015
 20
408.5363297517
 30
0.0
 11
341.7306377015
 21
409.5363297517
 31
0.0
  0
LINE
  5
19B
330
1F
100
AcDbEntity
  8
0
  6
SLD-Durchgehend
 62
     7
370
    25
100
AcDbLine
 10
341.7306377015
 20
408.5363297517
 30
0.0
 11
341.0306377015
 21
408.5363297517
 31
0.0
  0
LINE
  5
19C
330
1F
100
AcDbEntity
  8
0
  6
SLD-Durchgehend
 62
     7
370
    25
100
AcDbLine
 10
457.5306377015
 20
405.0363297517
 30
0.0
 11
457.5306377015
 21
404.3363297517
 31
0.0
  0
LINE
  5
19D
330
1F
100
AcDbEntity
  8
0
  6
SLD-Durchgehend
 62
     7
370
    25
100
AcDbLine
 10
460.5306377015
 20
410.5363297517
 30
0.0
 11
461.0306377015
 21
410.5363297517
 31
0.0
  0
LINE
  5
19E
330
1F
100
AcDbEntity
  8
0
  6
SLD-Durchgehend
 62
     7
370
    25
100
AcDbLine
 10
457.5306377015
 20
404.3363297517
 30
0.0
 11
459.0306377015
 21
404.3363297517
 31
0.0
  0
ARC
  5
19F
330
1F
100
AcDbEntity
  8
0
  6
SLD-Durchgehend
 62
     7
370
    25
100
AcDbCircle
 10
459.0306377015
 20
405.5363297517
 30
0.0
 40
0.5
100
AcDbArc
 50
270.0
 51
0.0
  0
ARC
  5
1A0
330
1F
100
AcDbEntity
  8
0
  6
SLD-Durchgehend
 62
     7
370
    25
100
AcDbCircle
 10
460.5306377015
 20
409.5363297517
 30
0.0
 40
1.0
100
AcDbArc
 50
90.0
 51
180.0
  0
LINE
  5
1A1
330
1F
100
AcDbEntity
  8
0
  6
SLD-Durchgehend
 62
     7
370
    25
100
AcDbLine
 10
462.0306377015
 20
408.5363297517
 30
0.0
 11
462.0306377015
 21
409.5363297517
 31
0.0
  0
LINE
  5
1A2
330
1F
100
AcDbEntity
  8
0
  6
SLD-Durchgehend
 62
     7
370
    25
100
AcDbLine
 10
460.2306377015
 20
409.5363297517
 30
0.0
 11
460.2306377015
 21
405.5363297517
 31
0.0
  0
LINE
  5
1A3
330
1F
100
AcDbEntity
  8
0
  6
SLD-Durchgehend
 62
     7
370
    25
100
AcDbLine
 10
459.5306377015
 20
409.5363297517
 30
0.0
 11
459.5306377015
 21
405.5363297517
 31
0.0
  0
ARC
  5
1A4
330
1F
100
AcDbEntity
  8
0
  6
SLD-Durchgehend
 62
     7
370
    25
100
AcDbCircle
 10
459.0306377015
 20
405.5363297517
 30
0.0
 40
1.200000000000045
100
AcDbArc
 50
270.0
 51
0.0
  0
ARC
  5
1A5
330
1F
100
AcDbEntity
  8
0
  6
SLD-Durchgehend
 62
     7
370
    25
100
AcDbCircle
 10
461.0306377015
 20
409.5363297517
 30
0.0
 40
1.0
100
AcDbArc
 50
0.0
 51
90.0
  0
LINE
  5
1A6
330
1F
100
AcDbEntity
  8
0
  6
SLD-Durchgehend
 62
     7
370
    25
100
AcDbLine
 10
457.5306377015
 20
405.0363297517
 30
0.0
 11
459.0306377015
 21
405.0363297517
 31
0.0
  0
LINE
  5
1A7
330
1F
100
AcDbEntity
  8
0
  6
SLD-Durchgehend
 62
     7
370
    25
100
AcDbLine
 10
460.5306377015
 20
409.8363297517
 30
0.0
 11
461.0306377015
 21
409.8363297517
 31
0.0
  0
ARC
  5
1A8
330
1F
100
AcDbEntity
  8
0
  6
SLD-Durchgehend
 62
     7
370
    25
100
AcDbCircle
 10
461.0306377015
 20
409.5363297517
 30
0.0
 40
0.3000000000000114
100
AcDbArc
 50
0.0
 51
90.0
  0
ARC
  5
1A9
330
1F
100
AcDbEntity
  8
0
  6
SLD-Durchgehend
 62
     7
370
    25
100
AcDbCircle
 10
460.5306377015
 20
409.5363297517
 30
0.0
 40
0.3000000000000114
100
AcDbArc
 50
90.0
 51
180.0
  0
LINE
  5
1AA
330
1F
100
AcDbEntity
  8
0
  6
SLD-Durchgehend
 62
     7
370
    25
100
AcDbLine
 10
462.0306377015
 20
408.5363297517
 30
0.0
 11
461.3306377015
 21
408.5363297517
 31
0.0
  0
LINE
  5
1AB
330
1F
100
AcDbEntity
  8
0
  6
SLD-Durchgehend
 62
     7
370
    25
100
AcDbLine
 10
461.3306377015
 20
409.5363297517
 30
0.0
 11
461.3306377015
 21
408.5363297517
 31
0.0
  0
LINE
  5
1AC
330
1F
100
AcDbEntity
  8
0
  6
SLD-Durchgehend
 62
     7
370
    25
100
AcDbLine
 10
342.5306377015
 20
410.5363297517
 30
0.0
 11
345.5306377015
 21
410.5363297517
 31
0.0
  0
LINE
  5
1AD
330
1F
100
AcDbEntity
  8
0
  6
SLD-Durchgehend
 62
     7
370
    25
100
AcDbLine
 10
457.5306377015
 20
410.5363297517
 30
0.0
 11
460.5306377015
 21
410.5363297517
 31
0.0
  0
LINE
  5
1AE
330
1F
100
AcDbEntity
  8
0
  6
SLD-Durchgehend
 62
     7
370
    25
100
AcDbLine
 10
345.5306377015
 20
410.5363297517
 30
0.0
 11
457.5306377015
 21
410.5363297517
 31
0.0
  0
LINE
  5
1AF
330
1F
100
AcDbEntity
  8
0
  6
SLD-Durchgehend
 62
     7
370
    25
100
AcDbLine
 10
346.5306377015
 20
372.3935116956
 30
0.0
 11
346.5306377015
 21
371.7863297517
 31
0.0
  0
ARC
  5
1B0
330
1F
100
AcDbEntity
  8
0
  6
SLD-Durchgehend
 62
     7
370
    25
100
AcDbCircle
 10
346.7806377015
 20
371.7863297517
 30
0.0
 40
0.2500000000000568
100
AcDbArc
 50
180.0
 51
270.0
  0
LINE
  5
1B1
330
1F
100
AcDbEntity
  8
0
  6
SLD-Durchgehend
 62
     7
370
    25
100
AcDbLine
 10
346.5306377015
 20
385.1935116956
 30
0.0
 11
346.5306377015
 21
384.6791478078
 31
0.0
  0
LINE
  5
1B2
330
1F
100
AcDbEntity
  8
0
  6
SLD-Durchgehend
 62
     7
370
    25
100
AcDbLine
 10
346.5306377015
 20
397.9935116956
 30
0.0
 11
346.5306377015
 21
397.4791478078
 31
0.0
  0
LINE
  5
1B3
330
1F
100
AcDbEntity
  8
0
  6
SLD-Durchgehend
 62
     7
370
    25
100
AcDbLine
 10
346.5306377015
 20
381.9935116956
 30
0.0
 11
346.5306377015
 21
381.4791478078
 31
0.0
  0
LINE
  5
1B4
330
1F
100
AcDbEntity
  8
0
  6
SLD-Durchgehend
 62
     7
370
    25
100
AcDbLine
 10
346.5306377015
 20
394.7935116956
 30
0.0
 11
346.5306377015
 21
394.2791478078
 31
0.0
  0
LINE
  5
1B5
330
1F
100
AcDbEntity
  8
0
  6
SLD-Durchgehend
 62
     7
370
    25
100
AcDbLine
 10
346.5306377015
 20
378.7935116956
 30
0.0
 11
346.5306377015
 21
378.2791478078
 31
0.0
  0
LINE
  5
1B6
330
1F
100
AcDbEntity
  8
0
  6
SLD-Durchgehend
 62
     7
370
    25
100
AcDbLine
 10
346.5306377015
 20
391.5935116956
 30
0.0
 11
346.5306377015
 21
391.0791478078
 31
0.0
  0
LINE
  5
1B7
330
1F
100
AcDbEntity
  8
0
  6
SLD-Durchgehend
 62
     7
370
    25
100
AcDbLine
 10
346.5306377015
 20
375.5935116956
 30
0.0
 11
346.5306377015
 21
375.0791478078
 31
0.0
  0
LINE
  5
1B8
330
1F
100
AcDbEntity
  8
0
  6
SLD-Durchgehend
 62
     7
370
    25
100
AcDbLine
 10
346.5306377015
 20
402.4863297517
 30
0.0
 11
346.5306377015
 21
400.6791478078
 31
0.0
  0
LINE
  5
1B9
330
1F
100
AcDbEntity
  8
0
  6
SLD-Durchgehend
 62
     7
370
    25
100
AcDbLine
 10
346.5306377015
 20
388.3935116956
 30
0.0
 11
346.5306377015
 21
387.8791478078
 31
0.0
  0
ARC
  5
1BA
330
1F
100
AcDbEntity
  8
0
  6
SLD-Durchgehend
 62
     7
370
    25
100
AcDbCircle
 10
346.2806377015
 20
402.4863297517
 30
0.0
 40
0.25
100
AcDbArc
 50
0.0
 51
90.0
  0
LINE
  5
1BB
330
1F
100
AcDbEntity
  8
0
  6
SLD-Durchgehend
 62
     7
370
    25
100
AcDbLine
 10
454.6306377015
 20
371.5363297517
 30
0.0
 11
454.6306377015
 21
402.7363297517
 31
0.0
  0
LINE
  5
1BC
330
1F
100
AcDbEntity
  8
0
  6
SLD-Durchgehend
 62
     7
370
    25
100
AcDbLine
 10
452.7701373428
 20
371.5363297517
 30
0.0
 11
454.6306377015
 21
371.5363297517
 31
0.0
  0
LINE
  5
1BD
330
1F
100
AcDbEntity
  8
0
  6
SLD-Durchgehend
 62
     7
370
    25
100
AcDbLine
 10
454.6306377015
 20
402.7363297517
 30
0.0
 11
401.5306377015
 21
402.7363297517
 31
0.0
  0
LINE
  5
1BE
330
1F
100
AcDbEntity
  8
0
  6
SLD-Durchgehend
 62
     7
370
    25
100
AcDbLine
 10
401.5306377015
 20
402.7363297517
 30
0.0
 11
348.4306377015
 21
402.7363297517
 31
0.0
  0
LINE
  5
1BF
330
1F
100
AcDbEntity
  8
0
  6
SLD-Durchgehend
 62
     7
370
    25
100
AcDbLine
 10
348.4306377015
 20
402.7363297517
 30
0.0
 11
348.4306377015
 21
404.5004313669
 31
0.0
  0
LINE
  5
1C0
330
1F
100
AcDbEntity
  8
0
  6
SLD-Durchgehend
 62
     7
370
    25
100
AcDbLine
 10
454.6306377015
 20
404.5004313669
 30
0.0
 11
348.4306377015
 21
404.5004313669
 31
0.0
  0
LINE
  5
1C1
330
1F
100
AcDbEntity
  8
0
  6
SLD-Durchgehend
 62
     7
370
    25
100
AcDbLine
 10
454.6306377015
 20
404.5004313669
 30
0.0
 11
454.6306377015
 21
402.7363297517
 31
0.0
  0
ARC
  5
1C2
330
1F
100
AcDbEntity
  8
0
  6
SLD-Durchgehend
 62
     7
370
    25
100
AcDbCircle
 10
456.2806377015
 20
381.9935116956
 30
0.0
 40
0.2499999999999551
100
AcDbArc
 50
0.0
 51
85.0
  0
ARC
  5
1C3
330
1F
100
AcDbEntity
  8
0
  6
SLD-Durchgehend
 62
     7
370
    25
100
AcDbCircle
 10
455.4806377015
 20
392.1654125452
 30
0.0
 40
0.2500000000001611
100
AcDbArc
 50
180.0
 51
265.0000000004
  0
LINE
  5
1C4
330
1F
100
AcDbEntity
  8
0
  6
SLD-Durchgehend
 62
     7
370
    25
100
AcDbLine
 10
347.8306377015
 20
390.5072469582
 30
0.0
 11
347.8306377015
 21
388.9654125452
 31
0.0
  0
ARC
  5
1C5
330
1F
100
AcDbEntity
  8
0
  6
SLD-Durchgehend
 62
     7
370
    25
100
AcDbCircle
 10
456.2806377015
 20
385.1935116956
 30
0.0
 40
0.2499999999999551
100
AcDbArc
 50
0.0
 51
85.0
  0
ARC
  5
1C6
330
1F
100
AcDbEntity
  8
0
  6
SLD-Durchgehend
 62
     7
370
    25
100
AcDbCircle
 10
455.4806377015
 20
393.7072469582
 30
0.0
 40
0.25
100
AcDbArc
 50
95.0
 51
180.0
  0
ARC
  5
1C7
330
1F
100
AcDbEntity
  8
0
  6
SLD-Durchgehend
 62
     7
370
    25
100
AcDbCircle
 10
456.2806377015
 20
378.7935116956
 30
0.0
 40
0.2500000000000117
100
AcDbArc
 50
0.0
 51
85.0
  0
LINE
  5
1C8
330
1F
100
AcDbEntity
  8
0
  6
SLD-Durchgehend
 62
     7
370
    25
100
AcDbLine
 10
347.6024266372
 20
391.9163638707
 30
0.0
 11
346.7588487658
 21
391.8425603702
 31
0.0
  0
LINE
  5
1C9
330
1F
100
AcDbEntity
  8
0
  6
SLD-Durchgehend
 62
     7
370
    25
100
AcDbLine
 10
347.6024266372
 20
388.7163638707
 30
0.0
 11
346.7588487658
 21
388.6425603702
 31
0.0
  0
ARC
  5
1CA
330
1F
100
AcDbEntity
  8
0
  6
SLD-Durchgehend
 62
     7
370
    25
100
AcDbCircle
 10
456.2806377015
 20
394.2791478078
 30
0.0
 40
0.2499999999999601
100
AcDbArc
 50
275.0
 51
0.0
  0
LINE
  5
1CB
330
1F
100
AcDbEntity
  8
0
  6
SLD-Durchgehend
 62
     7
370
    25
100
AcDbLine
 10
456.3024266372
 20
388.6425603702
 30
0.0
 11
455.4588487658
 21
388.7163638707
 31
0.0
  0
ARC
  5
1CC
330
1F
100
AcDbEntity
  8
0
  6
SLD-Durchgehend
 62
     7
370
    25
100
AcDbCircle
 10
347.5806377015
 20
382.5654125452
 30
0.0
 40
0.25
100
AcDbArc
 50
275.0
 51
0.0
  0
LINE
  5
1CD
330
1F
100
AcDbEntity
  8
0
  6
SLD-Durchgehend
 62
     7
370
    25
100
AcDbLine
 10
455.2306377015
 20
392.1654125452
 30
0.0
 11
455.2306377015
 21
393.7072469582
 31
0.0
  0
ARC
  5
1CE
330
1F
100
AcDbEntity
  8
0
  6
SLD-Durchgehend
 62
     7
370
    25
100
AcDbCircle
 10
456.2806377015
 20
397.9935116956
 30
0.0
 40
0.2500000000000068
100
AcDbArc
 50
0.0
 51
85.0
  0
LINE
  5
1CF
330
1F
100
AcDbEntity
  8
0
  6
SLD-Durchgehend
 62
     7
370
    25
100
AcDbLine
 10
346.7588487658
 20
394.0300991333
 30
0.0
 11
347.6024266372
 21
393.9562956327
 31
0.0
  0
LINE
  5
1D0
330
1F
100
AcDbEntity
  8
0
  6
SLD-Durchgehend
 62
     7
370
    25
100
AcDbLine
 10
347.6024266372
 20
375.9163638707
 30
0.0
 11
346.7588487658
 21
375.8425603702
 31
0.0
  0
ARC
  5
1D1
330
1F
100
AcDbEntity
  8
0
  6
SLD-Durchgehend
 62
     7
370
    25
100
AcDbCircle
 10
456.2806377015
 20
381.4791478078
 30
0.0
 40
0.2500000000000167
100
AcDbArc
 50
275.0
 51
0.0
  0
LINE
  5
1D2
330
1F
100
AcDbEntity
  8
0
  6
SLD-Durchgehend
 62
     7
370
    25
100
AcDbLine
 10
456.5306377015
 20
397.4791478078
 30
0.0
 11
456.5306377015
 21
397.9935116956
 31
0.0
  0
ARC
  5
1D3
330
1F
100
AcDbEntity
  8
0
  6
SLD-Durchgehend
 62
     7
370
    25
100
AcDbCircle
 10
456.2806377015
 20
378.2791478078
 30
0.0
 40
0.2499999999999601
100
AcDbArc
 50
275.0
 51
0.0
  0
LINE
  5
1D4
330
1F
100
AcDbEntity
  8
0
  6
SLD-Durchgehend
 62
     7
370
    25
100
AcDbLine
 10
456.5306377015
 20
394.2791478078
 30
0.0
 11
456.5306377015
 21
394.7935116956
 31
0.0
  0
LINE
  5
1D5
330
1F
100
AcDbEntity
  8
0
  6
SLD-Durchgehend
 62
     7
370
    25
100
AcDbLine
 10
456.5306377015
 20
387.8791478078
 30
0.0
 11
456.5306377015
 21
388.3935116956
 31
0.0
  0
LINE
  5
1D6
330
1F
100
AcDbEntity
  8
0
  6
SLD-Durchgehend
 62
     7
370
    25
100
AcDbLine
 10
347.8306377015
 20
374.5072469582
 30
0.0
 11
347.8306377015
 21
372.9654125452
 31
0.0
  0
LINE
  5
1D7
330
1F
100
AcDbEntity
  8
0
  6
SLD-Durchgehend
 62
     7
370
    25
100
AcDbLine
 10
456.5306377015
 20
384.6791478078
 30
0.0
 11
456.5306377015
 21
385.1935116956
 31
0.0
  0
LINE
  5
1D8
330
1F
100
AcDbEntity
  8
0
  6
SLD-Durchgehend
 62
     7
370
    25
100
AcDbLine
 10
456.5306377015
 20
381.4791478078
 30
0.0
 11
456.5306377015
 21
381.9935116956
 31
0.0
  0
ARC
  5
1D9
330
1F
100
AcDbEntity
  8
0
  6
SLD-Durchgehend
 62
     7
370
    25
100
AcDbCircle
 10
347.5806377015
 20
379.3654125452
 30
0.0
 40
0.25
100
AcDbArc
 50
275.0
 51
0.0
  0
LINE
  5
1DA
330
1F
100
AcDbEntity
  8
0
  6
SLD-Durchgehend
 62
     7
370
    25
100
AcDbLine
 10
456.5306377015
 20
378.2791478078
 30
0.0
 11
456.5306377015
 21
378.7935116956
 31
0.0
  0
LINE
  5
1DB
330
1F
100
AcDbEntity
  8
0
  6
SLD-Durchgehend
 62
     7
370
    25
100
AcDbLine
 10
456.5306377015
 20
375.0791478078
 30
0.0
 11
456.5306377015
 21
375.5935116956
 31
0.0
  0
LINE
  5
1DC
330
1F
100
AcDbEntity
  8
0
  6
SLD-Durchgehend
 62
     7
370
    25
100
AcDbLine
 10
347.8306377015
 20
393.7072469582
 30
0.0
 11
347.8306377015
 21
392.1654125452
 31
0.0
  0
LINE
  5
1DD
330
1F
100
AcDbEntity
  8
0
  6
SLD-Durchgehend
 62
     7
370
    25
100
AcDbLine
 10
346.7588487658
 20
381.2300991333
 30
0.0
 11
347.6024266372
 21
381.1562956327
 31
0.0
  0
LINE
  5
1DE
330
1F
100
AcDbEntity
  8
0
  6
SLD-Durchgehend
 62
     7
370
    25
100
AcDbLine
 10
347.8306377015
 20
380.9072469582
 30
0.0
 11
347.8306377015
 21
379.3654125452
 31
0.0
  0
LINE
  5
1DF
330
1F
100
AcDbEntity
  8
0
  6
SLD-Durchgehend
 62
     7
370
    25
100
AcDbLine
 10
347.6024266372
 20
379.1163638707
 30
0.0
 11
346.7588487658
 21
379.0425603702
 31
0.0
  0
LINE
  5
1E0
330
1F
100
AcDbEntity
  8
0
  6
SLD-Durchgehend
 62
     7
370
    25
100
AcDbLine
 10
346.7588487658
 20
390.8300991333
 30
0.0
 11
347.6024266372
 21
390.7562956327
 31
0.0
  0
LINE
  5
1E1
330
1F
100
AcDbEntity
  8
0
  6
SLD-Durchgehend
 62
     7
370
    25
100
AcDbLine
 10
346.7588487658
 20
378.0300991333
 30
0.0
 11
347.6024266372
 21
377.9562956327
 31
0.0
  0
ARC
  5
1E2
330
1F
100
AcDbEntity
  8
0
  6
SLD-Durchgehend
 62
     7
370
    25
100
AcDbCircle
 10
456.2806377015
 20
384.6791478078
 30
0.0
 40
0.2500000000000683
100
AcDbArc
 50
275.0
 51
0.0
  0
ARC
  5
1E3
330
1F
100
AcDbEntity
  8
0
  6
SLD-Durchgehend
 62
     7
370
    25
100
AcDbCircle
 10
347.5806377015
 20
380.9072469582
 30
0.0
 40
0.2500000000000683
100
AcDbArc
 50
0.0
 51
85.0
  0
LINE
  5
1E4
330
1F
100
AcDbEntity
  8
0
  6
SLD-Durchgehend
 62
     7
370
    25
100
AcDbLine
 10
456.5306377015
 20
391.0791478078
 30
0.0
 11
456.5306377015
 21
391.5935116956
 31
0.0
  0
ARC
  5
1E5
330
1F
100
AcDbEntity
  8
0
  6
SLD-Durchgehend
 62
     7
370
    25
100
AcDbCircle
 10
456.2806377015
 20
371.7863297517
 30
0.0
 40
0.2500000000000568
100
AcDbArc
 50
270.0
 51
0.0
  0
LINE
  5
1E6
330
1F
100
AcDbEntity
  8
0
  6
SLD-Durchgehend
 62
     7
370
    25
100
AcDbLine
 10
347.6024266372
 20
372.7163638707
 30
0.0
 11
346.7588487658
 21
372.6425603702
 31
0.0
  0
LINE
  5
1E7
330
1F
100
AcDbEntity
  8
0
  6
SLD-Durchgehend
 62
     7
370
    25
100
AcDbLine
 10
455.4588487658
 20
374.7562956327
 30
0.0
 11
456.3024266372
 21
374.8300991333
 31
0.0
  0
LINE
  5
1E8
330
1F
100
AcDbEntity
  8
0
  6
SLD-Durchgehend
 62
     7
370
    25
100
AcDbLine
 10
455.2306377015
 20
372.9654125452
 30
0.0
 11
455.2306377015
 21
374.5072469582
 31
0.0
  0
LINE
  5
1E9
330
1F
100
AcDbEntity
  8
0
  6
SLD-Durchgehend
 62
     7
370
    25
100
AcDbLine
 10
455.4588487658
 20
377.9562956327
 30
0.0
 11
456.3024266372
 21
378.0300991333
 31
0.0
  0
LINE
  5
1EA
330
1F
100
AcDbEntity
  8
0
  6
SLD-Durchgehend
 62
     7
370
    25
100
AcDbLine
 10
455.2306377015
 20
376.1654125452
 30
0.0
 11
455.2306377015
 21
377.7072469582
 31
0.0
  0
LINE
  5
1EB
330
1F
100
AcDbEntity
  8
0
  6
SLD-Durchgehend
 62
     7
370
    25
100
AcDbLine
 10
456.3024266372
 20
379.0425603702
 30
0.0
 11
455.4588487658
 21
379.1163638707
 31
0.0
  0
LINE
  5
1EC
330
1F
100
AcDbEntity
  8
0
  6
SLD-Durchgehend
 62
     7
370
    25
100
AcDbLine
 10
455.4588487658
 20
384.3562956327
 30
0.0
 11
456.3024266372
 21
384.4300991333
 31
0.0
  0
ARC
  5
1ED
330
1F
100
AcDbEntity
  8
0
  6
SLD-Durchgehend
 62
     7
370
    25
100
AcDbCircle
 10
347.5806377015
 20
384.1072469582
 30
0.0
 40
0.2500000000000117
100
AcDbArc
 50
0.0
 51
85.0
  0
LINE
  5
1EE
330
1F
100
AcDbEntity
  8
0
  6
SLD-Durchgehend
 62
     7
370
    25
100
AcDbLine
 10
456.3024266372
 20
382.2425603702
 30
0.0
 11
455.4588487658
 21
382.3163638707
 31
0.0
  0
LINE
  5
1EF
330
1F
100
AcDbEntity
  8
0
  6
SLD-Durchgehend
 62
     7
370
    25
100
AcDbLine
 10
455.4588487658
 20
387.5562956327
 30
0.0
 11
456.3024266372
 21
387.6300991333
 31
0.0
  0
LINE
  5
1F0
330
1F
100
AcDbEntity
  8
0
  6
SLD-Durchgehend
 62
     7
370
    25
100
AcDbLine
 10
455.2306377015
 20
385.7654125452
 30
0.0
 11
455.2306377015
 21
387.3072469582
 31
0.0
  0
ARC
  5
1F1
330
1F
100
AcDbEntity
  8
0
  6
SLD-Durchgehend
 62
     7
370
    25
100
AcDbCircle
 10
346.7806377015
 20
375.0791478078
 30
0.0
 40
0.2500000000000568
100
AcDbArc
 50
180.0
 51
265.0
  0
ARC
  5
1F2
330
1F
100
AcDbEntity
  8
0
  6
SLD-Durchgehend
 62
     7
370
    25
100
AcDbCircle
 10
347.5806377015
 20
398.5654125452
 30
0.0
 40
0.25
100
AcDbArc
 50
275.0
 51
0.0
  0
LINE
  5
1F3
330
1F
100
AcDbEntity
  8
0
  6
SLD-Durchgehend
 62
     7
370
    25
100
AcDbLine
 10
455.2306377015
 20
388.9654125452
 30
0.0
 11
455.2306377015
 21
390.5072469582
 31
0.0
  0
ARC
  5
1F4
330
1F
100
AcDbEntity
  8
0
  6
SLD-Durchgehend
 62
     7
370
    25
100
AcDbCircle
 10
456.2806377015
 20
391.5935116956
 30
0.0
 40
0.2499999999999502
100
AcDbArc
 50
0.0
 51
85.0
  0
LINE
  5
1F5
330
1F
100
AcDbEntity
  8
0
  6
SLD-Durchgehend
 62
     7
370
    25
100
AcDbLine
 10
455.4588487658
 20
393.9562956327
 30
0.0
 11
456.3024266372
 21
394.0300991333
 31
0.0
  0
LINE
  5
1F6
330
1F
100
AcDbEntity
  8
0
  6
SLD-Durchgehend
 62
     7
370
    25
100
AcDbLine
 10
346.7588487658
 20
400.4300991333
 30
0.0
 11
347.6024266372
 21
400.3562956327
 31
0.0
  0
LINE
  5
1F7
330
1F
100
AcDbEntity
  8
0
  6
SLD-Durchgehend
 62
     7
370
    25
100
AcDbLine
 10
456.3024266372
 20
391.8425603702
 30
0.0
 11
455.4588487658
 21
391.9163638707
 31
0.0
  0
LINE
  5
1F8
330
1F
100
AcDbEntity
  8
0
  6
SLD-Durchgehend
 62
     7
370
    25
100
AcDbLine
 10
455.4588487658
 20
397.1562956327
 30
0.0
 11
456.3024266372
 21
397.2300991333
 31
0.0
  0
LINE
  5
1F9
330
1F
100
AcDbEntity
  8
0
  6
SLD-Durchgehend
 62
     7
370
    25
100
AcDbLine
 10
455.2306377015
 20
395.3654125452
 30
0.0
 11
455.2306377015
 21
396.9072469582
 31
0.0
  0
LINE
  5
1FA
330
1F
100
AcDbEntity
  8
0
  6
SLD-Durchgehend
 62
     7
370
    25
100
AcDbLine
 10
456.3024266372
 20
395.0425603702
 30
0.0
 11
455.4588487658
 21
395.1163638707
 31
0.0
  0
LINE
  5
1FB
330
1F
100
AcDbEntity
  8
0
  6
SLD-Durchgehend
 62
     7
370
    25
100
AcDbLine
 10
455.4588487658
 20
400.3562956327
 30
0.0
 11
456.3024266372
 21
400.4300991333
 31
0.0
  0
LINE
  5
1FC
330
1F
100
AcDbEntity
  8
0
  6
SLD-Durchgehend
 62
     7
370
    25
100
AcDbLine
 10
346.7588487658
 20
387.6300991333
 30
0.0
 11
347.6024266372
 21
387.5562956327
 31
0.0
  0
LINE
  5
1FD
330
1F
100
AcDbEntity
  8
0
  6
SLD-Durchgehend
 62
     7
370
    25
100
AcDbLine
 10
347.8306377015
 20
387.3072469582
 30
0.0
 11
347.8306377015
 21
385.7654125452
 31
0.0
  0
LINE
  5
1FE
330
1F
100
AcDbEntity
  8
0
  6
SLD-Durchgehend
 62
     7
370
    25
100
AcDbLine
 10
347.6024266372
 20
385.5163638707
 30
0.0
 11
346.7588487658
 21
385.4425603702
 31
0.0
  0
ARC
  5
1FF
330
1F
100
AcDbEntity
  8
0
  6
SLD-Durchgehend
 62
     7
370
    25
100
AcDbCircle
 10
456.2806377015
 20
400.6791478078
 30
0.0
 40
0.2500000000000117
100
AcDbArc
 50
275.0
 51
360.0
  0
ARC
  5
200
330
1F
100
AcDbEntity
  8
0
  6
SLD-Durchgehend
 62
     7
370
    25
100
AcDbCircle
 10
455.4806377015
 20
374.5072469582
 30
0.0
 40
0.2500000000000238
100
AcDbArc
 50
94.9999999999
 51
180.0
  0
ARC
  5
201
330
1F
100
AcDbEntity
  8
0
  6
SLD-Durchgehend
 62
     7
370
    25
100
AcDbCircle
 10
455.4806377015
 20
372.9654125452
 30
0.0
 40
0.25
100
AcDbArc
 50
180.0
 51
265.0
  0
ARC
  5
202
330
1F
100
AcDbEntity
  8
0
  6
SLD-Durchgehend
 62
     7
370
    25
100
AcDbCircle
 10
455.4806377015
 20
377.7072469582
 30
0.0
 40
0.25
100
AcDbArc
 50
95.0000000003
 51
180.0
  0
ARC
  5
203
330
1F
100
AcDbEntity
  8
0
  6
SLD-Durchgehend
 62
     7
370
    25
100
AcDbCircle
 10
455.4806377015
 20
376.1654125452
 30
0.0
 40
0.25
100
AcDbArc
 50
180.0
 51
265.0
  0
ARC
  5
204
330
1F
100
AcDbEntity
  8
0
  6
SLD-Durchgehend
 62
     7
370
    25
100
AcDbCircle
 10
455.4806377015
 20
380.9072469582
 30
0.0
 40
0.25
100
AcDbArc
 50
95.0000000002
 51
180.0
  0
ARC
  5
205
330
1F
100
AcDbEntity
  8
0
  6
SLD-Durchgehend
 62
     7
370
    25
100
AcDbCircle
 10
455.4806377015
 20
379.3654125452
 30
0.0
 40
0.25
100
AcDbArc
 50
180.0
 51
265.0
  0
ARC
  5
206
330
1F
100
AcDbEntity
  8
0
  6
SLD-Durchgehend
 62
     7
370
    25
100
AcDbCircle
 10
455.4806377015
 20
384.1072469582
 30
0.0
 40
0.25
100
AcDbArc
 50
95.0000000001
 51
180.0
  0
ARC
  5
207
330
1F
100
AcDbEntity
  8
0
  6
SLD-Durchgehend
 62
     7
370
    25
100
AcDbCircle
 10
455.4806377015
 20
382.5654125452
 30
0.0
 40
0.25
100
AcDbArc
 50
180.0
 51
265.0
  0
ARC
  5
208
330
1F
100
AcDbEntity
  8
0
  6
SLD-Durchgehend
 62
     7
370
    25
100
AcDbCircle
 10
455.4806377015
 20
387.3072469582
 30
0.0
 40
0.2500000000000018
100
AcDbArc
 50
95.0
 51
180.0
  0
ARC
  5
209
330
1F
100
AcDbEntity
  8
0
  6
SLD-Durchgehend
 62
     7
370
    25
100
AcDbCircle
 10
455.4806377015
 20
385.7654125452
 30
0.0
 40
0.25
100
AcDbArc
 50
180.0
 51
265.0
  0
ARC
  5
20A
330
1F
100
AcDbEntity
  8
0
  6
SLD-Durchgehend
 62
     7
370
    25
100
AcDbCircle
 10
455.4806377015
 20
390.5072469582
 30
0.0
 40
0.2500000000000138
100
AcDbArc
 50
94.9999999998
 51
180.0
  0
ARC
  5
20B
330
1F
100
AcDbEntity
  8
0
  6
SLD-Durchgehend
 62
     7
370
    25
100
AcDbCircle
 10
455.4806377015
 20
388.9654125452
 30
0.0
 40
0.2500000000000216
100
AcDbArc
 50
180.0
 51
265.0
  0
ARC
  5
20C
330
1F
100
AcDbEntity
  8
0
  6
SLD-Durchgehend
 62
     7
370
    25
100
AcDbCircle
 10
455.4806377015
 20
396.9072469582
 30
0.0
 40
0.2500000000000216
100
AcDbArc
 50
95.0
 51
180.0
  0
ARC
  5
20D
330
1F
100
AcDbEntity
  8
0
  6
SLD-Durchgehend
 62
     7
370
    25
100
AcDbCircle
 10
455.4806377015
 20
395.3654125452
 30
0.0
 40
0.2500000000000974
100
AcDbArc
 50
180.0
 51
265.0000000002
  0
ARC
  5
20E
330
1F
100
AcDbEntity
  8
0
  6
SLD-Durchgehend
 62
     7
370
    25
100
AcDbCircle
 10
455.4806377015
 20
400.1072469582
 30
0.0
 40
0.25
100
AcDbArc
 50
95.0
 51
180.0
  0
ARC
  5
20F
330
1F
100
AcDbEntity
  8
0
  6
SLD-Durchgehend
 62
     7
370
    25
100
AcDbCircle
 10
455.4806377015
 20
398.5654125452
 30
0.0
 40
0.2500000000000238
100
AcDbArc
 50
180.0
 51
265.0000000001
  0
ARC
  5
210
330
1F
100
AcDbEntity
  8
0
  6
SLD-Durchgehend
 62
     7
370
    25
100
AcDbCircle
 10
456.2806377015
 20
397.4791478078
 30
0.0
 40
0.2499999999999601
100
AcDbArc
 50
275.0
 51
0.0
  0
ARC
  5
211
330
1F
100
AcDbEntity
  8
0
  6
SLD-Durchgehend
 62
     7
370
    25
100
AcDbCircle
 10
346.7806377015
 20
394.7935116956
 30
0.0
 40
0.2500000000000568
100
AcDbArc
 50
95.0
 51
180.0
  0
LINE
  5
212
330
1F
100
AcDbEntity
  8
0
  6
SLD-Durchgehend
 62
     7
370
    25
100
AcDbLine
 10
456.3024266372
 20
385.4425603702
 30
0.0
 11
455.4588487658
 21
385.5163638707
 31
0.0
  0
ARC
  5
213
330
1F
100
AcDbEntity
  8
0
  6
SLD-Durchgehend
 62
     7
370
    25
100
AcDbCircle
 10
456.2806377015
 20
394.7935116956
 30
0.0
 40
0.2500000000000068
100
AcDbArc
 50
0.0
 51
85.0
  0
ARC
  5
214
330
1F
100
AcDbEntity
  8
0
  6
SLD-Durchgehend
 62
     7
370
    25
100
AcDbCircle
 10
456.2806377015
 20
391.0791478078
 30
0.0
 40
0.2499999999999601
100
AcDbArc
 50
275.0
 51
0.0
  0
ARC
  5
215
330
1F
100
AcDbEntity
  8
0
  6
SLD-Durchgehend
 62
     7
370
    25
100
AcDbCircle
 10
347.5806377015
 20
388.9654125452
 30
0.0
 40
0.2500000000000167
100
AcDbArc
 50
275.0
 51
0.0
  0
ARC
  5
216
330
1F
100
AcDbEntity
  8
0
  6
SLD-Durchgehend
 62
     7
370
    25
100
AcDbCircle
 10
346.7806377015
 20
387.8791478078
 30
0.0
 40
0.2500000000000568
100
AcDbArc
 50
180.0
 51
265.0
  0
ARC
  5
217
330
1F
100
AcDbEntity
  8
0
  6
SLD-Durchgehend
 62
     7
370
    25
100
AcDbCircle
 10
347.5806377015
 20
393.7072469582
 30
0.0
 40
0.2499999999999551
100
AcDbArc
 50
0.0
 51
85.0
  0
ARC
  5
218
330
1F
100
AcDbEntity
  8
0
  6
SLD-Durchgehend
 62
     7
370
    25
100
AcDbCircle
 10
347.5806377015
 20
376.1654125452
 30
0.0
 40
0.25
100
AcDbArc
 50
275.0
 51
0.0
  0
ARC
  5
219
330
1F
100
AcDbEntity
  8
0
  6
SLD-Durchgehend
 62
     7
370
    25
100
AcDbCircle
 10
456.2806377015
 20
388.3935116956
 30
0.0
 40
0.2500000000000683
100
AcDbArc
 50
0.0
 51
85.0
  0
LINE
  5
21A
330
1F
100
AcDbEntity
  8
0
  6
SLD-Durchgehend
 62
     7
370
    25
100
AcDbLine
 10
456.5306377015
 20
400.6791478078
 30
0.0
 11
456.5306377015
 21
402.4863297517
 31
0.0
  0
ARC
  5
21B
330
1F
100
AcDbEntity
  8
0
  6
SLD-Durchgehend
 62
     7
370
    25
100
AcDbCircle
 10
346.7806377015
 20
381.9935116956
 30
0.0
 40
0.2500000000000568
100
AcDbArc
 50
95.0
 51
180.0
  0
ARC
  5
21C
330
1F
100
AcDbEntity
  8
0
  6
SLD-Durchgehend
 62
     7
370
    25
100
AcDbCircle
 10
456.2806377015
 20
375.0791478078
 30
0.0
 40
0.2500000000000117
100
AcDbArc
 50
275.0
 51
0.0
  0
ARC
  5
21D
330
1F
100
AcDbEntity
  8
0
  6
SLD-Durchgehend
 62
     7
370
    25
100
AcDbCircle
 10
456.2806377015
 20
375.5935116956
 30
0.0
 40
0.2499999999999601
100
AcDbArc
 50
0.0
 51
85.0
  0
LINE
  5
21E
330
1F
100
AcDbEntity
  8
0
  6
SLD-Durchgehend
 62
     7
370
    25
100
AcDbLine
 10
346.7588487658
 20
374.8300991333
 30
0.0
 11
347.6024266372
 21
374.7562956327
 31
0.0
  0
ARC
  5
21F
330
1F
100
AcDbEntity
  8
0
  6
SLD-Durchgehend
 62
     7
370
    25
100
AcDbCircle
 10
346.7806377015
 20
378.2791478078
 30
0.0
 40
0.2500000000000568
100
AcDbArc
 50
180.0
 51
265.0
  0
ARC
  5
220
330
1F
100
AcDbEntity
  8
0
  6
SLD-Durchgehend
 62
     7
370
    25
100
AcDbCircle
 10
346.7806377015
 20
384.6791478078
 30
0.0
 40
0.2500000000000783
100
AcDbArc
 50
180.0
 51
265.0
  0
ARC
  5
221
330
1F
100
AcDbEntity
  8
0
  6
SLD-Durchgehend
 62
     7
370
    25
100
AcDbCircle
 10
347.5806377015
 20
385.7654125452
 30
0.0
 40
0.25
100
AcDbArc
 50
275.0
 51
0.0
  0
LINE
  5
222
330
1F
100
AcDbEntity
  8
0
  6
SLD-Durchgehend
 62
     7
370
    25
100
AcDbLine
 10
456.3024266372
 20
372.6425603702
 30
0.0
 11
455.4588487658
 21
372.7163638707
 31
0.0
  0
LINE
  5
223
330
1F
100
AcDbEntity
  8
0
  6
SLD-Durchgehend
 62
     7
370
    25
100
AcDbLine
 10
347.8306377015
 20
384.1072469582
 30
0.0
 11
347.8306377015
 21
382.5654125452
 31
0.0
  0
LINE
  5
224
330
1F
100
AcDbEntity
  8
0
  6
SLD-Durchgehend
 62
     7
370
    25
100
AcDbLine
 10
347.6024266372
 20
382.3163638707
 30
0.0
 11
346.7588487658
 21
382.2425603702
 31
0.0
  0
LINE
  5
225
330
1F
100
AcDbEntity
  8
0
  6
SLD-Durchgehend
 62
     7
370
    25
100
AcDbLine
 10
456.3024266372
 20
375.8425603702
 30
0.0
 11
455.4588487658
 21
375.9163638707
 31
0.0
  0
ARC
  5
226
330
1F
100
AcDbEntity
  8
0
  6
SLD-Durchgehend
 62
     7
370
    25
100
AcDbCircle
 10
346.7806377015
 20
378.7935116956
 30
0.0
 40
0.2500000000000568
100
AcDbArc
 50
95.0
 51
180.0
  0
LINE
  5
227
330
1F
100
AcDbEntity
  8
0
  6
SLD-Durchgehend
 62
     7
370
    25
100
AcDbLine
 10
455.2306377015
 20
379.3654125452
 30
0.0
 11
455.2306377015
 21
380.9072469582
 31
0.0
  0
ARC
  5
228
330
1F
100
AcDbEntity
  8
0
  6
SLD-Durchgehend
 62
     7
370
    25
100
AcDbCircle
 10
346.7806377015
 20
385.1935116956
 30
0.0
 40
0.2500000000000568
100
AcDbArc
 50
95.0
 51
180.0
  0
ARC
  5
229
330
1F
100
AcDbEntity
  8
0
  6
SLD-Durchgehend
 62
     7
370
    25
100
AcDbCircle
 10
347.5806377015
 20
390.5072469582
 30
0.0
 40
0.2499999999999551
100
AcDbArc
 50
0.0
 51
85.0
  0
ARC
  5
22A
330
1F
100
AcDbEntity
  8
0
  6
SLD-Durchgehend
 62
     7
370
    25
100
AcDbCircle
 10
347.5806377015
 20
392.1654125452
 30
0.0
 40
0.2500000000000167
100
AcDbArc
 50
275.0
 51
0.0
  0
LINE
  5
22B
330
1F
100
AcDbEntity
  8
0
  6
SLD-Durchgehend
 62
     7
370
    25
100
AcDbLine
 10
347.6024266372
 20
395.1163638707
 30
0.0
 11
346.7588487658
 21
395.0425603702
 31
0.0
  0
LINE
  5
22C
330
1F
100
AcDbEntity
  8
0
  6
SLD-Durchgehend
 62
     7
370
    25
100
AcDbLine
 10
348.4306377015
 20
402.7363297517
 30
0.0
 11
348.4306377015
 21
371.5363297517
 31
0.0
  0
LINE
  5
22D
330
1F
100
AcDbEntity
  8
0
  6
SLD-Durchgehend
 62
     7
370
    25
100
AcDbLine
 10
348.4306377015
 20
371.5363297517
 30
0.0
 11
350.2911380602
 21
371.5363297517
 31
0.0
  0
ARC
  5
22E
330
1F
100
AcDbEntity
  8
0
  6
SLD-Durchgehend
 62
     7
370
    25
100
AcDbCircle
 10
346.7806377015
 20
381.4791478078
 30
0.0
 40
0.2500000000000568
100
AcDbArc
 50
180.0
 51
265.0
  0
LINE
  5
22F
330
1F
100
AcDbEntity
  8
0
  6
SLD-Durchgehend
 62
     7
370
    25
100
AcDbLine
 10
455.2306377015
 20
398.5654125452
 30
0.0
 11
455.2306377015
 21
400.1072469582
 31
0.0
  0
ARC
  5
230
330
1F
100
AcDbEntity
  8
0
  6
SLD-Durchgehend
 62
     7
370
    25
100
AcDbCircle
 10
346.7806377015
 20
388.3935116956
 30
0.0
 40
0.2500000000000783
100
AcDbArc
 50
95.0
 51
180.0
  0
LINE
  5
231
330
1F
100
AcDbEntity
  8
0
  6
SLD-Durchgehend
 62
     7
370
    25
100
AcDbLine
 10
346.7588487658
 20
384.4300991333
 30
0.0
 11
347.6024266372
 21
384.3562956327
 31
0.0
  0
ARC
  5
232
330
1F
100
AcDbEntity
  8
0
  6
SLD-Durchgehend
 62
     7
370
    25
100
AcDbCircle
 10
456.2806377015
 20
387.8791478078
 30
0.0
 40
0.2499999999999551
100
AcDbArc
 50
275.0
 51
0.0
  0
LINE
  5
233
330
1F
100
AcDbEntity
  8
0
  6
SLD-Durchgehend
 62
     7
370
    25
100
AcDbLine
 10
347.8306377015
 20
377.7072469582
 30
0.0
 11
347.8306377015
 21
376.1654125452
 31
0.0
  0
ARC
  5
234
330
1F
100
AcDbEntity
  8
0
  6
SLD-Durchgehend
 62
     7
370
    25
100
AcDbCircle
 10
346.7806377015
 20
397.4791478078
 30
0.0
 40
0.2500000000000568
100
AcDbArc
 50
180.0
 51
265.0
  0
ARC
  5
235
330
1F
100
AcDbEntity
  8
0
  6
SLD-Durchgehend
 62
     7
370
    25
100
AcDbCircle
 10
347.5806377015
 20
395.3654125452
 30
0.0
 40
0.2500000000000167
100
AcDbArc
 50
275.0
 51
0.0
  0
ARC
  5
236
330
1F
100
AcDbEntity
  8
0
  6
SLD-Durchgehend
 62
     7
370
    25
100
AcDbCircle
 10
347.5806377015
 20
396.9072469582
 30
0.0
 40
0.2500000000000117
100
AcDbArc
 50
0.0
 51
85.0
  0
ARC
  5
237
330
1F
100
AcDbEntity
  8
0
  6
SLD-Durchgehend
 62
     7
370
    25
100
AcDbCircle
 10
347.5806377015
 20
387.3072469582
 30
0.0
 40
0.2500000000000117
100
AcDbArc
 50
0.0
 51
85.0
  0
LINE
  5
238
330
1F
100
AcDbEntity
  8
0
  6
SLD-Durchgehend
 62
     7
370
    25
100
AcDbLine
 10
346.4306377015
 20
405.0363297517
 30
0.0
 11
348.4306377015
 21
404.5004313669
 31
0.0
  0
LINE
  5
239
330
1F
100
AcDbEntity
  8
0
  6
SLD-Durchgehend
 62
     7
370
    25
100
AcDbLine
 10
454.6306377015
 20
404.5004313669
 30
0.0
 11
456.6306377015
 21
405.0363297517
 31
0.0
  0
LINE
  5
23A
330
1F
100
AcDbEntity
  8
0
  6
SLD-Durchgehend
 62
     7
370
    25
100
AcDbLine
 10
346.7588487658
 20
397.2300991333
 30
0.0
 11
347.6024266372
 21
397.1562956327
 31
0.0
  0
LINE
  5
23B
330
1F
100
AcDbEntity
  8
0
  6
SLD-Durchgehend
 62
     7
370
    25
100
AcDbLine
 10
347.8306377015
 20
396.9072469582
 30
0.0
 11
347.8306377015
 21
395.3654125452
 31
0.0
  0
LINE
  5
23C
330
1F
100
AcDbEntity
  8
0
  6
SLD-Durchgehend
 62
     7
370
    25
100
AcDbLine
 10
456.5306377015
 20
371.7863297517
 30
0.0
 11
456.5306377015
 21
372.3935116956
 31
0.0
  0
LINE
  5
23D
330
1F
100
AcDbEntity
  8
0
  6
SLD-Durchgehend
 62
     7
370
    25
100
AcDbLine
 10
455.2306377015
 20
382.5654125452
 30
0.0
 11
455.2306377015
 21
384.1072469582
 31
0.0
  0
LINE
  5
23E
330
1F
100
AcDbEntity
  8
0
  6
SLD-Durchgehend
 62
     7
370
    25
100
AcDbLine
 10
455.4588487658
 20
381.1562956327
 30
0.0
 11
456.3024266372
 21
381.2300991333
 31
0.0
  0
ARC
  5
23F
330
1F
100
AcDbEntity
  8
0
  6
SLD-Durchgehend
 62
     7
370
    25
100
AcDbCircle
 10
456.2806377015
 20
372.3935116956
 30
0.0
 40
0.2499999999999551
100
AcDbArc
 50
0.0
 51
85.0
  0
ARC
  5
240
330
1F
100
AcDbEntity
  8
0
  6
SLD-Durchgehend
 62
     7
370
    25
100
AcDbCircle
 10
456.7806377015
 20
402.4863297517
 30
0.0
 40
0.2500000000000568
100
AcDbArc
 50
90.0
 51
180.0
  0
LINE
  5
241
330
1F
100
AcDbEntity
  8
0
  6
SLD-Durchgehend
 62
     7
370
    25
100
AcDbLine
 10
456.3024266372
 20
398.2425603702
 30
0.0
 11
455.4588487658
 21
398.3163638707
 31
0.0
  0
LINE
  5
242
330
1F
100
AcDbEntity
  8
0
  6
SLD-Durchgehend
 62
     7
370
    25
100
AcDbLine
 10
455.4588487658
 20
390.7562956327
 30
0.0
 11
456.3024266372
 21
390.8300991333
 31
0.0
  0
LINE
  5
243
330
1F
100
AcDbEntity
  8
0
  6
SLD-Durchgehend
 62
     7
370
    25
100
AcDbLine
 10
456.6306377015
 20
405.0363297517
 30
0.0
 11
457.5306377015
 21
405.0363297517
 31
0.0
  0
ARC
  5
244
330
1F
100
AcDbEntity
  8
0
  6
SLD-Durchgehend
 62
     7
370
    25
100
AcDbCircle
 10
461.5306377015
 20
403.2363297517
 30
0.0
 40
0.5
100
AcDbArc
 50
270.0
 51
0.0
  0
LINE
  5
245
330
1F
100
AcDbEntity
  8
0
  6
SLD-Durchgehend
 62
     7
370
    25
100
AcDbLine
 10
462.0306377015
 20
403.2363297517
 30
0.0
 11
462.0306377015
 21
408.5363297517
 31
0.0
  0
LINE
  5
246
330
1F
100
AcDbEntity
  8
0
  6
SLD-Durchgehend
 62
     7
370
    25
100
AcDbLine
 10
461.5306377015
 20
402.7363297517
 30
0.0
 11
456.7806377015
 21
402.7363297517
 31
0.0
  0
LINE
  5
247
330
1F
100
AcDbEntity
  8
0
  6
SLD-Durchgehend
 62
     7
370
    25
100
AcDbLine
 10
456.2806377015
 20
371.5363297517
 30
0.0
 11
454.6306377015
 21
371.5363297517
 31
0.0
  0
ARC
  5
248
330
1F
100
AcDbEntity
  8
0
  6
SLD-Durchgehend
 62
     7
370
    25
100
AcDbCircle
 10
347.5806377015
 20
400.1072469582
 30
0.0
 40
0.2499999999999551
100
AcDbArc
 50
0.0
 51
85.0
  0
ARC
  5
249
330
1F
100
AcDbEntity
  8
0
  6
SLD-Durchgehend
 62
     7
370
    25
100
AcDbCircle
 10
346.7806377015
 20
375.5935116956
 30
0.0
 40
0.2500000000000568
100
AcDbArc
 50
95.0
 51
180.0
  0
ARC
  5
24A
330
1F
100
AcDbEntity
  8
0
  6
SLD-Durchgehend
 62
     7
370
    25
100
AcDbCircle
 10
346.7806377015
 20
372.3935116956
 30
0.0
 40
0.2500000000000568
100
AcDbArc
 50
95.0
 51
180.0
  0
ARC
  5
24B
330
1F
100
AcDbEntity
  8
0
  6
SLD-Durchgehend
 62
     7
370
    25
100
AcDbCircle
 10
347.5806377015
 20
372.9654125452
 30
0.0
 40
0.25
100
AcDbArc
 50
275.0
 51
0.0
  0
ARC
  5
24C
330
1F
100
AcDbEntity
  8
0
  6
SLD-Durchgehend
 62
     7
370
    25
100
AcDbCircle
 10
347.5806377015
 20
377.7072469582
 30
0.0
 40
0.2500000000000117
100
AcDbArc
 50
0.0
 51
85.0
  0
ARC
  5
24D
330
1F
100
AcDbEntity
  8
0
  6
SLD-Durchgehend
 62
     7
370
    25
100
AcDbCircle
 10
346.7806377015
 20
391.0791478078
 30
0.0
 40
0.2500000000000568
100
AcDbArc
 50
180.0
 51
265.0
  0
ARC
  5
24E
330
1F
100
AcDbEntity
  8
0
  6
SLD-Durchgehend
 62
     7
370
    25
100
AcDbCircle
 10
346.7806377015
 20
391.5935116956
 30
0.0
 40
0.2500000000000568
100
AcDbArc
 50
95.0
 51
180.0
  0
ARC
  5
24F
330
1F
100
AcDbEntity
  8
0
  6
SLD-Durchgehend
 62
     7
370
    25
100
AcDbCircle
 10
346.7806377015
 20
394.2791478078
 30
0.0
 40
0.2500000000000568
100
AcDbArc
 50
180.0
 51
265.0
  0
ARC
  5
250
330
1F
100
AcDbEntity
  8
0
  6
SLD-Durchgehend
 62
     7
370
    25
100
AcDbCircle
 10
346.7806377015
 20
397.9935116956
 30
0.0
 40
0.2500000000000568
100
AcDbArc
 50
95.0
 51
180.0
  0
LINE
  5
251
330
1F
100
AcDbEntity
  8
0
  6
SLD-Durchgehend
 62
     7
370
    25
100
AcDbLine
 10
347.6024266372
 20
398.3163638707
 30
0.0
 11
346.7588487658
 21
398.2425603702
 31
0.0
  0
LINE
  5
252
330
1F
100
AcDbEntity
  8
0
  6
SLD-Durchgehend
 62
     7
370
    25
100
AcDbLine
 10
347.8306377015
 20
400.1072469582
 30
0.0
 11
347.8306377015
 21
398.5654125452
 31
0.0
  0
ARC
  5
253
330
1F
100
AcDbEntity
  8
0
  6
SLD-Durchgehend
 62
     7
370
    25
100
AcDbCircle
 10
346.7806377015
 20
400.6791478078
 30
0.0
 40
0.2500000000000568
100
AcDbArc
 50
180.0
 51
265.0
  0
ARC
  5
254
330
1F
100
AcDbEntity
  8
0
  6
SLD-Durchgehend
 62
     7
370
    25
100
AcDbCircle
 10
347.5806377015
 20
374.5072469582
 30
0.0
 40
0.2499999999999551
100
AcDbArc
 50
0.0
 51
85.0
  0
ARC
  5
255
330
1F
100
AcDbEntity
  8
0
  6
SLD-Durchgehend
 62
     7
370
    25
100
AcDbCircle
 10
341.5306377015
 20
403.2363297517
 30
0.0
 40
0.5
100
AcDbArc
 50
180.0
 51
270.0
  0
LINE
  5
256
330
1F
100
AcDbEntity
  8
0
  6
SLD-Durchgehend
 62
     7
370
    25
100
AcDbLine
 10
345.5306377015
 20
405.0363297517
 30
0.0
 11
346.4306377015
 21
405.0363297517
 31
0.0
  0
LINE
  5
257
330
1F
100
AcDbEntity
  8
0
  6
SLD-Durchgehend
 62
     7
370
    25
100
AcDbLine
 10
341.0306377015
 20
408.5363297517
 30
0.0
 11
341.0306377015
 21
403.2363297517
 31
0.0
  0
LINE
  5
258
330
1F
100
AcDbEntity
  8
0
  6
SLD-Durchgehend
 62
     7
370
    25
100
AcDbLine
 10
346.2806377015
 20
402.7363297517
 30
0.0
 11
341.5306377015
 21
402.7363297517
 31
0.0
  0
LINE
  5
259
330
1F
100
AcDbEntity
  8
0
  6
SLD-Durchgehend
 62
     7
370
    25
100
AcDbLine
 10
348.4306377015
 20
371.5363297517
 30
0.0
 11
346.7806377015
 21
371.5363297517
 31
0.0
  0
LINE
  5
25A
330
1F
100
AcDbEntity
  8
0
  6
SLD-Durchgehend
 62
     7
370
    25
100
AcDbLine
 10
452.7701373428
 20
371.5363297517
 30
0.0
 11
448.9988902966
 21
371.5363297517
 31
0.0
  0
LINE
  5
25B
330
1F
100
AcDbEntity
  8
0
  6
SLD-Durchgehend
 62
     7
370
    25
100
AcDbLine
 10
354.0623851063
 20
371.5363297517
 30
0.0
 11
350.2911380602
 21
371.5363297517
 31
0.0
  0
LINE
  5
25C
330
1F
100
AcDbEntity
  8
0
  6
SLD-Durchgehend
 62
     7
370
    25
100
AcDbLine
 10
439.2019131718
 20
371.5363297517
 30
0.0
 11
448.9988902966
 21
371.5363297517
 31
0.0
  0
LINE
  5
25D
330
1F
100
AcDbEntity
  8
0
  6
SLD-Durchgehend
 62
     7
370
    25
100
AcDbLine
 10
354.0623851063
 20
371.5363297517
 30
0.0
 11
363.8593622311
 21
371.5363297517
 31
0.0
  0
LINE
  5
25E
330
1F
100
AcDbEntity
  8
0
  6
SLD-Durchgehend
 62
     7
370
    25
100
AcDbLine
 10
439.2019131718
 20
371.5363297517
 30
0.0
 11
430.2829210622
 21
371.5363297517
 31
0.0
  0
LINE
  5
25F
330
1F
100
AcDbEntity
  8
0
  6
SLD-Durchgehend
 62
     7
370
    25
100
AcDbLine
 10
372.7783543407
 20
371.5363297517
 30
0.0
 11
363.8593622311
 21
371.5363297517
 31
0.0
  0
LINE
  5
260
330
1F
100
AcDbEntity
  8
0
  6
SLD-Durchgehend
 62
     7
370
    25
100
AcDbLine
 10
372.7783543407
 20
371.5363297517
 30
0.0
 11
430.2829210622
 21
371.5363297517
 31
0.0
  0
HATCH
  5
261
330
1F
100
AcDbEntity
  8
0
  6
SLD-Durchgehend
 62
     7
370
    18
100
AcDbHatch
 10
0.0
 20
0.0
 30
0.0
210
0.0
220
0.0
230
1.0
  2
ANSI31
 70
     0
 71
     0
 91
        1
 92
        0
 93
       92
 72
     2
 10
346.7806377014716
 20
375.0791478078146
 40
0.25
 50
180.0
 51
265.0000000000014
 73
     1
 72
     1
 10
346.7588487657847
 20
374.8300991332917
 11
347.6024266371585
 21
374.7562956327452
 72
     2
 10
347.5806377014716
 20
374.5072469582223
 40
0.25
 50
274.9999999999884
 51
360.0000000000008
 73
     0
 72
     1
 10
347.8306377014716
 20
374.5072469582223
 11
347.8306377014716
 21
372.9654125452309
 72
     2
 10
347.5806377014716
 20
372.9654125452309
 40
0.25
 50
0.0
 51
84.99999999998643
 73
     0
 72
     1
 10
347.6024266371585
 20
372.716363870708
 11
346.7588487657847
 21
372.6425603701614
 72
     2
 10
346.7806377014717
 20
372.3935116956385
 40
0.25
 50
95.00000000001243
 51
180.0
 73
     1
 72
     1
 10
346.5306377014716
 20
372.3935116956385
 11
346.5306377014716
 21
371.7863297517266
 72
     2
 10
346.7806377014716
 20
371.7863297517266
 40
0.25
 50
180.0
 51
270.0000000000008
 73
     1
 72
     1
 10
346.7806377014716
 20
371.5363297517266
 11
348.4306377014717
 21
371.5363297517266
 72
     1
 10
348.4306377014717
 20
371.5363297517266
 11
348.4306377014717
 21
402.7363297517266
 72
     1
 10
348.4306377014717
 20
402.7363297517266
 11
348.4306377014716
 21
404.5004313668643
 72
     1
 10
348.4306377014716
 20
404.5004313668643
 11
346.4306377014715
 21
405.0363297517266
 72
     1
 10
346.4306377014715
 20
405.0363297517266
 11
345.5306377014716
 21
405.0363297517266
 72
     1
 10
345.5306377014716
 20
405.0363297517266
 11
345.5306377014716
 21
404.3363297517266
 72
     1
 10
345.5306377014716
 20
404.3363297517266
 11
344.0306377014716
 21
404.3363297517266
 72
     2
 10
344.0306377014716
 20
405.5363297517266
 40
1.2
 50
90.0
 51
180.0
 73
     0
 72
     1
 10
342.8306377014716
 20
405.5363297517266
 11
342.8306377014716
 21
409.5363297517266
 72
     2
 10
342.5306377014716
 20
409.5363297517266
 40
0.3
 50
0.0
 51
90.0
 73
     1
 72
     1
 10
342.5306377014716
 20
409.8363297517266
 11
342.0306377014716
 21
409.8363297517266
 72
     2
 10
342.0306377014716
 20
409.5363297517266
 40
0.3
 50
90.0
 51
180.0
 73
     1
 72
     1
 10
341.7306377014716
 20
409.5363297517266
 11
341.7306377014716
 21
408.5363297517266
 72
     1
 10
341.7306377014716
 20
408.5363297517266
 11
341.0306377014716
 21
408.5363297517266
 72
     1
 10
341.0306377014716
 20
408.5363297517266
 11
341.0306377014716
 21
403.2363297517266
 72
     2
 10
341.5306377014716
 20
403.2363297517266
 40
0.5
 50
180.0
 51
270.0000000000008
 73
     1
 72
     1
 10
341.5306377014716
 20
402.7363297517266
 11
346.2806377014717
 21
402.7363297517266
 72
     2
 10
346.2806377014717
 20
402.4863297517266
 40
0.25
 50
270.0000000000008
 51
360.0000000000008
 73
     0
 72
     1
 10
346.5306377014716
 20
402.4863297517266
 11
346.5306377014716
 21
400.6791478078146
 72
     2
 10
346.7806377014716
 20
400.6791478078146
 40
0.25
 50
180.0
 51
265.0000000000002
 73
     1
 72
     1
 10
346.7588487657847
 20
400.4300991332917
 11
347.6024266371585
 21
400.3562956327452
 72
     2
 10
347.5806377014716
 20
400.1072469582222
 40
0.25
 50
274.9999999999873
 51
360.0000000000008
 73
     0
 72
     1
 10
347.8306377014716
 20
400.1072469582222
 11
347.8306377014716
 21
398.5654125452309
 72
     2
 10
347.5806377014716
 20
398.5654125452309
 40
0.25
 50
0.0
 51
85.00000000001239
 73
     0
 72
     1
 10
347.6024266371584
 20
398.316363870708
 11
346.7588487657847
 21
398.2425603701615
 72
     2
 10
346.7806377014716
 20
397.9935116956385
 40
0.25
 50
94.99999999999946
 51
180.0
 73
     1
 72
     1
 10
346.5306377014716
 20
397.9935116956385
 11
346.5306377014716
 21
397.4791478078146
 72
     2
 10
346.7806377014716
 20
397.4791478078146
 40
0.25
 50
180.0
 51
265.0000000000002
 73
     1
 72
     1
 10
346.7588487657847
 20
397.2300991332917
 11
347.6024266371585
 21
397.1562956327452
 72
     2
 10
347.5806377014716
 20
396.9072469582222
 40
0.25
 50
274.9999999999873
 51
360.0000000000008
 73
     0
 72
     1
 10
347.8306377014716
 20
396.9072469582222
 11
347.8306377014716
 21
395.3654125452309
 72
     2
 10
347.5806377014716
 20
395.3654125452309
 40
0.25
 50
0.0
 51
85.00000000001351
 73
     0
 72
     1
 10
347.6024266371584
 20
395.116363870708
 11
346.7588487657847
 21
395.0425603701614
 72
     2
 10
346.7806377014716
 20
394.7935116956385
 40
0.25
 50
95.0000000000006
 51
180.0
 73
     1
 72
     1
 10
346.5306377014716
 20
394.7935116956385
 11
346.5306377014716
 21
394.2791478078146
 72
     2
 10
346.7806377014716
 20
394.2791478078146
 40
0.25
 50
180.0
 51
264.9999999999884
 73
     1
 72
     1
 10
346.7588487657846
 20
394.0300991332917
 11
347.6024266371585
 21
393.9562956327451
 72
     2
 10
347.5806377014716
 20
393.7072469582222
 40
0.25
 50
274.9999999999884
 51
360.0000000000008
 73
     0
 72
     1
 10
347.8306377014716
 20
393.7072469582222
 11
347.8306377014716
 21
392.1654125452309
 72
     2
 10
347.5806377014716
 20
392.1654125452309
 40
0.25
 50
0.0
 51
85.00000000001239
 73
     0
 72
     1
 10
347.6024266371584
 20
391.916363870708
 11
346.7588487657847
 21
391.8425603701614
 72
     2
 10
346.7806377014716
 20
391.5935116956385
 40
0.25
 50
95.0000000000006
 51
180.0
 73
     1
 72
     1
 10
346.5306377014716
 20
391.5935116956385
 11
346.5306377014716
 21
391.0791478078146
 72
     2
 10
346.7806377014716
 20
391.0791478078146
 40
0.25
 50
180.0
 51
265.0000000000002
 73
     1
 72
     1
 10
346.7588487657847
 20
390.8300991332917
 11
347.6024266371585
 21
390.7562956327452
 72
     2
 10
347.5806377014716
 20
390.5072469582222
 40
0.25
 50
274.9999999999873
 51
360.0000000000008
 73
     0
 72
     1
 10
347.8306377014716
 20
390.5072469582222
 11
347.8306377014716
 21
388.9654125452309
 72
     2
 10
347.5806377014716
 20
388.9654125452309
 40
0.25
 50
0.0
 51
85.00000000001351
 73
     0
 72
     1
 10
347.6024266371584
 20
388.716363870708
 11
346.7588487657847
 21
388.6425603701615
 72
     2
 10
346.7806377014716
 20
388.3935116956385
 40
0.25
 50
94.99999999999832
 51
180.0
 73
     1
 72
     1
 10
346.5306377014716
 20
388.3935116956385
 11
346.5306377014716
 21
387.8791478078146
 72
     2
 10
346.7806377014716
 20
387.8791478078146
 40
0.25
 50
180.0
 51
265.0000000000002
 73
     1
 72
     1
 10
346.7588487657847
 20
387.6300991332917
 11
347.6024266371585
 21
387.5562956327452
 72
     2
 10
347.5806377014716
 20
387.3072469582222
 40
0.25
 50
274.9999999999873
 51
360.0000000000008
 73
     0
 72
     1
 10
347.8306377014716
 20
387.3072469582222
 11
347.8306377014716
 21
385.765412545231
 72
     2
 10
347.5806377014716
 20
385.765412545231
 40
0.25
 50
0.0
 51
84.99999999998757
 73
     0
 72
     1
 10
347.6024266371585
 20
385.516363870708
 11
346.7588487657847
 21
385.4425603701615
 72
     2
 10
346.7806377014716
 20
385.1935116956386
 40
0.25
 50
95.0000000000006
 51
180.0
 73
     1
 72
     1
 10
346.5306377014716
 20
385.1935116956386
 11
346.5306377014716
 21
384.6791478078147
 72
     2
 10
346.7806377014716
 20
384.6791478078147
 40
0.25
 50
180.0
 51
265.0000000000025
 73
     1
 72
     1
 10
346.7588487657847
 20
384.4300991332917
 11
347.6024266371585
 21
384.3562956327452
 72
     2
 10
347.5806377014716
 20
384.1072469582222
 40
0.25
 50
274.9999999999873
 51
360.0000000000008
 73
     0
 72
     1
 10
347.8306377014716
 20
384.1072469582222
 11
347.8306377014716
 21
382.5654125452309
 72
     2
 10
347.5806377014716
 20
382.5654125452309
 40
0.25
 50
0.0
 51
84.99999999998643
 73
     0
 72
     1
 10
347.6024266371585
 20
382.316363870708
 11
346.7588487657847
 21
382.2425603701615
 72
     2
 10
346.7806377014716
 20
381.9935116956386
 40
0.25
 50
95.0000000000006
 51
180.0
 73
     1
 72
     1
 10
346.5306377014716
 20
381.9935116956386
 11
346.5306377014716
 21
381.4791478078146
 72
     2
 10
346.7806377014716
 20
381.4791478078146
 40
0.25
 50
180.0
 51
265.0000000000014
 73
     1
 72
     1
 10
346.7588487657847
 20
381.2300991332917
 11
347.6024266371585
 21
381.1562956327452
 72
     2
 10
347.5806377014716
 20
380.9072469582222
 40
0.25
 50
274.9999999999861
 51
360.0000000000008
 73
     0
 72
     1
 10
347.8306377014716
 20
380.9072469582222
 11
347.8306377014716
 21
379.3654125452309
 72
     2
 10
347.5806377014716
 20
379.3654125452309
 40
0.25
 50
0.0
 51
84.99999999998643
 73
     0
 72
     1
 10
347.6024266371585
 20
379.116363870708
 11
346.7588487657847
 21
379.0425603701615
 72
     2
 10
346.7806377014716
 20
378.7935116956385
 40
0.25
 50
94.99999999999946
 51
180.0
 73
     1
 72
     1
 10
346.5306377014716
 20
378.7935116956385
 11
346.5306377014716
 21
378.2791478078146
 72
     2
 10
346.7806377014716
 20
378.2791478078146
 40
0.25
 50
180.0
 51
265.0000000000002
 73
     1
 72
     1
 10
346.7588487657847
 20
378.0300991332917
 11
347.6024266371585
 21
377.9562956327452
 72
     2
 10
347.5806377014716
 20
377.7072469582222
 40
0.25
 50
274.9999999999873
 51
360.0000000000008
 73
     0
 72
     1
 10
347.8306377014716
 20
377.7072469582222
 11
347.8306377014716
 21
376.1654125452309
 72
     2
 10
347.5806377014716
 20
376.1654125452309
 40
0.25
 50
0.0
 51
84.99999999998757
 73
     0
 72
     1
 10
347.6024266371585
 20
375.916363870708
 11
346.7588487657847
 21
375.8425603701614
 72
     2
 10
346.7806377014716
 20
375.5935116956385
 40
0.25
 50
95.0000000000006
 51
180.0
 73
     1
 72
     1
 10
346.5306377014716
 20
375.5935116956385
 11
346.5306377014716
 21
375.0791478078146
 97
        0
 75
     0
 76
     1
 52
0.0
 41
2.0
 77
     0
 78
     1
 53
45.0
 43
0.0
 44
0.0
 45
-4.490128060534577
 46
4.490128060534577
 79
     0
 98
        1
 10
0.0
 20
0.0
  0
HATCH
  5
262
330
1F
100
AcDbEntity
  8
0
  6
SLD-Durchgehend
 62
     7
370
    18
100
AcDbHatch
 10
0.0
 20
0.0
 30
0.0
210
0.0
220
0.0
230
1.0
  2
ANSI31
 70
     0
 71
     0
 91
        1
 92
        0
 93
       92
 72
     2
 10
455.4806377014715
 20
390.5072469582222
 40
0.25
 50
180.0
 51
265.0000000001594
 73
     0
 72
     1
 10
455.4588487657853
 20
390.7562956327453
 11
456.3024266371585
 21
390.8300991332917
 72
     2
 10
456.2806377014716
 20
391.0791478078146
 40
0.25
 50
275.0000000000014
 51
360.0000000000008
 73
     1
 72
     1
 10
456.5306377014715
 20
391.0791478078146
 11
456.5306377014715
 21
391.5935116956385
 72
     2
 10
456.2806377014716
 20
391.5935116956385
 40
0.25
 50
0.0
 51
85.00000000002535
 73
     1
 72
     1
 10
456.3024266371584
 20
391.8425603701614
 11
455.4588487657862
 21
391.9163638707077
 72
     2
 10
455.4806377014715
 20
392.1654125452309
 40
0.25
 50
94.99999999961855
 51
180.0
 73
     0
 72
     1
 10
455.2306377014716
 20
392.1654125452309
 11
455.2306377014716
 21
393.7072469582222
 72
     2
 10
455.4806377014715
 20
393.7072469582222
 40
0.25
 50
180.0
 51
265.0000000000002
 73
     0
 72
     1
 10
455.4588487657846
 20
393.9562956327451
 11
456.3024266371585
 21
394.0300991332917
 72
     2
 10
456.2806377014716
 20
394.2791478078146
 40
0.25
 50
275.0000000000003
 51
360.0000000000008
 73
     1
 72
     1
 10
456.5306377014715
 20
394.2791478078146
 11
456.5306377014715
 21
394.7935116956385
 72
     2
 10
456.2806377014716
 20
394.7935116956385
 40
0.25
 50
0.0
 51
85.00000000002535
 73
     1
 72
     1
 10
456.3024266371584
 20
395.0425603701614
 11
455.4588487657857
 21
395.1163638707078
 72
     2
 10
455.4806377014715
 20
395.3654125452309
 40
0.25
 50
94.99999999974946
 51
180.0
 73
     0
 72
     1
 10
455.2306377014716
 20
395.3654125452309
 11
455.2306377014716
 21
396.9072469582222
 72
     2
 10
455.4806377014715
 20
396.9072469582222
 40
0.25
 50
180.0
 51
265.0000000000002
 73
     0
 72
     1
 10
455.4588487657846
 20
397.1562956327451
 11
456.3024266371585
 21
397.2300991332917
 72
     2
 10
456.2806377014716
 20
397.4791478078146
 40
0.25
 50
275.0000000000014
 51
360.0000000000008
 73
     1
 72
     1
 10
456.5306377014715
 20
397.4791478078146
 11
456.5306377014715
 21
397.9935116956385
 72
     2
 10
456.2806377014716
 20
397.9935116956385
 40
0.25
 50
0.0
 51
85.0000000000265
 73
     1
 72
     1
 10
456.3024266371584
 20
398.2425603701615
 11
455.4588487657852
 21
398.3163638707079
 72
     2
 10
455.4806377014715
 20
398.5654125452309
 40
0.25
 50
94.99999999985558
 51
180.0
 73
     0
 72
     1
 10
455.2306377014716
 20
398.5654125452309
 11
455.2306377014716
 21
400.1072469582222
 72
     2
 10
455.4806377014715
 20
400.1072469582222
 40
0.25
 50
180.0
 51
265.0000000000014
 73
     0
 72
     1
 10
455.4588487657846
 20
400.3562956327452
 11
456.3024266371584
 21
400.4300991332917
 72
     2
 10
456.2806377014716
 20
400.6791478078147
 40
0.25
 50
274.9999999999873
 51
359.9999999999878
 73
     1
 72
     1
 10
456.5306377014715
 20
400.6791478078146
 11
456.5306377014715
 21
402.4863297517266
 72
     2
 10
456.7806377014715
 20
402.4863297517266
 40
0.25
 50
180.0
 51
270.0000000000008
 73
     0
 72
     1
 10
456.7806377014715
 20
402.7363297517266
 11
461.5306377014716
 21
402.7363297517266
 72
     2
 10
461.5306377014716
 20
403.2363297517266
 40
0.5
 50
270.0000000000008
 51
360.0000000000008
 73
     1
 72
     1
 10
462.0306377014716
 20
403.2363297517266
 11
462.0306377014716
 21
408.5363297517266
 72
     1
 10
462.0306377014716
 20
408.5363297517266
 11
461.3306377014716
 21
408.5363297517266
 72
     1
 10
461.3306377014716
 20
408.5363297517266
 11
461.3306377014716
 21
409.5363297517266
 72
     2
 10
461.0306377014716
 20
409.5363297517266
 40
0.3
 50
0.0
 51
90.0
 73
     1
 72
     1
 10
461.0306377014716
 20
409.8363297517266
 11
460.5306377014716
 21
409.8363297517266
 72
     2
 10
460.5306377014716
 20
409.5363297517266
 40
0.3
 50
90.0
 51
180.0
 73
     1
 72
     1
 10
460.2306377014716
 20
409.5363297517266
 11
460.2306377014716
 21
405.5363297517266
 72
     2
 10
459.0306377014716
 20
405.5363297517266
 40
1.2
 50
0.0
 51
90.0
 73
     0
 72
     1
 10
459.0306377014716
 20
404.3363297517266
 11
457.5306377014716
 21
404.3363297517266
 72
     1
 10
457.5306377014716
 20
404.3363297517266
 11
457.5306377014716
 21
405.0363297517266
 72
     1
 10
457.5306377014716
 20
405.0363297517266
 11
456.6306377014716
 21
405.0363297517266
 72
     1
 10
456.6306377014716
 20
405.0363297517266
 11
454.6306377014715
 21
404.5004313668643
 72
     1
 10
454.6306377014715
 20
404.5004313668643
 11
454.6306377014715
 21
402.7363297517266
 72
     1
 10
454.6306377014715
 20
402.7363297517266
 11
454.6306377014715
 21
371.5363297517266
 72
     1
 10
454.6306377014715
 20
371.5363297517266
 11
456.2806377014716
 21
371.5363297517266
 72
     2
 10
456.2806377014716
 20
371.7863297517266
 40
0.25
 50
270.0000000000008
 51
360.0000000000008
 73
     1
 72
     1
 10
456.5306377014715
 20
371.7863297517266
 11
456.5306377014715
 21
372.3935116956385
 72
     2
 10
456.2806377014716
 20
372.3935116956385
 40
0.25
 50
0.0
 51
85.00000000001351
 73
     1
 72
     1
 10
456.3024266371584
 20
372.6425603701614
 11
455.4588487657846
 21
372.716363870708
 72
     2
 10
455.4806377014715
 20
372.9654125452309
 40
0.25
 50
95.0000000000006
 51
180.0
 73
     0
 72
     1
 10
455.2306377014716
 20
372.9654125452309
 11
455.2306377014716
 21
374.5072469582223
 72
     2
 10
455.4806377014715
 20
374.5072469582223
 40
0.25
 50
180.0
 51
265.0000000001452
 73
     0
 72
     1
 10
455.4588487657852
 20
374.7562956327453
 11
456.3024266371584
 21
374.8300991332917
 72
     2
 10
456.2806377014716
 20
375.0791478078146
 40
0.25
 50
274.9999999999873
 51
360.0000000000008
 73
     1
 72
     1
 10
456.5306377014715
 20
375.0791478078146
 11
456.5306377014715
 21
375.5935116956385
 72
     2
 10
456.2806377014716
 20
375.5935116956385
 40
0.25
 50
0.0
 51
85.00000000001239
 73
     1
 72
     1
 10
456.3024266371584
 20
375.8425603701614
 11
455.4588487657846
 21
375.916363870708
 72
     2
 10
455.4806377014715
 20
376.1654125452309
 40
0.25
 50
94.99999999999946
 51
180.0
 73
     0
 72
     1
 10
455.2306377014716
 20
376.1654125452309
 11
455.2306377014716
 21
377.7072469582222
 72
     2
 10
455.4806377014715
 20
377.7072469582222
 40
0.25
 50
180.0
 51
264.9999999996712
 73
     0
 72
     1
 10
455.4588487657832
 20
377.9562956327449
 11
456.3024266371585
 21
378.0300991332917
 72
     2
 10
456.2806377014716
 20
378.2791478078146
 40
0.25
 50
275.0000000000014
 51
360.0000000000008
 73
     1
 72
     1
 10
456.5306377014715
 20
378.2791478078146
 11
456.5306377014715
 21
378.7935116956385
 72
     2
 10
456.2806377014716
 20
378.7935116956385
 40
0.25
 50
0.0
 51
85.00000000001351
 73
     1
 72
     1
 10
456.3024266371584
 20
379.0425603701615
 11
455.4588487657846
 21
379.116363870708
 72
     2
 10
455.4806377014715
 20
379.3654125452309
 40
0.25
 50
95.0000000000006
 51
180.0
 73
     0
 72
     1
 10
455.2306377014716
 20
379.3654125452309
 11
455.2306377014716
 21
380.9072469582222
 72
     2
 10
455.4806377014715
 20
380.9072469582222
 40
0.25
 50
180.0
 51
264.9999999998044
 73
     0
 72
     1
 10
455.4588487657837
 20
381.156295632745
 11
456.3024266371585
 21
381.2300991332917
 72
     2
 10
456.2806377014716
 20
381.4791478078146
 40
0.25
 50
275.0000000000003
 51
360.0000000000008
 73
     1
 72
     1
 10
456.5306377014715
 20
381.4791478078146
 11
456.5306377014715
 21
381.9935116956386
 72
     2
 10
456.2806377014716
 20
381.9935116956386
 40
0.25
 50
0.0
 51
85.00000000001239
 73
     1
 72
     1
 10
456.3024266371584
 20
382.2425603701615
 11
455.4588487657846
 21
382.316363870708
 72
     2
 10
455.4806377014715
 20
382.5654125452309
 40
0.25
 50
95.0000000000006
 51
180.0
 73
     0
 72
     1
 10
455.2306377014716
 20
382.5654125452309
 11
455.2306377014716
 21
384.1072469582222
 72
     2
 10
455.4806377014715
 20
384.1072469582222
 40
0.25
 50
180.0
 51
264.9999999999224
 73
     0
 72
     1
 10
455.4588487657842
 20
384.3562956327451
 11
456.3024266371584
 21
384.4300991332917
 72
     2
 10
456.2806377014716
 20
384.6791478078147
 40
0.25
 50
274.9999999999861
 51
360.0000000000008
 73
     1
 72
     1
 10
456.5306377014715
 20
384.6791478078147
 11
456.5306377014715
 21
385.1935116956386
 72
     2
 10
456.2806377014716
 20
385.1935116956386
 40
0.25
 50
0.0
 51
85.00000000001239
 73
     1
 72
     1
 10
456.3024266371584
 20
385.4425603701615
 11
455.4588487657846
 21
385.516363870708
 72
     2
 10
455.4806377014715
 20
385.765412545231
 40
0.25
 50
94.99999999999946
 51
180.0
 73
     0
 72
     1
 10
455.2306377014716
 20
385.765412545231
 11
455.2306377014716
 21
387.3072469582222
 72
     2
 10
455.4806377014715
 20
387.3072469582222
 40
0.25
 50
180.0
 51
265.0000000000533
 73
     0
 72
     1
 10
455.4588487657848
 20
387.5562956327452
 11
456.3024266371584
 21
387.6300991332917
 72
     2
 10
456.2806377014716
 20
387.8791478078146
 40
0.25
 50
274.9999999999884
 51
360.0000000000008
 73
     1
 72
     1
 10
456.5306377014715
 20
387.8791478078146
 11
456.5306377014715
 21
388.3935116956385
 72
     2
 10
456.2806377014716
 20
388.3935116956385
 40
0.25
 50
0.0
 51
85.00000000001467
 73
     1
 72
     1
 10
456.3024266371584
 20
388.6425603701615
 11
455.4588487657846
 21
388.716363870708
 72
     2
 10
455.4806377014715
 20
388.9654125452309
 40
0.25
 50
94.99999999999946
 51
180.0
 73
     0
 72
     1
 10
455.2306377014716
 20
388.9654125452309
 11
455.2306377014716
 21
390.5072469582222
 97
        0
 75
     0
 76
     1
 52
0.0
 41
2.0
 77
     0
 78
     1
 53
45.0
 43
0.0
 44
0.0
 45
-4.490128060534577
 46
4.490128060534577
 79
     0
 98
        1
 10
0.0
 20
0.0
  0
HATCH
  5
263
330
1F
100
AcDbEntity
  8
0
  6
SLD-Durchgehend
 62
     7
370
    18
100
AcDbHatch
 10
0.0
 20
0.0
 30
0.0
210
0.0
220
0.0
230
1.0
  2
ANSI31
 70
     0
 71
     0
 91
        1
 92
        0
 93
       16
 72
     1
 10
345.5306377014715
 20
405.0363297517266
 11
344.0306377014715
 21
405.0363297517266
 72
     2
 10
344.0306377014715
 20
405.5363297517266
 40
0.5
 50
90.0
 51
180.0
 73
     0
 72
     1
 10
343.5306377014715
 20
405.5363297517266
 11
343.5306377014715
 21
409.5363297517266
 72
     2
 10
342.5306377014715
 20
409.5363297517266
 40
1.0
 50
0.0
 51
90.0
 73
     1
 72
     1
 10
342.5306377014715
 20
410.5363297517266
 11
342.0306377014716
 21
410.5363297517266
 72
     2
 10
342.0306377014716
 20
409.5363297517266
 40
1.0
 50
90.0
 51
180.0
 73
     1
 72
     1
 10
341.0306377014716
 20
409.5363297517266
 11
341.0306377014716
 21
408.5363297517266
 72
     1
 10
341.0306377014716
 20
408.5363297517266
 11
341.7306377014716
 21
408.5363297517266
 72
     1
 10
341.7306377014716
 20
408.5363297517266
 11
341.7306377014716
 21
409.5363297517266
 72
     2
 10
342.0306377014716
 20
409.5363297517266
 40
0.3
 50
180.0
 51
270.0000000000008
 73
     0
 72
     1
 10
342.0306377014716
 20
409.8363297517266
 11
342.5306377014716
 21
409.8363297517266
 72
     2
 10
342.5306377014716
 20
409.5363297517266
 40
0.3
 50
270.0000000000008
 51
360.0000000000008
 73
     0
 72
     1
 10
342.8306377014715
 20
409.5363297517266
 11
342.8306377014715
 21
405.5363297517266
 72
     2
 10
344.0306377014716
 20
405.5363297517266
 40
1.2
 50
180.0
 51
270.0000000000008
 73
     1
 72
     1
 10
344.0306377014716
 20
404.3363297517266
 11
345.5306377014715
 21
404.3363297517266
 72
     1
 10
345.5306377014715
 20
404.3363297517266
 11
345.5306377014715
 21
405.0363297517266
 97
        0
 75
     0
 76
     1
 52
0.0
 41
2.0
 77
     0
 78
     1
 53
45.0
 43
0.0
 44
0.0
 45
-4.490128060534577
 46
4.490128060534577
 79
     0
 98
        1
 10
0.0
 20
0.0
  0
HATCH
  5
264
330
1F
100
AcDbEntity
  8
0
  6
SLD-Durchgehend
 62
     7
370
    18
100
AcDbHatch
 10
0.0
 20
0.0
 30
0.0
210
0.0
220
0.0
230
1.0
  2
ANSI31
 70
     0
 71
     0
 91
        1
 92
        0
 93
       16
 72
     1
 10
459.0306377014716
 20
405.0363297517266
 11
457.5306377014716
 21
405.0363297517266
 72
     1
 10
457.5306377014716
 20
405.0363297517266
 11
457.5306377014716
 21
404.3363297517266
 72
     1
 10
457.5306377014716
 20
404.3363297517266
 11
459.0306377014716
 21
404.3363297517266
 72
     2
 10
459.0306377014716
 20
405.5363297517266
 40
1.2
 50
270.0000000000008
 51
360.0000000000008
 73
     1
 72
     1
 10
460.2306377014716
 20
405.5363297517266
 11
460.2306377014716
 21
409.5363297517266
 72
     2
 10
460.5306377014716
 20
409.5363297517266
 40
0.3
 50
180.0
 51
270.0000000000008
 73
     0
 72
     1
 10
460.5306377014716
 20
409.8363297517266
 11
461.0306377014716
 21
409.8363297517266
 72
     2
 10
461.0306377014716
 20
409.5363297517266
 40
0.3
 50
270.0000000000008
 51
360.0000000000008
 73
     0
 72
     1
 10
461.3306377014715
 20
409.5363297517266
 11
461.3306377014715
 21
408.5363297517266
 72
     1
 10
461.3306377014715
 20
408.5363297517266
 11
462.0306377014716
 21
408.5363297517266
 72
     1
 10
462.0306377014716
 20
408.5363297517266
 11
462.0306377014716
 21
409.5363297517266
 72
     2
 10
461.0306377014715
 20
409.5363297517266
 40
1.0
 50
0.0
 51
90.0
 73
     1
 72
     1
 10
461.0306377014715
 20
410.5363297517266
 11
460.5306377014716
 21
410.5363297517266
 72
     2
 10
460.5306377014716
 20
409.5363297517266
 40
1.0
 50
90.0
 51
180.0
 73
     1
 72
     1
 10
459.5306377014716
 20
409.5363297517266
 11
459.5306377014716
 21
405.5363297517266
 72
     2
 10
459.0306377014716
 20
405.5363297517266
 40
0.5
 50
0.0
 51
90.0
 73
     0
 97
        0
 75
     0
 76
     1
 52
0.0
 41
2.0
 77
     0
 78
     1
 53
45.0
 43
0.0
 44
0.0
 45
-4.490128060534577
 46
4.490128060534577
 79
     0
 98
        1
 10
0.0
 20
0.0
  0
HATCH
  5
265
330
1F
100
AcDbEntity
  8
0
  6
SLD-Durchgehend
 62
     7
370
    18
100
AcDbHatch
 10
0.0
 20
0.0
 30
0.0
210
0.0
220
0.0
230
1.0
  2
ANSI31
 70
     0
 71
     0
 91
        1
 92
        0
 93
        4
 72
     1
 10
459.0306377014716
 20
405.0363297517266
 11
459.0306377014716
 21
410.0363297517266
 72
     1
 10
459.0306377014716
 20
410.0363297517266
 11
344.0306377014716
 21
410.0363297517266
 72
     1
 10
344.0306377014716
 20
410.0363297517266
 11
344.0306377014716
 21
405.0363297517266
 72
     1
 10
344.0306377014716
 20
405.0363297517266
 11
459.0306377014716
 21
405.0363297517266
 97
        0
 75
     0
 76
     1
 52
0.0
 41
2.0
 77
     0
 78
     1
 53
45.0
 43
0.0
 44
0.0
 45
-4.490128060534577
 46
4.490128060534577
 79
     0
 98
        1
 10
0.0
 20
0.0
  0
DIMENSION
  5
266
330
1F
100
AcDbEntity
  8
0
  6
SLD-Durchgehend
 62
     7
370
    18
100
AcDbDimension
280
     0
  2
_D
 10
462.0306377015
 20
418.2823693243
 30
0.0
 11
401.9018622562
 21
418.2823693243
 31
0.0
 70
   160
  1
{\fGDT;o}<>
 71
     2
 42
-1.0
 73
     0
 74
     0
 75
     0
  3
SLDDIMSTYLE0
100
AcDbAlignedDimension
 13
341.0306377015
 23
408.5363297517
 33
0.0
 14
462.0306377015
 24
408.5363297517
 34
0.0
 50
0.0
100
AcDbRotatedDimension
  0
DIMENSION
  5
27A
330
1F
100
AcDbEntity
  8
0
  6
SLD-Durchgehend
 62
     7
370
    18
100
AcDbDimension
280
     0
  2
_D_1
 10
456.5306377015
 20
351.5363297517
 30
0.0
 11
401.9018622562
 21
351.5363297517
 31
0.0
 70
   160
  1
<>
 71
     2
 42
-1.0
 73
     0
 74
     0
 75
     0
  3
SLDDIMSTYLE0
100
AcDbAlignedDimension
 13
346.5306377015
 23
371.7863297517
 33
0.0
 14
456.5306377015
 24
371.7863297517
 34
0.0
 50
0.0
100
AcDbRotatedDimension
  0
DIMENSION
  5
284
330
1F
100
AcDbEntity
  8
0
  6
SLD-Durchgehend
 62
     7
370
    18
100
AcDbDimension
280
     0
  2
_D_2
 10
475.8266108118
 20
402.7363297517
 30
0.0
 11
475.8266108118
 21
386.2569255526
 31
0.0
 70
   160
  1
<>
 71
     2
 42
-1.0
 73
     0
 74
     0
 75
     0
  3
SLDDIMSTYLE1
100
AcDbAlignedDimension
 13
457.5306377015
 23
410.5363297517
 33
0.0
 14
461.5306377015
 24
402.7363297517
 34
0.0
 50
90.0
100
AcDbRotatedDimension
  0
DIMENSION
  5
291
330
1F
100
AcDbEntity
  8
0
  6
SLD-Durchgehend
 62
     7
370
    18
100
AcDbDimension
280
     0
  2
_D_3
 10
497.8787554223
 20
371.5363297517
 30
0.0
 11
497.8787554223
 21
391.9064844375
 31
0.0
 70
   160
  1
<>
 71
     2
 42
-1.0
 73
     0
 74
     0
 75
     0
  3
SLDDIMSTYLE0
100
AcDbAlignedDimension
 13
460.5306377015
 23
410.5363297517
 33
0.0
 14
448.9988902966
 24
371.5363297517
 34
0.0
 50
90.0
100
AcDbRotatedDimension
  0
LINE
  5
29B
330
1F
100
AcDbEntity
  8
0
  6
SLD-Punktstrich
 62
     7
370
    18
100
AcDbLine
 10
401.5306377015
 20
371.4310455736
 30
0.0
 11
401.5306377015
 21
408.5004313669
 31
0.0
  0
ENDSEC
  0
SECTION
  2
OBJECTS
  0
DICTIONARY
  5
C
330
0
100
AcDbDictionary
281
     1
  3
ACAD_DETAILVIEWSTYLE
350
2A3
  3
ACAD_GROUP
350
D
  3
ACAD_LAYOUT
350
1A
  3
ACAD_MATERIAL
350
43
  3
ACAD_MLEADERSTYLE
350
6B
  3
ACAD_MLINESTYLE
350
17
  3
ACAD_PLOTSETTINGS
350
19
  3
ACAD_PLOTSTYLENAME
350
E
  3
ACAD_SCALELIST
350
47
  3
ACAD_SECTIONVIEWSTYLE
350
2A4
  3
ACAD_TABLESTYLE
350
69
  3
ACAD_VISUALSTYLE
350
2A
  3
ACDB_RECOMPOSE_DATA
350
2A0
  3
AcDbVariableDictionary
350
29C
  0
SUN
  5
6D
330
29
100
AcDbSun
 90
        1
290
     0
 63
     7
421
 16777215
 40
1.0
291
     1
 91
  2455826
 92
 54000000
292
     0
 70
     2
 71
   256
280
     1
  0
DICTIONARY
  5
2A3
102
{ACAD_REACTORS
330
C
102
}
330
C
100
AcDbDictionary
281
     1
  0
DICTIONARY
  5
D
102
{ACAD_REACTORS
330
C
102
}
330
C
100
AcDbDictionary
281
     1
  0
DICTIONARY
  5
1A
102
{ACAD_REACTORS
330
C
102
}
330
C
100
AcDbDictionary
281
     1
  3
Layout1
350
1E
  3
Layout2
350
26
  3
Model
350
22
  0
DICTIONARY
  5
43
102
{ACAD_REACTORS
330
C
102
}
330
C
100
AcDbDictionary
281
     1
  3
ByBlock
350
45
  3
ByLayer
350
44
  3
Global
350
46
  0
DICTIONARY
  5
6B
102
{ACAD_REACTORS
330
C
102
}
330
C
100
AcDbDictionary
281
     1
  3
Standard
350
6C
  0
DICTIONARY
  5
17
102
{ACAD_REACTORS
330
C
102
}
330
C
100
AcDbDictionary
281
     1
  3
Standard
350
18
  0
DICTIONARY
  5
19
102
{ACAD_REACTORS
330
C
102
}
330
C
100
AcDbDictionary
281
     1
  0
ACDBDICTIONARYWDFLT
  5
E
102
{ACAD_REACTORS
330
C
102
}
330
C
100
AcDbDictionary
281
     1
  3
Normal
350
F
100
AcDbDictionaryWithDefault
340
F
  0
DICTIONARY
  5
47
102
{ACAD_REACTORS
330
C
102
}
330
C
100
AcDbDictionary
281
     1
  3
A0
350
48
  3
A1
350
49
  3
A2
350
4A
  3
A3
350
4B
  3
A4
350
4C
  3
A5
350
4D
  3
A6
350
4E
  3
A7
350
4F
  3
A8
350
50
  3
A9
350
51
  3
B0
350
52
  3
B1
350
53
  3
B2
350
54
  3
B3
350
55
  3
B4
350
56
  3
B5
350
57
  3
B6
350
58
  3
B7
350
59
  3
B8
350
5A
  3
B9
350
5B
  3
C0
350
5C
  3
C1
350
5D
  3
C2
350
5E
  3
C3
350
5F
  3
C4
350
60
  3
C5
350
61
  3
C6
350
62
  3
C7
350
63
  3
C8
350
64
  3
C9
350
65
  3
D0
350
66
  3
D1
350
67
  3
D2
350
68
  0
DICTIONARY
  5
2A4
102
{ACAD_REACTORS
330
C
102
}
330
C
100
AcDbDictionary
281
     1
  0
DICTIONARY
  5
69
102
{ACAD_REACTORS
330
C
102
}
330
C
100
AcDbDictionary
281
     1
  3
Standard
350
6A
  0
DICTIONARY
  5
2A
102
{ACAD_REACTORS
330
C
102
}
330
C
100
AcDbDictionary
281
     1
  3
2dWireframe
350
2F
  3
Basic
350
32
  3
Brighten
350
36
  3
ColorChange
350
3A
  3
Conceptual
350
34
  3
Dim
350
35
  3
EdgeColorOff
350
3D
  3
Facepattern
350
39
  3
Flat
350
2B
  3
FlatWithEdges
350
2C
  3
Gouraud
350
2D
  3
GouraudWithEdges
350
2E
  3
Hidden
350
31
  3
JitterOff
350
3B
  3
Linepattern
350
38
  3
OverhangOff
350
3C
  3
Realistic
350
33
  3
Shaded
350
42
  3
Shaded with edges
350
41
  3
Shades of Gray
350
3E
  3
Sketchy
350
3F
  3
Thicken
350
37
  3
Wireframe
350
30
  3
X-Ray
350
40
  0
XRECORD
  5
2A0
102
{ACAD_REACTORS
330
C
102
}
330
C
100
AcDbXrecord
280
     1
 90
        1
330
6A
  0
DICTIONARY
  5
29C
102
{ACAD_REACTORS
330
C
102
}
330
C
100
AcDbDictionary
281
     1
  3
CANNOSCALE
350
29D
  3
CMLEADERSTYLE
350
2A2
  3
CTABLESTYLE
350
2A1
  3
SECTIONTHICKNESSINC
350
2A5
  0
LAYOUT
  5
1E
102
{ACAD_REACTORS
330
1A
102
}
330
1A
100
AcDbPlotSettings
  1

  2
none_device
  4

  6

 40
0.0
 41
0.0
 42
0.0
 43
0.0
 44
0.0
 45
0.0
 46
0.0
 47
0.0
 48
0.0
 49
0.0
140
0.0
141
0.0
142
1.0
143
1.0
 70
   688
 72
     1
 73
     0
 74
     5
  7

 75
    16
 76
     0
 77
     2
 78
   300
147
1.0
148
0.0
149
0.0
100
AcDbLayout
  1
Layout1
 70
     1
 71
     1
 10
0.0
 20
0.0
 11
420.0
 21
297.0
 12
0.0
 22
0.0
 32
0.0
 14
1.0000000000E+20
 24
1.0000000000E+20
 34
1.0000000000E+20
 15
-1.0000000000E+20
 25
-1.0000000000E+20
 35
-1.0000000000E+20
146
0.0
 13
0.0
 23
0.0
 33
0.0
 16
1.0
 26
0.0
 36
0.0
 17
0.0
 27
1.0
 37
0.0
 76
     0
330
1B
  0
LAYOUT
  5
26
102
{ACAD_REACTORS
330
1A
102
}
330
1A
100
AcDbPlotSettings
  1

  2
none_device
  4

  6

 40
0.0
 41
0.0
 42
0.0
 43
0.0
 44
0.0
 45
0.0
 46
0.0
 47
0.0
 48
0.0
 49
0.0
140
0.0
141
0.0
142
1.0
143
1.0
 70
   688
 72
     1
 73
     0
 74
     5
  7

 75
    16
 76
     0
 77
     2
 78
   300
147
1.0
148
0.0
149
0.0
100
AcDbLayout
  1
Layout2
 70
     1
 71
     2
 10
0.0
 20
0.0
 11
0.0
 21
0.0
 12
0.0
 22
0.0
 32
0.0
 14
0.0
 24
0.0
 34
0.0
 15
0.0
 25
0.0
 35
0.0
146
0.0
 13
0.0
 23
0.0
 33
0.0
 16
1.0
 26
0.0
 36
0.0
 17
0.0
 27
1.0
 37
0.0
 76
     0
330
23
  0
LAYOUT
  5
22
102
{ACAD_REACTORS
330
1A
102
}
330
1A
100
AcDbPlotSettings
  1

  2
none_device
  4
Letter_(8.50_x_11.00_Inches)
  6

 40
6.35
 41
6.35
 42
6.35000508
 43
6.35000508
 44
215.9
 45
279.4
 46
0.0
 47
0.0
 48
0.0
 49
0.0
140
0.0
141
0.0
142
1.0
143
1.0
 70
  1712
 72
     1
 73
     0
 74
     0
  7

 75
     0
 76
     0
 77
     2
 78
   300
147
1.0
148
0.0
149
0.0
100
AcDbLayout
  1
Model
 70
     1
 71
     0
 10
0.0
 20
0.0
 11
840.0
 21
594.0
 12
0.0
 22
0.0
 32
0.0
 14
0.0
 24
0.0
 34
0.0
 15
840.0
 25
594.0
 35
0.0
146
0.0
 13
0.0
 23
0.0
 33
0.0
 16
1.0
 26
0.0
 36
0.0
 17
0.0
 27
1.0
 37
0.0
 76
     0
330
1F
331
29
  0
MATERIAL
  5
45
102
{ACAD_REACTORS
330
43
102
}
330
43
100
AcDbMaterial
  1
ByBlock
 72
     1
 94
      127
  0
MATERIAL
  5
44
102
{ACAD_REACTORS
330
43
102
}
330
43
100
AcDbMaterial
  1
ByLayer
 72
     1
 94
      127
  0
MATERIAL
  5
46
102
{ACAD_REACTORS
330
43
102
}
330
43
100
AcDbMaterial
  1
Global
 72
     1
 94
      127
  0
MLEADERSTYLE
  5
6C
102
{ACAD_REACTORS
330
6B
102
}
330
6B
100
AcDbMLeaderStyle
179
     2
170
     2
171
     1
172
     0
 90
        2
 40
0.0
 41
0.0
173
     1
 91
-1056964608
340
14
 92
       -2
290
     1
 42
2.0
291
     1
 43
8.0
  3
Standard
341
0
 44
4.0
300

342
11
174
     1
178
     6
175
     1
176
     0
 93
-1056964608
 45
4.0
292
     0
297
     0
 46
4.0
343
0
 94
-1056964608
 47
1.0
 49
1.0
140
1.0
293
     1
141
0.0
294
     1
177
     0
142
1.0
295
     0
296
     0
143
3.75
271
     0
272
     9
273
     9
298
     0
  0
MLINESTYLE
  5
18
102
{ACAD_REACTORS
330
17
102
}
330
17
100
AcDbMlineStyle
  2
Standard
 70
     0
  3

 62
   256
 51
90.0
 52
90.0
 71
     2
 49
0.5
 62
   256
  6
BYLAYER
 49
-0.5
 62
   256
  6
BYLAYER
  0
ACDBPLACEHOLDER
  5
F
102
{ACAD_REACTORS
330
E
102
}
330
E
  0
SCALE
  5
48
102
{ACAD_REACTORS
330
47
102
}
330
47
100
AcDbScale
 70
     0
300
1:1
140
1.0
141
1.0
290
     1
  0
SCALE
  5
49
102
{ACAD_REACTORS
330
47
102
}
330
47
100
AcDbScale
 70
     0
300
1:2
140
1.0
141
2.0
290
     0
  0
SCALE
  5
4A
102
{ACAD_REACTORS
330
47
102
}
330
47
100
AcDbScale
 70
     0
300
1:4
140
1.0
141
4.0
290
     0
  0
SCALE
  5
4B
102
{ACAD_REACTORS
330
47
102
}
330
47
100
AcDbScale
 70
     0
300
1:5
140
1.0
141
5.0
290
     0
  0
SCALE
  5
4C
102
{ACAD_REACTORS
330
47
102
}
330
47
100
AcDbScale
 70
     0
300
1:8
140
1.0
141
8.0
290
     0
  0
SCALE
  5
4D
102
{ACAD_REACTORS
330
47
102
}
330
47
100
AcDbScale
 70
     0
300
1:10
140
1.0
141
10.0
290
     0
  0
SCALE
  5
4E
102
{ACAD_REACTORS
330
47
102
}
330
47
100
AcDbScale
 70
     0
300
1:16
140
1.0
141
16.0
290
     0
  0
SCALE
  5
4F
102
{ACAD_REACTORS
330
47
102
}
330
47
100
AcDbScale
 70
     0
300
1:20
140
1.0
141
20.0
290
     0
  0
SCALE
  5
50
102
{ACAD_REACTORS
330
47
102
}
330
47
100
AcDbScale
 70
     0
300
1:30
140
1.0
141
30.0
290
     0
  0
SCALE
  5
51
102
{ACAD_REACTORS
330
47
102
}
330
47
100
AcDbScale
 70
     0
300
1:40
140
1.0
141
40.0
290
     0
  0
SCALE
  5
52
102
{ACAD_REACTORS
330
47
102
}
330
47
100
AcDbScale
 70
     0
300
1:50
140
1.0
141
50.0
290
     0
  0
SCALE
  5
53
102
{ACAD_REACTORS
330
47
102
}
330
47
100
AcDbScale
 70
     0
300
1:100
140
1.0
141
100.0
290
     0
  0
SCALE
  5
54
102
{ACAD_REACTORS
330
47
102
}
330
47
100
AcDbScale
 70
     0
300
2:1
140
2.0
141
1.0
290
     0
  0
SCALE
  5
55
102
{ACAD_REACTORS
330
47
102
}
330
47
100
AcDbScale
 70
     0
300
4:1
140
4.0
141
1.0
290
     0
  0
SCALE
  5
56
102
{ACAD_REACTORS
330
47
102
}
330
47
100
AcDbScale
 70
     0
300
8:1
140
8.0
141
1.0
290
     0
  0
SCALE
  5
57
102
{ACAD_REACTORS
330
47
102
}
330
47
100
AcDbScale
 70
     0
300
10:1
140
10.0
141
1.0
290
     0
  0
SCALE
  5
58
102
{ACAD_REACTORS
330
47
102
}
330
47
100
AcDbScale
 70
     0
300
100:1
140
100.0
141
1.0
290
     0
  0
SCALE
  5
59
102
{ACAD_REACTORS
330
47
102
}
330
47
100
AcDbScale
 70
     0
300
1/128" = 1'-0"
140
0.0078125
141
12.0
290
     0
  0
SCALE
  5
5A
102
{ACAD_REACTORS
330
47
102
}
330
47
100
AcDbScale
 70
     0
300
1/64" = 1'-0"
140
0.015625
141
12.0
290
     0
  0
SCALE
  5
5B
102
{ACAD_REACTORS
330
47
102
}
330
47
100
AcDbScale
 70
     0
300
1/32" = 1'-0"
140
0.03125
141
12.0
290
     0
  0
SCALE
  5
5C
102
{ACAD_REACTORS
330
47
102
}
330
47
100
AcDbScale
 70
     0
300
1/16" = 1'-0"
140
0.0625
141
12.0
290
     0
  0
SCALE
  5
5D
102
{ACAD_REACTORS
330
47
102
}
330
47
100
AcDbScale
 70
     0
300
3/32" = 1'-0"
140
0.09375
141
12.0
290
     0
  0
SCALE
  5
5E
102
{ACAD_REACTORS
330
47
102
}
330
47
100
AcDbScale
 70
     0
300
1/8" = 1'-0"
140
0.125
141
12.0
290
     0
  0
SCALE
  5
5F
102
{ACAD_REACTORS
330
47
102
}
330
47
100
AcDbScale
 70
     0
300
3/16" = 1'-0"
140
0.1875
141
12.0
290
     0
  0
SCALE
  5
60
102
{ACAD_REACTORS
330
47
102
}
330
47
100
AcDbScale
 70
     0
300
1/4" = 1'-0"
140
0.25
141
12.0
290
     0
  0
SCALE
  5
61
102
{ACAD_REACTORS
330
47
102
}
330
47
100
AcDbScale
 70
     0
300
3/8" = 1'-0"
140
0.375
141
12.0
290
     0
  0
SCALE
  5
62
102
{ACAD_REACTORS
330
47
102
}
330
47
100
AcDbScale
 70
     0
300
1/2" = 1'-0"
140
0.5
141
12.0
290
     0
  0
SCALE
  5
63
102
{ACAD_REACTORS
330
47
102
}
330
47
100
AcDbScale
 70
     0
300
3/4" = 1'-0"
140
0.75
141
12.0
290
     0
  0
SCALE
  5
64
102
{ACAD_REACTORS
330
47
102
}
330
47
100
AcDbScale
 70
     0
300
1" = 1'-0"
140
1.0
141
12.0
290
     0
  0
SCALE
  5
65
102
{ACAD_REACTORS
330
47
102
}
330
47
100
AcDbScale
 70
     0
300
1-1/2" = 1'-0"
140
1.5
141
12.0
290
     0
  0
SCALE
  5
66
102
{ACAD_REACTORS
330
47
102
}
330
47
100
AcDbScale
 70
     0
300
3" = 1'-0"
140
3.0
141
12.0
290
     0
  0
SCALE
  5
67
102
{ACAD_REACTORS
330
47
102
}
330
47
100
AcDbScale
 70
     0
300
6" = 1'-0"
140
6.0
141
12.0
290
     0
  0
SCALE
  5
68
102
{ACAD_REACTORS
330
47
102
}
330
47
100
AcDbScale
 70
     0
300
1'-0" = 1'-0"
140
12.0
141
12.0
290
     0
  0
TABLESTYLE
  5
6A
102
{ACAD_REACTORS
330
69
102
}
102
{ACAD_XDICTIONARY
360
29E
102
}
330
69
100
AcDbTableStyle
  3
Standard
 70
     0
 71
     0
 40
0.06
 41
0.06
280
     0
281
     0
  7
Standard
140
4.5
170
     2
 62
     0
 63
   257
283
     0
 90
        4
 91
        0
  1

274
    -2
284
     1
 64
     0
275
    -2
285
     1
 65
     0
276
    -2
286
     1
 66
     0
277
    -2
287
     1
 67
     0
278
    -2
288
     1
 68
     0
279
    -2
289
     1
 69
     0
  7
Standard
140
6.0
170
     5
 62
     0
 63
   257
283
     0
 90
        4
 91
        0
  1

274
    -2
284
     1
 64
     0
275
    -2
285
     1
 65
     0
276
    -2
286
     1
 66
     0
277
    -2
287
     1
 67
     0
278
    -2
288
     1
 68
     0
279
    -2
289
     1
 69
     0
  7
Standard
140
4.5
170
     5
 62
     0
 63
   257
283
     0
 90
        4
 91
        0
  1

274
    -2
284
     1
 64
     0
275
    -2
285
     1
 65
     0
276
    -2
286
     1
 66
     0
277
    -2
287
     1
 67
     0
278
    -2
288
     1
 68
     0
279
    -2
289
     1
 69
     0
  0
VISUALSTYLE
  5
2F
102
{ACAD_REACTORS
330
2A
102
}
330
2A
100
AcDbVisualStyle
  2
2dWireframe
 70
     4
177
     3
291
     0
 70
    58
 90
        0
176
     1
 90
        2
176
     1
 90
        0
176
     1
 90
        0
176
     1
 40
0.6
176
     1
 40
30.0
176
     1
 62
     7
420
 16777215
176
     1
 90
        1
176
     1
 90
        4
176
     1
 62
     7
176
     1
 62
   257
176
     1
 90
        1
176
     1
 90
        1
176
     1
 40
1.0
176
     1
 90
        0
176
     1
 62
   257
176
     1
 40
1.0
176
     1
 90
        1
176
     1
 90
        6
176
     1
 90
        2
176
     1
 62
     7
176
     1
 90
        5
176
     1
 90
        0
176
     1
 90
        0
176
     1
290
     0
176
     1
 90
        1
176
     1
 40
0.0
176
     1
 90
        0
176
     1
290
     1
176
     1
290
     1
176
     1
290
     0
176
     1
290
     0
176
     1
290
     0
176
     1
290
     0
176
     1
290
     0
176
     1
290
     0
176
     1
290
     0
176
     1
 90
       50
176
     1
 40
0.0
176
     1
 40
1.0
176
     1
 90
        0
176
     1
 62
    18
420
        0
176
     1
 90
       50
176
     1
 90
        3
176
     1
 62
     5
420
      255
176
     1
290
     0
176
     1
 90
       50
176
     1
 90
       50
176
     1
 90
       50
176
     1
290
     0
176
     1
 90
       50
176
     1
 62
   256
176
     0
 40
1.0
176
     0
 90
        2
176
     1
  1
strokes_ogs.tif
176
     1
290
     0
176
     1
 40
1.0
176
     1
 40
1.0
176
     1
  0
VISUALSTYLE
  5
32
102
{ACAD_REACTORS
330
2A
102
}
330
2A
100
AcDbVisualStyle
  2
Basic
 70
     7
177
     3
291
     1
 70
    58
 90
        1
176
     1
 90
        0
176
     1
 90
        1
176
     1
 90
        0
176
     1
 40
0.6
176
     1
 40
30.0
176
     1
 62
     7
420
 16777215
176
     1
 90
        0
176
     1
 90
        4
176
     1
 62
     7
176
     1
 62
   257
176
     1
 90
        1
176
     1
 90
        1
176
     1
 40
1.0
176
     1
 90
        8
176
     1
 62
     7
176
     1
 40
1.0
176
     1
 90
        1
176
     1
 90
        6
176
     1
 90
        2
176
     1
 62
     7
176
     1
 90
        5
176
     1
 90
        0
176
     1
 90
        0
176
     1
290
     0
176
     1
 90
        1
176
     1
 40
0.0
176
     1
 90
        0
176
     1
290
     0
176
     1
290
     1
176
     1
290
     1
176
     1
290
     0
176
     1
290
     0
176
     1
290
     0
176
     1
290
     0
176
     1
290
     0
176
     1
290
     0
176
     1
 90
       50
176
     1
 40
0.0
176
     1
 40
1.0
176
     1
 90
        0
176
     1
 62
    18
420
        0
176
     1
 90
       50
176
     1
 90
        3
176
     1
 62
     5
420
      255
176
     1
290
     0
176
     1
 90
       50
176
     1
 90
       50
176
     1
 90
       50
176
     1
290
     0
176
     1
 90
       50
176
     1
 62
   256
176
     0
 40
1.0
176
     0
 90
        2
176
     1
  1
strokes_ogs.tif
176
     1
290
     0
176
     1
 40
1.0
176
     1
 40
1.0
176
     1
  0
VISUALSTYLE
  5
36
102
{ACAD_REACTORS
330
2A
102
}
330
2A
100
AcDbVisualStyle
  2
Brighten
 70
    12
177
     3
291
     1
 70
    58
 90
        2
176
     1
 90
        2
176
     1
 90
        0
176
     1
 90
        0
176
     1
 40
0.6
176
     1
 40
30.0
176
     1
 62
     7
420
 16777215
176
     1
 90
        1
176
     1
 90
        4
176
     1
 62
     7
176
     1
 62
   257
176
     1
 90
        1
176
     1
 90
        1
176
     1
 40
1.0
176
     1
 90
        8
176
     1
 62
     7
176
     1
 40
1.0
176
     1
 90
        1
176
     1
 90
        6
176
     1
 90
        2
176
     1
 62
     7
176
     1
 90
        5
176
     1
 90
        0
176
     1
 90
        0
176
     1
290
     0
176
     1
 90
        1
176
     1
 40
50.0
176
     1
 90
        0
176
     1
290
     0
176
     1
290
     1
176
     1
290
     1
176
     1
290
     0
176
     1
290
     0
176
     1
290
     0
176
     1
290
     0
176
     1
290
     0
176
     1
290
     0
176
     1
 90
       50
176
     1
 40
0.0
176
     1
 40
1.0
176
     1
 90
        0
176
     1
 62
    18
420
        0
176
     1
 90
       50
176
     1
 90
        3
176
     1
 62
     5
420
      255
176
     1
290
     0
176
     1
 90
       50
176
     1
 90
       50
176
     1
 90
       50
176
     1
290
     0
176
     1
 90
       50
176
     1
 62
   256
176
     0
 40
1.0
176
     0
 90
        2
176
     1
  1
strokes_ogs.tif
176
     1
290
     0
176
     1
 40
1.0
176
     1
 40
1.0
176
     1
  0
VISUALSTYLE
  5
3A
102
{ACAD_REACTORS
330
2A
102
}
330
2A
100
AcDbVisualStyle
  2
ColorChange
 70
    16
177
     3
291
     1
 70
    58
 90
        2
176
     1
 90
        2
176
     1
 90
        3
176
     1
 90
        0
176
     1
 40
0.6
176
     1
 40
30.0
176
     1
 62
     8
420
  8421504
176
     1
 90
        1
176
     1
 90
        4
176
     1
 62
     7
176
     1
 62
   257
176
     1
 90
        1
176
     1
 90
        1
176
     1
 40
1.0
176
     1
 90
        8
176
     1
 62
     8
420
  8421504
176
     1
 40
1.0
176
     1
 90
        1
176
     1
 90
        6
176
     1
 90
        2
176
     1
 62
     7
176
     1
 90
        5
176
     1
 90
        0
176
     1
 90
        0
176
     1
290
     0
176
     1
 90
        1
176
     1
 40
0.0
176
     1
 90
        0
176
     1
290
     0
176
     1
290
     1
176
     1
290
     1
176
     1
290
     0
176
     1
290
     0
176
     1
290
     0
176
     1
290
     0
176
     1
290
     0
176
     1
290
     0
176
     1
 90
       50
176
     1
 40
0.0
176
     1
 40
1.0
176
     1
 90
        0
176
     1
 62
    18
420
        0
176
     1
 90
       50
176
     1
 90
        3
176
     1
 62
     5
420
      255
176
     1
290
     0
176
     1
 90
       50
176
     1
 90
       50
176
     1
 90
       50
176
     1
290
     0
176
     1
 90
       50
176
     1
 62
   256
176
     0
 40
1.0
176
     0
 90
        2
176
     1
  1
strokes_ogs.tif
176
     1
290
     0
176
     1
 40
1.0
176
     1
 40
1.0
176
     1
  0
VISUALSTYLE
  5
34
102
{ACAD_REACTORS
330
2A
102
}
330
2A
100
AcDbVisualStyle
  2
Conceptual
 70
     9
177
     3
291
     0
 70
    58
 90
        3
176
     1
 90
        2
176
     1
 90
        0
176
     1
 90
        0
176
     1
 40
0.6
176
     1
 40
30.0
176
     1
 62
     7
420
 16777215
176
     1
 90
        2
176
     1
 90
        2
176
     1
 62
     7
176
     1
 62
   257
176
     1
 90
        1
176
     1
 90
        1
176
     1
 40
179.0
176
     1
 90
        8
176
     1
 62
     7
176
     1
 40
1.0
176
     1
 90
        1
176
     1
 90
        6
176
     1
 90
        2
176
     1
 62
     7
176
     1
 90
        3
176
     1
 90
        0
176
     1
 90
        0
176
     1
290
     0
176
     1
 90
        1
176
     1
 40
0.0
176
     1
 90
        0
176
     1
290
     0
176
     1
290
     1
176
     1
290
     1
176
     1
290
     0
176
     1
290
     0
176
     1
290
     0
176
     1
290
     0
176
     1
290
     0
176
     1
290
     0
176
     1
 90
       50
176
     1
 40
0.0
176
     1
 40
1.0
176
     1
 90
        0
176
     1
 62
    18
420
        0
176
     1
 90
       50
176
     1
 90
        3
176
     1
 62
     5
420
      255
176
     1
290
     0
176
     1
 90
       50
176
     1
 90
       50
176
     1
 90
       50
176
     1
290
     0
176
     1
 90
       50
176
     1
 62
   256
176
     0
 40
1.0
176
     0
 90
        2
176
     1
  1
strokes_ogs.tif
176
     1
290
     0
176
     1
 40
1.0
176
     1
 40
1.0
176
     1
  0
VISUALSTYLE
  5
35
102
{ACAD_REACTORS
330
2A
102
}
330
2A
100
AcDbVisualStyle
  2
Dim
 70
    11
177
     3
291
     1
 70
    58
 90
        2
176
     1
 90
        2
176
     1
 90
        0
176
     1
 90
        0
176
     1
 40
0.6
176
     1
 40
30.0
176
     1
 62
     7
420
 16777215
176
     1
 90
        1
176
     1
 90
        4
176
     1
 62
     7
176
     1
 62
   257
176
     1
 90
        1
176
     1
 90
        1
176
     1
 40
1.0
176
     1
 90
        8
176
     1
 62
     7
176
     1
 40
1.0
176
     1
 90
        1
176
     1
 90
        6
176
     1
 90
        2
176
     1
 62
     7
176
     1
 90
        5
176
     1
 90
        0
176
     1
 90
        0
176
     1
290
     0
176
     1
 90
        1
176
     1
 40
-50.0
176
     1
 90
        0
176
     1
290
     0
176
     1
290
     1
176
     1
290
     1
176
     1
290
     0
176
     1
290
     0
176
     1
290
     0
176
     1
290
     0
176
     1
290
     0
176
     1
290
     0
176
     1
 90
       50
176
     1
 40
0.0
176
     1
 40
1.0
176
     1
 90
        0
176
     1
 62
    18
420
        0
176
     1
 90
       50
176
     1
 90
        3
176
     1
 62
     5
420
      255
176
     1
290
     0
176
     1
 90
       50
176
     1
 90
       50
176
     1
 90
       50
176
     1
290
     0
176
     1
 90
       50
176
     1
 62
   256
176
     0
 40
1.0
176
     0
 90
        2
176
     1
  1
strokes_ogs.tif
176
     1
290
     0
176
     1
 40
1.0
176
     1
 40
1.0
176
     1
  0
VISUALSTYLE
  5
3D
102
{ACAD_REACTORS
330
2A
102
}
330
2A
100
AcDbVisualStyle
  2
EdgeColorOff
 70
    22
177
     3
291
     1
 70
    58
 90
        2
176
     0
 90
        2
176
     0
 90
        0
176
     0
 90
        0
176
     0
 40
0.6
176
     0
 40
30.0
176
     0
 62
     7
420
 16777215
176
     0
 90
        1
176
     0
 90
        4
176
     0
 62
     7
176
     0
 62
   257
176
     0
 90
        1
176
     0
 90
        1
176
     0
 40
1.0
176
     0
 90
        8
176
     2
 62
     7
176
     0
 40
1.0
176
     0
 90
        1
176
     0
 90
        6
176
     0
 90
        2
176
     0
 62
     7
176
     0
 90
        5
176
     0
 90
        0
176
     0
 90
        0
176
     0
290
     0
176
     0
 90
        1
176
     0
 40
0.0
176
     0
 90
        0
176
     0
290
     0
176
     0
290
     1
176
     0
290
     1
176
     0
290
     0
176
     0
290
     0
176
     0
290
     0
176
     0
290
     0
176
     0
290
     0
176
     0
290
     0
176
     0
 90
       50
176
     0
 40
0.0
176
     0
 40
1.0
176
     0
 90
        0
176
     0
 62
    18
420
        0
176
     0
 90
       50
176
     0
 90
        3
176
     0
 62
     5
420
      255
176
     0
290
     0
176
     0
 90
       50
176
     0
 90
       50
176
     0
 90
       50
176
     0
290
     0
176
     0
 90
       50
176
     0
 62
   256
176
     0
 40
1.0
176
     0
 90
        2
176
     0
  1
strokes_ogs.tif
176
     0
290
     0
176
     0
 40
1.0
176
     0
 40
1.0
176
     0
  0
VISUALSTYLE
  5
39
102
{ACAD_REACTORS
330
2A
102
}
330
2A
100
AcDbVisualStyle
  2
Facepattern
 70
    15
177
     3
291
     1
 70
    58
 90
        2
176
     1
 90
        2
176
     1
 90
        0
176
     1
 90
        0
176
     1
 40
0.6
176
     1
 40
30.0
176
     1
 62
     7
420
 16777215
176
     1
 90
        1
176
     1
 90
        4
176
     1
 62
     7
176
     1
 62
   257
176
     1
 90
        1
176
     1
 90
        1
176
     1
 40
1.0
176
     1
 90
        8
176
     1
 62
     7
176
     1
 40
1.0
176
     1
 90
        1
176
     1
 90
        6
176
     1
 90
        2
176
     1
 62
     7
176
     1
 90
        5
176
     1
 90
        0
176
     1
 90
        0
176
     1
290
     0
176
     1
 90
        1
176
     1
 40
0.0
176
     1
 90
        0
176
     1
290
     0
176
     1
290
     1
176
     1
290
     1
176
     1
290
     0
176
     1
290
     0
176
     1
290
     0
176
     1
290
     0
176
     1
290
     0
176
     1
290
     0
176
     1
 90
       50
176
     1
 40
0.0
176
     1
 40
1.0
176
     1
 90
        0
176
     1
 62
    18
420
        0
176
     1
 90
       50
176
     1
 90
        3
176
     1
 62
     5
420
      255
176
     1
290
     0
176
     1
 90
       50
176
     1
 90
       50
176
     1
 90
       50
176
     1
290
     0
176
     1
 90
       50
176
     1
 62
   256
176
     0
 40
1.0
176
     0
 90
        2
176
     1
  1
strokes_ogs.tif
176
     1
290
     0
176
     1
 40
1.0
176
     1
 40
1.0
176
     1
  0
VISUALSTYLE
  5
2B
102
{ACAD_REACTORS
330
2A
102
}
330
2A
100
AcDbVisualStyle
  2
Flat
 70
     0
177
     3
291
     1
 70
    58
 90
        2
176
     1
 90
        1
176
     1
 90
        1
176
     1
 90
        2
176
     1
 40
0.6
176
     1
 40
30.0
176
     1
 62
     7
420
 16777215
176
     1
 90
        0
176
     1
 90
        0
176
     1
 62
     7
176
     1
 62
   257
176
     1
 90
        1
176
     1
 90
        1
176
     1
 40
1.0
176
     1
 90
        8
176
     1
 62
     7
176
     1
 40
1.0
176
     1
 90
        1
176
     1
 90
        6
176
     1
 90
        2
176
     1
 62
     7
176
     1
 90
        5
176
     1
 90
        0
176
     1
 90
        0
176
     1
290
     0
176
     1
 90
       13
176
     1
 40
0.0
176
     1
 90
        0
176
     1
290
     0
176
     1
290
     1
176
     1
290
     1
176
     1
290
     0
176
     1
290
     0
176
     1
290
     0
176
     1
290
     0
176
     1
290
     0
176
     1
290
     0
176
     1
 90
       50
176
     1
 40
0.0
176
     1
 40
1.0
176
     1
 90
        0
176
     1
 62
    18
420
        0
176
     1
 90
       50
176
     1
 90
        3
176
     1
 62
     5
420
      255
176
     1
290
     0
176
     1
 90
       50
176
     1
 90
       50
176
     1
 90
       50
176
     1
290
     0
176
     1
 90
       50
176
     1
 62
   256
176
     0
 40
1.0
176
     0
 90
        2
176
     1
  1
strokes_ogs.tif
176
     1
290
     0
176
     1
 40
1.0
176
     1
 40
1.0
176
     1
  0
VISUALSTYLE
  5
2C
102
{ACAD_REACTORS
330
2A
102
}
330
2A
100
AcDbVisualStyle
  2
FlatWithEdges
 70
     1
177
     3
291
     1
 70
    58
 90
        2
176
     1
 90
        1
176
     1
 90
        1
176
     1
 90
        2
176
     1
 40
0.6
176
     1
 40
30.0
176
     1
 62
     7
420
 16777215
176
     1
 90
        1
176
     1
 90
        0
176
     1
 62
     7
176
     1
 62
   257
176
     1
 90
        1
176
     1
 90
        1
176
     1
 40
1.0
176
     1
 90
        0
176
     1
 62
   257
176
     1
 40
1.0
176
     1
 90
        1
176
     1
 90
        6
176
     1
 90
        2
176
     1
 62
     7
176
     1
 90
        5
176
     1
 90
        0
176
     1
 90
        0
176
     1
290
     0
176
     1
 90
       13
176
     1
 40
0.0
176
     1
 90
        0
176
     1
290
     0
176
     1
290
     1
176
     1
290
     1
176
     1
290
     0
176
     1
290
     0
176
     1
290
     0
176
     1
290
     0
176
     1
290
     0
176
     1
290
     0
176
     1
 90
       50
176
     1
 40
0.0
176
     1
 40
1.0
176
     1
 90
        0
176
     1
 62
    18
420
        0
176
     1
 90
       50
176
     1
 90
        3
176
     1
 62
     5
420
      255
176
     1
290
     0
176
     1
 90
       50
176
     1
 90
       50
176
     1
 90
       50
176
     1
290
     0
176
     1
 90
       50
176
     1
 62
   256
176
     0
 40
1.0
176
     0
 90
        2
176
     1
  1
strokes_ogs.tif
176
     1
290
     0
176
     1
 40
1.0
176
     1
 40
1.0
176
     1
  0
VISUALSTYLE
  5
2D
102
{ACAD_REACTORS
330
2A
102
}
330
2A
100
AcDbVisualStyle
  2
Gouraud
 70
     2
177
     3
291
     1
 70
    58
 90
        2
176
     1
 90
        2
176
     1
 90
        1
176
     1
 90
        2
176
     1
 40
0.6
176
     1
 40
30.0
176
     1
 62
     7
420
 16777215
176
     1
 90
        0
176
     1
 90
        0
176
     1
 62
     7
176
     1
 62
   257
176
     1
 90
        1
176
     1
 90
        1
176
     1
 40
1.0
176
     1
 90
        0
176
     1
 62
     7
176
     1
 40
1.0
176
     1
 90
        1
176
     1
 90
        6
176
     1
 90
        2
176
     1
 62
     7
176
     1
 90
        5
176
     1
 90
        0
176
     1
 90
        0
176
     1
290
     0
176
     1
 90
       13
176
     1
 40
0.0
176
     1
 90
        0
176
     1
290
     0
176
     1
290
     1
176
     1
290
     1
176
     1
290
     0
176
     1
290
     0
176
     1
290
     0
176
     1
290
     0
176
     1
290
     0
176
     1
290
     0
176
     1
 90
       50
176
     1
 40
0.0
176
     1
 40
1.0
176
     1
 90
        0
176
     1
 62
    18
420
        0
176
     1
 90
       50
176
     1
 90
        3
176
     1
 62
     5
420
      255
176
     1
290
     0
176
     1
 90
       50
176
     1
 90
       50
176
     1
 90
       50
176
     1
290
     0
176
     1
 90
       50
176
     1
 62
   256
176
     0
 40
1.0
176
     0
 90
        2
176
     1
  1
strokes_ogs.tif
176
     1
290
     0
176
     1
 40
1.0
176
     1
 40
1.0
176
     1
  0
VISUALSTYLE
  5
2E
102
{ACAD_REACTORS
330
2A
102
}
330
2A
100
AcDbVisualStyle
  2
GouraudWithEdges
 70
     3
177
     3
291
     1
 70
    58
 90
        2
176
     1
 90
        2
176
     1
 90
        1
176
     1
 90
        2
176
     1
 40
0.6
176
     1
 40
30.0
176
     1
 62
     7
420
 16777215
176
     1
 90
        1
176
     1
 90
        0
176
     1
 62
     7
176
     1
 62
   257
176
     1
 90
        1
176
     1
 90
        1
176
     1
 40
1.0
176
     1
 90
        0
176
     1
 62
   257
176
     1
 40
1.0
176
     1
 90
        1
176
     1
 90
        6
176
     1
 90
        2
176
     1
 62
     7
176
     1
 90
        5
176
     1
 90
        0
176
     1
 90
        0
176
     1
290
     0
176
     1
 90
       13
176
     1
 40
0.0
176
     1
 90
        0
176
     1
290
     0
176
     1
290
     1
176
     1
290
     1
176
     1
290
     0
176
     1
290
     0
176
     1
290
     0
176
     1
290
     0
176
     1
290
     0
176
     1
290
     0
176
     1
 90
       50
176
     1
 40
0.0
176
     1
 40
1.0
176
     1
 90
        0
176
     1
 62
    18
420
        0
176
     1
 90
       50
176
     1
 90
        3
176
     1
 62
     5
420
      255
176
     1
290
     0
176
     1
 90
       50
176
     1
 90
       50
176
     1
 90
       50
176
     1
290
     0
176
     1
 90
       50
176
     1
 62
   256
176
     0
 40
1.0
176
     0
 90
        2
176
     1
  1
strokes_ogs.tif
176
     1
290
     0
176
     1
 40
1.0
176
     1
 40
1.0
176
     1
  0
VISUALSTYLE
  5
31
102
{ACAD_REACTORS
330
2A
102
}
330
2A
100
AcDbVisualStyle
  2
Hidden
 70
     6
177
     3
291
     0
 70
    58
 90
        1
176
     1
 90
        2
176
     1
 90
        2
176
     1
 90
        0
176
     1
 40
0.6
176
     1
 40
30.0
176
     1
 62
     7
420
 16777215
176
     1
 90
        2
176
     1
 90
        2
176
     1
 62
     7
176
     1
 62
   257
176
     1
 90
        2
176
     1
 90
        1
176
     1
 40
40.0
176
     1
 90
        0
176
     1
 62
   257
176
     1
 40
1.0
176
     1
 90
        1
176
     1
 90
        6
176
     1
 90
        2
176
     1
 62
     7
176
     1
 90
        3
176
     1
 90
        0
176
     1
 90
        0
176
     1
290
     0
176
     1
 90
        1
176
     1
 40
0.0
176
     1
 90
        0
176
     1
290
     0
176
     1
290
     1
176
     1
290
     1
176
     1
290
     0
176
     1
290
     0
176
     1
290
     0
176
     1
290
     0
176
     1
290
     0
176
     1
290
     0
176
     1
 90
       50
176
     1
 40
0.0
176
     1
 40
1.0
176
     1
 90
        0
176
     1
 62
    18
420
        0
176
     1
 90
       50
176
     1
 90
        3
176
     1
 62
     5
420
      255
176
     1
290
     0
176
     1
 90
       50
176
     1
 90
       50
176
     1
 90
       50
176
     1
290
     0
176
     1
 90
       50
176
     1
 62
   256
176
     0
 40
1.0
176
     0
 90
        2
176
     1
  1
strokes_ogs.tif
176
     1
290
     0
176
     1
 40
1.0
176
     1
 40
1.0
176
     1
  0
VISUALSTYLE
  5
3B
102
{ACAD_REACTORS
330
2A
102
}
330
2A
100
AcDbVisualStyle
  2
JitterOff
 70
    20
177
     3
291
     1
 70
    58
 90
        2
176
     0
 90
        2
176
     0
 90
        0
176
     0
 90
        0
176
     0
 40
0.6
176
     0
 40
30.0
176
     0
 62
     7
420
 16777215
176
     0
 90
        1
176
     0
 90
        4
176
     0
 62
     7
176
     0
 62
   257
176
     0
 90
        1
176
     0
 90
        1
176
     0
 40
1.0
176
     0
 90
       10
176
     2
 62
     7
176
     0
 40
1.0
176
     0
 90
        1
176
     0
 90
        6
176
     0
 90
        2
176
     0
 62
     7
176
     0
 90
        5
176
     0
 90
        0
176
     0
 90
        0
176
     0
290
     0
176
     0
 90
        1
176
     0
 40
0.0
176
     0
 90
        0
176
     0
290
     0
176
     0
290
     1
176
     0
290
     1
176
     0
290
     0
176
     0
290
     0
176
     0
290
     0
176
     0
290
     0
176
     0
290
     0
176
     0
290
     0
176
     0
 90
       50
176
     0
 40
0.0
176
     0
 40
1.0
176
     0
 90
        0
176
     0
 62
    18
420
        0
176
     0
 90
       50
176
     0
 90
        3
176
     0
 62
     5
420
      255
176
     0
290
     0
176
     0
 90
       50
176
     0
 90
       50
176
     0
 90
       50
176
     0
290
     0
176
     0
 90
       50
176
     0
 62
   256
176
     0
 40
1.0
176
     0
 90
        2
176
     0
  1
strokes_ogs.tif
176
     0
290
     0
176
     0
 40
1.0
176
     0
 40
1.0
176
     0
  0
VISUALSTYLE
  5
38
102
{ACAD_REACTORS
330
2A
102
}
330
2A
100
AcDbVisualStyle
  2
Linepattern
 70
    14
177
     3
291
     1
 70
    58
 90
        2
176
     1
 90
        2
176
     1
 90
        0
176
     1
 90
        0
176
     1
 40
0.6
176
     1
 40
30.0
176
     1
 62
     7
420
 16777215
176
     1
 90
        1
176
     1
 90
        4
176
     1
 62
     7
176
     1
 62
   257
176
     1
 90
        7
176
     1
 90
        7
176
     1
 40
1.0
176
     1
 90
        8
176
     1
 62
     7
176
     1
 40
1.0
176
     1
 90
        1
176
     1
 90
        6
176
     1
 90
        2
176
     1
 62
     7
176
     1
 90
        5
176
     1
 90
        0
176
     1
 90
        0
176
     1
290
     0
176
     1
 90
        1
176
     1
 40
0.0
176
     1
 90
        0
176
     1
290
     0
176
     1
290
     1
176
     1
290
     1
176
     1
290
     0
176
     1
290
     0
176
     1
290
     0
176
     1
290
     0
176
     1
290
     0
176
     1
290
     0
176
     1
 90
       50
176
     1
 40
0.0
176
     1
 40
1.0
176
     1
 90
        0
176
     1
 62
    18
420
        0
176
     1
 90
       50
176
     1
 90
        3
176
     1
 62
     5
420
      255
176
     1
290
     0
176
     1
 90
       50
176
     1
 90
       50
176
     1
 90
       50
176
     1
290
     0
176
     1
 90
       50
176
     1
 62
   256
176
     0
 40
1.0
176
     0
 90
        2
176
     1
  1
strokes_ogs.tif
176
     1
290
     0
176
     1
 40
1.0
176
     1
 40
1.0
176
     1
  0
VISUALSTYLE
  5
3C
102
{ACAD_REACTORS
330
2A
102
}
330
2A
100
AcDbVisualStyle
  2
OverhangOff
 70
    21
177
     3
291
     1
 70
    58
 90
        2
176
     0
 90
        2
176
     0
 90
        0
176
     0
 90
        0
176
     0
 40
0.6
176
     0
 40
30.0
176
     0
 62
     7
420
 16777215
176
     0
 90
        1
176
     0
 90
        4
176
     0
 62
     7
176
     0
 62
   257
176
     0
 90
        1
176
     0
 90
        1
176
     0
 40
1.0
176
     0
 90
        9
176
     2
 62
     7
176
     0
 40
1.0
176
     0
 90
        1
176
     0
 90
        6
176
     0
 90
        2
176
     0
 62
     7
176
     0
 90
        5
176
     0
 90
        0
176
     0
 90
        0
176
     0
290
     0
176
     0
 90
        1
176
     0
 40
0.0
176
     0
 90
        0
176
     0
290
     0
176
     0
290
     1
176
     0
290
     1
176
     0
290
     0
176
     0
290
     0
176
     0
290
     0
176
     0
290
     0
176
     0
290
     0
176
     0
290
     0
176
     0
 90
       50
176
     0
 40
0.0
176
     0
 40
1.0
176
     0
 90
        0
176
     0
 62
    18
420
        0
176
     0
 90
       50
176
     0
 90
        3
176
     0
 62
     5
420
      255
176
     0
290
     0
176
     0
 90
       50
176
     0
 90
       50
176
     0
 90
       50
176
     0
290
     0
176
     0
 90
       50
176
     0
 62
   256
176
     0
 40
1.0
176
     0
 90
        2
176
     0
  1
strokes_ogs.tif
176
     0
290
     0
176
     0
 40
1.0
176
     0
 40
1.0
176
     0
  0
VISUALSTYLE
  5
33
102
{ACAD_REACTORS
330
2A
102
}
330
2A
100
AcDbVisualStyle
  2
Realistic
 70
     8
177
     3
291
     0
 70
    58
 90
        2
176
     1
 90
        3
176
     1
 90
        0
176
     1
 90
        2
176
     1
 40
0.6
176
     1
 40
30.0
176
     1
 62
     7
420
 16777215
176
     1
 90
        0
176
     1
 90
        0
176
     1
 62
     7
176
     1
 62
   257
176
     1
 90
        1
176
     1
 90
        1
176
     1
 40
1.0
176
     1
 90
        8
176
     1
 62
   257
176
     1
 40
1.0
176
     1
 90
        1
176
     1
 90
        6
176
     1
 90
        2
176
     1
 62
     7
176
     1
 90
        3
176
     1
 90
        0
176
     1
 90
        0
176
     1
290
     0
176
     1
 90
       13
176
     1
 40
0.0
176
     1
 90
        0
176
     1
290
     0
176
     1
290
     1
176
     1
290
     1
176
     1
290
     0
176
     1
290
     0
176
     1
290
     0
176
     1
290
     0
176
     1
290
     0
176
     1
290
     0
176
     1
 90
       50
176
     1
 40
0.0
176
     1
 40
1.0
176
     1
 90
        0
176
     1
 62
    18
420
        0
176
     1
 90
       50
176
     1
 90
        3
176
     1
 62
     5
420
      255
176
     1
290
     0
176
     1
 90
       50
176
     1
 90
       50
176
     1
 90
       50
176
     1
290
     0
176
     1
 90
       50
176
     1
 62
   256
176
     0
 40
1.0
176
     0
 90
        2
176
     1
  1
strokes_ogs.tif
176
     1
290
     0
176
     1
 40
1.0
176
     1
 40
1.0
176
     1
  0
VISUALSTYLE
  5
42
102
{ACAD_REACTORS
330
2A
102
}
330
2A
100
AcDbVisualStyle
  2
Shaded
 70
    27
177
     3
291
     0
 70
    58
 90
        2
176
     1
 90
        2
176
     1
 90
        1
176
     1
 90
        2
176
     1
 40
0.6
176
     1
 40
30.0
176
     1
 62
     7
420
 16777215
176
     1
 90
        0
176
     1
 90
        4
176
     1
 62
     7
176
     1
 62
   257
176
     1
 90
        1
176
     1
 90
        1
176
     1
 40
1.0
176
     1
 90
        8
176
     1
 62
   257
176
     1
 40
1.0
176
     1
 90
        1
176
     1
 90
        6
176
     1
 90
        2
176
     1
 62
     8
420
  7895160
176
     1
 90
        3
176
     1
 90
        0
176
     1
 90
        0
176
     1
290
     0
176
     1
 90
        5
176
     1
 40
0.0
176
     1
 90
        0
176
     1
290
     0
176
     1
290
     1
176
     1
290
     1
176
     1
290
     0
176
     1
290
     0
176
     1
290
     0
176
     1
290
     0
176
     1
290
     0
176
     1
290
     0
176
     1
 90
       50
176
     1
 40
0.0
176
     1
 40
1.0
176
     1
 90
        0
176
     1
 62
    18
420
        0
176
     1
 90
       50
176
     1
 90
        3
176
     1
 62
     5
420
      255
176
     1
290
     0
176
     1
 90
       50
176
     1
 90
       50
176
     1
 90
       50
176
     1
290
     0
176
     1
 90
       50
176
     1
 62
   256
176
     0
 40
1.0
176
     0
 90
        2
176
     1
  1
strokes_ogs.tif
176
     1
290
     0
176
     1
 40
1.0
176
     1
 40
1.0
176
     1
  0
VISUALSTYLE
  5
41
102
{ACAD_REACTORS
330
2A
102
}
330
2A
100
AcDbVisualStyle
  2
Shaded with edges
 70
    26
177
     3
291
     0
 70
    58
 90
        2
176
     1
 90
        2
176
     1
 90
        1
176
     1
 90
        2
176
     1
 40
0.6
176
     1
 40
30.0
176
     1
 62
     7
420
 16777215
176
     1
 90
        1
176
     1
 90
       10
176
     1
 62
     7
176
     1
 62
   257
176
     1
 90
        2
176
     1
 90
        1
176
     1
 40
1.0
176
     1
 90
        8
176
     1
 62
   257
176
     1
 40
1.0
176
     1
 90
        1
176
     1
 90
        6
176
     1
 90
        2
176
     1
 62
     7
176
     1
 90
        3
176
     1
 90
        0
176
     1
 90
        0
176
     1
290
     0
176
     1
 90
        5
176
     1
 40
0.0
176
     1
 90
        0
176
     1
290
     0
176
     1
290
     1
176
     1
290
     1
176
     1
290
     0
176
     1
290
     0
176
     1
290
     0
176
     1
290
     0
176
     1
290
     0
176
     1
290
     0
176
     1
 90
       50
176
     1
 40
0.0
176
     1
 40
1.0
176
     1
 90
        0
176
     1
 62
    18
420
        0
176
     1
 90
       50
176
     1
 90
        3
176
     1
 62
     5
420
      255
176
     1
290
     0
176
     1
 90
       50
176
     1
 90
       50
176
     1
 90
       50
176
     1
290
     0
176
     1
 90
       50
176
     1
 62
   256
176
     0
 40
1.0
176
     0
 90
        2
176
     1
  1
strokes_ogs.tif
176
     1
290
     0
176
     1
 40
1.0
176
     1
 40
1.0
176
     1
  0
VISUALSTYLE
  5
3E
102
{ACAD_REACTORS
330
2A
102
}
330
2A
100
AcDbVisualStyle
  2
Shades of Gray
 70
    23
177
     3
291
     0
 70
    58
 90
        2
176
     1
 90
        2
176
     1
 90
        3
176
     1
 90
        0
176
     1
 40
0.6
176
     1
 40
30.0
176
     1
 62
     7
420
 16777215
176
     1
 90
        2
176
     1
 90
        2
176
     1
 62
     7
176
     1
 62
     7
176
     1
 90
        1
176
     1
 90
        1
176
     1
 40
40.0
176
     1
 90
        8
176
     1
 62
     7
176
     1
 40
1.0
176
     1
 90
        1
176
     1
 90
        6
176
     1
 90
        2
176
     1
 62
     7
176
     1
 90
        3
176
     1
 90
        0
176
     1
 90
        0
176
     1
290
     0
176
     1
 90
        1
176
     1
 40
0.0
176
     1
 90
        0
176
     1
290
     0
176
     1
290
     1
176
     1
290
     1
176
     1
290
     0
176
     1
290
     0
176
     1
290
     0
176
     1
290
     0
176
     1
290
     0
176
     1
290
     0
176
     1
 90
       50
176
     1
 40
0.0
176
     1
 40
1.0
176
     1
 90
        0
176
     1
 62
    18
420
        0
176
     1
 90
       50
176
     1
 90
        3
176
     1
 62
     5
420
      255
176
     1
290
     0
176
     1
 90
       50
176
     1
 90
       50
176
     1
 90
       50
176
     1
290
     0
176
     1
 90
       50
176
     1
 62
   256
176
     0
 40
1.0
176
     0
 90
        2
176
     1
  1
strokes_ogs.tif
176
     1
290
     0
176
     1
 40
1.0
176
     1
 40
1.0
176
     1
  0
VISUALSTYLE
  5
3F
102
{ACAD_REACTORS
330
2A
102
}
330
2A
100
AcDbVisualStyle
  2
Sketchy
 70
    24
177
     3
291
     0
 70
    58
 90
        1
176
     1
 90
        2
176
     1
 90
        2
176
     1
 90
        0
176
     1
 40
0.6
176
     1
 40
30.0
176
     1
 62
     7
420
 16777215
176
     1
 90
        2
176
     1
 90
        2
176
     1
 62
     7
176
     1
 62
     7
176
     1
 90
        1
176
     1
 90
        1
176
     1
 40
40.0
176
     1
 90
       11
176
     1
 62
     7
176
     1
 40
1.0
176
     1
 90
        1
176
     1
 90
        6
176
     1
 90
        2
176
     1
 62
     7
176
     1
 90
        6
176
     1
 90
        0
176
     1
 90
        0
176
     1
290
     0
176
     1
 90
        1
176
     1
 40
0.0
176
     1
 90
        0
176
     1
290
     0
176
     1
290
     1
176
     1
290
     1
176
     1
290
     0
176
     1
290
     0
176
     1
290
     0
176
     1
290
     0
176
     1
290
     0
176
     1
290
     0
176
     1
 90
       50
176
     1
 40
0.0
176
     1
 40
1.0
176
     1
 90
        0
176
     1
 62
    18
420
        0
176
     1
 90
       50
176
     1
 90
        3
176
     1
 62
     5
420
      255
176
     1
290
     0
176
     1
 90
       50
176
     1
 90
       50
176
     1
 90
       50
176
     1
290
     0
176
     1
 90
       50
176
     1
 62
   256
176
     0
 40
1.0
176
     0
 90
        2
176
     1
  1
strokes_ogs.tif
176
     1
290
     0
176
     1
 40
1.0
176
     1
 40
1.0
176
     1
  0
VISUALSTYLE
  5
37
102
{ACAD_REACTORS
330
2A
102
}
330
2A
100
AcDbVisualStyle
  2
Thicken
 70
    13
177
     3
291
     1
 70
    58
 90
        2
176
     1
 90
        2
176
     1
 90
        0
176
     1
 90
        0
176
     1
 40
0.6
176
     1
 40
30.0
176
     1
 62
     7
420
 16777215
176
     1
 90
        1
176
     1
 90
        4
176
     1
 62
     7
176
     1
 62
   257
176
     1
 90
        1
176
     1
 90
        1
176
     1
 40
1.0
176
     1
 90
       12
176
     1
 62
     7
176
     1
 40
1.0
176
     1
 90
        1
176
     1
 90
        6
176
     1
 90
        2
176
     1
 62
     7
176
     1
 90
        5
176
     1
 90
        0
176
     1
 90
        0
176
     1
290
     0
176
     1
 90
        1
176
     1
 40
0.0
176
     1
 90
        0
176
     1
290
     0
176
     1
290
     1
176
     1
290
     1
176
     1
290
     0
176
     1
290
     0
176
     1
290
     0
176
     1
290
     0
176
     1
290
     0
176
     1
290
     0
176
     1
 90
       50
176
     1
 40
0.0
176
     1
 40
1.0
176
     1
 90
        0
176
     1
 62
    18
420
        0
176
     1
 90
       50
176
     1
 90
        3
176
     1
 62
     5
420
      255
176
     1
290
     0
176
     1
 90
       50
176
     1
 90
       50
176
     1
 90
       50
176
     1
290
     0
176
     1
 90
       50
176
     1
 62
   256
176
     0
 40
1.0
176
     0
 90
        2
176
     1
  1
strokes_ogs.tif
176
     1
290
     0
176
     1
 40
1.0
176
     1
 40
1.0
176
     1
  0
VISUALSTYLE
  5
30
102
{ACAD_REACTORS
330
2A
102
}
330
2A
100
AcDbVisualStyle
  2
Wireframe
 70
     5
177
     3
291
     0
 70
    58
 90
        0
176
     1
 90
        2
176
     1
 90
        0
176
     1
 90
        0
176
     1
 40
0.6
176
     1
 40
30.0
176
     1
 62
     7
420
 16777215
176
     1
 90
        1
176
     1
 90
        4
176
     1
 62
     7
176
     1
 62
   257
176
     1
 90
        1
176
     1
 90
        1
176
     1
 40
1.0
176
     1
 90
        0
176
     1
 62
   257
176
     1
 40
1.0
176
     1
 90
        1
176
     1
 90
        6
176
     1
 90
        2
176
     1
 62
     7
176
     1
 90
        3
176
     1
 90
        0
176
     1
 90
        0
176
     1
290
     0
176
     1
 90
        1
176
     1
 40
0.0
176
     1
 90
        0
176
     1
290
     0
176
     1
290
     1
176
     1
290
     1
176
     1
290
     0
176
     1
290
     0
176
     1
290
     0
176
     1
290
     0
176
     1
290
     0
176
     1
290
     0
176
     1
 90
       50
176
     1
 40
0.0
176
     1
 40
1.0
176
     1
 90
        0
176
     1
 62
    18
420
        0
176
     1
 90
       50
176
     1
 90
        3
176
     1
 62
     5
420
      255
176
     1
290
     0
176
     1
 90
       50
176
     1
 90
       50
176
     1
 90
       50
176
     1
290
     0
176
     1
 90
       50
176
     1
 62
   256
176
     0
 40
1.0
176
     0
 90
        2
176
     1
  1
strokes_ogs.tif
176
     1
290
     0
176
     1
 40
1.0
176
     1
 40
1.0
176
     1
  0
VISUALSTYLE
  5
40
102
{ACAD_REACTORS
330
2A
102
}
330
2A
100
AcDbVisualStyle
  2
X-Ray
 70
    25
177
     3
291
     0
 70
    58
 90
        2
176
     1
 90
        2
176
     1
 90
        1
176
     1
 90
        1
176
     1
 40
0.5
176
     1
 40
30.0
176
     1
 62
     7
420
 16777215
176
     1
 90
        1
176
     1
 90
        0
176
     1
 62
     7
176
     1
 62
   257
176
     1
 90
        1
176
     1
 90
        1
176
     1
 40
1.0
176
     1
 90
        8
176
     1
 62
     7
176
     1
 40
1.0
176
     1
 90
        1
176
     1
 90
        6
176
     1
 90
        2
176
     1
 62
     7
176
     1
 90
        3
176
     1
 90
        0
176
     1
 90
        0
176
     1
290
     0
176
     1
 90
       13
176
     1
 40
0.0
176
     1
 90
        0
176
     1
290
     0
176
     1
290
     1
176
     1
290
     1
176
     1
290
     0
176
     1
290
     0
176
     1
290
     0
176
     1
290
     0
176
     1
290
     0
176
     1
290
     0
176
     1
 90
       50
176
     1
 40
0.0
176
     1
 40
1.0
176
     1
 90
        0
176
     1
 62
    18
420
        0
176
     1
 90
       50
176
     1
 90
        3
176
     1
 62
     5
420
      255
176
     1
290
     0
176
     1
 90
       50
176
     1
 90
       50
176
     1
 90
       50
176
     1
290
     0
176
     1
 90
       50
176
     1
 62
   256
176
     0
 40
1.0
176
     0
 90
        2
176
     1
  1
strokes_ogs.tif
176
     1
290
     0
176
     1
 40
1.0
176
     1
 40
1.0
176
     1
  0
DICTIONARYVAR
  5
29D
102
{ACAD_REACTORS
330
29C
102
}
330
29C
100
DictionaryVariables
280
     0
  1
1:1
  0
DICTIONARYVAR
  5
2A2
102
{ACAD_REACTORS
330
29C
102
}
330
29C
100
DictionaryVariables
280
     0
  1
Standard
  0
DICTIONARYVAR
  5
2A1
102
{ACAD_REACTORS
330
29C
102
}
330
29C
100
DictionaryVariables
280
     0
  1
Standard
  0
DICTIONARYVAR
  5
2A5
102
{ACAD_REACTORS
330
29C
102
}
330
29C
100
DictionaryVariables
280
     0
  1
6.000000
  0
DICTIONARY
  5
29E
330
6A
100
AcDbDictionary
280
     1
281
     1
  3
ACAD_ROUNDTRIP_2008_TABLESTYLE_CELLSTYLEMAP
360
29F
  0
CELLSTYLEMAP
  5
29F
102
{ACAD_REACTORS
330
29E
102
}
330
29E
100
AcDbCellStyleMap
 90
        3
300
CELLSTYLE
  1
TABLEFORMAT_BEGIN
 90
        5
170
     1
 91
        0
 92
    32768
 62
   257
 93
        1
300
CONTENTFORMAT
  1
CONTENTFORMAT_BEGIN
 90
        0
 91
        0
 92
        4
 93
        0
300

 40
0.0
140
1.0
 94
        5
 62
     0
340
11
144
6.0
309
CONTENTFORMAT_END
171
     1
301
MARGIN
  1
CELLMARGIN_BEGIN
 40
1.5
 40
1.5
 40
1.5
 40
1.5
 40
1.5
 40
1.5
309
CELLMARGIN_END
 94
        6
 95
        1
302
GRIDFORMAT
  1
GRIDFORMAT_BEGIN
 90
        0
 91
        1
 62
     0
 92
       -2
340
14
 93
        0
 40
0.045
309
GRIDFORMAT_END
 95
        2
302
GRIDFORMAT
  1
GRIDFORMAT_BEGIN
 90
        0
 91
        1
 62
     0
 92
       -2
340
14
 93
        0
 40
0.045
309
GRIDFORMAT_END
 95
        4
302
GRIDFORMAT
  1
GRIDFORMAT_BEGIN
 90
        0
 91
        1
 62
     0
 92
       -2
340
14
 93
        0
 40
0.045
309
GRIDFORMAT_END
 95
        8
302
GRIDFORMAT
  1
GRIDFORMAT_BEGIN
 90
        0
 91
        1
 62
     0
 92
       -2
340
14
 93
        0
 40
0.045
309
GRIDFORMAT_END
 95
       16
302
GRIDFORMAT
  1
GRIDFORMAT_BEGIN
 90
        0
 91
        1
 62
     0
 92
       -2
340
14
 93
        0
 40
0.045
309
GRIDFORMAT_END
 95
       32
302
GRIDFORMAT
  1
GRIDFORMAT_BEGIN
 90
        0
 91
        1
 62
     0
 92
       -2
340
14
 93
        0
 40
0.045
309
GRIDFORMAT_END
309
TABLEFORMAT_END
  1
CELLSTYLE_BEGIN
 90
        1
 91
        1
300
_TITLE
309
CELLSTYLE_END
300
CELLSTYLE
  1
TABLEFORMAT_BEGIN
 90
        5
170
     1
 91
        0
 92
        0
 62
   257
 93
        1
300
CONTENTFORMAT
  1
CONTENTFORMAT_BEGIN
 90
        0
 91
        0
 92
        4
 93
        0
300

 40
0.0
140
1.0
 94
        5
 62
     0
340
11
144
4.5
309
CONTENTFORMAT_END
171
     1
301
MARGIN
  1
CELLMARGIN_BEGIN
 40
1.5
 40
1.5
 40
1.5
 40
1.5
 40
1.5
 40
1.5
309
CELLMARGIN_END
 94
        6
 95
        1
302
GRIDFORMAT
  1
GRIDFORMAT_BEGIN
 90
        0
 91
        1
 62
     0
 92
       -2
340
14
 93
        0
 40
0.045
309
GRIDFORMAT_END
 95
        2
302
GRIDFORMAT
  1
GRIDFORMAT_BEGIN
 90
        0
 91
        1
 62
     0
 92
       -2
340
14
 93
        0
 40
0.045
309
GRIDFORMAT_END
 95
        4
302
GRIDFORMAT
  1
GRIDFORMAT_BEGIN
 90
        0
 91
        1
 62
     0
 92
       -2
340
14
 93
        0
 40
0.045
309
GRIDFORMAT_END
 95
        8
302
GRIDFORMAT
  1
GRIDFORMAT_BEGIN
 90
        0
 91
        1
 62
     0
 92
       -2
340
14
 93
        0
 40
0.045
309
GRIDFORMAT_END
 95
       16
302
GRIDFORMAT
  1
GRIDFORMAT_BEGIN
 90
        0
 91
        1
 62
     0
 92
       -2
340
14
 93
        0
 40
0.045
309
GRIDFORMAT_END
 95
       32
302
GRIDFORMAT
  1
GRIDFORMAT_BEGIN
 90
        0
 91
        1
 62
     0
 92
       -2
340
14
 93
        0
 40
0.045
309
GRIDFORMAT_END
309
TABLEFORMAT_END
  1
CELLSTYLE_BEGIN
 90
        2
 91
        1
300
_HEADER
309
CELLSTYLE_END
300
CELLSTYLE
  1
TABLEFORMAT_BEGIN
 90
        5
170
     1
 91
        0
 92
        0
 62
   257
 93
        1
300
CONTENTFORMAT
  1
CONTENTFORMAT_BEGIN
 90
        0
 91
        0
 92
        4
 93
        0
300

 40
0.0
140
1.0
 94
        2
 62
     0
340
11
144
4.5
309
CONTENTFORMAT_END
171
     1
301
MARGIN
  1
CELLMARGIN_BEGIN
 40
1.5
 40
1.5
 40
1.5
 40
1.5
 40
1.5
 40
1.5
309
CELLMARGIN_END
 94
        6
 95
        1
302
GRIDFORMAT
  1
GRIDFORMAT_BEGIN
 90
        0
 91
        1
 62
     0
 92
       -2
340
14
 93
        0
 40
0.045
309
GRIDFORMAT_END
 95
        2
302
GRIDFORMAT
  1
GRIDFORMAT_BEGIN
 90
        0
 91
        1
 62
     0
 92
       -2
340
14
 93
        0
 40
0.045
309
GRIDFORMAT_END
 95
        4
302
GRIDFORMAT
  1
GRIDFORMAT_BEGIN
 90
        0
 91
        1
 62
     0
 92
       -2
340
14
 93
        0
 40
0.045
309
GRIDFORMAT_END
 95
        8
302
GRIDFORMAT
  1
GRIDFORMAT_BEGIN
 90
        0
 91
        1
 62
     0
 92
       -2
340
14
 93
        0
 40
0.045
309
GRIDFORMAT_END
 95
       16
302
GRIDFORMAT
  1
GRIDFORMAT_BEGIN
 90
        0
 91
        1
 62
     0
 92
       -2
340
14
 93
        0
 40
0.045
309
GRIDFORMAT_END
 95
       32
302
GRIDFORMAT
  1
GRIDFORMAT_BEGIN
 90
        0
 91
        1
 62
     0
 92
       -2
340
14
 93
        0
 40
0.045
309
GRIDFORMAT_END
309
TABLEFORMAT_END
  1
CELLSTYLE_BEGIN
 90
        3
 91
        2
300
_DATA
309
CELLSTYLE_END
  0
ENDSEC
  0
EOF
