  0
SECTION
  2
HEADER
  9
$ACADVER
  1
AC1015
  9
$ACADMAINTVER
 70
     6
  9
$DWGCODEPAGE
  3
ANSI_1252
  9
$INSBASE
 10
5.482895
 20
10.571744
 30
0.0
  9
$EXTMIN
 10
5.482895
 20
10.571744
 30
0.0
  9
$EXTMAX
 10
1193.482895
 20
850.571744
 30
0.0
  9
$LIMMIN
 10
5.482895
 20
10.571744
  9
$LIMMAX
 10
1193.482895
 20
850.571744
  9
$ORTHOMODE
 70
     0
  9
$REGENMODE
 70
     1
  9
$FILLMODE
 70
     1
  9
$QTEXTMODE
 70
     0
  9
$MIRRTEXT
 70
     1
  9
$LTSCALE
 40
2.0
  9
$ATTMODE
 70
     1
  9
$TEXTSIZE
 40
2.5
  9
$TRACEWID
 40
1.0
  9
$TEXTSTYLE
  7
Standard
  9
$CLAYER
  8
0
  9
$CELTYPE
  6
ByLayer
  9
$CECOLOR
 62
     7
  9
$CELTSCALE
 40
1.0
  9
$DISPSILH
 70
     0
  9
$DIMSCALE
 40
2.0
  9
$DIMASZ
 40
3.5
  9
$DIMEXO
 40
0.625
  9
$DIMDLI
 40
3.75
  9
$DIMRND
 40
0.0
  9
$DIMDLE
 40
0.0
  9
$DIMEXE
 40
1.25
  9
$DIMTP
 40
0.0
  9
$DIMTM
 40
0.0
  9
$DIMTXT
 40
3.5
  9
$DIMCEN
 40
2.5
  9
$DIMTSZ
 40
0.0
  9
$DIMTOL
 70
     0
  9
$DIMLIM
 70
     0
  9
$DIMTIH
 70
     0
  9
$DIMTOH
 70
     0
  9
$DIMSE1
 70
     0
  9
$DIMSE2
 70
     0
  9
$DIMTAD
 70
     1
  9
$DIMZIN
 70
     8
  9
$DIMBLK
  1

  9
$DIMASO
 70
     1
  9
$DIMSHO
 70
     1
  9
$DIMPOST
  1

  9
$DIMAPOST
  1

  9
$DIMALT
 70
     0
  9
$DIMALTD
 70
     3
  9
$DIMALTF
 40
0.03937
  9
$DIMLFAC
 40
1.0
  9
$DIMTOFL
 70
     1
  9
$DIMTVP
 40
0.0
  9
$DIMTIX
 70
     0
  9
$DIMSOXD
 70
     0
  9
$DIMSAH
 70
     0
  9
$DIMBLK1
  1

  9
$DIMBLK2
  1

  9
$DIMSTYLE
  2
ISO-25
  9
$DIMCLRD
 70
     0
  9
$DIMCLRE
 70
     0
  9
$DIMCLRT
 70
     0
  9
$DIMTFAC
 40
1.0
  9
$DIMGAP
 40
0.625
  9
$DIMJUST
 70
     0
  9
$DIMSD1
 70
     0
  9
$DIMSD2
 70
     0
  9
$DIMTOLJ
 70
     0
  9
$DIMTZIN
 70
     8
  9
$DIMALTZ
 70
     0
  9
$DIMALTTZ
 70
     0
  9
$DIMUPT
 70
     0
  9
$DIMDEC
 70
     2
  9
$DIMTDEC
 70
     2
  9
$DIMALTU
 70
     2
  9
$DIMALTTD
 70
     3
  9
$DIMTXSTY
  7
Standard
  9
$DIMAUNIT
 70
     0
  9
$DIMADEC
 70
     0
  9
$DIMALTRND
 40
0.0
  9
$DIMAZIN
 70
     0
  9
$DIMDSEP
 70
    44
  9
$DIMATFIT
 70
     3
  9
$DIMFRAC
 70
     0
  9
$DIMLDRBLK
  1

  9
$DIMLUNIT
 70
     2
  9
$DIMLWD
 70
    -2
  9
$DIMLWE
 70
    -2
  9
$DIMTMOVE
 70
     0
  9
$LUNITS
 70
     2
  9
$LUPREC
 70
     4
  9
$SKETCHINC
 40
1.0
  9
$FILLETRAD
 40
10.0
  9
$AUNITS
 70
     0
  9
$AUPREC
 70
     0
  9
$MENU
  1
.
  9
$ELEVATION
 40
0.0
  9
$PELEVATION
 40
0.0
  9
$THICKNESS
 40
0.0
  9
$LIMCHECK
 70
     0
  9
$CHAMFERA
 40
10.0
  9
$CHAMFERB
 40
10.0
  9
$CHAMFERC
 40
20.0
  9
$CHAMFERD
 40
0.0
  9
$SKPOLY
 70
     0
  9
$TDCREATE
 40
2456015.48172529
  9
$TDUCREATE
 40
2456015.398391956
  9
$TDUPDATE
 40
2456015.481725301
  9
$TDUUPDATE
 40
2456015.398391968
  9
$TDINDWG
 40
0.0000000116
  9
$TDUSRTIMER
 40
0.0000000116
  9
$USRTIMER
 70
     1
  9
$ANGBASE
 50
0.0
  9
$ANGDIR
 70
     0
  9
$PDMODE
 70
     0
  9
$PDSIZE
 40
0.0
  9
$PLINEWID
 40
0.0
  9
$SPLFRAME
 70
     0
  9
$SPLINETYPE
 70
     6
  9
$SPLINESEGS
 70
     8
  9
$HANDSEED
  5
741
  9
$SURFTAB1
 70
     6
  9
$SURFTAB2
 70
     6
  9
$SURFTYPE
 70
     6
  9
$SURFU
 70
     6
  9
$SURFV
 70
     6
  9
$UCSBASE
  2

  9
$UCSNAME
  2

  9
$UCSORG
 10
0.0
 20
0.0
 30
0.0
  9
$UCSXDIR
 10
1.0
 20
0.0
 30
0.0
  9
$UCSYDIR
 10
0.0
 20
1.0
 30
0.0
  9
$UCSORTHOREF
  2

  9
$UCSORTHOVIEW
 70
     0
  9
$UCSORGTOP
 10
0.0
 20
0.0
 30
0.0
  9
$UCSORGBOTTOM
 10
0.0
 20
0.0
 30
0.0
  9
$UCSORGLEFT
 10
0.0
 20
0.0
 30
0.0
  9
$UCSORGRIGHT
 10
0.0
 20
0.0
 30
0.0
  9
$UCSORGFRONT
 10
0.0
 20
0.0
 30
0.0
  9
$UCSORGBACK
 10
0.0
 20
0.0
 30
0.0
  9
$PUCSBASE
  2

  9
$PUCSNAME
  2

  9
$PUCSORG
 10
0.0
 20
0.0
 30
0.0
  9
$PUCSXDIR
 10
1.0
 20
0.0
 30
0.0
  9
$PUCSYDIR
 10
0.0
 20
1.0
 30
0.0
  9
$PUCSORTHOREF
  2

  9
$PUCSORTHOVIEW
 70
     0
  9
$PUCSORGTOP
 10
0.0
 20
0.0
 30
0.0
  9
$PUCSORGBOTTOM
 10
0.0
 20
0.0
 30
0.0
  9
$PUCSORGLEFT
 10
0.0
 20
0.0
 30
0.0
  9
$PUCSORGRIGHT
 10
0.0
 20
0.0
 30
0.0
  9
$PUCSORGFRONT
 10
0.0
 20
0.0
 30
0.0
  9
$PUCSORGBACK
 10
0.0
 20
0.0
 30
0.0
  9
$USERI1
 70
     0
  9
$USERI2
 70
     0
  9
$USERI3
 70
     0
  9
$USERI4
 70
     0
  9
$USERI5
 70
     0
  9
$USERR1
 40
0.0
  9
$USERR2
 40
0.0
  9
$USERR3
 40
0.0
  9
$USERR4
 40
0.0
  9
$USERR5
 40
0.0
  9
$WORLDVIEW
 70
     1
  9
$SHADEDGE
 70
     3
  9
$SHADEDIF
 70
    70
  9
$TILEMODE
 70
     1
  9
$MAXACTVP
 70
    64
  9
$PINSBASE
 10
0.0
 20
0.0
 30
0.0
  9
$PLIMCHECK
 70
     0
  9
$PEXTMIN
 10
5.482895
 20
10.571744
 30
0.0
  9
$PEXTMAX
 10
1193.482895
 20
850.571744
 30
0.0
  9
$PLIMMIN
 10
5.482895
 20
10.571744
  9
$PLIMMAX
 10
1193.482895
 20
850.571744
  9
$UNITMODE
 70
     0
  9
$VISRETAIN
 70
     1
  9
$PLINEGEN
 70
     0
  9
$PSLTSCALE
 70
     1
  9
$TREEDEPTH
 70
  3020
  9
$CMLSTYLE
  2
Standard
  9
$CMLJUST
 70
     0
  9
$CMLSCALE
 40
20.0
  9
$PROXYGRAPHICS
 70
     1
  9
$MEASUREMENT
 70
     1
  9
$CELWEIGHT
370
    -1
  9
$ENDCAPS
280
     0
  9
$JOINSTYLE
280
     0
  9
$LWDISPLAY
290
     0
  9
$INSUNITS
 70
     4
  9
$HYPERLINKBASE
  1

  9
$STYLESHEET
  1

  9
$XEDIT
290
     1
  9
$CEPSNTYPE
380
     0
  9
$PSTYLEMODE
290
     1
  9
$FINGERPRINTGUID
  2
{FAEB1C30-E019-11D5-929B-00C0DF256EC4}
  9
$VERSIONGUID
  2
{FAEB1C32-E019-11D5-929B-00C0DF256EC4}
  9
$EXTNAMES
290
     1
  9
$PSVPSCALE
 40
0.0
  9
$OLESTARTUP
290
     0
  0
ENDSEC
  0
SECTION
  2
CLASSES
  0
CLASS
  1
ACDBDICTIONARYWDFLT
  2
AcDbDictionaryWithDefault
  3
ObjectDBX Classes
 90
        0
280
     0
281
     0
  0
CLASS
  1
ACDBPLACEHOLDER
  2
AcDbPlaceHolder
  3
ObjectDBX Classes
 90
        0
280
     0
281
     0
  0
CLASS
  1
LAYOUT
  2
AcDbLayout
  3
ObjectDBX Classes
 90
        0
280
     0
281
     0
  0
ENDSEC
  0
SECTION
  2
TABLES
  0
TABLE
  2
VPORT
  5
8
330
0
100
AcDbSymbolTable
 70
     2
  0
VPORT
  5
29
330
8
100
AcDbSymbolTableRecord
100
AcDbViewportTableRecord
  2
*ACTIVE
 70
     0
 10
0.0
 20
0.0
 11
1.0
 21
1.0
 12
599.482895
 22
430.571744
 13
0.0
 23
0.0
 14
1.0
 24
1.0
 15
0.0
 25
0.0
 16
0.0
 26
0.0
 36
1.0
 17
0.0
 27
0.0
 37
0.0
 40
840.0
 41
1.414286
 42
50.0
 43
0.0
 44
0.0
 50
0.0
 51
0.0
 71
    16
 72
   100
 73
     1
 74
     0
 75
     0
 76
     0
 77
     0
 78
     0
281
     0
 65
     0
110
0.0
120
0.0
130
0.0
111
1.0
121
0.0
131
0.0
112
0.0
122
1.0
132
0.0
 79
     0
146
0.0
  0
ENDTAB
  0
TABLE
  2
LTYPE
  5
5
330
0
100
AcDbSymbolTable
 70
     3
  0
LTYPE
  5
14
330
5
100
AcDbSymbolTableRecord
100
AcDbLinetypeTableRecord
  2
ByBlock
 70
     0
  3

 72
    65
 73
     0
 40
0.0
  0
LTYPE
  5
15
330
5
100
AcDbSymbolTableRecord
100
AcDbLinetypeTableRecord
  2
ByLayer
 70
     0
  3

 72
    65
 73
     0
 40
0.0
  0
LTYPE
  5
16
330
5
100
AcDbSymbolTableRecord
100
AcDbLinetypeTableRecord
  2
Continuous
 70
     0
  3
Solid line
 72
    65
 73
     0
 40
0.0
  0
LTYPE
  5
2A
330
5
100
AcDbSymbolTableRecord
100
AcDbLinetypeTableRecord
  2
DASHED
 70
     0
  3
__ __ __ __ __
 72
    65
 73
     2
 40
6.25
 49
5.0
 74
     4
 75
     0
340
0
 46
1.0
 50
0.0
 44
0.0
 45
0.0
 49
-1.25
 74
     4
 75
     0
340
0
 46
1.0
 50
0.0
 44
0.0
 45
0.0
  0
LTYPE
  5
30
330
5
100
AcDbSymbolTableRecord
100
AcDbLinetypeTableRecord
  2
DASHDOT
 70
     0
  3
__ . __ . __ . __ . __
 72
    65
 73
     4
 40
7.5
 49
5.0
 74
     4
 75
     0
340
0
 46
1.0
 50
0.0
 44
0.0
 45
0.0
 49
-1.25
 74
     4
 75
     0
340
0
 46
1.0
 50
0.0
 44
0.0
 45
0.0
 49
0.0
 74
     4
 75
     0
340
0
 46
1.0
 50
0.0
 44
0.0
 45
0.0
 49
-1.25
 74
     4
 75
     0
340
0
 46
1.0
 50
0.0
 44
0.0
 45
0.0
  0
ENDTAB
  0
TABLE
  2
LAYER
  5
2
330
0
100
AcDbSymbolTable
 70
     9
  0
LAYER
  5
10
330
2
100
AcDbSymbolTableRecord
100
AcDbLayerTableRecord
  2
0
 70
     0
 62
     7
  6
Continuous
370
    -3
390
F
  0
LAYER
  5
2B
330
2
100
AcDbSymbolTableRecord
100
AcDbLayerTableRecord
  2
LC-INFO-1-2-mm-A2-0
 70
     1
 62
     7
  6
ByBlock
370
    -3
390
F
  0
LAYER
  5
2C
330
2
100
AcDbSymbolTableRecord
100
AcDbLayerTableRecord
  2
LC-CUT-HIDDEN
 70
     0
 62
     7
  6
DASHED
370
    -3
390
F
  0
LAYER
  5
2D
330
2
100
AcDbSymbolTableRecord
100
AcDbLayerTableRecord
  2
LC-VIEWPORT
 70
     0
 62
     7
  6
ByBlock
370
    -3
390
F
  0
LAYER
  5
2E
330
2
100
AcDbSymbolTableRecord
100
AcDbLayerTableRecord
  2
LC-3D-HIDDEN
 70
     0
 62
     9
  6
DASHED
370
    -3
390
F
  0
LAYER
  5
31
330
2
100
AcDbSymbolTableRecord
100
AcDbLayerTableRecord
  2
LC-001-002-----0
 70
     0
 62
     2
  6
DASHDOT
370
    -3
390
F
  0
LAYER
  5
34
330
2
100
AcDbSymbolTableRecord
100
AcDbLayerTableRecord
  2
LC-002-100-D00-0
 70
     0
 62
     1
  6
ByBlock
370
    -3
390
F
  0
LAYER
  5
106
330
2
100
AcDbSymbolTableRecord
100
AcDbLayerTableRecord
  2
Defpoints
 70
     0
 62
     7
  6
Continuous
290
     0
370
    -3
390
F
  0
LAYER
  5
733
330
2
100
AcDbSymbolTableRecord
100
AcDbLayerTableRecord
  2
LC-003-003-----0
 70
     0
 62
     2
  6
ByBlock
370
    -3
390
F
  0
ENDTAB
  0
TABLE
  2
STYLE
  5
3
330
0
100
AcDbSymbolTable
 70
     3
  0
STYLE
  5
11
330
3
100
AcDbSymbolTableRecord
100
AcDbTextStyleTableRecord
  2
Standard
 70
     0
 40
0.0
 41
1.0
 50
0.0
 71
     0
 42
2.5
  3
txt
  4

  0
STYLE
  5
2F
330
3
100
AcDbSymbolTableRecord
100
AcDbTextStyleTableRecord
  2
LCTX15-400-0-0-Arial
 70
     0
 40
0.0
 41
0.8
 50
0.0
 71
     0
 42
3.5
  3

  4

1001
ACAD
1000
Arial
1071
 16777218
  0
STYLE
  5
103
330
3
100
AcDbSymbolTableRecord
100
AcDbTextStyleTableRecord
  2
LCTX15-400-0-0pDIN-Schrift
 70
     0
 40
2.5
 41
0.8
 50
15.0
 71
     0
 42
3.5
  3
STANDARD
  4

  0
ENDTAB
  0
TABLE
  2
VIEW
  5
6
330
0
100
AcDbSymbolTable
 70
     0
  0
ENDTAB
  0
TABLE
  2
UCS
  5
7
330
0
100
AcDbSymbolTable
 70
     0
  0
ENDTAB
  0
TABLE
  2
APPID
  5
9
330
0
100
AcDbSymbolTable
 70
     1
  0
APPID
  5
12
330
9
100
AcDbSymbolTableRecord
100
AcDbRegAppTableRecord
  2
ACAD
 70
     0
  0
ENDTAB
  0
TABLE
  2
DIMSTYLE
  5
A
330
0
100
AcDbSymbolTable
 70
     2
100
AcDbDimStyleTable
  0
DIMSTYLE
105
27
330
A
100
AcDbSymbolTableRecord
100
AcDbDimStyleTableRecord
  2
ISO-25
 70
     0
 41
2.5
 42
0.625
 43
3.75
 44
1.25
 73
     0
 74
     0
 77
     1
 78
     8
140
2.5
141
2.5
143
0.03937
147
0.625
171
     3
172
     1
271
     2
272
     2
274
     3
278
    44
283
     0
284
     8
340
11
  0
DIMSTYLE
105
104
102
{ACAD_REACTORS
330
105
330
21A
330
620
330
62D
330
63A
330
647
330
654
330
662
330
66F
330
734
102
}
330
A
100
AcDbSymbolTableRecord
100
AcDbDimStyleTableRecord
  2
LC-DIM-L-0100-02-02
 70
     0
 40
2.0
 41
10.0
 42
0.0
 43
7.5
 44
1.8
 73
     0
 74
     0
 77
     1
 78
     8
 79
     2
140
10.0
141
0.0
146
0.71
147
1.5
176
     2
177
     2
178
     2
179
     2
271
     2
278
    44
289
     1
340
103
  0
ENDTAB
  0
TABLE
  2
BLOCK_RECORD
  5
1
330
0
100
AcDbSymbolTable
 70
    46
  0
BLOCK_RECORD
  5
1F
330
1
100
AcDbSymbolTableRecord
100
AcDbBlockTableRecord
  2
*Model_Space
340
22
  0
BLOCK_RECORD
  5
1B
330
1
100
AcDbSymbolTableRecord
100
AcDbBlockTableRecord
  2
*Paper_Space
340
1E
  0
BLOCK_RECORD
  5
23
330
1
100
AcDbSymbolTableRecord
100
AcDbBlockTableRecord
  2
*Paper_Space0
340
26
  0
BLOCK_RECORD
  5
107
330
1
100
AcDbSymbolTableRecord
100
AcDbBlockTableRecord
  2
*D1
340
0
  0
BLOCK_RECORD
  5
12A
330
1
100
AcDbSymbolTableRecord
100
AcDbBlockTableRecord
  2
KLON1
340
0
102
{BLKREFS
331
12F
102
}
  0
BLOCK_RECORD
  5
132
330
1
100
AcDbSymbolTableRecord
100
AcDbBlockTableRecord
  2
KLON2
340
0
102
{BLKREFS
331
139
102
}
  0
BLOCK_RECORD
  5
13B
330
1
100
AcDbSymbolTableRecord
100
AcDbBlockTableRecord
  2
KLON3
340
0
102
{BLKREFS
331
140
102
}
  0
BLOCK_RECORD
  5
141
330
1
100
AcDbSymbolTableRecord
100
AcDbBlockTableRecord
  2
KLON4
340
0
102
{BLKREFS
331
146
102
}
  0
BLOCK_RECORD
  5
147
330
1
100
AcDbSymbolTableRecord
100
AcDbBlockTableRecord
  2
KLON5
340
0
102
{BLKREFS
331
14C
102
}
  0
BLOCK_RECORD
  5
14E
330
1
100
AcDbSymbolTableRecord
100
AcDbBlockTableRecord
  2
KLON6
340
0
102
{BLKREFS
331
155
102
}
  0
BLOCK_RECORD
  5
165
330
1
100
AcDbSymbolTableRecord
100
AcDbBlockTableRecord
  2
KLON7
340
0
102
{BLKREFS
331
16A
102
}
  0
BLOCK_RECORD
  5
16B
330
1
100
AcDbSymbolTableRecord
100
AcDbBlockTableRecord
  2
KLON8
340
0
102
{BLKREFS
331
170
102
}
  0
BLOCK_RECORD
  5
172
330
1
100
AcDbSymbolTableRecord
100
AcDbBlockTableRecord
  2
KLON9
340
0
102
{BLKREFS
331
177
102
}
  0
BLOCK_RECORD
  5
178
330
1
100
AcDbSymbolTableRecord
100
AcDbBlockTableRecord
  2
KLON10
340
0
102
{BLKREFS
331
17D
102
}
  0
BLOCK_RECORD
  5
21B
330
1
100
AcDbSymbolTableRecord
100
AcDbBlockTableRecord
  2
*D12
340
0
  0
BLOCK_RECORD
  5
429
330
1
100
AcDbSymbolTableRecord
100
AcDbBlockTableRecord
  2
KLON11
340
0
102
{BLKREFS
331
439
102
}
  0
BLOCK_RECORD
  5
43A
330
1
100
AcDbSymbolTableRecord
100
AcDbBlockTableRecord
  2
KLON12
340
0
102
{BLKREFS
331
44D
102
}
  0
BLOCK_RECORD
  5
451
330
1
100
AcDbSymbolTableRecord
100
AcDbBlockTableRecord
  2
KLON13
340
0
102
{BLKREFS
331
456
102
}
  0
BLOCK_RECORD
  5
57F
330
1
100
AcDbSymbolTableRecord
100
AcDbBlockTableRecord
  2
KLON14
340
0
102
{BLKREFS
331
588
102
}
  0
BLOCK_RECORD
  5
589
330
1
100
AcDbSymbolTableRecord
100
AcDbBlockTableRecord
  2
KLON15
340
0
102
{BLKREFS
331
592
102
}
  0
BLOCK_RECORD
  5
5AD
330
1
100
AcDbSymbolTableRecord
100
AcDbBlockTableRecord
  2
KLON16
340
0
102
{BLKREFS
331
5B5
102
}
  0
BLOCK_RECORD
  5
5B6
330
1
100
AcDbSymbolTableRecord
100
AcDbBlockTableRecord
  2
KLON17
340
0
102
{BLKREFS
331
5C2
102
}
  0
BLOCK_RECORD
  5
5C3
330
1
100
AcDbSymbolTableRecord
100
AcDbBlockTableRecord
  2
KLON18
340
0
102
{BLKREFS
331
5CF
102
}
  0
BLOCK_RECORD
  5
621
330
1
100
AcDbSymbolTableRecord
100
AcDbBlockTableRecord
  2
*D21
340
0
  0
BLOCK_RECORD
  5
62E
330
1
100
AcDbSymbolTableRecord
100
AcDbBlockTableRecord
  2
*D22
340
0
  0
BLOCK_RECORD
  5
63B
330
1
100
AcDbSymbolTableRecord
100
AcDbBlockTableRecord
  2
*D23
340
0
  0
BLOCK_RECORD
  5
648
330
1
100
AcDbSymbolTableRecord
100
AcDbBlockTableRecord
  2
*D24
340
0
  0
BLOCK_RECORD
  5
655
330
1
100
AcDbSymbolTableRecord
100
AcDbBlockTableRecord
  2
*D25
340
0
  0
BLOCK_RECORD
  5
663
330
1
100
AcDbSymbolTableRecord
100
AcDbBlockTableRecord
  2
*D26
340
0
  0
BLOCK_RECORD
  5
670
330
1
100
AcDbSymbolTableRecord
100
AcDbBlockTableRecord
  2
*D27
340
0
  0
BLOCK_RECORD
  5
67C
330
1
100
AcDbSymbolTableRecord
100
AcDbBlockTableRecord
  2
KLON19
340
0
102
{BLKREFS
331
682
102
}
  0
BLOCK_RECORD
  5
683
330
1
100
AcDbSymbolTableRecord
100
AcDbBlockTableRecord
  2
KLON20
340
0
102
{BLKREFS
331
689
102
}
  0
BLOCK_RECORD
  5
68A
330
1
100
AcDbSymbolTableRecord
100
AcDbBlockTableRecord
  2
KLON21
340
0
102
{BLKREFS
331
696
102
}
  0
BLOCK_RECORD
  5
697
330
1
100
AcDbSymbolTableRecord
100
AcDbBlockTableRecord
  2
KLON22
340
0
102
{BLKREFS
331
69D
102
}
  0
BLOCK_RECORD
  5
69E
330
1
100
AcDbSymbolTableRecord
100
AcDbBlockTableRecord
  2
KLON23
340
0
102
{BLKREFS
331
6A5
102
}
  0
BLOCK_RECORD
  5
6A7
330
1
100
AcDbSymbolTableRecord
100
AcDbBlockTableRecord
  2
KLON24
340
0
102
{BLKREFS
331
6BB
102
}
  0
BLOCK_RECORD
  5
6BC
330
1
100
AcDbSymbolTableRecord
100
AcDbBlockTableRecord
  2
KLON25
340
0
102
{BLKREFS
331
6D3
102
}
  0
BLOCK_RECORD
  5
6D4
330
1
100
AcDbSymbolTableRecord
100
AcDbBlockTableRecord
  2
KLON26
340
0
102
{BLKREFS
331
6E3
102
}
  0
BLOCK_RECORD
  5
6E4
330
1
100
AcDbSymbolTableRecord
100
AcDbBlockTableRecord
  2
KLON27
340
0
102
{BLKREFS
331
6E9
102
}
  0
BLOCK_RECORD
  5
6EB
330
1
100
AcDbSymbolTableRecord
100
AcDbBlockTableRecord
  2
KLON28
340
0
102
{BLKREFS
331
6F0
102
}
  0
BLOCK_RECORD
  5
6F3
330
1
100
AcDbSymbolTableRecord
100
AcDbBlockTableRecord
  2
KLON29
340
0
102
{BLKREFS
331
6F8
102
}
  0
BLOCK_RECORD
  5
6FB
330
1
100
AcDbSymbolTableRecord
100
AcDbBlockTableRecord
  2
KLON30
340
0
102
{BLKREFS
331
700
102
}
  0
BLOCK_RECORD
  5
702
330
1
100
AcDbSymbolTableRecord
100
AcDbBlockTableRecord
  2
KLON31
340
0
102
{BLKREFS
331
709
102
}
  0
BLOCK_RECORD
  5
70B
330
1
100
AcDbSymbolTableRecord
100
AcDbBlockTableRecord
  2
KLON32
340
0
102
{BLKREFS
331
710
102
}
  0
BLOCK_RECORD
  5
711
330
1
100
AcDbSymbolTableRecord
100
AcDbBlockTableRecord
  2
KLON33
340
0
102
{BLKREFS
331
716
102
}
  0
BLOCK_RECORD
  5
71A
330
1
100
AcDbSymbolTableRecord
100
AcDbBlockTableRecord
  2
KLON34
340
0
102
{BLKREFS
331
71F
102
}
  0
BLOCK_RECORD
  5
722
330
1
100
AcDbSymbolTableRecord
100
AcDbBlockTableRecord
  2
KLON35
340
0
102
{BLKREFS
331
727
102
}
  0
BLOCK_RECORD
  5
735
330
1
100
AcDbSymbolTableRecord
100
AcDbBlockTableRecord
  2
*D45
340
0
  0
ENDTAB
  0
ENDSEC
  0
SECTION
  2
BLOCKS
  0
BLOCK
  5
20
330
1F
100
AcDbEntity
  8
0
100
AcDbBlockBegin
  2
*Model_Space
 70
     0
 71
     0
 10
0.0
 20
0.0
 30
0.0
  3
*Model_Space
  1

  0
ENDBLK
  5
21
330
1F
100
AcDbEntity
  8
0
100
AcDbBlockEnd
  0
BLOCK
  5
1C
330
1B
100
AcDbEntity
 67
     1
  8
0
100
AcDbBlockBegin
  2
*Paper_Space
 70
     0
 71
     0
 10
0.0
 20
0.0
 30
0.0
  3
*Paper_Space
  1

  0
ENDBLK
  5
1D
330
1B
100
AcDbEntity
 67
     1
  8
0
100
AcDbBlockEnd
  0
BLOCK
  5
24
330
23
100
AcDbEntity
  8
0
100
AcDbBlockBegin
  2
*Paper_Space0
 70
     0
 71
     0
 10
0.0
 20
0.0
 30
0.0
  3
*Paper_Space0
  1

  0
ENDBLK
  5
25
330
23
100
AcDbEntity
  8
0
100
AcDbBlockEnd
  0
BLOCK
  5
111
330
107
100
AcDbEntity
  8
0
100
AcDbBlockBegin
  2
*D1
 70
     1
 71
     0
 10
0.0
 20
0.0
 30
0.0
  3
*D1
  1

  0
LINE
  5
108
330
107
100
AcDbEntity
  8
LC-002-100-D00-0
 62
     2
370
    -2
100
AcDbLine
 10
1131.300644
 20
399.86233
 30
0.0
 11
1131.300644
 21
311.658178
 31
0.0
  0
LINE
  5
109
330
107
100
AcDbEntity
  8
LC-002-100-D00-0
 62
     2
370
    -2
100
AcDbLine
 10
1050.300644
 20
399.86233
 30
0.0
 11
1050.300644
 21
311.658178
 31
0.0
  0
LINE
  5
10A
330
107
100
AcDbEntity
  8
LC-002-100-D00-0
 62
     2
370
    -2
100
AcDbLine
 10
1111.300644
 20
315.258178
 30
0.0
 11
1070.300644
 21
315.258178
 31
0.0
  0
SOLID
  5
10B
330
107
100
AcDbEntity
  8
LC-002-100-D00-0
 62
     2
100
AcDbTrace
 10
1111.300644
 20
311.924845
 30
0.0
 11
1111.300644
 21
318.591511
 31
0.0
 12
1131.300644
 22
315.258178
 32
0.0
 13
1131.300644
 23
315.258178
 33
0.0
  0
SOLID
  5
10C
330
107
100
AcDbEntity
  8
LC-002-100-D00-0
 62
     2
100
AcDbTrace
 10
1070.300644
 20
318.591511
 30
0.0
 11
1070.300644
 21
311.924845
 31
0.0
 12
1050.300644
 22
315.258178
 32
0.0
 13
1050.300644
 23
315.258178
 33
0.0
  0
MTEXT
  5
10D
330
107
100
AcDbEntity
  8
LC-002-100-D00-0
 62
     2
100
AcDbMText
 10
1095.204366
 20
337.258178
 30
0.0
 40
20.0
 41
0.0
 71
     5
 72
     1
  1
\A1;81
  7
LCTX15-400-0-0pDIN-Schrift
 73
     1
 44
1.0
  0
POINT
  5
10E
330
107
100
AcDbEntity
  8
Defpoints
 62
     0
100
AcDbPoint
 10
1131.300644
 20
399.86233
 30
0.0
  0
POINT
  5
10F
330
107
100
AcDbEntity
  8
Defpoints
 62
     0
100
AcDbPoint
 10
1050.300644
 20
399.86233
 30
0.0
  0
POINT
  5
110
330
107
100
AcDbEntity
  8
Defpoints
 62
     0
100
AcDbPoint
 10
1050.300644
 20
315.258178
 30
0.0
  0
ENDBLK
  5
112
330
107
100
AcDbEntity
  8
0
100
AcDbBlockEnd
  0
BLOCK
  5
12B
330
12A
100
AcDbEntity
  8
0
100
AcDbBlockBegin
  2
KLON1
 70
     0
 71
     0
 10
0.0
 20
0.0
 30
0.0
  3
KLON1
  1

  4
KLON1
  0
LINE
  5
12D
330
12A
100
AcDbEntity
  8
LC-002-100-D00-0
 62
     7
370
    15
100
AcDbLine
 10
763.247754
 20
115.891745
 30
0.0
 11
763.255175
 21
115.853572
 31
0.0
  0
LINE
  5
12E
330
12A
100
AcDbEntity
  8
LC-002-100-D00-0
 62
     7
370
    15
100
AcDbLine
 10
763.255175
 20
115.853572
 30
0.0
 11
763.27395
 21
115.821087
 31
0.0
  0
ENDBLK
  5
12C
330
12A
100
AcDbEntity
  8
0
100
AcDbBlockEnd
  0
BLOCK
  5
133
330
132
100
AcDbEntity
  8
0
100
AcDbBlockBegin
  2
KLON2
 70
     0
 71
     0
 10
0.0
 20
0.0
 30
0.0
  3
KLON2
  1

  4
KLON2
  0
LINE
  5
135
330
132
100
AcDbEntity
  8
LC-002-100-D00-0
 62
     7
370
    15
100
AcDbLine
 10
763.247754
 20
151.714413
 30
0.0
 11
763.26039
 21
151.633532
 31
0.0
  0
LINE
  5
136
330
132
100
AcDbEntity
  8
LC-002-100-D00-0
 62
     7
370
    15
100
AcDbLine
 10
763.26039
 20
151.633532
 30
0.0
 11
763.269182
 21
151.577323
 31
0.0
  0
LINE
  5
137
330
132
100
AcDbEntity
  8
LC-002-100-D00-0
 62
     7
370
    15
100
AcDbLine
 10
763.269182
 20
151.577323
 30
0.0
 11
763.271715
 21
151.561224
 31
0.0
  0
LINE
  5
138
330
132
100
AcDbEntity
  8
LC-002-100-D00-0
 62
     7
370
    15
100
AcDbLine
 10
763.271715
 20
151.561224
 30
0.0
 11
763.27395
 21
151.546939
 31
0.0
  0
ENDBLK
  5
134
330
132
100
AcDbEntity
  8
0
100
AcDbBlockEnd
  0
BLOCK
  5
13C
330
13B
100
AcDbEntity
  8
0
100
AcDbBlockBegin
  2
KLON3
 70
     0
 71
     0
 10
0.0
 20
0.0
 30
0.0
  3
KLON3
  1

  4
KLON3
  0
LINE
  5
13E
330
13B
100
AcDbEntity
  8
LC-002-100-D00-0
 62
     7
370
    15
100
AcDbLine
 10
763.247754
 20
162.877104
 30
0.0
 11
763.258334
 21
162.883015
 31
0.0
  0
LINE
  5
13F
330
13B
100
AcDbEntity
  8
LC-002-100-D00-0
 62
     7
370
    15
100
AcDbLine
 10
763.258334
 20
162.883015
 30
0.0
 11
763.27395
 21
162.891743
 31
0.0
  0
ENDBLK
  5
13D
330
13B
100
AcDbEntity
  8
0
100
AcDbBlockEnd
  0
BLOCK
  5
142
330
141
100
AcDbEntity
  8
0
100
AcDbBlockBegin
  2
KLON4
 70
     0
 71
     0
 10
0.0
 20
0.0
 30
0.0
  3
KLON4
  1

  4
KLON4
  0
LINE
  5
144
330
141
100
AcDbEntity
  8
LC-002-100-D00-0
 62
     7
370
    15
100
AcDbLine
 10
79.300131
 20
115.891745
 30
0.0
 11
79.29271
 21
115.853572
 31
0.0
  0
LINE
  5
145
330
141
100
AcDbEntity
  8
LC-002-100-D00-0
 62
     7
370
    15
100
AcDbLine
 10
79.29271
 20
115.853572
 30
0.0
 11
79.273935
 21
115.821087
 31
0.0
  0
ENDBLK
  5
143
330
141
100
AcDbEntity
  8
0
100
AcDbBlockEnd
  0
BLOCK
  5
148
330
147
100
AcDbEntity
  8
0
100
AcDbBlockBegin
  2
KLON5
 70
     0
 71
     0
 10
0.0
 20
0.0
 30
0.0
  3
KLON5
  1

  4
KLON5
  0
LINE
  5
14A
330
147
100
AcDbEntity
  8
LC-002-100-D00-0
 62
     7
370
    15
100
AcDbLine
 10
79.300131
 20
162.877104
 30
0.0
 11
79.289551
 21
162.883015
 31
0.0
  0
LINE
  5
14B
330
147
100
AcDbEntity
  8
LC-002-100-D00-0
 62
     7
370
    15
100
AcDbLine
 10
79.289551
 20
162.883015
 30
0.0
 11
79.273935
 21
162.891743
 31
0.0
  0
ENDBLK
  5
149
330
147
100
AcDbEntity
  8
0
100
AcDbBlockEnd
  0
BLOCK
  5
14F
330
14E
100
AcDbEntity
  8
0
100
AcDbBlockBegin
  2
KLON6
 70
     0
 71
     0
 10
0.0
 20
0.0
 30
0.0
  3
KLON6
  1

  4
KLON6
  0
LINE
  5
151
330
14E
100
AcDbEntity
  8
LC-002-100-D00-0
 62
     7
370
    15
100
AcDbLine
 10
79.300131
 20
151.714413
 30
0.0
 11
79.287495
 21
151.633532
 31
0.0
  0
LINE
  5
152
330
14E
100
AcDbEntity
  8
LC-002-100-D00-0
 62
     7
370
    15
100
AcDbLine
 10
79.287495
 20
151.633532
 30
0.0
 11
79.278703
 21
151.577323
 31
0.0
  0
LINE
  5
153
330
14E
100
AcDbEntity
  8
LC-002-100-D00-0
 62
     7
370
    15
100
AcDbLine
 10
79.278703
 20
151.577323
 30
0.0
 11
79.27617
 21
151.561224
 31
0.0
  0
LINE
  5
154
330
14E
100
AcDbEntity
  8
LC-002-100-D00-0
 62
     7
370
    15
100
AcDbLine
 10
79.27617
 20
151.561224
 30
0.0
 11
79.273935
 21
151.546939
 31
0.0
  0
ENDBLK
  5
150
330
14E
100
AcDbEntity
  8
0
100
AcDbBlockEnd
  0
BLOCK
  5
166
330
165
100
AcDbEntity
  8
0
100
AcDbBlockBegin
  2
KLON7
 70
     0
 71
     0
 10
0.0
 20
0.0
 30
0.0
  3
KLON7
  1

  4
KLON7
  0
LINE
  5
168
330
165
100
AcDbEntity
  8
LC-002-100-D00-0
 62
     7
370
    15
100
AcDbLine
 10
763.219233
 20
127.058335
 30
0.0
 11
763.235386
 21
127.064419
 31
0.0
  0
LINE
  5
169
330
165
100
AcDbEntity
  8
LC-002-100-D00-0
 62
     7
370
    15
100
AcDbLine
 10
763.235386
 20
127.064419
 30
0.0
 11
763.247754
 21
127.069075
 31
0.0
  0
ENDBLK
  5
167
330
165
100
AcDbEntity
  8
0
100
AcDbBlockEnd
  0
BLOCK
  5
16C
330
16B
100
AcDbEntity
  8
0
100
AcDbBlockBegin
  2
KLON8
 70
     0
 71
     0
 10
0.0
 20
0.0
 30
0.0
  3
KLON8
  1

  4
KLON8
  0
LINE
  5
16E
330
16B
100
AcDbEntity
  8
LC-002-100-D00-0
 62
     7
370
    15
100
AcDbLine
 10
79.328652
 20
127.058335
 30
0.0
 11
79.312499
 21
127.064419
 31
0.0
  0
LINE
  5
16F
330
16B
100
AcDbEntity
  8
LC-002-100-D00-0
 62
     7
370
    15
100
AcDbLine
 10
79.312499
 20
127.064419
 30
0.0
 11
79.300131
 21
127.069075
 31
0.0
  0
ENDBLK
  5
16D
330
16B
100
AcDbEntity
  8
0
100
AcDbBlockEnd
  0
BLOCK
  5
173
330
172
100
AcDbEntity
  8
0
100
AcDbBlockBegin
  2
KLON9
 70
     0
 71
     0
 10
0.0
 20
0.0
 30
0.0
  3
KLON9
  1

  4
KLON9
  0
LINE
  5
175
330
172
100
AcDbEntity
  8
LC-002-100-D00-0
 62
     7
370
    15
100
AcDbLine
 10
763.219233
 20
151.725153
 30
0.0
 11
763.235386
 21
151.719068
 31
0.0
  0
LINE
  5
176
330
172
100
AcDbEntity
  8
LC-002-100-D00-0
 62
     7
370
    15
100
AcDbLine
 10
763.235386
 20
151.719068
 30
0.0
 11
763.247754
 21
151.714413
 31
0.0
  0
ENDBLK
  5
174
330
172
100
AcDbEntity
  8
0
100
AcDbBlockEnd
  0
BLOCK
  5
179
330
178
100
AcDbEntity
  8
0
100
AcDbBlockBegin
  2
KLON10
 70
     0
 71
     0
 10
0.0
 20
0.0
 30
0.0
  3
KLON10
  1

  4
KLON10
  0
LINE
  5
17B
330
178
100
AcDbEntity
  8
LC-002-100-D00-0
 62
     7
370
    15
100
AcDbLine
 10
79.328652
 20
151.725153
 30
0.0
 11
79.312499
 21
151.719068
 31
0.0
  0
LINE
  5
17C
330
178
100
AcDbEntity
  8
LC-002-100-D00-0
 62
     7
370
    15
100
AcDbLine
 10
79.312499
 20
151.719068
 30
0.0
 11
79.300131
 21
151.714413
 31
0.0
  0
ENDBLK
  5
17A
330
178
100
AcDbEntity
  8
0
100
AcDbBlockEnd
  0
BLOCK
  5
225
330
21B
100
AcDbEntity
  8
0
100
AcDbBlockBegin
  2
*D12
 70
     1
 71
     0
 10
0.0
 20
0.0
 30
0.0
  3
*D12
  1

  0
LINE
  5
21C
330
21B
100
AcDbEntity
  8
LC-002-100-D00-0
 62
     2
370
    -2
100
AcDbLine
 10
816.273943
 20
216.891744
 30
0.0
 11
868.537301
 21
216.891744
 31
0.0
  0
LINE
  5
21D
330
21B
100
AcDbEntity
  8
LC-002-100-D00-0
 62
     2
370
    -2
100
AcDbLine
 10
816.273943
 20
61.891744
 30
0.0
 11
868.537301
 21
61.891744
 31
0.0
  0
LINE
  5
21E
330
21B
100
AcDbEntity
  8
LC-002-100-D00-0
 62
     2
370
    -2
100
AcDbLine
 10
864.937301
 20
196.891744
 30
0.0
 11
864.937301
 21
81.891744
 31
0.0
  0
SOLID
  5
21F
330
21B
100
AcDbEntity
  8
LC-002-100-D00-0
 62
     2
100
AcDbTrace
 10
868.270634
 20
196.891744
 30
0.0
 11
861.603968
 21
196.891744
 31
0.0
 12
864.937301
 22
216.891744
 32
0.0
 13
864.937301
 23
216.891744
 33
0.0
  0
SOLID
  5
220
330
21B
100
AcDbEntity
  8
LC-002-100-D00-0
 62
     2
100
AcDbTrace
 10
861.603968
 20
81.891744
 30
0.0
 11
868.270634
 21
81.891744
 31
0.0
 12
864.937301
 22
61.891744
 32
0.0
 13
864.937301
 23
61.891744
 33
0.0
  0
MTEXT
  5
221
330
21B
100
AcDbEntity
  8
LC-002-100-D00-0
 62
     2
100
AcDbMText
 10
842.937301
 20
139.889262
 30
0.0
 40
20.0
 41
0.0
 71
     5
 72
     1
  1
\A1;155
  7
LCTX15-400-0-0pDIN-Schrift
 11
6.123031769111886E-17
 21
1.0
 31
0.0
 73
     1
 44
1.0
  0
POINT
  5
222
330
21B
100
AcDbEntity
  8
Defpoints
 62
     0
100
AcDbPoint
 10
816.273943
 20
216.891744
 30
0.0
  0
POINT
  5
223
330
21B
100
AcDbEntity
  8
Defpoints
 62
     0
100
AcDbPoint
 10
816.273943
 20
61.891744
 30
0.0
  0
POINT
  5
224
330
21B
100
AcDbEntity
  8
Defpoints
 62
     0
100
AcDbPoint
 10
864.937301
 20
61.891744
 30
0.0
  0
ENDBLK
  5
226
330
21B
100
AcDbEntity
  8
0
100
AcDbBlockEnd
  0
BLOCK
  5
42A
330
429
100
AcDbEntity
  8
0
100
AcDbBlockBegin
  2
KLON11
 70
     0
 71
     0
 10
0.0
 20
0.0
 30
0.0
  3
KLON11
  1

  4
KLON11
  0
LINE
  5
42C
330
429
100
AcDbEntity
  8
LC-002-100-D00-0
 62
     7
370
    15
100
AcDbLine
 10
495.27395
 20
390.362331
 30
0.0
 11
495.271223
 21
390.36236
 31
0.0
  0
LINE
  5
42D
330
429
100
AcDbEntity
  8
LC-002-100-D00-0
 62
     7
370
    15
100
AcDbLine
 10
495.271223
 20
390.36236
 30
0.0
 11
495.266641
 21
390.362554
 31
0.0
  0
LINE
  5
42E
330
429
100
AcDbEntity
  8
LC-002-100-D00-0
 62
     7
370
    15
100
AcDbLine
 10
495.266641
 20
390.362554
 30
0.0
 11
495.257767
 21
390.363389
 31
0.0
  0
LINE
  5
42F
330
429
100
AcDbEntity
  8
LC-002-100-D00-0
 62
     7
370
    15
100
AcDbLine
 10
495.257767
 20
390.363389
 30
0.0
 11
495.255487
 21
390.363694
 31
0.0
  0
LINE
  5
430
330
429
100
AcDbEntity
  8
LC-002-100-D00-0
 62
     7
370
    15
100
AcDbLine
 10
495.255487
 20
390.363694
 30
0.0
 11
495.254913
 21
390.363776
 31
0.0
  0
LINE
  5
431
330
429
100
AcDbEntity
  8
LC-002-100-D00-0
 62
     7
370
    15
100
AcDbLine
 10
495.254913
 20
390.363776
 30
0.0
 11
495.254772
 21
390.363798
 31
0.0
  0
LINE
  5
432
330
429
100
AcDbEntity
  8
LC-002-100-D00-0
 62
     7
370
    15
100
AcDbLine
 10
495.254772
 20
390.363798
 30
0.0
 11
495.135592
 21
390.413069
 31
0.0
  0
LINE
  5
433
330
429
100
AcDbEntity
  8
LC-002-100-D00-0
 62
     7
370
    15
100
AcDbLine
 10
495.135592
 20
390.413069
 30
0.0
 11
494.294988
 21
391.225965
 31
0.0
  0
LINE
  5
434
330
429
100
AcDbEntity
  8
LC-002-100-D00-0
 62
     7
370
    15
100
AcDbLine
 10
494.294988
 20
391.225965
 30
0.0
 11
493.206309
 21
392.551296
 31
0.0
  0
LINE
  5
435
330
429
100
AcDbEntity
  8
LC-002-100-D00-0
 62
     7
370
    15
100
AcDbLine
 10
493.206309
 20
392.551296
 30
0.0
 11
491.780447
 21
394.45445
 31
0.0
  0
LINE
  5
436
330
429
100
AcDbEntity
  8
LC-002-100-D00-0
 62
     7
370
    15
100
AcDbLine
 10
491.780447
 20
394.45445
 30
0.0
 11
489.728102
 21
397.420109
 31
0.0
  0
LINE
  5
437
330
429
100
AcDbEntity
  8
LC-002-100-D00-0
 62
     7
370
    15
100
AcDbLine
 10
489.728102
 20
397.420109
 30
0.0
 11
487.357432
 21
401.061439
 31
0.0
  0
LINE
  5
438
330
429
100
AcDbEntity
  8
LC-002-100-D00-0
 62
     7
370
    15
100
AcDbLine
 10
487.357432
 20
401.061439
 30
0.0
 11
487.249242
 21
401.227825
 31
0.0
  0
ENDBLK
  5
42B
330
429
100
AcDbEntity
  8
0
100
AcDbBlockEnd
  0
BLOCK
  5
43B
330
43A
100
AcDbEntity
  8
0
100
AcDbBlockBegin
  2
KLON12
 70
     0
 71
     0
 10
0.0
 20
0.0
 30
0.0
  3
KLON12
  1

  4
KLON12
  0
LINE
  5
43D
330
43A
100
AcDbEntity
  8
LC-002-100-D00-0
 62
     7
370
    15
100
AcDbLine
 10
487.249242
 20
401.227825
 30
0.0
 11
486.507634
 21
403.606371
 31
0.0
  0
LINE
  5
43E
330
43A
100
AcDbEntity
  8
LC-002-100-D00-0
 62
     7
370
    15
100
AcDbLine
 10
486.507634
 20
403.606371
 30
0.0
 11
485.872896
 21
406.186798
 31
0.0
  0
LINE
  5
43F
330
43A
100
AcDbEntity
  8
LC-002-100-D00-0
 62
     7
370
    15
100
AcDbLine
 10
485.872896
 20
406.186798
 30
0.0
 11
485.353688
 21
409.318981
 31
0.0
  0
LINE
  5
440
330
43A
100
AcDbEntity
  8
LC-002-100-D00-0
 62
     7
370
    15
100
AcDbLine
 10
485.353688
 20
409.318981
 30
0.0
 11
485.116849
 21
412.655857
 31
0.0
  0
LINE
  5
441
330
43A
100
AcDbEntity
  8
LC-002-100-D00-0
 62
     7
370
    15
100
AcDbLine
 10
485.116849
 20
412.655857
 30
0.0
 11
485.207768
 21
415.925627
 31
0.0
  0
LINE
  5
442
330
43A
100
AcDbEntity
  8
LC-002-100-D00-0
 62
     7
370
    15
100
AcDbLine
 10
485.207768
 20
415.925627
 30
0.0
 11
485.619584
 21
419.217003
 31
0.0
  0
LINE
  5
443
330
43A
100
AcDbEntity
  8
LC-002-100-D00-0
 62
     7
370
    15
100
AcDbLine
 10
485.619584
 20
419.217003
 30
0.0
 11
486.263478
 21
422.209793
 31
0.0
  0
LINE
  5
444
330
43A
100
AcDbEntity
  8
LC-002-100-D00-0
 62
     7
370
    15
100
AcDbLine
 10
486.263478
 20
422.209793
 30
0.0
 11
487.102108
 21
425.059718
 31
0.0
  0
LINE
  5
445
330
43A
100
AcDbEntity
  8
LC-002-100-D00-0
 62
     7
370
    15
100
AcDbLine
 10
487.102108
 20
425.059718
 30
0.0
 11
488.169769
 21
427.970746
 31
0.0
  0
LINE
  5
446
330
43A
100
AcDbEntity
  8
LC-002-100-D00-0
 62
     7
370
    15
100
AcDbLine
 10
488.169769
 20
427.970746
 30
0.0
 11
489.293644
 21
430.580848
 31
0.0
  0
LINE
  5
447
330
43A
100
AcDbEntity
  8
LC-002-100-D00-0
 62
     7
370
    15
100
AcDbLine
 10
489.293644
 20
430.580848
 30
0.0
 11
490.442062
 21
432.957561
 31
0.0
  0
LINE
  5
448
330
43A
100
AcDbEntity
  8
LC-002-100-D00-0
 62
     7
370
    15
100
AcDbLine
 10
490.442062
 20
432.957561
 30
0.0
 11
491.413878
 21
434.811671
 31
0.0
  0
LINE
  5
449
330
43A
100
AcDbEntity
  8
LC-002-100-D00-0
 62
     7
370
    15
100
AcDbLine
 10
491.413878
 20
434.811671
 30
0.0
 11
491.956117
 21
435.797942
 31
0.0
  0
LINE
  5
44A
330
43A
100
AcDbEntity
  8
LC-002-100-D00-0
 62
     7
370
    15
100
AcDbLine
 10
491.956117
 20
435.797942
 30
0.0
 11
492.242815
 21
436.307468
 31
0.0
  0
LINE
  5
44B
330
43A
100
AcDbEntity
  8
LC-002-100-D00-0
 62
     7
370
    15
100
AcDbLine
 10
492.242815
 20
436.307468
 30
0.0
 11
492.273675
 21
436.361846
 31
0.0
  0
LINE
  5
44C
330
43A
100
AcDbEntity
  8
LC-002-100-D00-0
 62
     7
370
    15
100
AcDbLine
 10
492.273675
 20
436.361846
 30
0.0
 11
492.273951
 21
436.362331
 31
0.0
  0
ENDBLK
  5
43C
330
43A
100
AcDbEntity
  8
0
100
AcDbBlockEnd
  0
BLOCK
  5
452
330
451
100
AcDbEntity
  8
0
100
AcDbBlockBegin
  2
KLON13
 70
     0
 71
     0
 10
0.0
 20
0.0
 30
0.0
  3
KLON13
  1

  4
KLON13
  0
LINE
  5
454
330
451
100
AcDbEntity
  8
LC-002-100-D00-0
 62
     7
370
    15
100
AcDbLine
 10
486.591401
 20
399.862328
 30
0.0
 11
486.598181
 21
399.87661
 31
0.0
  0
LINE
  5
455
330
451
100
AcDbEntity
  8
LC-002-100-D00-0
 62
     7
370
    15
100
AcDbLine
 10
486.598181
 20
399.87661
 30
0.0
 11
487.249242
 21
401.227825
 31
0.0
  0
ENDBLK
  5
453
330
451
100
AcDbEntity
  8
0
100
AcDbBlockEnd
  0
BLOCK
  5
580
330
57F
100
AcDbEntity
  8
0
100
AcDbBlockBegin
  2
KLON14
 70
     0
 71
     0
 10
0.0
 20
0.0
 30
0.0
  3
KLON14
  1

  4
KLON14
  0
LINE
  5
582
330
57F
100
AcDbEntity
  8
LC-002-100-D00-0
 62
     7
370
    15
100
AcDbLine
 10
754.181625
 20
448.530494
 30
0.0
 11
756.737949
 21
448.62379
 31
0.0
  0
LINE
  5
583
330
57F
100
AcDbEntity
  8
LC-002-100-D00-0
 62
     7
370
    15
100
AcDbLine
 10
756.737949
 20
448.62379
 30
0.0
 11
758.883746
 21
448.702103
 31
0.0
  0
LINE
  5
584
330
57F
100
AcDbEntity
  8
LC-002-100-D00-0
 62
     7
370
    15
100
AcDbLine
 10
758.883746
 20
448.702103
 30
0.0
 11
760.61389
 21
448.765247
 31
0.0
  0
LINE
  5
585
330
57F
100
AcDbEntity
  8
LC-002-100-D00-0
 62
     7
370
    15
100
AcDbLine
 10
760.61389
 20
448.765247
 30
0.0
 11
761.924209
 21
448.813069
 31
0.0
  0
LINE
  5
586
330
57F
100
AcDbEntity
  8
LC-002-100-D00-0
 62
     7
370
    15
100
AcDbLine
 10
761.924209
 20
448.813069
 30
0.0
 11
762.811603
 21
448.845456
 31
0.0
  0
LINE
  5
587
330
57F
100
AcDbEntity
  8
LC-002-100-D00-0
 62
     7
370
    15
100
AcDbLine
 10
762.811603
 20
448.845456
 30
0.0
 11
763.273956
 21
448.86233
 31
0.0
  0
ENDBLK
  5
581
330
57F
100
AcDbEntity
  8
0
100
AcDbBlockEnd
  0
BLOCK
  5
58A
330
589
100
AcDbEntity
  8
0
100
AcDbBlockBegin
  2
KLON15
 70
     0
 71
     0
 10
0.0
 20
0.0
 30
0.0
  3
KLON15
  1

  4
KLON15
  0
LINE
  5
58C
330
589
100
AcDbEntity
  8
LC-002-100-D00-0
 62
     7
370
    15
100
AcDbLine
 10
88.366272
 20
448.530494
 30
0.0
 11
85.809948
 21
448.62379
 31
0.0
  0
LINE
  5
58D
330
589
100
AcDbEntity
  8
LC-002-100-D00-0
 62
     7
370
    15
100
AcDbLine
 10
85.809948
 20
448.62379
 30
0.0
 11
83.664151
 21
448.702103
 31
0.0
  0
LINE
  5
58E
330
589
100
AcDbEntity
  8
LC-002-100-D00-0
 62
     7
370
    15
100
AcDbLine
 10
83.664151
 20
448.702103
 30
0.0
 11
81.934007
 21
448.765247
 31
0.0
  0
LINE
  5
58F
330
589
100
AcDbEntity
  8
LC-002-100-D00-0
 62
     7
370
    15
100
AcDbLine
 10
81.934007
 20
448.765247
 30
0.0
 11
80.623688
 21
448.813069
 31
0.0
  0
LINE
  5
590
330
589
100
AcDbEntity
  8
LC-002-100-D00-0
 62
     7
370
    15
100
AcDbLine
 10
80.623688
 20
448.813069
 30
0.0
 11
79.736294
 21
448.845456
 31
0.0
  0
LINE
  5
591
330
589
100
AcDbEntity
  8
LC-002-100-D00-0
 62
     7
370
    15
100
AcDbLine
 10
79.736294
 20
448.845456
 30
0.0
 11
79.273941
 21
448.86233
 31
0.0
  0
ENDBLK
  5
58B
330
589
100
AcDbEntity
  8
0
100
AcDbBlockEnd
  0
BLOCK
  5
5AE
330
5AD
100
AcDbEntity
  8
0
100
AcDbBlockBegin
  2
KLON16
 70
     0
 71
     0
 10
0.0
 20
0.0
 30
0.0
  3
KLON16
  1

  4
KLON16
  0
LINE
  5
5B0
330
5AD
100
AcDbEntity
  8
LC-002-100-D00-0
 62
     7
370
    15
100
AcDbLine
 10
375.154333
 20
436.862328
 30
0.0
 11
375.167863
 21
436.703623
 31
0.0
  0
LINE
  5
5B1
330
5AD
100
AcDbEntity
  8
LC-002-100-D00-0
 62
     7
370
    15
100
AcDbLine
 10
375.167863
 20
436.703623
 30
0.0
 11
375.329787
 21
436.119203
 31
0.0
  0
LINE
  5
5B2
330
5AD
100
AcDbEntity
  8
LC-002-100-D00-0
 62
     7
370
    15
100
AcDbLine
 10
375.329787
 20
436.119203
 30
0.0
 11
375.579653
 21
435.672899
 31
0.0
  0
LINE
  5
5B3
330
5AD
100
AcDbEntity
  8
LC-002-100-D00-0
 62
     7
370
    15
100
AcDbLine
 10
375.579653
 20
435.672899
 30
0.0
 11
375.890953
 21
435.414148
 31
0.0
  0
LINE
  5
5B4
330
5AD
100
AcDbEntity
  8
LC-002-100-D00-0
 62
     7
370
    15
100
AcDbLine
 10
375.890953
 20
435.414148
 30
0.0
 11
376.028446
 21
435.37039
 31
0.0
  0
ENDBLK
  5
5AF
330
5AD
100
AcDbEntity
  8
0
100
AcDbBlockEnd
  0
BLOCK
  5
5B7
330
5B6
100
AcDbEntity
  8
0
100
AcDbBlockBegin
  2
KLON17
 70
     0
 71
     0
 10
0.0
 20
0.0
 30
0.0
  3
KLON17
  1

  4
KLON17
  0
LINE
  5
5B9
330
5B6
100
AcDbEntity
  8
LC-002-100-D00-0
 62
     7
370
    15
100
AcDbLine
 10
763.246598
 20
450.362329
 30
0.0
 11
763.245882
 21
450.400311
 31
0.0
  0
LINE
  5
5BA
330
5B6
100
AcDbEntity
  8
LC-002-100-D00-0
 62
     7
370
    15
100
AcDbLine
 10
763.245882
 20
450.400311
 30
0.0
 11
763.243826
 21
450.513097
 31
0.0
  0
LINE
  5
5BB
330
5B6
100
AcDbEntity
  8
LC-002-100-D00-0
 62
     7
370
    15
100
AcDbLine
 10
763.243826
 20
450.513097
 30
0.0
 11
763.240488
 21
450.697266
 31
0.0
  0
LINE
  5
5BC
330
5B6
100
AcDbEntity
  8
LC-002-100-D00-0
 62
     7
370
    15
100
AcDbLine
 10
763.240488
 20
450.697266
 30
0.0
 11
763.235928
 21
450.947219
 31
0.0
  0
LINE
  5
5BD
330
5B6
100
AcDbEntity
  8
LC-002-100-D00-0
 62
     7
370
    15
100
AcDbLine
 10
763.235928
 20
450.947219
 30
0.0
 11
763.230296
 21
451.255361
 31
0.0
  0
LINE
  5
5BE
330
5B6
100
AcDbEntity
  8
LC-002-100-D00-0
 62
     7
370
    15
100
AcDbLine
 10
763.230296
 20
451.255361
 30
0.0
 11
763.223769
 21
451.61233
 31
0.0
  0
LINE
  5
5BF
330
5B6
100
AcDbEntity
  8
LC-002-100-D00-0
 62
     7
370
    15
100
AcDbLine
 10
763.223769
 20
451.61233
 30
0.0
 11
763.216587
 21
452.00728
 31
0.0
  0
LINE
  5
5C0
330
5B6
100
AcDbEntity
  8
LC-002-100-D00-0
 62
     7
370
    15
100
AcDbLine
 10
763.216587
 20
452.00728
 30
0.0
 11
763.208898
 21
452.42821
 31
0.0
  0
LINE
  5
5C1
330
5B6
100
AcDbEntity
  8
LC-002-100-D00-0
 62
     7
370
    15
100
AcDbLine
 10
763.208898
 20
452.42821
 30
0.0
 11
763.20097
 21
452.862331
 31
0.0
  0
ENDBLK
  5
5B8
330
5B6
100
AcDbEntity
  8
0
100
AcDbBlockEnd
  0
BLOCK
  5
5C4
330
5C3
100
AcDbEntity
  8
0
100
AcDbBlockBegin
  2
KLON18
 70
     0
 71
     0
 10
0.0
 20
0.0
 30
0.0
  3
KLON18
  1

  4
KLON18
  0
LINE
  5
5C6
330
5C3
100
AcDbEntity
  8
LC-002-100-D00-0
 62
     7
370
    15
100
AcDbLine
 10
79.3013
 20
450.362329
 30
0.0
 11
79.302015
 21
450.400311
 31
0.0
  0
LINE
  5
5C7
330
5C3
100
AcDbEntity
  8
LC-002-100-D00-0
 62
     7
370
    15
100
AcDbLine
 10
79.302015
 20
450.400311
 30
0.0
 11
79.304071
 21
450.513097
 31
0.0
  0
LINE
  5
5C8
330
5C3
100
AcDbEntity
  8
LC-002-100-D00-0
 62
     7
370
    15
100
AcDbLine
 10
79.304071
 20
450.513097
 30
0.0
 11
79.307409
 21
450.697266
 31
0.0
  0
LINE
  5
5C9
330
5C3
100
AcDbEntity
  8
LC-002-100-D00-0
 62
     7
370
    15
100
AcDbLine
 10
79.307409
 20
450.697266
 30
0.0
 11
79.311969
 21
450.947219
 31
0.0
  0
LINE
  5
5CA
330
5C3
100
AcDbEntity
  8
LC-002-100-D00-0
 62
     7
370
    15
100
AcDbLine
 10
79.311969
 20
450.947219
 30
0.0
 11
79.317601
 21
451.255361
 31
0.0
  0
LINE
  5
5CB
330
5C3
100
AcDbEntity
  8
LC-002-100-D00-0
 62
     7
370
    15
100
AcDbLine
 10
79.317601
 20
451.255361
 30
0.0
 11
79.324128
 21
451.61233
 31
0.0
  0
LINE
  5
5CC
330
5C3
100
AcDbEntity
  8
LC-002-100-D00-0
 62
     7
370
    15
100
AcDbLine
 10
79.324128
 20
451.61233
 30
0.0
 11
79.33131
 21
452.00728
 31
0.0
  0
LINE
  5
5CD
330
5C3
100
AcDbEntity
  8
LC-002-100-D00-0
 62
     7
370
    15
100
AcDbLine
 10
79.33131
 20
452.00728
 30
0.0
 11
79.338999
 21
452.42821
 31
0.0
  0
LINE
  5
5CE
330
5C3
100
AcDbEntity
  8
LC-002-100-D00-0
 62
     7
370
    15
100
AcDbLine
 10
79.338999
 20
452.42821
 30
0.0
 11
79.346927
 21
452.862331
 31
0.0
  0
ENDBLK
  5
5C5
330
5C3
100
AcDbEntity
  8
0
100
AcDbBlockEnd
  0
BLOCK
  5
62B
330
621
100
AcDbEntity
  8
0
100
AcDbBlockBegin
  2
*D21
 70
     1
 71
     0
 10
0.0
 20
0.0
 30
0.0
  3
*D21
  1

  0
LINE
  5
622
330
621
100
AcDbEntity
  8
LC-002-100-D00-0
 62
     2
370
    -2
100
AcDbLine
 10
821.273949
 20
470.86233
 30
0.0
 11
852.277923
 21
470.86233
 31
0.0
  0
LINE
  5
623
330
621
100
AcDbEntity
  8
LC-002-100-D00-0
 62
     2
370
    -2
100
AcDbLine
 10
637.273746
 20
413.36233
 30
0.0
 11
852.277923
 21
413.36233
 31
0.0
  0
LINE
  5
624
330
621
100
AcDbEntity
  8
LC-002-100-D00-0
 62
     2
370
    -2
100
AcDbLine
 10
848.677923
 20
450.86233
 30
0.0
 11
848.677923
 21
433.36233
 31
0.0
  0
SOLID
  5
625
330
621
100
AcDbEntity
  8
LC-002-100-D00-0
 62
     2
100
AcDbTrace
 10
852.011256
 20
450.86233
 30
0.0
 11
845.344589
 21
450.86233
 31
0.0
 12
848.677923
 22
470.86233
 32
0.0
 13
848.677923
 23
470.86233
 33
0.0
  0
SOLID
  5
626
330
621
100
AcDbEntity
  8
LC-002-100-D00-0
 62
     2
100
AcDbTrace
 10
845.344589
 20
433.36233
 30
0.0
 11
852.011256
 21
433.36233
 31
0.0
 12
848.677923
 22
413.36233
 32
0.0
 13
848.677923
 23
413.36233
 33
0.0
  0
MTEXT
  5
627
330
621
100
AcDbEntity
  8
LC-002-100-D00-0
 62
     2
100
AcDbMText
 10
826.677923
 20
442.145844
 30
0.0
 40
20.0
 41
0.0
 71
     5
 72
     1
  1
\A1;57,5
  7
LCTX15-400-0-0pDIN-Schrift
 11
6.123031769111886E-17
 21
1.0
 31
0.0
 73
     1
 44
1.0
  0
POINT
  5
628
330
621
100
AcDbEntity
  8
Defpoints
 62
     0
100
AcDbPoint
 10
821.273949
 20
470.86233
 30
0.0
  0
POINT
  5
629
330
621
100
AcDbEntity
  8
Defpoints
 62
     0
100
AcDbPoint
 10
637.273746
 20
413.36233
 30
0.0
  0
POINT
  5
62A
330
621
100
AcDbEntity
  8
Defpoints
 62
     0
100
AcDbPoint
 10
848.677923
 20
413.36233
 30
0.0
  0
ENDBLK
  5
62C
330
621
100
AcDbEntity
  8
0
100
AcDbBlockEnd
  0
BLOCK
  5
638
330
62E
100
AcDbEntity
  8
0
100
AcDbBlockBegin
  2
*D22
 70
     1
 71
     0
 10
0.0
 20
0.0
 30
0.0
  3
*D22
  1

  0
LINE
  5
62F
330
62E
100
AcDbEntity
  8
LC-002-100-D00-0
 62
     2
370
    -2
100
AcDbLine
 10
21.273949
 20
470.86233
 30
0.0
 11
57.95087
 21
470.86233
 31
0.0
  0
LINE
  5
630
330
62E
100
AcDbEntity
  8
LC-002-100-D00-0
 62
     2
370
    -2
100
AcDbLine
 10
367.256069
 20
380.86233
 30
0.0
 11
50.75087
 21
380.86233
 31
0.0
  0
LINE
  5
631
330
62E
100
AcDbEntity
  8
LC-002-100-D00-0
 62
     2
370
    -2
100
AcDbLine
 10
54.35087
 20
450.86233
 30
0.0
 11
54.35087
 21
400.86233
 31
0.0
  0
SOLID
  5
632
330
62E
100
AcDbEntity
  8
LC-002-100-D00-0
 62
     2
100
AcDbTrace
 10
57.684203
 20
450.86233
 30
0.0
 11
51.017537
 21
450.86233
 31
0.0
 12
54.35087
 22
470.86233
 32
0.0
 13
54.35087
 23
470.86233
 33
0.0
  0
SOLID
  5
633
330
62E
100
AcDbEntity
  8
LC-002-100-D00-0
 62
     2
100
AcDbTrace
 10
51.017537
 20
400.86233
 30
0.0
 11
57.684203
 21
400.86233
 31
0.0
 12
54.35087
 22
380.86233
 32
0.0
 13
54.35087
 23
380.86233
 33
0.0
  0
MTEXT
  5
634
330
62E
100
AcDbEntity
  8
LC-002-100-D00-0
 62
     2
100
AcDbMText
 10
32.35087
 20
422.171744
 30
0.0
 40
20.0
 41
0.0
 71
     5
 72
     1
  1
\A1;90
  7
LCTX15-400-0-0pDIN-Schrift
 11
6.123031769111886E-17
 21
1.0
 31
0.0
 73
     1
 44
1.0
  0
POINT
  5
635
330
62E
100
AcDbEntity
  8
Defpoints
 62
     0
100
AcDbPoint
 10
21.273949
 20
470.86233
 30
0.0
  0
POINT
  5
636
330
62E
100
AcDbEntity
  8
Defpoints
 62
     0
100
AcDbPoint
 10
367.256069
 20
380.86233
 30
0.0
  0
POINT
  5
637
330
62E
100
AcDbEntity
  8
Defpoints
 62
     0
100
AcDbPoint
 10
54.35087
 20
380.86233
 30
0.0
  0
ENDBLK
  5
639
330
62E
100
AcDbEntity
  8
0
100
AcDbBlockEnd
  0
BLOCK
  5
645
330
63B
100
AcDbEntity
  8
0
100
AcDbBlockBegin
  2
*D23
 70
     1
 71
     0
 10
0.0
 20
0.0
 30
0.0
  3
*D23
  1

  0
LINE
  5
63C
330
63B
100
AcDbEntity
  8
LC-002-100-D00-0
 62
     2
370
    -2
100
AcDbLine
 10
821.273949
 20
470.86233
 30
0.0
 11
899.74314
 21
470.86233
 31
0.0
  0
LINE
  5
63D
330
63B
100
AcDbEntity
  8
LC-002-100-D00-0
 62
     2
370
    -2
100
AcDbLine
 10
630.773949
 20
336.36233
 30
0.0
 11
899.74314
 21
336.36233
 31
0.0
  0
LINE
  5
63E
330
63B
100
AcDbEntity
  8
LC-002-100-D00-0
 62
     2
370
    -2
100
AcDbLine
 10
896.14314
 20
450.86233
 30
0.0
 11
896.14314
 21
356.36233
 31
0.0
  0
SOLID
  5
63F
330
63B
100
AcDbEntity
  8
LC-002-100-D00-0
 62
     2
100
AcDbTrace
 10
899.476473
 20
450.86233
 30
0.0
 11
892.809807
 21
450.86233
 31
0.0
 12
896.14314
 22
470.86233
 32
0.0
 13
896.14314
 23
470.86233
 33
0.0
  0
SOLID
  5
640
330
63B
100
AcDbEntity
  8
LC-002-100-D00-0
 62
     2
100
AcDbTrace
 10
892.809807
 20
356.36233
 30
0.0
 11
899.476473
 21
356.36233
 31
0.0
 12
896.14314
 22
336.36233
 32
0.0
 13
896.14314
 23
336.36233
 33
0.0
  0
MTEXT
  5
641
330
63B
100
AcDbEntity
  8
LC-002-100-D00-0
 62
     2
100
AcDbMText
 10
874.14314
 20
396.971744
 30
0.0
 40
20.0
 41
0.0
 71
     5
 72
     1
  1
\A1;90-129,5
  7
LCTX15-400-0-0pDIN-Schrift
 11
6.123031769111886E-17
 21
1.0
 31
0.0
 73
     1
 44
1.0
  0
POINT
  5
642
330
63B
100
AcDbEntity
  8
Defpoints
 62
     0
100
AcDbPoint
 10
821.273949
 20
470.86233
 30
0.0
  0
POINT
  5
643
330
63B
100
AcDbEntity
  8
Defpoints
 62
     0
100
AcDbPoint
 10
630.773949
 20
336.36233
 30
0.0
  0
POINT
  5
644
330
63B
100
AcDbEntity
  8
Defpoints
 62
     0
100
AcDbPoint
 10
896.14314
 20
336.36233
 30
0.0
  0
ENDBLK
  5
646
330
63B
100
AcDbEntity
  8
0
100
AcDbBlockEnd
  0
BLOCK
  5
652
330
648
100
AcDbEntity
  8
0
100
AcDbBlockBegin
  2
*D24
 70
     1
 71
     0
 10
0.0
 20
0.0
 30
0.0
  3
*D24
  1

  0
LINE
  5
649
330
648
100
AcDbEntity
  8
LC-002-100-D00-0
 62
     2
370
    -2
100
AcDbLine
 10
347.273949
 20
399.86233
 30
0.0
 11
347.273949
 21
317.104001
 31
0.0
  0
LINE
  5
64A
330
648
100
AcDbEntity
  8
LC-002-100-D00-0
 62
     2
370
    -2
100
AcDbLine
 10
630.773746
 20
389.300152
 30
0.0
 11
630.773746
 21
317.104001
 31
0.0
  0
LINE
  5
64B
330
648
100
AcDbEntity
  8
LC-002-100-D00-0
 62
     2
370
    -2
100
AcDbLine
 10
367.273949
 20
320.704001
 30
0.0
 11
610.773746
 21
320.704001
 31
0.0
  0
SOLID
  5
64C
330
648
100
AcDbEntity
  8
LC-002-100-D00-0
 62
     2
100
AcDbTrace
 10
367.273949
 20
324.037334
 30
0.0
 11
367.273949
 21
317.370667
 31
0.0
 12
347.273949
 22
320.704001
 32
0.0
 13
347.273949
 23
320.704001
 33
0.0
  0
SOLID
  5
64D
330
648
100
AcDbEntity
  8
LC-002-100-D00-0
 62
     2
100
AcDbTrace
 10
610.773746
 20
317.370667
 30
0.0
 11
610.773746
 21
324.037334
 31
0.0
 12
630.773746
 22
320.704001
 32
0.0
 13
630.773746
 23
320.704001
 33
0.0
  0
MTEXT
  5
64E
330
648
100
AcDbEntity
  8
LC-002-100-D00-0
 62
     2
100
AcDbMText
 10
487.619886
 20
342.704001
 30
0.0
 40
20.0
 41
0.0
 71
     5
 72
     1
  1
\A1;284
  7
LCTX15-400-0-0pDIN-Schrift
 73
     1
 44
1.0
  0
POINT
  5
64F
330
648
100
AcDbEntity
  8
Defpoints
 62
     0
100
AcDbPoint
 10
347.273949
 20
399.86233
 30
0.0
  0
POINT
  5
650
330
648
100
AcDbEntity
  8
Defpoints
 62
     0
100
AcDbPoint
 10
630.773746
 20
389.300152
 30
0.0
  0
POINT
  5
651
330
648
100
AcDbEntity
  8
Defpoints
 62
     0
100
AcDbPoint
 10
630.773746
 20
320.704001
 30
0.0
  0
ENDBLK
  5
653
330
648
100
AcDbEntity
  8
0
100
AcDbBlockEnd
  0
BLOCK
  5
660
330
655
100
AcDbEntity
  8
0
100
AcDbBlockBegin
  2
*D25
 70
     1
 71
     0
 10
0.0
 20
0.0
 30
0.0
  3
*D25
  1

  0
LINE
  5
656
330
655
100
AcDbEntity
  8
LC-002-100-D00-0
 62
     2
370
    -2
100
AcDbLine
 10
392.273949
 20
399.36233
 30
0.0
 11
293.224614
 21
399.36233
 31
0.0
  0
LINE
  5
657
330
655
100
AcDbEntity
  8
LC-002-100-D00-0
 62
     2
370
    -2
100
AcDbLine
 10
386.194553
 20
429.36233
 30
0.0
 11
293.224614
 21
429.36233
 31
0.0
  0
LINE
  5
658
330
655
100
AcDbEntity
  8
LC-002-100-D00-0
 62
     2
370
    -2
100
AcDbLine
 10
296.824614
 20
449.36233
 30
0.0
 11
296.824614
 21
469.36233
 31
0.0
  0
LINE
  5
659
330
655
100
AcDbEntity
  8
LC-002-100-D00-0
 62
     2
370
    -2
100
AcDbLine
 10
296.824614
 20
379.36233
 30
0.0
 11
296.824614
 21
343.621582
 31
0.0
  0
SOLID
  5
65A
330
655
100
AcDbEntity
  8
LC-002-100-D00-0
 62
     2
100
AcDbTrace
 10
300.157948
 20
379.36233
 30
0.0
 11
293.491281
 21
379.36233
 31
0.0
 12
296.824614
 22
399.36233
 32
0.0
 13
296.824614
 23
399.36233
 33
0.0
  0
SOLID
  5
65B
330
655
100
AcDbEntity
  8
LC-002-100-D00-0
 62
     2
100
AcDbTrace
 10
293.491281
 20
449.36233
 30
0.0
 11
300.157948
 21
449.36233
 31
0.0
 12
296.824614
 22
429.36233
 32
0.0
 13
296.824614
 23
429.36233
 33
0.0
  0
MTEXT
  5
65C
330
655
100
AcDbEntity
  8
LC-002-100-D00-0
 62
     2
100
AcDbMText
 10
274.824614
 20
360.851744
 30
0.0
 40
20.0
 41
0.0
 71
     5
 72
     1
  1
\A1;30
  7
LCTX15-400-0-0pDIN-Schrift
 11
6.123031769111886E-17
 21
1.0
 31
0.0
 73
     1
 44
1.0
  0
POINT
  5
65D
330
655
100
AcDbEntity
  8
Defpoints
 62
     0
100
AcDbPoint
 10
392.273949
 20
399.36233
 30
0.0
  0
POINT
  5
65E
330
655
100
AcDbEntity
  8
Defpoints
 62
     0
100
AcDbPoint
 10
386.194553
 20
429.36233
 30
0.0
  0
POINT
  5
65F
330
655
100
AcDbEntity
  8
Defpoints
 62
     0
100
AcDbPoint
 10
296.824614
 20
429.36233
 30
0.0
  0
ENDBLK
  5
661
330
655
100
AcDbEntity
  8
0
100
AcDbBlockEnd
  0
BLOCK
  5
66D
330
663
100
AcDbEntity
  8
0
100
AcDbBlockBegin
  2
*D26
 70
     1
 71
     0
 10
0.0
 20
0.0
 30
0.0
  3
*D26
  1

  0
LINE
  5
664
330
663
100
AcDbEntity
  8
LC-002-100-D00-0
 62
     2
370
    -2
100
AcDbLine
 10
821.273949
 20
469.36233
 30
0.0
 11
821.273949
 21
570.073974
 31
0.0
  0
LINE
  5
665
330
663
100
AcDbEntity
  8
LC-002-100-D00-0
 62
     2
370
    -2
100
AcDbLine
 10
21.273949
 20
469.36233
 30
0.0
 11
21.273949
 21
570.073974
 31
0.0
  0
LINE
  5
666
330
663
100
AcDbEntity
  8
LC-002-100-D00-0
 62
     2
370
    -2
100
AcDbLine
 10
801.273949
 20
566.473974
 30
0.0
 11
41.273949
 21
566.473974
 31
0.0
  0
SOLID
  5
667
330
663
100
AcDbEntity
  8
LC-002-100-D00-0
 62
     2
100
AcDbTrace
 10
801.273949
 20
563.14064
 30
0.0
 11
801.273949
 21
569.807307
 31
0.0
 12
821.273949
 22
566.473974
 32
0.0
 13
821.273949
 23
566.473974
 33
0.0
  0
SOLID
  5
668
330
663
100
AcDbEntity
  8
LC-002-100-D00-0
 62
     2
100
AcDbTrace
 10
41.273949
 20
569.807307
 30
0.0
 11
41.273949
 21
563.14064
 31
0.0
 12
21.273949
 22
566.473974
 32
0.0
 13
21.273949
 23
566.473974
 33
0.0
  0
MTEXT
  5
669
330
663
100
AcDbEntity
  8
LC-002-100-D00-0
 62
     2
100
AcDbMText
 10
418.937171
 20
588.473974
 30
0.0
 40
20.0
 41
0.0
 71
     5
 72
     1
  1
\A1;800
  7
LCTX15-400-0-0pDIN-Schrift
 73
     1
 44
1.0
  0
POINT
  5
66A
330
663
100
AcDbEntity
  8
Defpoints
 62
     0
100
AcDbPoint
 10
821.273949
 20
469.36233
 30
0.0
  0
POINT
  5
66B
330
663
100
AcDbEntity
  8
Defpoints
 62
     0
100
AcDbPoint
 10
21.273949
 20
469.36233
 30
0.0
  0
POINT
  5
66C
330
663
100
AcDbEntity
  8
Defpoints
 62
     0
100
AcDbPoint
 10
21.273949
 20
566.473974
 30
0.0
  0
ENDBLK
  5
66E
330
663
100
AcDbEntity
  8
0
100
AcDbBlockEnd
  0
BLOCK
  5
67A
330
670
100
AcDbEntity
  8
0
100
AcDbBlockBegin
  2
*D27
 70
     1
 71
     0
 10
0.0
 20
0.0
 30
0.0
  3
*D27
  1

  0
LINE
  5
671
330
670
100
AcDbEntity
  8
LC-002-100-D00-0
 62
     2
370
    -2
100
AcDbLine
 10
71.273949
 20
467.86233
 30
0.0
 11
71.273949
 21
517.350537
 31
0.0
  0
LINE
  5
672
330
670
100
AcDbEntity
  8
LC-002-100-D00-0
 62
     2
370
    -2
100
AcDbLine
 10
771.273949
 20
467.86233
 30
0.0
 11
771.273949
 21
517.350537
 31
0.0
  0
LINE
  5
673
330
670
100
AcDbEntity
  8
LC-002-100-D00-0
 62
     2
370
    -2
100
AcDbLine
 10
91.273949
 20
513.750537
 30
0.0
 11
751.273949
 21
513.750537
 31
0.0
  0
SOLID
  5
674
330
670
100
AcDbEntity
  8
LC-002-100-D00-0
 62
     2
100
AcDbTrace
 10
91.273949
 20
517.083871
 30
0.0
 11
91.273949
 21
510.417204
 31
0.0
 12
71.273949
 22
513.750537
 32
0.0
 13
71.273949
 23
513.750537
 33
0.0
  0
SOLID
  5
675
330
670
100
AcDbEntity
  8
LC-002-100-D00-0
 62
     2
100
AcDbTrace
 10
751.273949
 20
510.417204
 30
0.0
 11
751.273949
 21
517.083871
 31
0.0
 12
771.273949
 22
513.750537
 32
0.0
 13
771.273949
 23
513.750537
 33
0.0
  0
MTEXT
  5
676
330
670
100
AcDbEntity
  8
LC-002-100-D00-0
 62
     2
100
AcDbMText
 10
417.861864
 20
535.750537
 30
0.0
 40
20.0
 41
0.0
 71
     5
 72
     1
  1
\A1;700
  7
LCTX15-400-0-0pDIN-Schrift
 73
     1
 44
1.0
  0
POINT
  5
677
330
670
100
AcDbEntity
  8
Defpoints
 62
     0
100
AcDbPoint
 10
71.273949
 20
467.86233
 30
0.0
  0
POINT
  5
678
330
670
100
AcDbEntity
  8
Defpoints
 62
     0
100
AcDbPoint
 10
771.273949
 20
467.86233
 30
0.0
  0
POINT
  5
679
330
670
100
AcDbEntity
  8
Defpoints
 62
     0
100
AcDbPoint
 10
771.273949
 20
513.750537
 30
0.0
  0
ENDBLK
  5
67B
330
670
100
AcDbEntity
  8
0
100
AcDbBlockEnd
  0
BLOCK
  5
67D
330
67C
100
AcDbEntity
  8
0
100
AcDbBlockBegin
  2
KLON19
 70
     0
 71
     0
 10
0.0
 20
0.0
 30
0.0
  3
KLON19
  1

  4
KLON19
  0
LINE
  5
67F
330
67C
100
AcDbEntity
  8
LC-002-100-D00-0
 62
     7
370
    25
100
AcDbLine
 10
448.773949
 20
403.292403
 30
0.0
 11
450.273949
 21
404.792403
 31
0.0
  0
LINE
  5
680
330
67C
100
AcDbEntity
  8
LC-002-100-D00-0
 62
     7
370
    25
100
AcDbLine
 10
448.773949
 20
425.743044
 30
0.0
 11
450.273949
 21
427.243044
 31
0.0
  0
LINE
  5
681
330
67C
100
AcDbEntity
  8
LC-002-100-D00-0
 62
     7
370
    25
100
AcDbLine
 10
461.893233
 20
438.86233
 30
0.0
 11
467.893233
 21
444.86233
 31
0.0
  0
ENDBLK
  5
67E
330
67C
100
AcDbEntity
  8
0
100
AcDbBlockEnd
  0
BLOCK
  5
684
330
683
100
AcDbEntity
  8
0
100
AcDbBlockBegin
  2
KLON20
 70
     0
 71
     0
 10
0.0
 20
0.0
 30
0.0
  3
KLON20
  1

  4
KLON20
  0
LINE
  5
686
330
683
100
AcDbEntity
  8
LC-002-100-D00-0
 62
     7
370
    25
100
AcDbLine
 10
392.273949
 20
414.144322
 30
0.0
 11
393.773949
 21
415.644323
 31
0.0
  0
LINE
  5
687
330
683
100
AcDbEntity
  8
LC-002-100-D00-0
 62
     7
370
    25
100
AcDbLine
 10
390.387228
 20
434.708243
 30
0.0
 11
393.773949
 21
438.094964
 31
0.0
  0
LINE
  5
688
330
683
100
AcDbEntity
  8
LC-002-100-D00-0
 62
     7
370
    25
100
AcDbLine
 10
372.090675
 20
438.86233
 30
0.0
 11
378.090675
 21
444.86233
 31
0.0
  0
ENDBLK
  5
685
330
683
100
AcDbEntity
  8
0
100
AcDbBlockEnd
  0
BLOCK
  5
68B
330
68A
100
AcDbEntity
  8
0
100
AcDbBlockBegin
  2
KLON21
 70
     0
 71
     0
 10
0.0
 20
0.0
 30
0.0
  3
KLON21
  1

  4
KLON21
  0
LINE
  5
68D
330
68A
100
AcDbEntity
  8
LC-002-100-D00-0
 62
     7
370
    25
100
AcDbLine
 10
451.294516
 20
383.36233
 30
0.0
 11
452.794516
 21
384.86233
 31
0.0
  0
LINE
  5
68E
330
68A
100
AcDbEntity
  8
LC-002-100-D00-0
 62
     7
370
    25
100
AcDbLine
 10
460.773949
 20
392.841763
 30
0.0
 11
462.273949
 21
394.341763
 31
0.0
  0
LINE
  5
68F
330
68A
100
AcDbEntity
  8
LC-002-100-D00-0
 62
     7
370
    25
100
AcDbLine
 10
428.843877
 20
383.36233
 30
0.0
 11
430.343877
 21
384.86233
 31
0.0
  0
LINE
  5
690
330
68A
100
AcDbEntity
  8
LC-002-100-D00-0
 62
     7
370
    25
100
AcDbLine
 10
460.773949
 20
415.292404
 30
0.0
 11
462.273949
 21
416.792404
 31
0.0
  0
LINE
  5
691
330
68A
100
AcDbEntity
  8
LC-002-100-D00-0
 62
     7
370
    25
100
AcDbLine
 10
406.393237
 20
383.36233
 30
0.0
 11
407.893237
 21
384.86233
 31
0.0
  0
LINE
  5
692
330
68A
100
AcDbEntity
  8
LC-002-100-D00-0
 62
     7
370
    25
100
AcDbLine
 10
384.085815
 20
383.505547
 30
0.0
 11
385.442598
 21
384.86233
 31
0.0
  0
LINE
  5
693
330
68A
100
AcDbEntity
  8
LC-002-100-D00-0
 62
     7
370
    25
100
AcDbLine
 10
380.273949
 20
402.144322
 30
0.0
 11
381.773949
 21
403.644322
 31
0.0
  0
LINE
  5
694
330
68A
100
AcDbEntity
  8
LC-002-100-D00-0
 62
     7
370
    25
100
AcDbLine
 10
380.273949
 20
424.594963
 30
0.0
 11
381.773949
 21
426.094963
 31
0.0
  0
LINE
  5
695
330
68A
100
AcDbEntity
  8
LC-002-100-D00-0
 62
     7
370
    25
100
AcDbLine
 10
370.044915
 20
436.81657
 30
0.0
 11
371.514146
 21
438.285801
 31
0.0
  0
ENDBLK
  5
68C
330
68A
100
AcDbEntity
  8
0
100
AcDbBlockEnd
  0
BLOCK
  5
698
330
697
100
AcDbEntity
  8
0
100
AcDbBlockBegin
  2
KLON22
 70
     0
 71
     0
 10
0.0
 20
0.0
 30
0.0
  3
KLON22
  1

  4
KLON22
  0
LINE
  5
69A
330
697
100
AcDbEntity
  8
LC-002-100-D00-0
 62
     7
370
    25
100
AcDbLine
 10
593.84707
 20
436.11233
 30
0.0
 11
596.09707
 21
438.36233
 31
0.0
  0
LINE
  5
69B
330
697
100
AcDbEntity
  8
LC-002-100-D00-0
 62
     7
370
    25
100
AcDbLine
 10
616.29771
 20
436.11233
 30
0.0
 11
618.54771
 21
438.36233
 31
0.0
  0
LINE
  5
69C
330
697
100
AcDbEntity
  8
LC-002-100-D00-0
 62
     7
370
    25
100
AcDbLine
 10
532.168983
 20
441.78618
 30
0.0
 11
534.174856
 21
443.792053
 31
0.0
  0
ENDBLK
  5
699
330
697
100
AcDbEntity
  8
0
100
AcDbBlockEnd
  0
BLOCK
  5
69F
330
69E
100
AcDbEntity
  8
0
100
AcDbBlockBegin
  2
KLON23
 70
     0
 71
     0
 10
0.0
 20
0.0
 30
0.0
  3
KLON23
  1

  4
KLON23
  0
LINE
  5
6A1
330
69E
100
AcDbEntity
  8
LC-002-100-D00-0
 62
     7
370
    25
100
AcDbLine
 10
546.097074
 20
388.36233
 30
0.0
 11
548.347074
 21
390.61233
 31
0.0
  0
LINE
  5
6A2
330
69E
100
AcDbEntity
  8
LC-002-100-D00-0
 62
     7
370
    25
100
AcDbLine
 10
568.547714
 20
388.36233
 30
0.0
 11
570.797714
 21
390.61233
 31
0.0
  0
LINE
  5
6A3
330
69E
100
AcDbEntity
  8
LC-002-100-D00-0
 62
     7
370
    25
100
AcDbLine
 10
590.998354
 20
388.36233
 30
0.0
 11
593.248354
 21
390.61233
 31
0.0
  0
LINE
  5
6A4
330
69E
100
AcDbEntity
  8
LC-002-100-D00-0
 62
     7
370
    25
100
AcDbLine
 10
613.448974
 20
388.36233
 30
0.0
 11
615.698974
 21
390.61233
 31
0.0
  0
ENDBLK
  5
6A0
330
69E
100
AcDbEntity
  8
0
100
AcDbBlockEnd
  0
BLOCK
  5
6A8
330
6A7
100
AcDbEntity
  8
0
100
AcDbBlockBegin
  2
KLON24
 70
     0
 71
     0
 10
0.0
 20
0.0
 30
0.0
  3
KLON24
  1

  4
KLON24
  0
LINE
  5
6AA
330
6A7
100
AcDbEntity
  8
LC-002-100-D00-0
 62
     7
370
    25
100
AcDbLine
 10
806.702184
 20
469.36233
 30
0.0
 11
808.202184
 21
470.86233
 31
0.0
  0
LINE
  5
6AB
330
6A7
100
AcDbEntity
  8
LC-002-100-D00-0
 62
     7
370
    25
100
AcDbLine
 10
763.764204
 20
448.874988
 30
0.0
 11
765.595935
 21
450.706719
 31
0.0
  0
LINE
  5
6AC
330
6A7
100
AcDbEntity
  8
LC-002-100-D00-0
 62
     7
370
    25
100
AcDbLine
 10
770.92956
 20
456.040345
 30
0.0
 11
772.76129
 21
457.872075
 31
0.0
  0
LINE
  5
6AD
330
6A7
100
AcDbEntity
  8
LC-002-100-D00-0
 62
     7
370
    25
100
AcDbLine
 10
784.251544
 20
469.36233
 30
0.0
 11
785.751544
 21
470.86233
 31
0.0
  0
LINE
  5
6AE
330
6A7
100
AcDbEntity
  8
LC-002-100-D00-0
 62
     7
370
    25
100
AcDbLine
 10
741.300906
 20
448.86233
 30
0.0
 11
744.74529
 21
452.306714
 31
0.0
  0
LINE
  5
6AF
330
6A7
100
AcDbEntity
  8
LC-002-100-D00-0
 62
     7
370
    25
100
AcDbLine
 10
718.850267
 20
448.86233
 30
0.0
 11
720.350267
 21
450.36233
 31
0.0
  0
LINE
  5
6B0
330
6A7
100
AcDbEntity
  8
LC-002-100-D00-0
 62
     7
370
    25
100
AcDbLine
 10
737.273949
 20
467.286013
 30
0.0
 11
740.350265
 21
470.36233
 31
0.0
  0
LINE
  5
6B1
330
6A7
100
AcDbEntity
  8
LC-002-100-D00-0
 62
     7
370
    25
100
AcDbLine
 10
696.399627
 20
448.86233
 30
0.0
 11
697.899627
 21
450.36233
 31
0.0
  0
LINE
  5
6B2
330
6A7
100
AcDbEntity
  8
LC-002-100-D00-0
 62
     7
370
    25
100
AcDbLine
 10
673.948988
 20
448.86233
 30
0.0
 11
675.448988
 21
450.36233
 31
0.0
  0
LINE
  5
6B3
330
6A7
100
AcDbEntity
  8
LC-002-100-D00-0
 62
     7
370
    25
100
AcDbLine
 10
651.498348
 20
448.86233
 30
0.0
 11
652.998348
 21
450.36233
 31
0.0
  0
LINE
  5
6B4
330
6A7
100
AcDbEntity
  8
LC-002-100-D00-0
 62
     7
370
    25
100
AcDbLine
 10
629.047709
 20
448.86233
 30
0.0
 11
635.273949
 21
455.08857
 31
0.0
  0
LINE
  5
6B5
330
6A7
100
AcDbEntity
  8
LC-002-100-D00-0
 62
     7
370
    25
100
AcDbLine
 10
606.597069
 20
448.86233
 30
0.0
 11
608.097069
 21
450.36233
 31
0.0
  0
LINE
  5
6B6
330
6A7
100
AcDbEntity
  8
LC-002-100-D00-0
 62
     7
370
    25
100
AcDbLine
 10
584.14643
 20
448.86233
 30
0.0
 11
585.64643
 21
450.36233
 31
0.0
  0
LINE
  5
6B7
330
6A7
100
AcDbEntity
  8
LC-002-100-D00-0
 62
     7
370
    25
100
AcDbLine
 10
561.69579
 20
448.86233
 30
0.0
 11
563.19579
 21
450.36233
 31
0.0
  0
LINE
  5
6B8
330
6A7
100
AcDbEntity
  8
LC-002-100-D00-0
 62
     7
370
    25
100
AcDbLine
 10
539.245151
 20
448.86233
 30
0.0
 11
540.745151
 21
450.36233
 31
0.0
  0
LINE
  5
6B9
330
6A7
100
AcDbEntity
  8
LC-002-100-D00-0
 62
     7
370
    25
100
AcDbLine
 10
516.794511
 20
448.86233
 30
0.0
 11
525.273949
 21
457.341768
 31
0.0
  0
LINE
  5
6BA
330
6A7
100
AcDbEntity
  8
LC-002-100-D00-0
 62
     7
370
    25
100
AcDbLine
 10
489.343872
 20
443.86233
 30
0.0
 11
490.843872
 21
445.36233
 31
0.0
  0
ENDBLK
  5
6A9
330
6A7
100
AcDbEntity
  8
0
100
AcDbBlockEnd
  0
BLOCK
  5
6BD
330
6BC
100
AcDbEntity
  8
0
100
AcDbBlockBegin
  2
KLON25
 70
     0
 71
     0
 10
0.0
 20
0.0
 30
0.0
  3
KLON25
  1

  4
KLON25
  0
LINE
  5
6BF
330
6BC
100
AcDbEntity
  8
LC-002-100-D00-0
 62
     7
370
    25
100
AcDbLine
 10
354.640035
 20
443.86233
 30
0.0
 11
356.140035
 21
445.36233
 31
0.0
  0
LINE
  5
6C0
330
6BC
100
AcDbEntity
  8
LC-002-100-D00-0
 62
     7
370
    25
100
AcDbLine
 10
335.165812
 20
446.838746
 30
0.0
 11
336.390557
 21
448.063491
 31
0.0
  0
LINE
  5
6C1
330
6BC
100
AcDbEntity
  8
LC-002-100-D00-0
 62
     7
370
    25
100
AcDbLine
 10
314.738756
 20
448.86233
 30
0.0
 11
316.238756
 21
450.36233
 31
0.0
  0
LINE
  5
6C2
330
6BC
100
AcDbEntity
  8
LC-002-100-D00-0
 62
     7
370
    25
100
AcDbLine
 10
316.773949
 20
450.897523
 30
0.0
 11
325.273949
 21
459.397523
 31
0.0
  0
LINE
  5
6C3
330
6BC
100
AcDbEntity
  8
LC-002-100-D00-0
 62
     7
370
    25
100
AcDbLine
 10
292.288117
 20
448.86233
 30
0.0
 11
293.788117
 21
450.36233
 31
0.0
  0
LINE
  5
6C4
330
6BC
100
AcDbEntity
  8
LC-002-100-D00-0
 62
     7
370
    25
100
AcDbLine
 10
269.837477
 20
448.86233
 30
0.0
 11
271.337477
 21
450.36233
 31
0.0
  0
LINE
  5
6C5
330
6BC
100
AcDbEntity
  8
LC-002-100-D00-0
 62
     7
370
    25
100
AcDbLine
 10
247.386838
 20
448.86233
 30
0.0
 11
248.886838
 21
450.36233
 31
0.0
  0
LINE
  5
6C6
330
6BC
100
AcDbEntity
  8
LC-002-100-D00-0
 62
     7
370
    25
100
AcDbLine
 10
224.936198
 20
448.86233
 30
0.0
 11
226.436198
 21
450.36233
 31
0.0
  0
LINE
  5
6C7
330
6BC
100
AcDbEntity
  8
LC-002-100-D00-0
 62
     7
370
    25
100
AcDbLine
 10
202.485559
 20
448.86233
 30
0.0
 11
203.985559
 21
450.36233
 31
0.0
  0
LINE
  5
6C8
330
6BC
100
AcDbEntity
  8
LC-002-100-D00-0
 62
     7
370
    25
100
AcDbLine
 10
207.817285
 20
454.194056
 30
0.0
 11
215.273949
 21
461.650721
 31
0.0
  0
LINE
  5
6C9
330
6BC
100
AcDbEntity
  8
LC-002-100-D00-0
 62
     7
370
    25
100
AcDbLine
 10
180.034919
 20
448.86233
 30
0.0
 11
181.534919
 21
450.36233
 31
0.0
  0
LINE
  5
6CA
330
6BC
100
AcDbEntity
  8
LC-002-100-D00-0
 62
     7
370
    25
100
AcDbLine
 10
157.58428
 20
448.86233
 30
0.0
 11
159.08428
 21
450.36233
 31
0.0
  0
LINE
  5
6CB
330
6BC
100
AcDbEntity
  8
LC-002-100-D00-0
 62
     7
370
    25
100
AcDbLine
 10
135.13364
 20
448.86233
 30
0.0
 11
136.63364
 21
450.36233
 31
0.0
  0
LINE
  5
6CC
330
6BC
100
AcDbEntity
  8
LC-002-100-D00-0
 62
     7
370
    25
100
AcDbLine
 10
112.683001
 20
448.86233
 30
0.0
 11
114.183001
 21
450.36233
 31
0.0
  0
LINE
  5
6CD
330
6BC
100
AcDbEntity
  8
LC-002-100-D00-0
 62
     7
370
    25
100
AcDbLine
 10
90.232361
 20
448.86233
 30
0.0
 11
91.732361
 21
450.36233
 31
0.0
  0
LINE
  5
6CE
330
6BC
100
AcDbEntity
  8
LC-002-100-D00-0
 62
     7
370
    25
100
AcDbLine
 10
97.273949
 20
455.903918
 30
0.0
 11
105.273949
 21
463.903918
 31
0.0
  0
LINE
  5
6CF
330
6BC
100
AcDbEntity
  8
LC-002-100-D00-0
 62
     7
370
    25
100
AcDbLine
 10
71.634586
 20
452.715194
 30
0.0
 11
72.709374
 21
453.789982
 31
0.0
  0
LINE
  5
6D0
330
6BC
100
AcDbEntity
  8
LC-002-100-D00-0
 62
     7
370
    25
100
AcDbLine
 10
65.831081
 20
469.36233
 30
0.0
 11
67.331081
 21
470.86233
 31
0.0
  0
LINE
  5
6D1
330
6BC
100
AcDbEntity
  8
LC-002-100-D00-0
 62
     7
370
    25
100
AcDbLine
 10
43.380441
 20
469.36233
 30
0.0
 11
44.880441
 21
470.86233
 31
0.0
  0
LINE
  5
6D2
330
6BC
100
AcDbEntity
  8
LC-002-100-D00-0
 62
     7
370
    25
100
AcDbLine
 10
21.273949
 20
469.706477
 30
0.0
 11
22.429802
 21
470.86233
 31
0.0
  0
ENDBLK
  5
6BE
330
6BC
100
AcDbEntity
  8
0
100
AcDbBlockEnd
  0
BLOCK
  5
6D5
330
6D4
100
AcDbEntity
  8
0
100
AcDbBlockBegin
  2
KLON26
 70
     0
 71
     0
 10
0.0
 20
0.0
 30
0.0
  3
KLON26
  1

  4
KLON26
  0
LINE
  5
6D7
330
6D4
100
AcDbEntity
  8
LC-002-100-D00-0
 62
     7
370
    25
100
AcDbLine
 10
519.385713
 20
384.101609
 30
0.0
 11
525.646434
 21
390.36233
 31
0.0
  0
LINE
  5
6D8
330
6D4
100
AcDbEntity
  8
LC-002-100-D00-0
 62
     7
370
    25
100
AcDbLine
 10
500.195795
 20
387.36233
 30
0.0
 11
503.195795
 21
390.36233
 31
0.0
  0
LINE
  5
6D9
330
6D4
100
AcDbEntity
  8
LC-002-100-D00-0
 62
     7
370
    25
100
AcDbLine
 10
471.245156
 20
380.86233
 30
0.0
 11
474.245156
 21
383.86233
 31
0.0
  0
LINE
  5
6DA
330
6D4
100
AcDbEntity
  8
LC-002-100-D00-0
 62
     7
370
    25
100
AcDbLine
 10
479.273949
 20
388.891123
 30
0.0
 11
480.745155
 21
390.36233
 31
0.0
  0
LINE
  5
6DB
330
6D4
100
AcDbEntity
  8
LC-002-100-D00-0
 62
     7
370
    25
100
AcDbLine
 10
448.794516
 20
380.86233
 30
0.0
 11
451.794516
 21
383.86233
 31
0.0
  0
LINE
  5
6DC
330
6D4
100
AcDbEntity
  8
LC-002-100-D00-0
 62
     7
370
    25
100
AcDbLine
 10
426.343877
 20
380.86233
 30
0.0
 11
429.343877
 21
383.86233
 31
0.0
  0
LINE
  5
6DD
330
6D4
100
AcDbEntity
  8
LC-002-100-D00-0
 62
     7
370
    25
100
AcDbLine
 10
403.893237
 20
380.86233
 30
0.0
 11
406.893237
 21
383.86233
 31
0.0
  0
LINE
  5
6DE
330
6D4
100
AcDbEntity
  8
LC-002-100-D00-0
 62
     7
370
    25
100
AcDbLine
 10
381.442598
 20
380.86233
 30
0.0
 11
384.442598
 21
383.86233
 31
0.0
  0
LINE
  5
6DF
330
6D4
100
AcDbEntity
  8
LC-002-100-D00-0
 62
     7
370
    25
100
AcDbLine
 10
361.714787
 20
383.585158
 30
0.0
 11
363.878117
 21
385.748488
 31
0.0
  0
LINE
  5
6E0
330
6D4
100
AcDbEntity
  8
LC-002-100-D00-0
 62
     7
370
    25
100
AcDbLine
 10
349.075896
 20
393.396908
 30
0.0
 11
351.282195
 21
395.603207
 31
0.0
  0
LINE
  5
6E1
330
6D4
100
AcDbEntity
  8
LC-002-100-D00-0
 62
     7
370
    25
100
AcDbLine
 10
347.273949
 20
414.045601
 30
0.0
 11
350.273949
 21
417.045602
 31
0.0
  0
LINE
  5
6E2
330
6D4
100
AcDbEntity
  8
LC-002-100-D00-0
 62
     7
370
    25
100
AcDbLine
 10
347.273949
 20
436.496242
 30
0.0
 11
350.273949
 21
439.496243
 31
0.0
  0
ENDBLK
  5
6D6
330
6D4
100
AcDbEntity
  8
0
100
AcDbBlockEnd
  0
BLOCK
  5
6E5
330
6E4
100
AcDbEntity
  8
0
100
AcDbBlockBegin
  2
KLON27
 70
     0
 71
     0
 10
0.0
 20
0.0
 30
0.0
  3
KLON27
  1

  4
KLON27
  0
LINE
  5
6E7
330
6E4
100
AcDbEntity
  8
LC-002-100-D00-0
 62
     7
370
    25
100
AcDbLine
 10
526.745152
 20
436.36233
 30
0.0
 11
530.271934
 21
439.889112
 31
0.0
  0
LINE
  5
6E8
330
6E4
100
AcDbEntity
  8
LC-002-100-D00-0
 62
     7
370
    25
100
AcDbLine
 10
504.294512
 20
436.36233
 30
0.0
 11
508.820677
 21
440.888494
 31
0.0
  0
ENDBLK
  5
6E6
330
6E4
100
AcDbEntity
  8
0
100
AcDbBlockEnd
  0
BLOCK
  5
6EC
330
6EB
100
AcDbEntity
  8
0
100
AcDbBlockBegin
  2
KLON28
 70
     0
 71
     0
 10
0.0
 20
0.0
 30
0.0
  3
KLON28
  1

  4
KLON28
  0
LINE
  5
6EE
330
6EB
100
AcDbEntity
  8
LC-002-100-D00-0
 62
     7
370
    25
100
AcDbLine
 10
483.273949
 20
437.792406
 30
0.0
 11
485.343873
 21
439.86233
 31
0.0
  0
LINE
  5
6EF
330
6EB
100
AcDbEntity
  8
LC-002-100-D00-0
 62
     7
370
    25
100
AcDbLine
 10
486.273949
 20
440.792406
 30
0.0
 11
489.343872
 21
443.86233
 31
0.0
  0
ENDBLK
  5
6ED
330
6EB
100
AcDbEntity
  8
0
100
AcDbBlockEnd
  0
BLOCK
  5
6F4
330
6F3
100
AcDbEntity
  8
0
100
AcDbBlockBegin
  2
KLON29
 70
     0
 71
     0
 10
0.0
 20
0.0
 30
0.0
  3
KLON29
  1

  4
KLON29
  0
LINE
  5
6F6
330
6F3
100
AcDbEntity
  8
LC-002-100-D00-0
 62
     7
370
    50
100
AcDbLine
 10
746.544624
 20
454.106048
 30
0.0
 11
751.023949
 21
458.585373
 31
0.0
  0
LINE
  5
6F7
330
6F3
100
AcDbEntity
  8
LC-002-100-D00-0
 62
     7
370
    50
100
AcDbLine
 10
756.523949
 20
464.085373
 30
0.0
 11
759.523949
 21
467.085374
 31
0.0
  0
ENDBLK
  5
6F5
330
6F3
100
AcDbEntity
  8
0
100
AcDbBlockEnd
  0
BLOCK
  5
6FC
330
6FB
100
AcDbEntity
  8
0
100
AcDbBlockBegin
  2
KLON30
 70
     0
 71
     0
 10
0.0
 20
0.0
 30
0.0
  3
KLON30
  1

  4
KLON30
  0
LINE
  5
6FE
330
6FB
100
AcDbEntity
  8
LC-002-100-D00-0
 62
     7
370
    50
100
AcDbLine
 10
636.473949
 20
456.28857
 30
0.0
 11
641.023949
 21
460.83857
 31
0.0
  0
LINE
  5
6FF
330
6FB
100
AcDbEntity
  8
LC-002-100-D00-0
 62
     7
370
    50
100
AcDbLine
 10
646.523949
 20
466.338571
 30
0.0
 11
649.523949
 21
469.338571
 31
0.0
  0
ENDBLK
  5
6FD
330
6FB
100
AcDbEntity
  8
0
100
AcDbBlockEnd
  0
BLOCK
  5
703
330
702
100
AcDbEntity
  8
0
100
AcDbBlockBegin
  2
KLON31
 70
     0
 71
     0
 10
0.0
 20
0.0
 30
0.0
  3
KLON31
  1

  4
KLON31
  0
LINE
  5
705
330
702
100
AcDbEntity
  8
LC-002-100-D00-0
 62
     7
370
    25
100
AcDbLine
 10
93.232361
 20
451.86233
 30
0.0
 11
94.923096
 21
453.553065
 31
0.0
  0
LINE
  5
706
330
702
100
AcDbEntity
  8
LC-002-100-D00-0
 62
     7
370
    25
100
AcDbLine
 10
95.232361
 20
453.86233
 30
0.0
 11
96.073949
 21
454.703918
 31
0.0
  0
LINE
  5
707
330
702
100
AcDbEntity
  8
LC-002-100-D00-0
 62
     7
370
    25
100
AcDbLine
 10
83.023949
 20
464.104558
 30
0.0
 11
86.023949
 21
467.104558
 31
0.0
  0
LINE
  5
708
330
702
100
AcDbEntity
  8
LC-002-100-D00-0
 62
     7
370
    25
100
AcDbLine
 10
86.78172
 20
467.86233
 30
0.0
 11
89.78172
 21
470.86233
 31
0.0
  0
ENDBLK
  5
704
330
702
100
AcDbEntity
  8
0
100
AcDbBlockEnd
  0
BLOCK
  5
70C
330
70B
100
AcDbEntity
  8
0
100
AcDbBlockBegin
  2
KLON32
 70
     0
 71
     0
 10
0.0
 20
0.0
 30
0.0
  3
KLON32
  1

  4
KLON32
  0
LINE
  5
70E
330
70B
100
AcDbEntity
  8
LC-002-100-D00-0
 62
     7
370
    50
100
AcDbLine
 10
94.923096
 20
453.553065
 30
0.0
 11
95.34556
 21
453.975529
 31
0.0
  0
LINE
  5
70F
330
70B
100
AcDbEntity
  8
LC-002-100-D00-0
 62
     7
370
    50
100
AcDbLine
 10
96.073949
 20
454.703918
 30
0.0
 11
97.873949
 21
456.503918
 31
0.0
  0
ENDBLK
  5
70D
330
70B
100
AcDbEntity
  8
0
100
AcDbBlockEnd
  0
BLOCK
  5
712
330
711
100
AcDbEntity
  8
0
100
AcDbBlockBegin
  2
KLON33
 70
     0
 71
     0
 10
0.0
 20
0.0
 30
0.0
  3
KLON33
  1

  4
KLON33
  0
LINE
  5
714
330
711
100
AcDbEntity
  8
LC-002-100-D00-0
 62
     7
370
    25
100
AcDbLine
 10
195.034918
 20
463.86233
 30
0.0
 11
196.023949
 21
464.85136
 31
0.0
  0
LINE
  5
715
330
711
100
AcDbEntity
  8
LC-002-100-D00-0
 62
     7
370
    25
100
AcDbLine
 10
199.034918
 20
467.86233
 30
0.0
 11
202.034918
 21
470.86233
 31
0.0
  0
ENDBLK
  5
713
330
711
100
AcDbEntity
  8
0
100
AcDbBlockEnd
  0
BLOCK
  5
71B
330
71A
100
AcDbEntity
  8
0
100
AcDbBlockBegin
  2
KLON34
 70
     0
 71
     0
 10
0.0
 20
0.0
 30
0.0
  3
KLON34
  1

  4
KLON34
  0
LINE
  5
71D
330
71A
100
AcDbEntity
  8
LC-002-100-D00-0
 62
     7
370
    25
100
AcDbLine
 10
325.738755
 20
459.86233
 30
0.0
 11
331.023949
 21
465.147524
 31
0.0
  0
LINE
  5
71E
330
71A
100
AcDbEntity
  8
LC-002-100-D00-0
 62
     7
370
    25
100
AcDbLine
 10
333.738755
 20
467.86233
 30
0.0
 11
336.738755
 21
470.86233
 31
0.0
  0
ENDBLK
  5
71C
330
71A
100
AcDbEntity
  8
0
100
AcDbBlockEnd
  0
BLOCK
  5
723
330
722
100
AcDbEntity
  8
0
100
AcDbBlockBegin
  2
KLON35
 70
     0
 71
     0
 10
0.0
 20
0.0
 30
0.0
  3
KLON35
  1

  4
KLON35
  0
LINE
  5
725
330
722
100
AcDbEntity
  8
LC-002-100-D00-0
 62
     7
370
    25
100
AcDbLine
 10
527.624802
 20
459.692621
 30
0.0
 11
531.023949
 21
463.091768
 31
0.0
  0
LINE
  5
726
330
722
100
AcDbEntity
  8
LC-002-100-D00-0
 62
     7
370
    25
100
AcDbLine
 10
535.79451
 20
467.86233
 30
0.0
 11
538.765018
 21
470.832838
 31
0.0
  0
ENDBLK
  5
724
330
722
100
AcDbEntity
  8
0
100
AcDbBlockEnd
  0
BLOCK
  5
73F
330
735
100
AcDbEntity
  8
0
100
AcDbBlockBegin
  2
*D45
 70
     1
 71
     0
 10
0.0
 20
0.0
 30
0.0
  3
*D45
  1

  0
LINE
  5
736
330
735
100
AcDbEntity
  8
LC-003-003-----0
 62
     2
370
    -2
100
AcDbLine
 10
628.773844
 20
438.36233
 30
0.0
 11
721.895029
 21
438.36233
 31
0.0
  0
LINE
  5
737
330
735
100
AcDbEntity
  8
LC-003-003-----0
 62
     2
370
    -2
100
AcDbLine
 10
627.27374
 20
388.362327
 30
0.0
 11
721.895029
 21
388.362327
 31
0.0
  0
LINE
  5
738
330
735
100
AcDbEntity
  8
LC-003-003-----0
 62
     2
370
    -2
100
AcDbLine
 10
718.295029
 20
418.36233
 30
0.0
 11
718.295029
 21
408.362327
 31
0.0
  0
SOLID
  5
739
330
735
100
AcDbEntity
  8
LC-003-003-----0
 62
     2
100
AcDbTrace
 10
721.628363
 20
418.36233
 30
0.0
 11
714.961696
 21
418.36233
 31
0.0
 12
718.295029
 22
438.36233
 32
0.0
 13
718.295029
 23
438.36233
 33
0.0
  0
SOLID
  5
73A
330
735
100
AcDbEntity
  8
LC-003-003-----0
 62
     2
100
AcDbTrace
 10
714.961696
 20
408.362327
 30
0.0
 11
721.628363
 21
408.362327
 31
0.0
 12
718.295029
 22
388.362327
 32
0.0
 13
718.295029
 23
388.362327
 33
0.0
  0
MTEXT
  5
73B
330
735
100
AcDbEntity
  8
LC-003-003-----0
 62
     2
100
AcDbMText
 10
696.295029
 20
391.931744
 30
0.0
 40
20.0
 41
0.0
 71
     5
 72
     1
  1
\A1;DN50
  7
LCTX15-400-0-0pDIN-Schrift
 11
6.123031769111886E-17
 21
1.0
 31
0.0
 73
     1
 44
1.0
  0
POINT
  5
73C
330
735
100
AcDbEntity
  8
Defpoints
 62
     0
100
AcDbPoint
 10
628.773844
 20
438.36233
 30
0.0
  0
POINT
  5
73D
330
735
100
AcDbEntity
  8
Defpoints
 62
     0
100
AcDbPoint
 10
627.27374
 20
388.362327
 30
0.0
  0
POINT
  5
73E
330
735
100
AcDbEntity
  8
Defpoints
 62
     0
100
AcDbPoint
 10
718.295029
 20
388.362327
 30
0.0
  0
ENDBLK
  5
740
330
735
100
AcDbEntity
  8
0
100
AcDbBlockEnd
  0
ENDSEC
  0
SECTION
  2
ENTITIES
  0
LINE
  5
32
330
1F
100
AcDbEntity
  8
LC-001-002-----0
 62
     7
370
    25
100
AcDbLine
 10
1026.300644
 20
470.86233
 30
0.0
 11
1026.300644
 21
336.36233
 31
0.0
  0
LINE
  5
33
330
1F
100
AcDbEntity
  8
LC-001-002-----0
 62
     7
370
    25
100
AcDbLine
 10
1155.300644
 20
470.86233
 30
0.0
 11
1155.300644
 21
336.36233
 31
0.0
  0
LINE
  5
35
330
1F
100
AcDbEntity
  8
LC-002-100-D00-0
 62
     7
370
    50
100
AcDbLine
 10
1121.300644
 20
469.36233
 30
0.0
 11
1121.300644
 21
467.96233
 31
0.0
  0
LINE
  5
36
330
1F
100
AcDbEntity
  8
LC-002-100-D00-0
 62
     7
370
    50
100
AcDbLine
 10
1130.300644
 20
467.96233
 30
0.0
 11
1130.300645
 21
469.36233
 31
0.0
  0
LINE
  5
37
330
1F
100
AcDbEntity
  8
LC-002-100-D00-0
 62
     7
370
    50
100
AcDbLine
 10
1051.300642
 20
469.36233
 30
0.0
 11
1051.300644
 21
467.96233
 31
0.0
  0
LINE
  5
38
330
1F
100
AcDbEntity
  8
LC-002-100-D00-0
 62
     7
370
    50
100
AcDbLine
 10
1060.300644
 20
467.96233
 30
0.0
 11
1060.300643
 21
469.36233
 31
0.0
  0
LINE
  5
39
330
1F
100
AcDbEntity
  8
LC-002-100-D00-0
 62
     7
370
    50
100
AcDbLine
 10
1051.800643
 20
467.96233
 30
0.0
 11
1051.800644
 21
454.36233
 31
0.0
  0
LINE
  5
3A
330
1F
100
AcDbEntity
  8
LC-002-100-D00-0
 62
     7
370
    50
100
AcDbLine
 10
1059.800644
 20
454.36233
 30
0.0
 11
1059.800644
 21
467.96233
 31
0.0
  0
LINE
  5
3B
330
1F
100
AcDbEntity
  8
LC-002-100-D00-0
 62
     7
370
    50
100
AcDbLine
 10
1121.800643
 20
467.96233
 30
0.0
 11
1121.800644
 21
454.36233
 31
0.0
  0
LINE
  5
3C
330
1F
100
AcDbEntity
  8
LC-002-100-D00-0
 62
     7
370
    50
100
AcDbLine
 10
1129.800644
 20
454.36233
 30
0.0
 11
1129.800644
 21
467.96233
 31
0.0
  0
ARC
  5
3D
330
1F
100
AcDbEntity
  8
LC-002-100-D00-0
 62
     7
370
    50
100
AcDbCircle
 10
1017.300644
 20
343.86233
 30
0.0
 40
0.5
100
AcDbArc
 50
90.0
 51
180.0
  0
ARC
  5
3E
330
1F
100
AcDbEntity
  8
LC-002-100-D00-0
 62
     7
370
    50
100
AcDbCircle
 10
1035.300644
 20
343.86233
 30
0.0
 40
0.5
100
AcDbArc
 50
0.0
 51
90.0
  0
LINE
  5
3F
330
1F
100
AcDbEntity
  8
LC-002-100-D00-0
 62
     7
370
    50
100
AcDbLine
 10
1016.800644
 20
343.86233
 30
0.0
 11
1016.800644
 21
336.36233
 31
0.0
  0
LINE
  5
40
330
1F
100
AcDbEntity
  8
LC-002-100-D00-0
 62
     7
370
    50
100
AcDbLine
 10
1035.800644
 20
336.36233
 30
0.0
 11
1035.800644
 21
343.86233
 31
0.0
  0
ARC
  5
41
330
1F
100
AcDbEntity
  8
LC-002-100-D00-0
 62
     7
370
    50
100
AcDbCircle
 10
1146.300644
 20
343.86233
 30
0.0
 40
0.5
100
AcDbArc
 50
90.0
 51
180.0
  0
ARC
  5
42
330
1F
100
AcDbEntity
  8
LC-002-100-D00-0
 62
     7
370
    50
100
AcDbCircle
 10
1164.300644
 20
343.86233
 30
0.0
 40
0.4999999999997726
100
AcDbArc
 50
0.0
 51
90.0
  0
LINE
  5
43
330
1F
100
AcDbEntity
  8
LC-002-100-D00-0
 62
     7
370
    50
100
AcDbLine
 10
1145.800644
 20
343.86233
 30
0.0
 11
1145.800644
 21
336.36233
 31
0.0
  0
LINE
  5
44
330
1F
100
AcDbEntity
  8
LC-002-100-D00-0
 62
     7
370
    50
100
AcDbLine
 10
1164.800644
 20
336.36233
 30
0.0
 11
1164.800644
 21
343.86233
 31
0.0
  0
LINE
  5
45
330
1F
100
AcDbEntity
  8
LC-002-100-D00-0
 62
     7
370
    50
100
AcDbLine
 10
1016.300644
 20
355.86233
 30
0.0
 11
1016.300644
 21
345.36233
 31
0.0
  0
LINE
  5
46
330
1F
100
AcDbEntity
  8
LC-002-100-D00-0
 62
     7
370
    50
100
AcDbLine
 10
1036.300644
 20
345.36233
 30
0.0
 11
1036.300644
 21
355.86233
 31
0.0
  0
LINE
  5
47
330
1F
100
AcDbEntity
  8
LC-002-100-D00-0
 62
     7
370
    50
100
AcDbLine
 10
1016.300644
 20
345.36233
 30
0.0
 11
1017.300644
 21
344.36233
 31
0.0
  0
LINE
  5
48
330
1F
100
AcDbEntity
  8
LC-002-100-D00-0
 62
     7
370
    50
100
AcDbLine
 10
1035.300644
 20
344.36233
 30
0.0
 11
1036.300644
 21
345.36233
 31
0.0
  0
LINE
  5
49
330
1F
100
AcDbEntity
  8
LC-002-100-D00-0
 62
     7
370
    50
100
AcDbLine
 10
1016.300642
 20
413.362329
 30
0.0
 11
1016.300644
 21
359.36233
 31
0.0
  0
LINE
  5
4A
330
1F
100
AcDbEntity
  8
LC-002-100-D00-0
 62
     7
370
    50
100
AcDbLine
 10
1036.300644
 20
359.36233
 30
0.0
 11
1036.300645
 21
413.362329
 31
0.0
  0
LINE
  5
4B
330
1F
100
AcDbEntity
  8
LC-002-100-D00-0
 62
     7
370
    50
100
AcDbLine
 10
1018.40064
 20
359.362327
 30
0.0
 11
1018.40064
 21
355.862328
 31
0.0
  0
LINE
  5
4C
330
1F
100
AcDbEntity
  8
LC-002-100-D00-0
 62
     7
370
    50
100
AcDbLine
 10
1034.200643
 20
355.862328
 30
0.0
 11
1034.200643
 21
359.362327
 31
0.0
  0
LINE
  5
4D
330
1F
100
AcDbEntity
  8
LC-002-100-D00-0
 62
     7
370
    50
100
AcDbLine
 10
1145.300644
 20
355.86233
 30
0.0
 11
1145.300644
 21
345.36233
 31
0.0
  0
LINE
  5
4E
330
1F
100
AcDbEntity
  8
LC-002-100-D00-0
 62
     7
370
    50
100
AcDbLine
 10
1165.300644
 20
345.36233
 30
0.0
 11
1165.300644
 21
355.86233
 31
0.0
  0
LINE
  5
4F
330
1F
100
AcDbEntity
  8
LC-002-100-D00-0
 62
     7
370
    50
100
AcDbLine
 10
1145.300644
 20
345.36233
 30
0.0
 11
1146.300644
 21
344.36233
 31
0.0
  0
LINE
  5
50
330
1F
100
AcDbEntity
  8
LC-002-100-D00-0
 62
     7
370
    50
100
AcDbLine
 10
1164.300644
 20
344.36233
 30
0.0
 11
1165.300644
 21
345.36233
 31
0.0
  0
LINE
  5
51
330
1F
100
AcDbEntity
  8
LC-002-100-D00-0
 62
     7
370
    50
100
AcDbLine
 10
1145.300642
 20
413.362329
 30
0.0
 11
1145.300644
 21
359.36233
 31
0.0
  0
LINE
  5
52
330
1F
100
AcDbEntity
  8
LC-002-100-D00-0
 62
     7
370
    50
100
AcDbLine
 10
1165.300644
 20
359.36233
 30
0.0
 11
1165.300645
 21
413.362329
 31
0.0
  0
LINE
  5
53
330
1F
100
AcDbEntity
  8
LC-002-100-D00-0
 62
     7
370
    50
100
AcDbLine
 10
1147.400644
 20
359.362327
 30
0.0
 11
1147.400644
 21
355.862328
 31
0.0
  0
LINE
  5
54
330
1F
100
AcDbEntity
  8
LC-002-100-D00-0
 62
     7
370
    50
100
AcDbLine
 10
1163.200647
 20
355.862328
 30
0.0
 11
1163.200647
 21
359.362327
 31
0.0
  0
LINE
  5
55
330
1F
100
AcDbEntity
  8
LC-002-100-D00-0
 62
     7
370
    50
100
AcDbLine
 10
1060.800644
 20
444.96233
 30
0.0
 11
1060.800644
 21
448.362329
 31
0.0
  0
LINE
  5
56
330
1F
100
AcDbEntity
  8
LC-002-100-D00-0
 62
     7
370
    50
100
AcDbLine
 10
1050.800644
 20
448.362329
 30
0.0
 11
1050.800644
 21
444.96233
 31
0.0
  0
ARC
  5
57
330
1F
100
AcDbEntity
  8
LC-002-100-D00-0
 62
     7
370
    50
100
AcDbCircle
 10
1060.200644
 20
444.96233
 30
0.0
 40
0.5999999999999091
100
AcDbArc
 50
270.0
 51
0.0
  0
ARC
  5
58
330
1F
100
AcDbEntity
  8
LC-002-100-D00-0
 62
     7
370
    50
100
AcDbCircle
 10
1051.400644
 20
444.96233
 30
0.0
 40
0.5999999999999091
100
AcDbArc
 50
180.0
 51
270.0
  0
LINE
  5
59
330
1F
100
AcDbEntity
  8
LC-002-100-D00-0
 62
     7
370
    50
100
AcDbLine
 10
1058.800642
 20
453.36233
 30
0.0
 11
1058.800642
 21
454.36233
 31
0.0
  0
LINE
  5
5A
330
1F
100
AcDbEntity
  8
LC-002-100-D00-0
 62
     7
370
    50
100
AcDbLine
 10
1052.800645
 20
454.36233
 30
0.0
 11
1052.800645
 21
453.36233
 31
0.0
  0
LINE
  5
5B
330
1F
100
AcDbEntity
  8
LC-002-100-D00-0
 62
     7
370
    50
100
AcDbLine
 10
1130.800644
 20
444.96233
 30
0.0
 11
1130.800643
 21
448.362329
 31
0.0
  0
LINE
  5
5C
330
1F
100
AcDbEntity
  8
LC-002-100-D00-0
 62
     7
370
    50
100
AcDbLine
 10
1120.800643
 20
448.362329
 30
0.0
 11
1120.800644
 21
444.96233
 31
0.0
  0
ARC
  5
5D
330
1F
100
AcDbEntity
  8
LC-002-100-D00-0
 62
     7
370
    50
100
AcDbCircle
 10
1130.200644
 20
444.96233
 30
0.0
 40
0.5999999999999091
100
AcDbArc
 50
270.0
 51
0.0
  0
ARC
  5
5E
330
1F
100
AcDbEntity
  8
LC-002-100-D00-0
 62
     7
370
    50
100
AcDbCircle
 10
1121.400644
 20
444.96233
 30
0.0
 40
0.5999999999999091
100
AcDbArc
 50
180.0
 51
270.0
  0
LINE
  5
5F
330
1F
100
AcDbEntity
  8
LC-002-100-D00-0
 62
     7
370
    50
100
AcDbLine
 10
1128.800642
 20
453.36233
 30
0.0
 11
1128.800642
 21
454.36233
 31
0.0
  0
LINE
  5
60
330
1F
100
AcDbEntity
  8
LC-002-100-D00-0
 62
     7
370
    50
100
AcDbLine
 10
1122.800645
 20
454.36233
 30
0.0
 11
1122.800645
 21
453.36233
 31
0.0
  0
LINE
  5
61
330
1F
100
AcDbEntity
  8
LC-002-100-D00-0
 62
     7
370
    50
100
AcDbLine
 10
1061.300644
 20
448.36233
 30
0.0
 11
1061.300643
 21
450.362329
 31
0.0
  0
LINE
  5
62
330
1F
100
AcDbEntity
  8
LC-002-100-D00-0
 62
     7
370
    50
100
AcDbLine
 10
1050.300644
 20
450.36233
 30
0.0
 11
1050.300644
 21
448.36233
 31
0.0
  0
LINE
  5
63
330
1F
100
AcDbEntity
  8
LC-002-100-D00-0
 62
     7
370
    50
100
AcDbLine
 10
1131.300644
 20
448.36233
 30
0.0
 11
1131.300644
 21
450.36233
 31
0.0
  0
LINE
  5
64
330
1F
100
AcDbEntity
  8
LC-002-100-D00-0
 62
     7
370
    50
100
AcDbLine
 10
1120.300644
 20
450.362329
 30
0.0
 11
1120.300644
 21
448.36233
 31
0.0
  0
LINE
  5
65
330
1F
100
AcDbEntity
  8
LC-002-100-D00-0
 62
     7
370
    50
100
AcDbLine
 10
1013.300644
 20
469.36233
 30
0.0
 11
1013.300644
 21
470.86233
 31
0.0
  0
LINE
  5
66
330
1F
100
AcDbEntity
  8
LC-002-100-D00-0
 62
     7
370
    50
100
AcDbLine
 10
1013.300644
 20
470.86233
 30
0.0
 11
1018.300644
 21
470.86233
 31
0.0
  0
LINE
  5
67
330
1F
100
AcDbEntity
  8
LC-002-100-D00-0
 62
     7
370
    50
100
AcDbLine
 10
1018.300644
 20
469.36233
 30
0.0
 11
1013.300644
 21
469.36233
 31
0.0
  0
LINE
  5
68
330
1F
100
AcDbEntity
  8
LC-002-100-D00-0
 62
     7
370
    50
100
AcDbLine
 10
1163.300644
 20
470.86233
 30
0.0
 11
1168.300644
 21
470.86233
 31
0.0
  0
LINE
  5
69
330
1F
100
AcDbEntity
  8
LC-002-100-D00-0
 62
     7
370
    50
100
AcDbLine
 10
1168.300644
 20
470.86233
 30
0.0
 11
1168.300644
 21
469.36233
 31
0.0
  0
LINE
  5
6A
330
1F
100
AcDbEntity
  8
LC-002-100-D00-0
 62
     7
370
    50
100
AcDbLine
 10
1168.300644
 20
469.36233
 30
0.0
 11
1163.300644
 21
469.36233
 31
0.0
  0
LINE
  5
6B
330
1F
100
AcDbEntity
  8
LC-002-100-D00-0
 62
     7
370
    50
100
AcDbLine
 10
1018.300644
 20
470.86233
 30
0.0
 11
1163.300644
 21
470.86233
 31
0.0
  0
LINE
  5
6C
330
1F
100
AcDbEntity
  8
LC-002-100-D00-0
 62
     7
370
    50
100
AcDbLine
 10
1018.300644
 20
469.36233
 30
0.0
 11
1163.300644
 21
469.36233
 31
0.0
  0
ARC
  5
6D
330
1F
100
AcDbEntity
  8
LC-002-100-D00-0
 62
     7
370
    50
100
AcDbCircle
 10
1119.800644
 20
467.86233
 30
0.0
 40
1.5
100
AcDbArc
 50
90.0
 51
180.0
  0
ARC
  5
6E
330
1F
100
AcDbEntity
  8
LC-002-100-D00-0
 62
     7
370
    50
100
AcDbCircle
 10
1061.800644
 20
467.86233
 30
0.0
 40
1.5
100
AcDbArc
 50
0.0
 51
90.0
  0
LINE
  5
6F
330
1F
100
AcDbEntity
  8
LC-002-100-D00-0
 62
     7
370
    50
100
AcDbLine
 10
1103.134052
 20
448.86233
 30
0.0
 11
1114.300644
 21
448.86233
 31
0.0
  0
LINE
  5
70
330
1F
100
AcDbEntity
  8
LC-002-100-D00-0
 62
     7
370
    50
100
AcDbLine
 10
1102.955838
 20
448.86233
 30
0.0
 11
1103.134052
 21
448.86233
 31
0.0
  0
LINE
  5
71
330
1F
100
AcDbEntity
  8
LC-002-100-D00-0
 62
     7
370
    50
100
AcDbLine
 10
1102.955838
 20
448.86233
 30
0.0
 11
1078.645449
 21
448.86233
 31
0.0
  0
LINE
  5
72
330
1F
100
AcDbEntity
  8
LC-002-100-D00-0
 62
     7
370
    50
100
AcDbLine
 10
1078.467235
 20
448.86233
 30
0.0
 11
1078.645449
 21
448.86233
 31
0.0
  0
LINE
  5
73
330
1F
100
AcDbEntity
  8
LC-002-100-D00-0
 62
     7
370
    50
100
AcDbLine
 10
1067.300644
 20
448.86233
 30
0.0
 11
1078.467235
 21
448.86233
 31
0.0
  0
LINE
  5
74
330
1F
100
AcDbEntity
  8
LC-002-100-D00-0
 62
     7
370
    50
100
AcDbLine
 10
1118.300644
 20
467.86233
 30
0.0
 11
1118.300644
 21
458.36233
 31
0.0
  0
ARC
  5
75
330
1F
100
AcDbEntity
  8
LC-002-100-D00-0
 62
     7
370
    50
100
AcDbCircle
 10
1114.300644
 20
452.86233
 30
0.0
 40
4.000000000014552
100
AcDbArc
 50
270.0
 51
0.0
  0
LINE
  5
76
330
1F
100
AcDbEntity
  8
LC-002-100-D00-0
 62
     7
370
    50
100
AcDbLine
 10
1118.300644
 20
452.86233
 30
0.0
 11
1118.300644
 21
458.36233
 31
0.0
  0
LINE
  5
77
330
1F
100
AcDbEntity
  8
LC-002-100-D00-0
 62
     7
370
    50
100
AcDbLine
 10
1063.300644
 20
458.36233
 30
0.0
 11
1063.300644
 21
467.86233
 31
0.0
  0
ARC
  5
78
330
1F
100
AcDbEntity
  8
LC-002-100-D00-0
 62
     7
370
    50
100
AcDbCircle
 10
1067.300644
 20
452.86233
 30
0.0
 40
4.000000000000227
100
AcDbArc
 50
180.0
 51
270.0
  0
LINE
  5
79
330
1F
100
AcDbEntity
  8
LC-002-100-D00-0
 62
     7
370
    50
100
AcDbLine
 10
1063.300644
 20
458.36233
 30
0.0
 11
1063.300644
 21
452.86233
 31
0.0
  0
ARC
  5
7A
330
1F
100
AcDbEntity
  8
LC-002-100-D00-0
 62
     7
370
    50
100
AcDbCircle
 10
1067.300644
 20
447.86233
 30
0.0
 40
4.000000000041382
100
AcDbArc
 50
180.0
 51
270.0
  0
LINE
  5
7B
330
1F
100
AcDbEntity
  8
LC-002-100-D00-0
 62
     7
370
    50
100
AcDbLine
 10
1063.300644
 20
447.86233
 30
0.0
 11
1063.300644
 21
452.86233
 31
0.0
  0
ARC
  5
7C
330
1F
100
AcDbEntity
  8
LC-002-100-D00-0
 62
     7
370
    50
100
AcDbCircle
 10
1114.300644
 20
447.86233
 30
0.0
 40
4.000000000000227
100
AcDbArc
 50
270.0
 51
0.0
  0
LINE
  5
7D
330
1F
100
AcDbEntity
  8
LC-002-100-D00-0
 62
     7
370
    50
100
AcDbLine
 10
1118.300644
 20
452.86233
 30
0.0
 11
1118.300643
 21
447.86233
 31
0.0
  0
LINE
  5
7E
330
1F
100
AcDbEntity
  8
LC-002-100-D00-0
 62
     7
370
    50
100
AcDbLine
 10
1114.300643
 20
443.862329
 30
0.0
 11
1111.451611
 21
443.862329
 31
0.0
  0
LINE
  5
7F
330
1F
100
AcDbEntity
  8
LC-002-100-D00-0
 62
     7
370
    50
100
AcDbLine
 10
1096.186603
 20
448.733677
 30
0.0
 11
1096.185519
 21
448.734038
 31
0.0
  0
ARC
  5
80
330
1F
100
AcDbEntity
  8
LC-002-100-D00-0
 62
     7
370
    50
100
AcDbCircle
 10
1095.394949
 20
446.36233
 30
0.0
 40
2.500000000000061
100
AcDbArc
 50
71.565051
 51
90.0
  0
LINE
  5
81
330
1F
100
AcDbEntity
  8
LC-002-100-D00-0
 62
     7
370
    50
100
AcDbLine
 10
1070.149676
 20
443.862329
 30
0.0
 11
1067.300644
 21
443.862329
 31
0.0
  0
ARC
  5
82
330
1F
100
AcDbEntity
  8
LC-002-100-D00-0
 62
     7
370
    50
100
AcDbCircle
 10
1086.206338
 20
446.36233
 30
0.0
 40
2.5
100
AcDbArc
 50
90.0
 51
108.434949
  0
LINE
  5
83
330
1F
100
AcDbEntity
  8
LC-002-100-D00-0
 62
     7
370
    50
100
AcDbLine
 10
1085.415768
 20
448.734038
 30
0.0
 11
1085.414684
 21
448.733677
 31
0.0
  0
LINE
  5
84
330
1F
100
AcDbEntity
  8
LC-002-100-D00-0
 62
     7
370
    50
100
AcDbLine
 10
1111.451611
 20
443.862329
 30
0.0
 11
1111.449754
 21
443.862329
 31
0.0
  0
LINE
  5
85
330
1F
100
AcDbEntity
  8
LC-002-100-D00-0
 62
     7
370
    50
100
AcDbLine
 10
1111.449754
 20
443.862329
 30
0.0
 11
1110.184843
 21
444.067596
 31
0.0
  0
LINE
  5
86
330
1F
100
AcDbEntity
  8
LC-002-100-D00-0
 62
     7
370
    50
100
AcDbLine
 10
1110.184843
 20
444.067596
 30
0.0
 11
1110.182763
 21
444.068289
 31
0.0
  0
LINE
  5
87
330
1F
100
AcDbEntity
  8
LC-002-100-D00-0
 62
     7
370
    50
100
AcDbLine
 10
1070.151533
 20
443.862329
 30
0.0
 11
1071.416444
 21
444.067596
 31
0.0
  0
LINE
  5
88
330
1F
100
AcDbEntity
  8
LC-002-100-D00-0
 62
     7
370
    50
100
AcDbLine
 10
1070.151533
 20
443.862329
 30
0.0
 11
1070.149676
 21
443.862329
 31
0.0
  0
LINE
  5
89
330
1F
100
AcDbEntity
  8
LC-002-100-D00-0
 62
     7
370
    50
100
AcDbLine
 10
1071.418524
 20
444.068289
 30
0.0
 11
1071.416444
 21
444.067596
 31
0.0
  0
LINE
  5
8A
330
1F
100
AcDbEntity
  8
LC-002-100-D00-0
 62
     7
370
    50
100
AcDbLine
 10
1110.182763
 20
444.068289
 30
0.0
 11
1096.186603
 21
448.733677
 31
0.0
  0
LINE
  5
8B
330
1F
100
AcDbEntity
  8
LC-002-100-D00-0
 62
     7
370
    50
100
AcDbLine
 10
1085.414684
 20
448.733677
 30
0.0
 11
1071.418524
 21
444.068289
 31
0.0
  0
LINE
  5
8C
330
1F
100
AcDbEntity
  8
LC-002-100-D00-0
 62
     7
370
    50
100
AcDbLine
 10
1039.300643
 20
469.36233
 30
0.0
 11
1039.300644
 21
467.36233
 31
0.0
  0
LINE
  5
8D
330
1F
100
AcDbEntity
  8
LC-002-100-D00-0
 62
     7
370
    50
100
AcDbLine
 10
1039.300644
 20
467.36233
 30
0.0
 11
1013.300644
 21
467.36233
 31
0.0
  0
LINE
  5
8E
330
1F
100
AcDbEntity
  8
LC-002-100-D00-0
 62
     7
370
    50
100
AcDbLine
 10
1013.300644
 20
469.36233
 30
0.0
 11
1013.300644
 21
467.36233
 31
0.0
  0
LINE
  5
8F
330
1F
100
AcDbEntity
  8
LC-002-100-D00-0
 62
     7
370
    50
100
AcDbLine
 10
1142.300644
 20
467.36233
 30
0.0
 11
1168.300644
 21
467.36233
 31
0.0
  0
LINE
  5
90
330
1F
100
AcDbEntity
  8
LC-002-100-D00-0
 62
     7
370
    50
100
AcDbLine
 10
1142.300644
 20
469.36233
 30
0.0
 11
1142.300644
 21
467.36233
 31
0.0
  0
LINE
  5
91
330
1F
100
AcDbEntity
  8
LC-002-100-D00-0
 62
     7
370
    50
100
AcDbLine
 10
1168.300644
 20
469.36233
 30
0.0
 11
1168.300644
 21
467.36233
 31
0.0
  0
LINE
  5
92
330
1F
100
AcDbEntity
  8
LC-002-100-D00-0
 62
     7
370
    50
100
AcDbLine
 10
1039.300644
 20
465.36233
 30
0.0
 11
1039.300644
 21
467.36233
 31
0.0
  0
LINE
  5
93
330
1F
100
AcDbEntity
  8
LC-002-100-D00-0
 62
     7
370
    50
100
AcDbLine
 10
1013.300644
 20
467.36233
 30
0.0
 11
1013.300644
 21
465.36233
 31
0.0
  0
LINE
  5
94
330
1F
100
AcDbEntity
  8
LC-002-100-D00-0
 62
     7
370
    50
100
AcDbLine
 10
1142.300644
 20
465.36233
 30
0.0
 11
1142.300644
 21
467.36233
 31
0.0
  0
LINE
  5
95
330
1F
100
AcDbEntity
  8
LC-002-100-D00-0
 62
     7
370
    50
100
AcDbLine
 10
1168.300644
 20
467.36233
 30
0.0
 11
1168.300644
 21
465.36233
 31
0.0
  0
LINE
  5
96
330
1F
100
AcDbEntity
  8
LC-002-100-D00-0
 62
     7
370
    50
100
AcDbLine
 10
1142.300644
 20
465.36233
 30
0.0
 11
1142.300644
 21
444.26233
 31
0.0
  0
LINE
  5
97
330
1F
100
AcDbEntity
  8
LC-002-100-D00-0
 62
     7
370
    50
100
AcDbLine
 10
1168.300644
 20
465.36233
 30
0.0
 11
1168.300644
 21
444.26233
 31
0.0
  0
LINE
  5
98
330
1F
100
AcDbEntity
  8
LC-002-100-D00-0
 62
     7
370
    50
100
AcDbLine
 10
1013.300644
 20
440.26233
 30
0.0
 11
1015.741036
 21
440.26233
 31
0.0
  0
LINE
  5
99
330
1F
100
AcDbEntity
  8
LC-002-100-D00-0
 62
     7
370
    50
100
AcDbLine
 10
1036.86025
 20
440.26233
 30
0.0
 11
1039.300644
 21
440.26233
 31
0.0
  0
LINE
  5
9A
330
1F
100
AcDbEntity
  8
LC-002-100-D00-0
 62
     7
370
    50
100
AcDbLine
 10
1039.300644
 20
440.26233
 30
0.0
 11
1039.300644
 21
444.26233
 31
0.0
  0
LINE
  5
9B
330
1F
100
AcDbEntity
  8
LC-002-100-D00-0
 62
     7
370
    50
100
AcDbLine
 10
1013.300644
 20
444.26233
 30
0.0
 11
1013.300644
 21
440.26233
 31
0.0
  0
LINE
  5
9C
330
1F
100
AcDbEntity
  8
LC-002-100-D00-0
 62
     7
370
    50
100
AcDbLine
 10
1039.300644
 20
465.36233
 30
0.0
 11
1039.300644
 21
444.26233
 31
0.0
  0
LINE
  5
9D
330
1F
100
AcDbEntity
  8
LC-002-100-D00-0
 62
     7
370
    50
100
AcDbLine
 10
1013.300644
 20
465.36233
 30
0.0
 11
1013.300644
 21
444.26233
 31
0.0
  0
LINE
  5
9E
330
1F
100
AcDbEntity
  8
LC-002-100-D00-0
 62
     7
370
    50
100
AcDbLine
 10
1168.300644
 20
440.26233
 30
0.0
 11
1165.860251
 21
440.26233
 31
0.0
  0
LINE
  5
9F
330
1F
100
AcDbEntity
  8
LC-002-100-D00-0
 62
     7
370
    50
100
AcDbLine
 10
1144.741037
 20
440.26233
 30
0.0
 11
1142.300644
 21
440.26233
 31
0.0
  0
LINE
  5
A0
330
1F
100
AcDbEntity
  8
LC-002-100-D00-0
 62
     7
370
    50
100
AcDbLine
 10
1142.300644
 20
440.26233
 30
0.0
 11
1142.300644
 21
444.26233
 31
0.0
  0
LINE
  5
A1
330
1F
100
AcDbEntity
  8
LC-002-100-D00-0
 62
     7
370
    50
100
AcDbLine
 10
1168.300644
 20
444.26233
 30
0.0
 11
1168.300644
 21
440.26233
 31
0.0
  0
LINE
  5
A2
330
1F
100
AcDbEntity
  8
LC-002-100-D00-0
 62
     7
370
    50
100
AcDbLine
 10
1071.870784
 20
443.862329
 30
0.0
 11
1070.151533
 21
443.862329
 31
0.0
  0
LINE
  5
A3
330
1F
100
AcDbEntity
  8
LC-002-100-D00-0
 62
     7
370
    50
100
AcDbLine
 10
1111.449754
 20
443.862329
 30
0.0
 11
1109.730503
 21
443.862329
 31
0.0
  0
LINE
  5
A4
330
1F
100
AcDbEntity
  8
LC-002-100-D00-0
 62
     7
370
    50
100
AcDbLine
 10
1109.730503
 20
443.862329
 30
0.0
 11
1071.870784
 21
443.862329
 31
0.0
  0
LINE
  5
A5
330
1F
100
AcDbEntity
  8
LC-002-100-D00-0
 62
     7
370
    50
100
AcDbLine
 10
1130.300644
 20
467.96233
 30
0.0
 11
1121.300644
 21
467.96233
 31
0.0
  0
LINE
  5
A6
330
1F
100
AcDbEntity
  8
LC-002-100-D00-0
 62
     7
370
    50
100
AcDbLine
 10
1051.300644
 20
467.96233
 30
0.0
 11
1060.300644
 21
467.96233
 31
0.0
  0
LINE
  5
A7
330
1F
100
AcDbEntity
  8
LC-002-100-D00-0
 62
     7
370
    50
100
AcDbLine
 10
1051.800644
 20
454.36233
 30
0.0
 11
1059.800644
 21
454.36233
 31
0.0
  0
LINE
  5
A8
330
1F
100
AcDbEntity
  8
LC-002-100-D00-0
 62
     7
370
    50
100
AcDbLine
 10
1129.800644
 20
454.36233
 30
0.0
 11
1121.800644
 21
454.36233
 31
0.0
  0
LINE
  5
A9
330
1F
100
AcDbEntity
  8
LC-002-100-D00-0
 62
     7
370
    50
100
AcDbLine
 10
1017.458715
 20
344.362334
 30
0.0
 11
1035.16854
 21
344.362334
 31
0.0
  0
LINE
  5
AA
330
1F
100
AcDbEntity
  8
LC-002-100-D00-0
 62
     7
370
    50
100
AcDbLine
 10
1028.238363
 20
336.36233
 30
0.0
 11
1016.800644
 21
336.36233
 31
0.0
  0
LINE
  5
AB
330
1F
100
AcDbEntity
  8
LC-002-100-D00-0
 62
     7
370
    50
100
AcDbLine
 10
1035.800644
 20
336.36233
 30
0.0
 11
1028.238363
 21
336.36233
 31
0.0
  0
LINE
  5
AC
330
1F
100
AcDbEntity
  8
LC-002-100-D00-0
 62
     7
370
    50
100
AcDbLine
 10
1146.458719
 20
344.362334
 30
0.0
 11
1164.168537
 21
344.362334
 31
0.0
  0
LINE
  5
AD
330
1F
100
AcDbEntity
  8
LC-002-100-D00-0
 62
     7
370
    50
100
AcDbLine
 10
1157.238363
 20
336.36233
 30
0.0
 11
1145.800644
 21
336.36233
 31
0.0
  0
LINE
  5
AE
330
1F
100
AcDbEntity
  8
LC-002-100-D00-0
 62
     7
370
    50
100
AcDbLine
 10
1164.800644
 20
336.36233
 30
0.0
 11
1157.238363
 21
336.36233
 31
0.0
  0
LINE
  5
AF
330
1F
100
AcDbEntity
  8
LC-002-100-D00-0
 62
     7
370
    50
100
AcDbLine
 10
1014.300644
 20
438.36233
 30
0.0
 11
1014.300645
 21
440.26233
 31
0.0
  0
LINE
  5
B0
330
1F
100
AcDbEntity
  8
LC-002-100-D00-0
 62
     7
370
    50
100
AcDbLine
 10
1020.300644
 20
438.36233
 30
0.0
 11
1014.300644
 21
438.36233
 31
0.0
  0
LINE
  5
B1
330
1F
100
AcDbEntity
  8
LC-002-100-D00-0
 62
     7
370
    50
100
AcDbLine
 10
1016.685784
 20
440.36233
 30
0.0
 11
1020.300644
 21
440.36233
 31
0.0
  0
LINE
  5
B2
330
1F
100
AcDbEntity
  8
LC-002-100-D00-0
 62
     7
370
    50
100
AcDbLine
 10
1032.300644
 20
438.36233
 30
0.0
 11
1020.300644
 21
438.36233
 31
0.0
  0
LINE
  5
B3
330
1F
100
AcDbEntity
  8
LC-002-100-D00-0
 62
     7
370
    50
100
AcDbLine
 10
1032.300644
 20
440.36233
 30
0.0
 11
1020.300644
 21
440.36233
 31
0.0
  0
LINE
  5
B4
330
1F
100
AcDbEntity
  8
LC-002-100-D00-0
 62
     7
370
    50
100
AcDbLine
 10
1038.300645
 20
440.26233
 30
0.0
 11
1038.300644
 21
438.36233
 31
0.0
  0
LINE
  5
B5
330
1F
100
AcDbEntity
  8
LC-002-100-D00-0
 62
     7
370
    50
100
AcDbLine
 10
1038.300644
 20
438.36233
 30
0.0
 11
1032.300644
 21
438.36233
 31
0.0
  0
LINE
  5
B6
330
1F
100
AcDbEntity
  8
LC-002-100-D00-0
 62
     7
370
    50
100
AcDbLine
 10
1032.300644
 20
440.36233
 30
0.0
 11
1035.915503
 21
440.36233
 31
0.0
  0
LINE
  5
B7
330
1F
100
AcDbEntity
  8
LC-002-100-D00-0
 62
     7
370
    50
100
AcDbLine
 10
1029.800644
 20
413.36233
 30
0.0
 11
1022.800644
 21
413.36233
 31
0.0
  0
LINE
  5
B8
330
1F
100
AcDbEntity
  8
LC-002-100-D00-0
 62
     7
370
    50
100
AcDbLine
 10
1034.800644
 20
413.36233
 30
0.0
 11
1029.800644
 21
413.36233
 31
0.0
  0
LINE
  5
B9
330
1F
100
AcDbEntity
  8
LC-002-100-D00-0
 62
     7
370
    50
100
AcDbLine
 10
1022.800644
 20
413.36233
 30
0.0
 11
1017.800644
 21
413.36233
 31
0.0
  0
LINE
  5
BA
330
1F
100
AcDbEntity
  8
LC-002-100-D00-0
 62
     7
370
    50
100
AcDbLine
 10
1014.300644
 20
413.36233
 30
0.0
 11
1014.300644
 21
438.36233
 31
0.0
  0
LINE
  5
BB
330
1F
100
AcDbEntity
  8
LC-002-100-D00-0
 62
     7
370
    50
100
AcDbLine
 10
1017.800644
 20
413.36233
 30
0.0
 11
1014.300644
 21
413.36233
 31
0.0
  0
LINE
  5
BC
330
1F
100
AcDbEntity
  8
LC-002-100-D00-0
 62
     7
370
    50
100
AcDbLine
 10
1038.300644
 20
438.36233
 30
0.0
 11
1038.300644
 21
413.36233
 31
0.0
  0
LINE
  5
BD
330
1F
100
AcDbEntity
  8
LC-002-100-D00-0
 62
     7
370
    50
100
AcDbLine
 10
1038.300644
 20
413.36233
 30
0.0
 11
1034.800644
 21
413.36233
 31
0.0
  0
LINE
  5
BE
330
1F
100
AcDbEntity
  8
LC-002-100-D00-0
 62
     7
370
    50
100
AcDbLine
 10
1161.300644
 20
440.36233
 30
0.0
 11
1149.300644
 21
440.36233
 31
0.0
  0
LINE
  5
BF
330
1F
100
AcDbEntity
  8
LC-002-100-D00-0
 62
     7
370
    50
100
AcDbLine
 10
1161.300644
 20
438.36233
 30
0.0
 11
1149.300644
 21
438.36233
 31
0.0
  0
LINE
  5
C0
330
1F
100
AcDbEntity
  8
LC-002-100-D00-0
 62
     7
370
    50
100
AcDbLine
 10
1143.300644
 20
438.36233
 30
0.0
 11
1143.300642
 21
440.26233
 31
0.0
  0
LINE
  5
C1
330
1F
100
AcDbEntity
  8
LC-002-100-D00-0
 62
     7
370
    50
100
AcDbLine
 10
1145.685784
 20
440.36233
 30
0.0
 11
1149.300644
 21
440.36233
 31
0.0
  0
LINE
  5
C2
330
1F
100
AcDbEntity
  8
LC-002-100-D00-0
 62
     7
370
    50
100
AcDbLine
 10
1149.300644
 20
438.36233
 30
0.0
 11
1143.300644
 21
438.36233
 31
0.0
  0
LINE
  5
C3
330
1F
100
AcDbEntity
  8
LC-002-100-D00-0
 62
     7
370
    50
100
AcDbLine
 10
1167.300642
 20
440.26233
 30
0.0
 11
1167.300644
 21
438.36233
 31
0.0
  0
LINE
  5
C4
330
1F
100
AcDbEntity
  8
LC-002-100-D00-0
 62
     7
370
    50
100
AcDbLine
 10
1167.300644
 20
438.36233
 30
0.0
 11
1161.300644
 21
438.36233
 31
0.0
  0
LINE
  5
C5
330
1F
100
AcDbEntity
  8
LC-002-100-D00-0
 62
     7
370
    50
100
AcDbLine
 10
1161.300644
 20
440.36233
 30
0.0
 11
1164.915503
 21
440.36233
 31
0.0
  0
LINE
  5
C6
330
1F
100
AcDbEntity
  8
LC-002-100-D00-0
 62
     7
370
    50
100
AcDbLine
 10
1158.800644
 20
413.36233
 30
0.0
 11
1151.800644
 21
413.36233
 31
0.0
  0
LINE
  5
C7
330
1F
100
AcDbEntity
  8
LC-002-100-D00-0
 62
     7
370
    50
100
AcDbLine
 10
1163.800644
 20
413.36233
 30
0.0
 11
1158.800644
 21
413.36233
 31
0.0
  0
LINE
  5
C8
330
1F
100
AcDbEntity
  8
LC-002-100-D00-0
 62
     7
370
    50
100
AcDbLine
 10
1151.800644
 20
413.36233
 30
0.0
 11
1146.800644
 21
413.36233
 31
0.0
  0
LINE
  5
C9
330
1F
100
AcDbEntity
  8
LC-002-100-D00-0
 62
     7
370
    50
100
AcDbLine
 10
1143.300644
 20
413.36233
 30
0.0
 11
1143.300644
 21
438.36233
 31
0.0
  0
LINE
  5
CA
330
1F
100
AcDbEntity
  8
LC-002-100-D00-0
 62
     7
370
    50
100
AcDbLine
 10
1146.800644
 20
413.36233
 30
0.0
 11
1143.300644
 21
413.36233
 31
0.0
  0
LINE
  5
CB
330
1F
100
AcDbEntity
  8
LC-002-100-D00-0
 62
     7
370
    50
100
AcDbLine
 10
1167.300644
 20
438.36233
 30
0.0
 11
1167.300644
 21
413.36233
 31
0.0
  0
LINE
  5
CC
330
1F
100
AcDbEntity
  8
LC-002-100-D00-0
 62
     7
370
    50
100
AcDbLine
 10
1167.300644
 20
413.36233
 30
0.0
 11
1163.800644
 21
413.36233
 31
0.0
  0
LINE
  5
CD
330
1F
100
AcDbEntity
  8
LC-002-100-D00-0
 62
     7
370
    50
100
AcDbLine
 10
1016.300644
 20
355.86233
 30
0.0
 11
1036.300644
 21
355.86233
 31
0.0
  0
LINE
  5
CE
330
1F
100
AcDbEntity
  8
LC-002-100-D00-0
 62
     7
370
    50
100
AcDbLine
 10
1028.340348
 20
345.36233
 30
0.0
 11
1036.300644
 21
345.36233
 31
0.0
  0
LINE
  5
CF
330
1F
100
AcDbEntity
  8
LC-002-100-D00-0
 62
     7
370
    50
100
AcDbLine
 10
1016.300644
 20
345.36233
 30
0.0
 11
1028.340348
 21
345.36233
 31
0.0
  0
LINE
  5
D0
330
1F
100
AcDbEntity
  8
LC-002-100-D00-0
 62
     7
370
    50
100
AcDbLine
 10
1028.136378
 20
344.36233
 30
0.0
 11
1017.300644
 21
344.36233
 31
0.0
  0
LINE
  5
D1
330
1F
100
AcDbEntity
  8
LC-002-100-D00-0
 62
     7
370
    50
100
AcDbLine
 10
1035.300644
 20
344.36233
 30
0.0
 11
1028.136378
 21
344.36233
 31
0.0
  0
LINE
  5
D2
330
1F
100
AcDbEntity
  8
LC-002-100-D00-0
 62
     7
370
    50
100
AcDbLine
 10
1016.300644
 20
359.36233
 30
0.0
 11
1036.300644
 21
359.36233
 31
0.0
  0
LINE
  5
D3
330
1F
100
AcDbEntity
  8
LC-002-100-D00-0
 62
     7
370
    50
100
AcDbLine
 10
1145.300644
 20
355.86233
 30
0.0
 11
1165.300644
 21
355.86233
 31
0.0
  0
LINE
  5
D4
330
1F
100
AcDbEntity
  8
LC-002-100-D00-0
 62
     7
370
    50
100
AcDbLine
 10
1157.340348
 20
345.36233
 30
0.0
 11
1165.300644
 21
345.36233
 31
0.0
  0
LINE
  5
D5
330
1F
100
AcDbEntity
  8
LC-002-100-D00-0
 62
     7
370
    50
100
AcDbLine
 10
1145.300644
 20
345.36233
 30
0.0
 11
1157.340348
 21
345.36233
 31
0.0
  0
LINE
  5
D6
330
1F
100
AcDbEntity
  8
LC-002-100-D00-0
 62
     7
370
    50
100
AcDbLine
 10
1157.136378
 20
344.36233
 30
0.0
 11
1146.300644
 21
344.36233
 31
0.0
  0
LINE
  5
D7
330
1F
100
AcDbEntity
  8
LC-002-100-D00-0
 62
     7
370
    50
100
AcDbLine
 10
1164.300644
 20
344.36233
 30
0.0
 11
1157.136378
 21
344.36233
 31
0.0
  0
LINE
  5
D8
330
1F
100
AcDbEntity
  8
LC-002-100-D00-0
 62
     7
370
    50
100
AcDbLine
 10
1145.300644
 20
359.36233
 30
0.0
 11
1165.300644
 21
359.36233
 31
0.0
  0
LINE
  5
D9
330
1F
100
AcDbEntity
  8
LC-002-100-D00-0
 62
     7
370
    50
100
AcDbLine
 10
1055.800644
 20
444.36233
 30
0.0
 11
1051.400644
 21
444.36233
 31
0.0
  0
LINE
  5
DA
330
1F
100
AcDbEntity
  8
LC-002-100-D00-0
 62
     7
370
    50
100
AcDbLine
 10
1060.200644
 20
444.36233
 30
0.0
 11
1055.800644
 21
444.36233
 31
0.0
  0
LINE
  5
DB
330
1F
100
AcDbEntity
  8
LC-002-100-D00-0
 62
     7
370
    50
100
AcDbLine
 10
1125.800644
 20
444.36233
 30
0.0
 11
1121.400644
 21
444.36233
 31
0.0
  0
LINE
  5
DC
330
1F
100
AcDbEntity
  8
LC-002-100-D00-0
 62
     7
370
    50
100
AcDbLine
 10
1130.200644
 20
444.36233
 30
0.0
 11
1125.800644
 21
444.36233
 31
0.0
  0
LINE
  5
DD
330
1F
100
AcDbEntity
  8
LC-002-100-D00-0
 62
     7
370
    50
100
AcDbLine
 10
1131.300644
 20
453.36233
 30
0.0
 11
1131.300644
 21
450.36233
 31
0.0
  0
LINE
  5
DE
330
1F
100
AcDbEntity
  8
LC-002-100-D00-0
 62
     7
370
    50
100
AcDbLine
 10
1131.300644
 20
450.36233
 30
0.0
 11
1126.300644
 21
450.36233
 31
0.0
  0
LINE
  5
DF
330
1F
100
AcDbEntity
  8
LC-002-100-D00-0
 62
     7
370
    50
100
AcDbLine
 10
1126.300644
 20
453.36233
 30
0.0
 11
1131.300644
 21
453.36233
 31
0.0
  0
LINE
  5
E0
330
1F
100
AcDbEntity
  8
LC-002-100-D00-0
 62
     7
370
    50
100
AcDbLine
 10
1055.300644
 20
450.36233
 30
0.0
 11
1063.300644
 21
450.362329
 31
0.0
  0
LINE
  5
E1
330
1F
100
AcDbEntity
  8
LC-002-100-D00-0
 62
     7
370
    50
100
AcDbLine
 10
1055.300644
 20
453.36233
 30
0.0
 11
1063.300644
 21
453.36233
 31
0.0
  0
LINE
  5
E2
330
1F
100
AcDbEntity
  8
LC-002-100-D00-0
 62
     7
370
    50
100
AcDbLine
 10
1055.300644
 20
450.36233
 30
0.0
 11
1050.300644
 21
450.36233
 31
0.0
  0
LINE
  5
E3
330
1F
100
AcDbEntity
  8
LC-002-100-D00-0
 62
     7
370
    50
100
AcDbLine
 10
1050.300644
 20
450.36233
 30
0.0
 11
1050.300644
 21
453.36233
 31
0.0
  0
LINE
  5
E4
330
1F
100
AcDbEntity
  8
LC-002-100-D00-0
 62
     7
370
    50
100
AcDbLine
 10
1050.300644
 20
453.36233
 30
0.0
 11
1055.300644
 21
453.36233
 31
0.0
  0
LINE
  5
E5
330
1F
100
AcDbEntity
  8
LC-002-100-D00-0
 62
     7
370
    50
100
AcDbLine
 10
1118.300643
 20
450.362329
 30
0.0
 11
1126.300644
 21
450.36233
 31
0.0
  0
LINE
  5
E6
330
1F
100
AcDbEntity
  8
LC-002-100-D00-0
 62
     7
370
    50
100
AcDbLine
 10
1118.300643
 20
453.36233
 30
0.0
 11
1126.300644
 21
453.36233
 31
0.0
  0
LINE
  5
E7
330
1F
100
AcDbEntity
  8
LC-002-100-D00-0
 62
     7
370
    50
100
AcDbLine
 10
1128.747452
 20
440.11233
 30
0.0
 11
1052.853835
 21
440.11233
 31
0.0
  0
LINE
  5
E8
330
1F
100
AcDbEntity
  8
LC-002-100-D00-0
 62
     7
370
    50
100
AcDbLine
 10
1050.300644
 20
453.36233
 30
0.0
 11
1050.300643
 21
454.36233
 31
0.0
  0
LINE
  5
E9
330
1F
100
AcDbEntity
  8
LC-002-100-D00-0
 62
     7
370
    50
100
AcDbLine
 10
1131.300644
 20
454.36233
 30
0.0
 11
1131.300644
 21
453.36233
 31
0.0
  0
LINE
  5
EA
330
1F
100
AcDbEntity
  8
LC-002-100-D00-0
 62
     7
370
    50
100
AcDbLine
 10
1050.300643
 20
454.36233
 30
0.0
 11
1050.300643
 21
469.36233
 31
0.0
  0
LINE
  5
EB
330
1F
100
AcDbEntity
  8
LC-002-100-D00-0
 62
     7
370
    50
100
AcDbLine
 10
1050.300644
 20
440.11233
 30
0.0
 11
1050.300644
 21
448.36233
 31
0.0
  0
LINE
  5
EC
330
1F
100
AcDbEntity
  8
LC-002-100-D00-0
 62
     7
370
    50
100
AcDbLine
 10
1052.853835
 20
440.11233
 30
0.0
 11
1050.300644
 21
440.11233
 31
0.0
  0
LINE
  5
ED
330
1F
100
AcDbEntity
  8
LC-002-100-D00-0
 62
     7
370
    50
100
AcDbLine
 10
1131.300644
 20
469.36233
 30
0.0
 11
1131.300644
 21
454.36233
 31
0.0
  0
LINE
  5
EE
330
1F
100
AcDbEntity
  8
LC-002-100-D00-0
 62
     7
370
    50
100
AcDbLine
 10
1131.300644
 20
448.36233
 30
0.0
 11
1131.300644
 21
440.11233
 31
0.0
  0
LINE
  5
EF
330
1F
100
AcDbEntity
  8
LC-002-100-D00-0
 62
     7
370
    50
100
AcDbLine
 10
1131.300644
 20
440.11233
 30
0.0
 11
1128.747452
 21
440.11233
 31
0.0
  0
LINE
  5
F0
330
1F
100
AcDbEntity
  8
LC-002-100-D00-0
 62
     7
370
    50
100
AcDbLine
 10
1117.843197
 20
387.36233
 30
0.0
 11
1063.75809
 21
387.36233
 31
0.0
  0
LINE
  5
F1
330
1F
100
AcDbEntity
  8
LC-002-100-D00-0
 62
     7
370
    50
100
AcDbLine
 10
1052.853835
 20
440.11233
 30
0.0
 11
1128.747452
 21
440.11233
 31
0.0
  0
LINE
  5
F2
330
1F
100
AcDbEntity
  8
LC-002-100-D00-0
 62
     7
370
    50
100
AcDbLine
 10
1111.316241
 20
380.86233
 30
0.0
 11
1070.285046
 21
380.86233
 31
0.0
  0
LINE
  5
F3
330
1F
100
AcDbEntity
  8
LC-002-100-D00-0
 62
     7
370
    50
100
AcDbLine
 10
1131.300644
 20
440.11233
 30
0.0
 11
1131.300644
 21
399.86233
 31
0.0
  0
LINE
  5
F4
330
1F
100
AcDbEntity
  8
LC-002-100-D00-0
 62
     7
370
    50
100
AcDbLine
 10
1128.747452
 20
440.11233
 30
0.0
 11
1131.300644
 21
440.11233
 31
0.0
  0
ARC
  5
F5
330
1F
100
AcDbEntity
  8
LC-002-100-D00-0
 62
     7
370
    50
100
AcDbCircle
 10
1118.800644
 20
399.86233
 30
0.0
 40
12.5
100
AcDbArc
 50
270.0
 51
0.0
  0
LINE
  5
F6
330
1F
100
AcDbEntity
  8
LC-002-100-D00-0
 62
     7
370
    50
100
AcDbLine
 10
1118.800644
 20
387.36233
 30
0.0
 11
1117.843197
 21
387.36233
 31
0.0
  0
ARC
  5
F7
330
1F
100
AcDbEntity
  8
LC-002-100-D00-0
 62
     7
370
    50
100
AcDbCircle
 10
1062.800644
 20
399.86233
 30
0.0
 40
12.50000000000023
100
AcDbArc
 50
180.0
 51
270.0
  0
LINE
  5
F8
330
1F
100
AcDbEntity
  8
LC-002-100-D00-0
 62
     7
370
    50
100
AcDbLine
 10
1063.75809
 20
387.36233
 30
0.0
 11
1062.800644
 21
387.36233
 31
0.0
  0
LINE
  5
F9
330
1F
100
AcDbEntity
  8
LC-002-100-D00-0
 62
     7
370
    50
100
AcDbLine
 10
1050.300644
 20
399.86233
 30
0.0
 11
1050.300644
 21
440.11233
 31
0.0
  0
LINE
  5
FA
330
1F
100
AcDbEntity
  8
LC-002-100-D00-0
 62
     7
370
    50
100
AcDbLine
 10
1050.300644
 20
440.11233
 30
0.0
 11
1052.853835
 21
440.11233
 31
0.0
  0
ARC
  5
FB
330
1F
100
AcDbEntity
  8
LC-002-100-D00-0
 62
     7
370
    50
100
AcDbCircle
 10
1111.318524
 20
387.86233
 30
0.0
 40
7.0
100
AcDbArc
 50
270.0
 51
355.903956
  0
LINE
  5
FC
330
1F
100
AcDbEntity
  8
LC-002-100-D00-0
 62
     7
370
    50
100
AcDbLine
 10
1111.318524
 20
380.86233
 30
0.0
 11
1111.316241
 21
380.86233
 31
0.0
  0
ARC
  5
FD
330
1F
100
AcDbEntity
  8
LC-002-100-D00-0
 62
     7
370
    50
100
AcDbCircle
 10
1070.282764
 20
387.86233
 30
0.0
 40
7.000000000000109
100
AcDbArc
 50
184.096044
 51
270.0
  0
LINE
  5
FE
330
1F
100
AcDbEntity
  8
LC-002-100-D00-0
 62
     7
370
    50
100
AcDbLine
 10
1070.285046
 20
380.86233
 30
0.0
 11
1070.282764
 21
380.86233
 31
0.0
  0
LINE
  5
FF
330
1F
100
AcDbEntity
  8
LC-002-100-D00-0
 62
     7
370
    50
100
AcDbLine
 10
1055.800644
 20
448.36233
 30
0.0
 11
1061.300644
 21
448.36233
 31
0.0
  0
LINE
  5
100
330
1F
100
AcDbEntity
  8
LC-002-100-D00-0
 62
     7
370
    50
100
AcDbLine
 10
1050.300644
 20
448.36233
 30
0.0
 11
1055.800644
 21
448.36233
 31
0.0
  0
LINE
  5
101
330
1F
100
AcDbEntity
  8
LC-002-100-D00-0
 62
     7
370
    50
100
AcDbLine
 10
1125.800644
 20
448.36233
 30
0.0
 11
1131.300644
 21
448.36233
 31
0.0
  0
LINE
  5
102
330
1F
100
AcDbEntity
  8
LC-002-100-D00-0
 62
     7
370
    50
100
AcDbLine
 10
1120.300644
 20
448.36233
 30
0.0
 11
1125.800644
 21
448.36233
 31
0.0
  0
DIMENSION
  5
105
330
1F
100
AcDbEntity
  8
LC-002-100-D00-0
 62
     7
370
    25
100
AcDbDimension
  2
*D1
 10
1050.300644
 20
315.258178
 30
0.0
 11
1095.204366
 21
337.258178
 31
0.0
 70
   160
  1
81
 71
     5
 42
81.0
  3
LC-DIM-L-0100-02-02
100
AcDbAlignedDimension
 13
1131.300644
 23
399.86233
 33
0.0
 14
1050.300644
 24
399.86233
 34
0.0
100
AcDbRotatedDimension
  0
LINE
  5
113
330
1F
100
AcDbEntity
  8
LC-002-100-D00-0
  6
DASHDOT
 62
     7
370
    25
100
AcDbLine
 10
1090.800644
 20
380.86233
 30
0.0
 11
1090.800644
 21
470.86233
 31
0.0
  0
LINE
  5
114
330
1F
100
AcDbEntity
  8
LC-002-100-D00-0
 62
     7
370
    50
100
AcDbLine
 10
771.273943
 20
115.891744
 30
0.0
 11
771.273943
 21
162.891744
 31
0.0
  0
ARC
  5
115
330
1F
100
AcDbEntity
  8
LC-002-100-D00-0
 62
     7
370
    50
100
AcDbCircle
 10
768.773943
 20
162.891744
 30
0.0
 40
2.5
100
AcDbArc
 50
0.0
 51
90.0
  0
ARC
  5
116
330
1F
100
AcDbEntity
  8
LC-002-100-D00-0
 62
     7
370
    50
100
AcDbCircle
 10
768.773943
 20
115.891744
 30
0.0
 40
2.5
100
AcDbArc
 50
270.0
 51
0.0
  0
LINE
  5
117
330
1F
100
AcDbEntity
  8
LC-002-100-D00-0
 62
     7
370
    50
100
AcDbLine
 10
768.773943
 20
113.391744
 30
0.0
 11
73.773943
 21
113.391744
 31
0.0
  0
LINE
  5
118
330
1F
100
AcDbEntity
  8
LC-002-100-D00-0
 62
     7
370
    50
100
AcDbLine
 10
73.773943
 20
165.391744
 30
0.0
 11
768.773943
 21
165.391744
 31
0.0
  0
ARC
  5
119
330
1F
100
AcDbEntity
  8
LC-002-100-D00-0
 62
     7
370
    50
100
AcDbCircle
 10
73.773943
 20
162.891744
 30
0.0
 40
2.5
100
AcDbArc
 50
90.0
 51
180.0
  0
ARC
  5
11A
330
1F
100
AcDbEntity
  8
LC-002-100-D00-0
 62
     7
370
    50
100
AcDbCircle
 10
73.773943
 20
115.891744
 30
0.0
 40
2.5
100
AcDbArc
 50
180.0
 51
270.0
  0
LINE
  5
11B
330
1F
100
AcDbEntity
  8
LC-002-100-D00-0
 62
     7
370
    50
100
AcDbLine
 10
71.273943
 20
115.891744
 30
0.0
 11
71.273943
 21
162.891744
 31
0.0
  0
ARC
  5
11C
330
1F
100
AcDbEntity
  8
LC-002-100-D00-0
 62
     7
370
    50
100
AcDbCircle
 10
26.273943
 20
211.891744
 30
0.0
 40
5.0
100
AcDbArc
 50
90.0
 51
180.0
  0
LINE
  5
11D
330
1F
100
AcDbEntity
  8
LC-002-100-D00-0
 62
     7
370
    50
100
AcDbLine
 10
816.273943
 20
216.891744
 30
0.0
 11
26.273943
 21
216.891744
 31
0.0
  0
ARC
  5
11E
330
1F
100
AcDbEntity
  8
LC-002-100-D00-0
 62
     7
370
    50
100
AcDbCircle
 10
816.273943
 20
211.891744
 30
0.0
 40
5.0
100
AcDbArc
 50
0.0
 51
90.0
  0
LINE
  5
11F
330
1F
100
AcDbEntity
  8
LC-002-100-D00-0
 62
     7
370
    50
100
AcDbLine
 10
26.273943
 20
61.891744
 30
0.0
 11
816.273943
 21
61.891744
 31
0.0
  0
ARC
  5
120
330
1F
100
AcDbEntity
  8
LC-002-100-D00-0
 62
     7
370
    50
100
AcDbCircle
 10
26.273943
 20
66.891744
 30
0.0
 40
5.0
100
AcDbArc
 50
180.0
 51
270.0
  0
LINE
  5
121
330
1F
100
AcDbEntity
  8
LC-002-100-D00-0
 62
     7
370
    50
100
AcDbLine
 10
21.273943
 20
211.891744
 30
0.0
 11
21.273943
 21
66.891744
 31
0.0
  0
LINE
  5
122
330
1F
100
AcDbEntity
  8
LC-002-100-D00-0
 62
     7
370
    50
100
AcDbLine
 10
821.273943
 20
211.891744
 30
0.0
 11
821.273943
 21
66.891744
 31
0.0
  0
ARC
  5
123
330
1F
100
AcDbEntity
  8
LC-002-100-D00-0
 62
     7
370
    50
100
AcDbCircle
 10
816.273943
 20
66.891744
 30
0.0
 40
5.0
100
AcDbArc
 50
270.0
 51
0.0
  0
CIRCLE
  5
124
330
1F
100
AcDbEntity
  8
LC-002-100-D00-0
 62
     7
370
    50
100
AcDbCircle
 10
741.273943
 20
139.391744
 30
0.0
 40
2.999999999999886
  0
CIRCLE
  5
125
330
1F
100
AcDbEntity
  8
LC-002-100-D00-0
 62
     7
370
    50
100
AcDbCircle
 10
631.273943
 20
139.391744
 30
0.0
 40
3.000000000000227
  0
CIRCLE
  5
126
330
1F
100
AcDbEntity
  8
LC-002-100-D00-0
 62
     7
370
    50
100
AcDbCircle
 10
521.273943
 20
139.391744
 30
0.0
 40
2.999999999999886
  0
CIRCLE
  5
127
330
1F
100
AcDbEntity
  8
LC-002-100-D00-0
 62
     7
370
    50
100
AcDbCircle
 10
321.273943
 20
139.391744
 30
0.0
 40
3.0
  0
CIRCLE
  5
128
330
1F
100
AcDbEntity
  8
LC-002-100-D00-0
 62
     7
370
    50
100
AcDbCircle
 10
211.273943
 20
139.391744
 30
0.0
 40
3.000000000000227
  0
CIRCLE
  5
129
330
1F
100
AcDbEntity
  8
LC-002-100-D00-0
 62
     7
370
    50
100
AcDbCircle
 10
101.273943
 20
139.391744
 30
0.0
 40
2.999999999999886
  0
INSERT
  5
12F
330
1F
100
AcDbEntity
  8
LC-002-100-D00-0
 62
     7
370
    50
100
AcDbBlockReference
  2
KLON1
 10
0.0
 20
0.0
 30
0.0
  0
LINE
  5
130
330
1F
100
AcDbEntity
  8
LC-002-100-D00-0
 62
     7
370
    50
100
AcDbLine
 10
763.247754
 20
127.069075
 30
0.0
 11
763.247754
 21
115.891745
 31
0.0
  0
ARC
  5
131
330
1F
100
AcDbEntity
  8
LC-002-100-D00-0
 62
     7
370
    50
100
AcDbCircle
 10
1767.254443
 20
-29.891474
 30
0.0
 40
1016.201773600577
100
AcDbArc
 50
171.105076
 51
171.114633
  0
INSERT
  5
139
330
1F
100
AcDbEntity
  8
LC-002-100-D00-0
 62
     7
370
    50
100
AcDbBlockReference
  2
KLON2
 10
0.0
 20
0.0
 30
0.0
  0
LINE
  5
13A
330
1F
100
AcDbEntity
  8
LC-002-100-D00-0
 62
     7
370
    50
100
AcDbLine
 10
763.247754
 20
162.877104
 30
0.0
 11
763.247754
 21
151.714413
 31
0.0
  0
INSERT
  5
140
330
1F
100
AcDbEntity
  8
LC-002-100-D00-0
 62
     7
370
    50
100
AcDbBlockReference
  2
KLON3
 10
0.0
 20
0.0
 30
0.0
  0
INSERT
  5
146
330
1F
100
AcDbEntity
  8
LC-002-100-D00-0
 62
     7
370
    50
100
AcDbBlockReference
  2
KLON4
 10
0.0
 20
0.0
 30
0.0
  0
INSERT
  5
14C
330
1F
100
AcDbEntity
  8
LC-002-100-D00-0
 62
     7
370
    50
100
AcDbBlockReference
  2
KLON5
 10
0.0
 20
0.0
 30
0.0
  0
LINE
  5
14D
330
1F
100
AcDbEntity
  8
LC-002-100-D00-0
 62
     7
370
    50
100
AcDbLine
 10
79.300131
 20
162.877104
 30
0.0
 11
79.300131
 21
151.714413
 31
0.0
  0
INSERT
  5
155
330
1F
100
AcDbEntity
  8
LC-002-100-D00-0
 62
     7
370
    50
100
AcDbBlockReference
  2
KLON6
 10
0.0
 20
0.0
 30
0.0
  0
ARC
  5
156
330
1F
100
AcDbEntity
  8
LC-002-100-D00-0
 62
     7
370
    50
100
AcDbCircle
 10
-924.70654
 20
-29.891471
 30
0.0
 40
1016.201755852176
100
AcDbArc
 50
8.885367
 51
8.894924
  0
LINE
  5
157
330
1F
100
AcDbEntity
  8
LC-002-100-D00-0
 62
     7
370
    50
100
AcDbLine
 10
79.300131
 20
127.069075
 30
0.0
 11
79.300131
 21
115.891745
 31
0.0
  0
ELLIPSE
  5
158
330
1F
100
AcDbEntity
  8
LC-002-100-D00-0
 62
     7
370
    50
100
AcDbEllipse
 10
763.200974
 20
115.891744
 30
0.0
 11
0.0
 21
-2.499999816894525
 31
0.0
210
0.0
220
0.0
230
0.9999999999999999
 40
0.018242
 41
3.141592653589793
 42
4.712388980377266
  0
ELLIPSE
  5
159
330
1F
100
AcDbEntity
  8
LC-002-100-D00-0
 62
     7
370
    50
100
AcDbEllipse
 10
626.200974
 20
115.891744
 30
0.0
 11
0.0
 21
-2.499999969482422
 31
0.0
210
0.0
220
0.0
230
1.0
 40
0.018242
 41
3.141592653592286
 42
4.71238898038091
  0
ELLIPSE
  5
15A
330
1F
100
AcDbEntity
  8
LC-002-100-D00-0
 62
     7
370
    50
100
AcDbEllipse
 10
831.74658
 20
115.891744
 30
0.0
 11
68.50000000001241
 21
0.0
 31
0.0
210
0.0
220
0.0
230
1.0
 40
0.036496
 41
3.14159265359753
 42
3.169858841660714
  0
ELLIPSE
  5
15B
330
1F
100
AcDbEntity
  8
LC-002-100-D00-0
 62
     7
370
    50
100
AcDbEllipse
 10
79.346911
 20
115.891744
 30
0.0
 11
0.0
 21
-2.499999998569488
 31
0.0
210
0.0
220
0.0
230
1.0
 40
0.018242
 41
1.570796326802303
 42
3.141592653591663
  0
ELLIPSE
  5
15C
330
1F
100
AcDbEntity
  8
LC-002-100-D00-0
 62
     7
370
    50
100
AcDbEllipse
 10
216.346911
 20
115.891744
 30
0.0
 11
0.0
 21
-2.499999992370606
 31
0.0
210
0.0
220
0.0
230
1.0
 40
0.018242
 41
1.57079632679854
 42
3.141592653590417
  0
ELLIPSE
  5
15D
330
1F
100
AcDbEntity
  8
LC-002-100-D00-0
 62
     7
370
    50
100
AcDbEllipse
 10
10.801306
 20
115.891744
 30
0.0
 11
68.50000000979874
 21
0.0
 31
0.0
210
0.0
220
0.0
230
1.0
 40
0.036496
 41
6.254919119109673
 42
6.283185307179865
  0
ELLIPSE
  5
15E
330
1F
100
AcDbEntity
  8
LC-002-100-D00-0
 62
     7
370
    50
100
AcDbEllipse
 10
831.74658
 20
162.891744
 30
0.0
 11
68.50000000005083
 21
0.0
 31
0.0
210
0.0
220
0.0
230
1.0
 40
0.036496
 41
3.141592653589804
 42
3.147448628039328
  0
ELLIPSE
  5
15F
330
1F
100
AcDbEntity
  8
LC-002-100-D00-0
 62
     7
370
    50
100
AcDbEllipse
 10
763.200974
 20
162.891744
 30
0.0
 11
0.0
 21
-2.500000122070309
 31
0.0
210
0.0
220
0.0
230
1.0
 40
0.018242
 41
4.712388980384678
 42
6.283185358135832
  0
ELLIPSE
  5
160
330
1F
100
AcDbEntity
  8
LC-002-100-D00-0
 62
     7
370
    50
100
AcDbEllipse
 10
10.801306
 20
162.891744
 30
0.0
 11
68.50000000005083
 21
0.0
 31
0.0
210
0.0
220
0.0
230
1.0
 40
0.036496
 41
6.27732933273078
 42
6.283185307179575
  0
ELLIPSE
  5
161
330
1F
100
AcDbEntity
  8
LC-002-100-D00-0
 62
     7
370
    50
100
AcDbEllipse
 10
79.346911
 20
162.891744
 30
0.0
 11
0.0
 21
-2.499999961853027
 31
0.0
210
0.0
220
0.0
230
1.0
 40
0.018242
 41
6.283185256228326
 42
7.853981633974483
  0
ELLIPSE
  5
162
330
1F
100
AcDbEntity
  8
LC-002-100-D00-0
 62
     7
370
    50
100
AcDbEllipse
 10
626.200974
 20
162.891744
 30
0.0
 11
0.0
 21
-2.499999847412105
 31
0.0
210
0.0
220
0.0
230
1.0
 40
0.018242
 41
4.712388980388328
 42
6.283185315328698
  0
ELLIPSE
  5
163
330
1F
100
AcDbEntity
  8
LC-002-100-D00-0
 62
     7
370
    50
100
AcDbEllipse
 10
216.346911
 20
162.891744
 30
0.0
 11
0.0
 21
-2.499999984741211
 31
0.0
210
0.0
220
0.0
230
1.0
 40
0.018242
 41
6.28318529902736
 42
7.8539816339708
  0
LINE
  5
164
330
1F
100
AcDbEntity
  8
LC-002-100-D00-0
 62
     7
370
    50
100
AcDbLine
 10
626.246582
 20
115.891745
 30
0.0
 11
626.246582
 21
118.74226
 31
0.0
  0
INSERT
  5
16A
330
1F
100
AcDbEntity
  8
LC-002-100-D00-0
 62
     7
370
    50
100
AcDbBlockReference
  2
KLON7
 10
0.0
 20
0.0
 30
0.0
  0
INSERT
  5
170
330
1F
100
AcDbEntity
  8
LC-002-100-D00-0
 62
     7
370
    50
100
AcDbBlockReference
  2
KLON8
 10
0.0
 20
0.0
 30
0.0
  0
LINE
  5
171
330
1F
100
AcDbEntity
  8
LC-002-100-D00-0
 62
     7
370
    50
100
AcDbLine
 10
216.301303
 20
115.891745
 30
0.0
 11
216.301303
 21
118.74226
 31
0.0
  0
INSERT
  5
177
330
1F
100
AcDbEntity
  8
LC-002-100-D00-0
 62
     7
370
    50
100
AcDbBlockReference
  2
KLON9
 10
0.0
 20
0.0
 30
0.0
  0
INSERT
  5
17D
330
1F
100
AcDbEntity
  8
LC-002-100-D00-0
 62
     7
370
    50
100
AcDbBlockReference
  2
KLON10
 10
0.0
 20
0.0
 30
0.0
  0
LINE
  5
17E
330
1F
100
AcDbEntity
  8
LC-002-100-D00-0
 62
     7
370
    50
100
AcDbLine
 10
626.246582
 20
160.041227
 30
0.0
 11
626.246582
 21
162.891743
 31
0.0
  0
LINE
  5
17F
330
1F
100
AcDbEntity
  8
LC-002-100-D00-0
 62
     7
370
    50
100
AcDbLine
 10
216.301303
 20
160.041227
 30
0.0
 11
216.301303
 21
162.891743
 31
0.0
  0
LINE
  5
180
330
1F
100
AcDbEntity
  8
LC-002-100-D00-0
 62
     7
370
    50
100
AcDbLine
 10
626.260858
 20
119.536066
 30
0.0
 11
626.260858
 21
121.141744
 31
0.0
  0
ELLIPSE
  5
181
330
1F
100
AcDbEntity
  8
LC-002-100-D00-0
 62
     7
370
    50
100
AcDbEllipse
 10
483.014131
 20
110.970936
 30
0.0
 11
143.2466513401688
 21
8.567474729384255
 31
0.0
210
0.0
220
0.0
230
1.0
 40
0.016531
 41
6.280994665941295
 42
6.282196627518939
  0
ELLIPSE
  5
182
330
1F
100
AcDbEntity
  8
LC-002-100-D00-0
 62
     7
370
    50
100
AcDbEllipse
 10
483.014131
 20
167.812552
 30
0.0
 11
143.2466514959635
 21
-8.567474738702089
 31
0.0
210
0.0
220
0.0
230
0.9999999999999999
 40
0.016531
 41
0.0009886796645081
 42
0.0021906412419957
  0
LINE
  5
183
330
1F
100
AcDbEntity
  8
LC-002-100-D00-0
 62
     7
370
    50
100
AcDbLine
 10
626.260858
 20
157.641744
 30
0.0
 11
626.260858
 21
159.247422
 31
0.0
  0
ELLIPSE
  5
184
330
1F
100
AcDbEntity
  8
LC-002-100-D00-0
 62
     7
370
    50
100
AcDbEllipse
 10
359.533754
 20
110.970936
 30
0.0
 11
143.246651314421
 21
-8.567474727844012
 31
0.0
210
0.0
220
0.0
230
0.9999999999999999
 40
0.016531
 41
3.142581333257605
 42
3.143783294835398
  0
LINE
  5
185
330
1F
100
AcDbEntity
  8
LC-002-100-D00-0
 62
     7
370
    50
100
AcDbLine
 10
216.287028
 20
119.536066
 30
0.0
 11
216.287028
 21
121.141744
 31
0.0
  0
ELLIPSE
  5
186
330
1F
100
AcDbEntity
  8
LC-002-100-D00-0
 62
     7
370
    50
100
AcDbEllipse
 10
359.533754
 20
167.812552
 30
0.0
 11
143.246650974335
 21
8.567474707503848
 31
0.0
210
0.0
220
0.0
230
0.9999999999999999
 40
0.016531
 41
3.139402012345868
 42
3.140603973923448
  0
LINE
  5
187
330
1F
100
AcDbEntity
  8
LC-002-100-D00-0
 62
     7
370
    50
100
AcDbLine
 10
216.287028
 20
157.641744
 30
0.0
 11
216.287028
 21
159.247422
 31
0.0
  0
LINE
  5
188
330
1F
100
AcDbEntity
  8
LC-002-100-D00-0
 62
     7
370
    50
100
AcDbLine
 10
626.246582
 20
118.742633
 30
0.0
 11
626.260753
 21
119.533203
 31
0.0
  0
LINE
  5
189
330
1F
100
AcDbEntity
  8
LC-002-100-D00-0
 62
     7
370
    50
100
AcDbLine
 10
626.246582
 20
160.040855
 30
0.0
 11
626.260753
 21
159.250285
 31
0.0
  0
LINE
  5
18A
330
1F
100
AcDbEntity
  8
LC-002-100-D00-0
 62
     7
370
    50
100
AcDbLine
 10
216.301303
 20
118.742633
 30
0.0
 11
216.287132
 21
119.533203
 31
0.0
  0
LINE
  5
18B
330
1F
100
AcDbEntity
  8
LC-002-100-D00-0
 62
     7
370
    50
100
AcDbLine
 10
216.301303
 20
160.040855
 30
0.0
 11
216.287132
 21
159.250285
 31
0.0
  0
ARC
  5
18C
330
1F
100
AcDbEntity
  8
LC-002-100-D00-0
 62
     7
370
    50
100
AcDbCircle
 10
451.773935
 20
139.391764
 30
0.0
 40
24.80002105914412
100
AcDbArc
 50
270.0
 51
300.592807
  0
ARC
  5
18D
330
1F
100
AcDbEntity
  8
LC-002-100-D00-0
 62
     7
370
    50
100
AcDbCircle
 10
390.77395
 20
139.391764
 30
0.0
 40
24.80002105914411
100
AcDbArc
 50
239.407193
 51
270.0
  0
ARC
  5
18E
330
1F
100
AcDbEntity
  8
LC-002-100-D00-0
 62
     7
370
    50
100
AcDbCircle
 10
451.773937
 20
139.391731
 30
0.0
 40
24.80001358063527
100
AcDbArc
 50
59.407188
 51
90.0
  0
ARC
  5
18F
330
1F
100
AcDbEntity
  8
LC-002-100-D00-0
 62
     7
370
    50
100
AcDbCircle
 10
390.773948
 20
139.391731
 30
0.0
 40
24.80001358063623
100
AcDbArc
 50
90.0
 51
120.592812
  0
LINE
  5
190
330
1F
100
AcDbEntity
  8
LC-002-100-D00-0
 62
     7
370
    50
100
AcDbLine
 10
390.773942
 20
164.191745
 30
0.0
 11
451.773943
 21
164.191745
 31
0.0
  0
LINE
  5
191
330
1F
100
AcDbEntity
  8
LC-002-100-D00-0
 62
     7
370
    50
100
AcDbLine
 10
451.773943
 20
114.591743
 30
0.0
 11
390.773942
 21
114.591743
 31
0.0
  0
LINE
  5
192
330
1F
100
AcDbEntity
  8
LC-002-100-D00-0
 62
     7
370
    50
100
AcDbLine
 10
354.44111
 20
142.830647
 30
0.0
 11
354.449253
 21
142.462755
 31
0.0
  0
LINE
  5
193
330
1F
100
AcDbEntity
  8
LC-002-100-D00-0
 62
     7
370
    50
100
AcDbLine
 10
353.329833
 20
143.623615
 30
0.0
 11
354.44111
 21
142.830647
 31
0.0
  0
LINE
  5
194
330
1F
100
AcDbEntity
  8
LC-002-100-D00-0
 62
     7
370
    50
100
AcDbLine
 10
354.44111
 20
144.416584
 30
0.0
 11
353.329833
 21
143.623615
 31
0.0
  0
LINE
  5
195
330
1F
100
AcDbEntity
  8
LC-002-100-D00-0
 62
     7
370
    50
100
AcDbLine
 10
354.44111
 20
144.790282
 30
0.0
 11
354.44111
 21
144.416584
 31
0.0
  0
LINE
  5
196
330
1F
100
AcDbEntity
  8
LC-002-100-D00-0
 62
     7
370
    50
100
AcDbLine
 10
353.06761
 20
143.810815
 30
0.0
 11
354.44111
 21
144.790282
 31
0.0
  0
LINE
  5
197
330
1F
100
AcDbEntity
  8
LC-002-100-D00-0
 62
     7
370
    50
100
AcDbLine
 10
351.883415
 20
144.655667
 30
0.0
 11
353.06761
 21
143.810815
 31
0.0
  0
LINE
  5
198
330
1F
100
AcDbEntity
  8
LC-002-100-D00-0
 62
     7
370
    50
100
AcDbLine
 10
351.883415
 20
144.281969
 30
0.0
 11
351.883415
 21
144.655667
 31
0.0
  0
LINE
  5
199
330
1F
100
AcDbEntity
  8
LC-002-100-D00-0
 62
     7
370
    50
100
AcDbLine
 10
352.806095
 20
143.623615
 30
0.0
 11
351.883415
 21
144.281969
 31
0.0
  0
LINE
  5
19A
330
1F
100
AcDbEntity
  8
LC-002-100-D00-0
 62
     7
370
    50
100
AcDbLine
 10
351.883415
 20
142.965262
 30
0.0
 11
352.806095
 21
143.623615
 31
0.0
  0
LINE
  5
19B
330
1F
100
AcDbEntity
  8
LC-002-100-D00-0
 62
     7
370
    50
100
AcDbLine
 10
351.883415
 20
142.591564
 30
0.0
 11
351.883415
 21
142.965262
 31
0.0
  0
LINE
  5
19C
330
1F
100
AcDbEntity
  8
LC-002-100-D00-0
 62
     7
370
    50
100
AcDbLine
 10
353.06761
 20
143.437117
 30
0.0
 11
351.883415
 21
142.591564
 31
0.0
  0
LINE
  5
19D
330
1F
100
AcDbEntity
  8
LC-002-100-D00-0
 62
     7
370
    50
100
AcDbLine
 10
354.449253
 20
142.462755
 30
0.0
 11
353.06761
 21
143.437117
 31
0.0
  0
LINE
  5
19E
330
1F
100
AcDbEntity
  8
LC-002-100-D00-0
 62
     7
370
    50
100
AcDbLine
 10
354.44111
 20
138.16398
 30
0.0
 11
354.449253
 21
137.796088
 31
0.0
  0
LINE
  5
19F
330
1F
100
AcDbEntity
  8
LC-002-100-D00-0
 62
     7
370
    50
100
AcDbLine
 10
353.329833
 20
138.956949
 30
0.0
 11
354.44111
 21
138.16398
 31
0.0
  0
LINE
  5
1A0
330
1F
100
AcDbEntity
  8
LC-002-100-D00-0
 62
     7
370
    50
100
AcDbLine
 10
354.44111
 20
139.749918
 30
0.0
 11
353.329833
 21
138.956949
 31
0.0
  0
LINE
  5
1A1
330
1F
100
AcDbEntity
  8
LC-002-100-D00-0
 62
     7
370
    50
100
AcDbLine
 10
354.44111
 20
140.123616
 30
0.0
 11
354.44111
 21
139.749918
 31
0.0
  0
LINE
  5
1A2
330
1F
100
AcDbEntity
  8
LC-002-100-D00-0
 62
     7
370
    50
100
AcDbLine
 10
353.06761
 20
139.144148
 30
0.0
 11
354.44111
 21
140.123616
 31
0.0
  0
LINE
  5
1A3
330
1F
100
AcDbEntity
  8
LC-002-100-D00-0
 62
     7
370
    50
100
AcDbLine
 10
351.883415
 20
139.989
 30
0.0
 11
353.06761
 21
139.144148
 31
0.0
  0
LINE
  5
1A4
330
1F
100
AcDbEntity
  8
LC-002-100-D00-0
 62
     7
370
    50
100
AcDbLine
 10
351.883415
 20
139.615302
 30
0.0
 11
351.883415
 21
139.989
 31
0.0
  0
LINE
  5
1A5
330
1F
100
AcDbEntity
  8
LC-002-100-D00-0
 62
     7
370
    50
100
AcDbLine
 10
352.806095
 20
138.956949
 30
0.0
 11
351.883415
 21
139.615302
 31
0.0
  0
LINE
  5
1A6
330
1F
100
AcDbEntity
  8
LC-002-100-D00-0
 62
     7
370
    50
100
AcDbLine
 10
351.883415
 20
138.298596
 30
0.0
 11
352.806095
 21
138.956949
 31
0.0
  0
LINE
  5
1A7
330
1F
100
AcDbEntity
  8
LC-002-100-D00-0
 62
     7
370
    50
100
AcDbLine
 10
351.883415
 20
137.924898
 30
0.0
 11
351.883415
 21
138.298596
 31
0.0
  0
LINE
  5
1A8
330
1F
100
AcDbEntity
  8
LC-002-100-D00-0
 62
     7
370
    50
100
AcDbLine
 10
353.06761
 20
138.77045
 30
0.0
 11
351.883415
 21
137.924898
 31
0.0
  0
LINE
  5
1A9
330
1F
100
AcDbEntity
  8
LC-002-100-D00-0
 62
     7
370
    50
100
AcDbLine
 10
354.449253
 20
137.796088
 30
0.0
 11
353.06761
 21
138.77045
 31
0.0
  0
LINE
  5
1AA
330
1F
100
AcDbEntity
  8
LC-002-100-D00-0
 62
     7
370
    50
100
AcDbLine
 10
354.44111
 20
133.497313
 30
0.0
 11
354.449253
 21
133.129422
 31
0.0
  0
LINE
  5
1AB
330
1F
100
AcDbEntity
  8
LC-002-100-D00-0
 62
     7
370
    50
100
AcDbLine
 10
353.329833
 20
134.290282
 30
0.0
 11
354.44111
 21
133.497313
 31
0.0
  0
LINE
  5
1AC
330
1F
100
AcDbEntity
  8
LC-002-100-D00-0
 62
     7
370
    50
100
AcDbLine
 10
354.44111
 20
135.083251
 30
0.0
 11
353.329833
 21
134.290282
 31
0.0
  0
LINE
  5
1AD
330
1F
100
AcDbEntity
  8
LC-002-100-D00-0
 62
     7
370
    50
100
AcDbLine
 10
354.44111
 20
135.456949
 30
0.0
 11
354.44111
 21
135.083251
 31
0.0
  0
LINE
  5
1AE
330
1F
100
AcDbEntity
  8
LC-002-100-D00-0
 62
     7
370
    50
100
AcDbLine
 10
353.06761
 20
134.477482
 30
0.0
 11
354.44111
 21
135.456949
 31
0.0
  0
LINE
  5
1AF
330
1F
100
AcDbEntity
  8
LC-002-100-D00-0
 62
     7
370
    50
100
AcDbLine
 10
351.883415
 20
135.322334
 30
0.0
 11
353.06761
 21
134.477482
 31
0.0
  0
LINE
  5
1B0
330
1F
100
AcDbEntity
  8
LC-002-100-D00-0
 62
     7
370
    50
100
AcDbLine
 10
351.883415
 20
134.948636
 30
0.0
 11
351.883415
 21
135.322334
 31
0.0
  0
LINE
  5
1B1
330
1F
100
AcDbEntity
  8
LC-002-100-D00-0
 62
     7
370
    50
100
AcDbLine
 10
352.806095
 20
134.290282
 30
0.0
 11
351.883415
 21
134.948636
 31
0.0
  0
LINE
  5
1B2
330
1F
100
AcDbEntity
  8
LC-002-100-D00-0
 62
     7
370
    50
100
AcDbLine
 10
351.883415
 20
133.631929
 30
0.0
 11
352.806095
 21
134.290282
 31
0.0
  0
LINE
  5
1B3
330
1F
100
AcDbEntity
  8
LC-002-100-D00-0
 62
     7
370
    50
100
AcDbLine
 10
351.883415
 20
133.258231
 30
0.0
 11
351.883415
 21
133.631929
 31
0.0
  0
LINE
  5
1B4
330
1F
100
AcDbEntity
  8
LC-002-100-D00-0
 62
     7
370
    50
100
AcDbLine
 10
353.06761
 20
134.103784
 30
0.0
 11
351.883415
 21
133.258231
 31
0.0
  0
LINE
  5
1B5
330
1F
100
AcDbEntity
  8
LC-002-100-D00-0
 62
     7
370
    50
100
AcDbLine
 10
354.449253
 20
133.129422
 30
0.0
 11
353.06761
 21
134.103784
 31
0.0
  0
LINE
  5
1B6
330
1F
100
AcDbEntity
  8
LC-002-100-D00-0
 62
     7
370
    50
100
AcDbLine
 10
354.44111
 20
131.16398
 30
0.0
 11
354.44111
 21
130.790282
 31
0.0
  0
LINE
  5
1B7
330
1F
100
AcDbEntity
  8
LC-002-100-D00-0
 62
     7
370
    50
100
AcDbLine
 10
353.329833
 20
131.956949
 30
0.0
 11
354.44111
 21
131.16398
 31
0.0
  0
LINE
  5
1B8
330
1F
100
AcDbEntity
  8
LC-002-100-D00-0
 62
     7
370
    50
100
AcDbLine
 10
354.44111
 20
132.749918
 30
0.0
 11
353.329833
 21
131.956949
 31
0.0
  0
LINE
  5
1B9
330
1F
100
AcDbEntity
  8
LC-002-100-D00-0
 62
     7
370
    50
100
AcDbLine
 10
354.44111
 20
133.123616
 30
0.0
 11
354.44111
 21
132.749918
 31
0.0
  0
LINE
  5
1BA
330
1F
100
AcDbEntity
  8
LC-002-100-D00-0
 62
     7
370
    50
100
AcDbLine
 10
353.06761
 20
132.144148
 30
0.0
 11
354.44111
 21
133.123616
 31
0.0
  0
LINE
  5
1BB
330
1F
100
AcDbEntity
  8
LC-002-100-D00-0
 62
     7
370
    50
100
AcDbLine
 10
351.883415
 20
132.989
 30
0.0
 11
353.06761
 21
132.144148
 31
0.0
  0
LINE
  5
1BC
330
1F
100
AcDbEntity
  8
LC-002-100-D00-0
 62
     7
370
    50
100
AcDbLine
 10
351.883415
 20
132.615302
 30
0.0
 11
351.883415
 21
132.989
 31
0.0
  0
LINE
  5
1BD
330
1F
100
AcDbEntity
  8
LC-002-100-D00-0
 62
     7
370
    50
100
AcDbLine
 10
352.806095
 20
131.956949
 30
0.0
 11
351.883415
 21
132.615302
 31
0.0
  0
LINE
  5
1BE
330
1F
100
AcDbEntity
  8
LC-002-100-D00-0
 62
     7
370
    50
100
AcDbLine
 10
351.883415
 20
131.298595
 30
0.0
 11
352.806095
 21
131.956949
 31
0.0
  0
LINE
  5
1BF
330
1F
100
AcDbEntity
  8
LC-002-100-D00-0
 62
     7
370
    50
100
AcDbLine
 10
351.883415
 20
130.924898
 30
0.0
 11
351.883415
 21
131.298595
 31
0.0
  0
LINE
  5
1C0
330
1F
100
AcDbEntity
  8
LC-002-100-D00-0
 62
     7
370
    50
100
AcDbLine
 10
353.06761
 20
131.77045
 30
0.0
 11
351.883415
 21
130.924898
 31
0.0
  0
LINE
  5
1C1
330
1F
100
AcDbEntity
  8
LC-002-100-D00-0
 62
     7
370
    50
100
AcDbLine
 10
354.44111
 20
130.790282
 30
0.0
 11
353.06761
 21
131.77045
 31
0.0
  0
LINE
  5
1C2
330
1F
100
AcDbEntity
  8
LC-002-100-D00-0
 62
     7
370
    50
100
AcDbLine
 10
354.44111
 20
135.830647
 30
0.0
 11
354.449253
 21
135.462755
 31
0.0
  0
LINE
  5
1C3
330
1F
100
AcDbEntity
  8
LC-002-100-D00-0
 62
     7
370
    50
100
AcDbLine
 10
353.329833
 20
136.623616
 30
0.0
 11
354.44111
 21
135.830647
 31
0.0
  0
LINE
  5
1C4
330
1F
100
AcDbEntity
  8
LC-002-100-D00-0
 62
     7
370
    50
100
AcDbLine
 10
354.44111
 20
137.416584
 30
0.0
 11
353.329833
 21
136.623616
 31
0.0
  0
LINE
  5
1C5
330
1F
100
AcDbEntity
  8
LC-002-100-D00-0
 62
     7
370
    50
100
AcDbLine
 10
354.44111
 20
137.790282
 30
0.0
 11
354.44111
 21
137.416584
 31
0.0
  0
LINE
  5
1C6
330
1F
100
AcDbEntity
  8
LC-002-100-D00-0
 62
     7
370
    50
100
AcDbLine
 10
353.06761
 20
136.810815
 30
0.0
 11
354.44111
 21
137.790282
 31
0.0
  0
LINE
  5
1C7
330
1F
100
AcDbEntity
  8
LC-002-100-D00-0
 62
     7
370
    50
100
AcDbLine
 10
351.883415
 20
137.655667
 30
0.0
 11
353.06761
 21
136.810815
 31
0.0
  0
LINE
  5
1C8
330
1F
100
AcDbEntity
  8
LC-002-100-D00-0
 62
     7
370
    50
100
AcDbLine
 10
351.883415
 20
137.281969
 30
0.0
 11
351.883415
 21
137.655667
 31
0.0
  0
LINE
  5
1C9
330
1F
100
AcDbEntity
  8
LC-002-100-D00-0
 62
     7
370
    50
100
AcDbLine
 10
352.806095
 20
136.623616
 30
0.0
 11
351.883415
 21
137.281969
 31
0.0
  0
LINE
  5
1CA
330
1F
100
AcDbEntity
  8
LC-002-100-D00-0
 62
     7
370
    50
100
AcDbLine
 10
351.883415
 20
135.965262
 30
0.0
 11
352.806095
 21
136.623616
 31
0.0
  0
LINE
  5
1CB
330
1F
100
AcDbEntity
  8
LC-002-100-D00-0
 62
     7
370
    50
100
AcDbLine
 10
351.883415
 20
135.591564
 30
0.0
 11
351.883415
 21
135.965262
 31
0.0
  0
LINE
  5
1CC
330
1F
100
AcDbEntity
  8
LC-002-100-D00-0
 62
     7
370
    50
100
AcDbLine
 10
353.06761
 20
136.437117
 30
0.0
 11
351.883415
 21
135.591564
 31
0.0
  0
LINE
  5
1CD
330
1F
100
AcDbEntity
  8
LC-002-100-D00-0
 62
     7
370
    50
100
AcDbLine
 10
354.449253
 20
135.462755
 30
0.0
 11
353.06761
 21
136.437117
 31
0.0
  0
LINE
  5
1CE
330
1F
100
AcDbEntity
  8
LC-002-100-D00-0
 62
     7
370
    50
100
AcDbLine
 10
354.44111
 20
140.497313
 30
0.0
 11
354.449253
 21
140.129422
 31
0.0
  0
LINE
  5
1CF
330
1F
100
AcDbEntity
  8
LC-002-100-D00-0
 62
     7
370
    50
100
AcDbLine
 10
353.329833
 20
141.290282
 30
0.0
 11
354.44111
 21
140.497313
 31
0.0
  0
LINE
  5
1D0
330
1F
100
AcDbEntity
  8
LC-002-100-D00-0
 62
     7
370
    50
100
AcDbLine
 10
354.44111
 20
142.083251
 30
0.0
 11
353.329833
 21
141.290282
 31
0.0
  0
LINE
  5
1D1
330
1F
100
AcDbEntity
  8
LC-002-100-D00-0
 62
     7
370
    50
100
AcDbLine
 10
354.44111
 20
142.456949
 30
0.0
 11
354.44111
 21
142.083251
 31
0.0
  0
LINE
  5
1D2
330
1F
100
AcDbEntity
  8
LC-002-100-D00-0
 62
     7
370
    50
100
AcDbLine
 10
353.06761
 20
141.477482
 30
0.0
 11
354.44111
 21
142.456949
 31
0.0
  0
LINE
  5
1D3
330
1F
100
AcDbEntity
  8
LC-002-100-D00-0
 62
     7
370
    50
100
AcDbLine
 10
351.883415
 20
142.322334
 30
0.0
 11
353.06761
 21
141.477482
 31
0.0
  0
LINE
  5
1D4
330
1F
100
AcDbEntity
  8
LC-002-100-D00-0
 62
     7
370
    50
100
AcDbLine
 10
351.883415
 20
141.948636
 30
0.0
 11
351.883415
 21
142.322334
 31
0.0
  0
LINE
  5
1D5
330
1F
100
AcDbEntity
  8
LC-002-100-D00-0
 62
     7
370
    50
100
AcDbLine
 10
352.806095
 20
141.290282
 30
0.0
 11
351.883415
 21
141.948636
 31
0.0
  0
LINE
  5
1D6
330
1F
100
AcDbEntity
  8
LC-002-100-D00-0
 62
     7
370
    50
100
AcDbLine
 10
351.883415
 20
140.631929
 30
0.0
 11
352.806095
 21
141.290282
 31
0.0
  0
LINE
  5
1D7
330
1F
100
AcDbEntity
  8
LC-002-100-D00-0
 62
     7
370
    50
100
AcDbLine
 10
351.883415
 20
140.258231
 30
0.0
 11
351.883415
 21
140.631929
 31
0.0
  0
LINE
  5
1D8
330
1F
100
AcDbEntity
  8
LC-002-100-D00-0
 62
     7
370
    50
100
AcDbLine
 10
353.06761
 20
141.103784
 30
0.0
 11
351.883415
 21
140.258231
 31
0.0
  0
LINE
  5
1D9
330
1F
100
AcDbEntity
  8
LC-002-100-D00-0
 62
     7
370
    50
100
AcDbLine
 10
354.449253
 20
140.129422
 30
0.0
 11
353.06761
 21
141.103784
 31
0.0
  0
ARC
  5
1DA
330
1F
100
AcDbEntity
  8
LC-002-100-D00-0
 62
     7
370
    50
100
AcDbCircle
 10
451.773943
 20
139.391744
 30
0.0
 40
24.79999999999424
100
AcDbArc
 50
300.592814
 51
59.407186
  0
ARC
  5
1DB
330
1F
100
AcDbEntity
  8
LC-002-100-D00-0
 62
     7
370
    50
100
AcDbCircle
 10
390.773943
 20
139.391744
 30
0.0
 40
24.79999999999443
100
AcDbArc
 50
120.592814
 51
239.407186
  0
ARC
  5
1DC
330
1F
100
AcDbEntity
  8
LC-002-100-D00-0
 62
     7
370
    50
100
AcDbCircle
 10
754.523943
 20
152.641744
 30
0.0
 40
5.000000000000114
100
AcDbArc
 50
0.0
 51
90.0
  0
LINE
  5
1DD
330
1F
100
AcDbEntity
  8
LC-002-100-D00-0
 62
     7
370
    50
100
AcDbLine
 10
759.523943
 20
152.641744
 30
0.0
 11
759.523943
 21
126.141744
 31
0.0
  0
ARC
  5
1DE
330
1F
100
AcDbEntity
  8
LC-002-100-D00-0
 62
     7
370
    50
100
AcDbCircle
 10
754.523943
 20
126.141744
 30
0.0
 40
5.000000000000114
100
AcDbArc
 50
270.0
 51
0.0
  0
CIRCLE
  5
1DF
330
1F
100
AcDbEntity
  8
LC-002-100-D00-0
 62
     7
370
    50
100
AcDbCircle
 10
741.273943
 20
139.391744
 30
0.0
 40
3.899999999999977
  0
LINE
  5
1E0
330
1F
100
AcDbEntity
  8
LC-002-100-D00-0
 62
     7
370
    50
100
AcDbLine
 10
754.523943
 20
121.141744
 30
0.0
 11
728.023943
 21
121.141744
 31
0.0
  0
LINE
  5
1E1
330
1F
100
AcDbEntity
  8
LC-002-100-D00-0
 62
     7
370
    50
100
AcDbLine
 10
728.023943
 20
157.641744
 30
0.0
 11
754.523943
 21
157.641744
 31
0.0
  0
ARC
  5
1E2
330
1F
100
AcDbEntity
  8
LC-002-100-D00-0
 62
     7
370
    50
100
AcDbCircle
 10
728.023943
 20
126.141744
 30
0.0
 40
5.0
100
AcDbArc
 50
180.0
 51
270.0
  0
ARC
  5
1E3
330
1F
100
AcDbEntity
  8
LC-002-100-D00-0
 62
     7
370
    50
100
AcDbCircle
 10
728.023943
 20
152.641744
 30
0.0
 40
5.0
100
AcDbArc
 50
90.0
 51
180.0
  0
LINE
  5
1E4
330
1F
100
AcDbEntity
  8
LC-002-100-D00-0
 62
     7
370
    50
100
AcDbLine
 10
723.023943
 20
126.141744
 30
0.0
 11
723.023943
 21
152.641744
 31
0.0
  0
ARC
  5
1E5
330
1F
100
AcDbEntity
  8
LC-002-100-D00-0
 62
     7
370
    50
100
AcDbCircle
 10
224.523943
 20
126.141744
 30
0.0
 40
5.000000000000114
100
AcDbArc
 50
270.0
 51
0.0
  0
LINE
  5
1E6
330
1F
100
AcDbEntity
  8
LC-002-100-D00-0
 62
     7
370
    50
100
AcDbLine
 10
229.523943
 20
152.641744
 30
0.0
 11
229.523943
 21
126.141744
 31
0.0
  0
ARC
  5
1E7
330
1F
100
AcDbEntity
  8
LC-002-100-D00-0
 62
     7
370
    50
100
AcDbCircle
 10
224.523943
 20
152.641744
 30
0.0
 40
5.000000000000114
100
AcDbArc
 50
0.0
 51
90.0
  0
CIRCLE
  5
1E8
330
1F
100
AcDbEntity
  8
LC-002-100-D00-0
 62
     7
370
    50
100
AcDbCircle
 10
211.273943
 20
139.391744
 30
0.0
 40
3.899999999999977
  0
LINE
  5
1E9
330
1F
100
AcDbEntity
  8
LC-002-100-D00-0
 62
     7
370
    50
100
AcDbLine
 10
198.023943
 20
157.641744
 30
0.0
 11
224.523943
 21
157.641744
 31
0.0
  0
LINE
  5
1EA
330
1F
100
AcDbEntity
  8
LC-002-100-D00-0
 62
     7
370
    50
100
AcDbLine
 10
224.523943
 20
121.141744
 30
0.0
 11
198.023943
 21
121.141744
 31
0.0
  0
ARC
  5
1EB
330
1F
100
AcDbEntity
  8
LC-002-100-D00-0
 62
     7
370
    50
100
AcDbCircle
 10
198.023943
 20
152.641744
 30
0.0
 40
5.000000000000114
100
AcDbArc
 50
90.0
 51
180.0
  0
ARC
  5
1EC
330
1F
100
AcDbEntity
  8
LC-002-100-D00-0
 62
     7
370
    50
100
AcDbCircle
 10
198.023943
 20
126.141744
 30
0.0
 40
5.0
100
AcDbArc
 50
180.0
 51
270.0
  0
LINE
  5
1ED
330
1F
100
AcDbEntity
  8
LC-002-100-D00-0
 62
     7
370
    50
100
AcDbLine
 10
193.023943
 20
126.141744
 30
0.0
 11
193.023943
 21
152.641744
 31
0.0
  0
ARC
  5
1EE
330
1F
100
AcDbEntity
  8
LC-002-100-D00-0
 62
     7
370
    50
100
AcDbCircle
 10
114.523943
 20
126.141744
 30
0.0
 40
5.000000000000114
100
AcDbArc
 50
270.0
 51
0.0
  0
ARC
  5
1EF
330
1F
100
AcDbEntity
  8
LC-002-100-D00-0
 62
     7
370
    50
100
AcDbCircle
 10
114.523943
 20
152.641744
 30
0.0
 40
5.000000000000142
100
AcDbArc
 50
0.0
 51
90.0
  0
LINE
  5
1F0
330
1F
100
AcDbEntity
  8
LC-002-100-D00-0
 62
     7
370
    50
100
AcDbLine
 10
119.523943
 20
152.641744
 30
0.0
 11
119.523943
 21
126.141744
 31
0.0
  0
CIRCLE
  5
1F1
330
1F
100
AcDbEntity
  8
LC-002-100-D00-0
 62
     7
370
    50
100
AcDbCircle
 10
101.273943
 20
139.391744
 30
0.0
 40
3.899999999999977
  0
LINE
  5
1F2
330
1F
100
AcDbEntity
  8
LC-002-100-D00-0
 62
     7
370
    50
100
AcDbLine
 10
114.523943
 20
121.141744
 30
0.0
 11
88.023943
 21
121.141744
 31
0.0
  0
LINE
  5
1F3
330
1F
100
AcDbEntity
  8
LC-002-100-D00-0
 62
     7
370
    50
100
AcDbLine
 10
88.023943
 20
157.641744
 30
0.0
 11
114.523943
 21
157.641744
 31
0.0
  0
ARC
  5
1F4
330
1F
100
AcDbEntity
  8
LC-002-100-D00-0
 62
     7
370
    50
100
AcDbCircle
 10
88.023943
 20
126.141744
 30
0.0
 40
5.0
100
AcDbArc
 50
180.0
 51
270.0
  0
ARC
  5
1F5
330
1F
100
AcDbEntity
  8
LC-002-100-D00-0
 62
     7
370
    50
100
AcDbCircle
 10
88.023943
 20
152.641744
 30
0.0
 40
5.0
100
AcDbArc
 50
90.0
 51
180.0
  0
LINE
  5
1F6
330
1F
100
AcDbEntity
  8
LC-002-100-D00-0
 62
     7
370
    50
100
AcDbLine
 10
83.023943
 20
126.141744
 30
0.0
 11
83.023943
 21
152.641744
 31
0.0
  0
LINE
  5
1F7
330
1F
100
AcDbEntity
  8
LC-002-100-D00-0
 62
     7
370
    50
100
AcDbLine
 10
339.523943
 20
152.641744
 30
0.0
 11
339.523943
 21
126.141744
 31
0.0
  0
ARC
  5
1F8
330
1F
100
AcDbEntity
  8
LC-002-100-D00-0
 62
     7
370
    50
100
AcDbCircle
 10
334.523943
 20
152.641744
 30
0.0
 40
5.000000000000114
100
AcDbArc
 50
0.0
 51
90.0
  0
ARC
  5
1F9
330
1F
100
AcDbEntity
  8
LC-002-100-D00-0
 62
     7
370
    50
100
AcDbCircle
 10
334.523943
 20
126.141744
 30
0.0
 40
5.000000000000114
100
AcDbArc
 50
270.0
 51
0.0
  0
CIRCLE
  5
1FA
330
1F
100
AcDbEntity
  8
LC-002-100-D00-0
 62
     7
370
    50
100
AcDbCircle
 10
321.273943
 20
139.391744
 30
0.0
 40
3.900000000000091
  0
LINE
  5
1FB
330
1F
100
AcDbEntity
  8
LC-002-100-D00-0
 62
     7
370
    50
100
AcDbLine
 10
308.023943
 20
157.641744
 30
0.0
 11
334.523943
 21
157.641744
 31
0.0
  0
LINE
  5
1FC
330
1F
100
AcDbEntity
  8
LC-002-100-D00-0
 62
     7
370
    50
100
AcDbLine
 10
334.523943
 20
121.141744
 30
0.0
 11
308.023943
 21
121.141744
 31
0.0
  0
ARC
  5
1FD
330
1F
100
AcDbEntity
  8
LC-002-100-D00-0
 62
     7
370
    50
100
AcDbCircle
 10
308.023943
 20
126.141744
 30
0.0
 40
5.0
100
AcDbArc
 50
180.0
 51
270.0
  0
ARC
  5
1FE
330
1F
100
AcDbEntity
  8
LC-002-100-D00-0
 62
     7
370
    50
100
AcDbCircle
 10
308.023943
 20
152.641744
 30
0.0
 40
5.000000000000114
100
AcDbArc
 50
90.0
 51
180.0
  0
LINE
  5
1FF
330
1F
100
AcDbEntity
  8
LC-002-100-D00-0
 62
     7
370
    50
100
AcDbLine
 10
303.023943
 20
126.141744
 30
0.0
 11
303.023943
 21
152.641744
 31
0.0
  0
LINE
  5
200
330
1F
100
AcDbEntity
  8
LC-002-100-D00-0
 62
     7
370
    50
100
AcDbLine
 10
649.523943
 20
152.641744
 30
0.0
 11
649.523943
 21
126.141744
 31
0.0
  0
ARC
  5
201
330
1F
100
AcDbEntity
  8
LC-002-100-D00-0
 62
     7
370
    50
100
AcDbCircle
 10
644.523943
 20
152.641744
 30
0.0
 40
5.000000000000114
100
AcDbArc
 50
0.0
 51
90.0
  0
ARC
  5
202
330
1F
100
AcDbEntity
  8
LC-002-100-D00-0
 62
     7
370
    50
100
AcDbCircle
 10
644.523943
 20
126.141744
 30
0.0
 40
5.000000000000114
100
AcDbArc
 50
270.0
 51
0.0
  0
CIRCLE
  5
203
330
1F
100
AcDbEntity
  8
LC-002-100-D00-0
 62
     7
370
    50
100
AcDbCircle
 10
631.273943
 20
139.391744
 30
0.0
 40
3.899999999999977
  0
LINE
  5
204
330
1F
100
AcDbEntity
  8
LC-002-100-D00-0
 62
     7
370
    50
100
AcDbLine
 10
618.023943
 20
157.641744
 30
0.0
 11
644.523943
 21
157.641744
 31
0.0
  0
LINE
  5
205
330
1F
100
AcDbEntity
  8
LC-002-100-D00-0
 62
     7
370
    50
100
AcDbLine
 10
644.523943
 20
121.141744
 30
0.0
 11
618.023943
 21
121.141744
 31
0.0
  0
ARC
  5
206
330
1F
100
AcDbEntity
  8
LC-002-100-D00-0
 62
     7
370
    50
100
AcDbCircle
 10
618.023943
 20
152.641744
 30
0.0
 40
5.000000000000114
100
AcDbArc
 50
90.0
 51
180.0
  0
ARC
  5
207
330
1F
100
AcDbEntity
  8
LC-002-100-D00-0
 62
     7
370
    50
100
AcDbCircle
 10
618.023943
 20
126.141744
 30
0.0
 40
5.0
100
AcDbArc
 50
180.0
 51
270.0
  0
LINE
  5
208
330
1F
100
AcDbEntity
  8
LC-002-100-D00-0
 62
     7
370
    50
100
AcDbLine
 10
613.023943
 20
126.141744
 30
0.0
 11
613.023943
 21
152.641744
 31
0.0
  0
LINE
  5
209
330
1F
100
AcDbEntity
  8
LC-002-100-D00-0
 62
     7
370
    50
100
AcDbLine
 10
539.523943
 20
152.641744
 30
0.0
 11
539.523943
 21
126.141744
 31
0.0
  0
ARC
  5
20A
330
1F
100
AcDbEntity
  8
LC-002-100-D00-0
 62
     7
370
    50
100
AcDbCircle
 10
534.523943
 20
152.641744
 30
0.0
 40
5.000000000000114
100
AcDbArc
 50
0.0
 51
90.0
  0
ARC
  5
20B
330
1F
100
AcDbEntity
  8
LC-002-100-D00-0
 62
     7
370
    50
100
AcDbCircle
 10
534.523943
 20
126.141744
 30
0.0
 40
5.000000000000114
100
AcDbArc
 50
270.0
 51
0.0
  0
CIRCLE
  5
20C
330
1F
100
AcDbEntity
  8
LC-002-100-D00-0
 62
     7
370
    50
100
AcDbCircle
 10
521.273943
 20
139.391744
 30
0.0
 40
3.899999999999977
  0
LINE
  5
20D
330
1F
100
AcDbEntity
  8
LC-002-100-D00-0
 62
     7
370
    50
100
AcDbLine
 10
508.023943
 20
157.641744
 30
0.0
 11
534.523943
 21
157.641744
 31
0.0
  0
LINE
  5
20E
330
1F
100
AcDbEntity
  8
LC-002-100-D00-0
 62
     7
370
    50
100
AcDbLine
 10
534.523943
 20
121.141744
 30
0.0
 11
508.023943
 21
121.141744
 31
0.0
  0
ARC
  5
20F
330
1F
100
AcDbEntity
  8
LC-002-100-D00-0
 62
     7
370
    50
100
AcDbCircle
 10
508.023943
 20
152.641744
 30
0.0
 40
5.000000000000114
100
AcDbArc
 50
90.0
 51
180.0
  0
ARC
  5
210
330
1F
100
AcDbEntity
  8
LC-002-100-D00-0
 62
     7
370
    50
100
AcDbCircle
 10
508.023943
 20
126.141744
 30
0.0
 40
5.0
100
AcDbArc
 50
180.0
 51
270.0
  0
LINE
  5
211
330
1F
100
AcDbEntity
  8
LC-002-100-D00-0
 62
     7
370
    50
100
AcDbLine
 10
503.023943
 20
126.141744
 30
0.0
 11
503.023943
 21
152.641744
 31
0.0
  0
LINE
  5
212
330
1F
100
AcDbEntity
  8
LC-002-100-D00-0
 62
     7
370
    50
100
AcDbLine
 10
390.773943
 20
115.391744
 30
0.0
 11
451.773943
 21
115.391744
 31
0.0
  0
ARC
  5
213
330
1F
100
AcDbEntity
  8
LC-002-100-D00-0
 62
     7
370
    50
100
AcDbCircle
 10
390.773943
 20
139.391744
 30
0.0
 40
24.00000000000023
100
AcDbArc
 50
90.0
 51
270.0
  0
LINE
  5
214
330
1F
100
AcDbEntity
  8
LC-002-100-D00-0
 62
     7
370
    50
100
AcDbLine
 10
451.773943
 20
163.391744
 30
0.0
 11
390.773943
 21
163.391744
 31
0.0
  0
ARC
  5
215
330
1F
100
AcDbEntity
  8
LC-002-100-D00-0
 62
     7
370
    50
100
AcDbCircle
 10
451.773943
 20
139.391744
 30
0.0
 40
24.0
100
AcDbArc
 50
270.0
 51
90.0
  0
ARC
  5
216
330
1F
100
AcDbEntity
  8
LC-002-100-D00-0
 62
     7
370
    50
100
AcDbCircle
 10
432.773943
 20
139.391744
 30
0.0
 40
15.99999999999989
100
AcDbArc
 50
270.0
 51
90.0
  0
LINE
  5
217
330
1F
100
AcDbEntity
  8
LC-002-100-D00-0
 62
     7
370
    50
100
AcDbLine
 10
409.773943
 20
123.391744
 30
0.0
 11
432.773943
 21
123.391744
 31
0.0
  0
LINE
  5
218
330
1F
100
AcDbEntity
  8
LC-002-100-D00-0
 62
     7
370
    50
100
AcDbLine
 10
432.773943
 20
155.391744
 30
0.0
 11
409.773943
 21
155.391744
 31
0.0
  0
ARC
  5
219
330
1F
100
AcDbEntity
  8
LC-002-100-D00-0
 62
     7
370
    50
100
AcDbCircle
 10
409.773943
 20
139.391744
 30
0.0
 40
16.00000000000011
100
AcDbArc
 50
90.0
 51
270.0
  0
DIMENSION
  5
21A
330
1F
100
AcDbEntity
  8
LC-002-100-D00-0
 62
     7
370
    25
100
AcDbDimension
  2
*D12
 10
864.937301
 20
61.891744
 30
0.0
 11
842.937301
 21
139.889262
 31
0.0
 70
   160
  1
155
 71
     5
 42
155.0
 53
90.0
  3
LC-DIM-L-0100-02-02
100
AcDbAlignedDimension
 13
816.273943
 23
216.891744
 33
0.0
 14
816.273943
 24
61.891744
 34
0.0
 50
90.0
100
AcDbRotatedDimension
  0
LINE
  5
227
330
1F
100
AcDbEntity
  8
LC-002-100-D00-0
  6
DASHDOT
 62
     7
370
    25
100
AcDbLine
 10
16.273943
 20
139.391744
 30
0.0
 11
826.273943
 21
139.391744
 31
0.0
  0
LINE
  5
228
330
1F
100
AcDbEntity
  8
LC-002-100-D00-0
  6
DASHDOT
 62
     7
370
    25
100
AcDbLine
 10
421.273943
 20
221.891744
 30
0.0
 11
421.273943
 21
56.891744
 31
0.0
  0
LINE
  5
229
330
1F
100
AcDbEntity
  8
LC-002-100-D00-0
 62
     7
370
    50
100
AcDbLine
 10
534.521745
 20
386.36233
 30
0.0
 11
534.521745
 21
388.145251
 31
0.0
  0
LINE
  5
22A
330
1F
100
AcDbEntity
  8
LC-002-100-D00-0
 62
     7
370
    50
100
AcDbLine
 10
534.521745
 20
438.579409
 30
0.0
 11
534.521745
 21
440.36233
 31
0.0
  0
LINE
  5
22B
330
1F
100
AcDbEntity
  8
LC-002-100-D00-0
 62
     7
370
    50
100
AcDbLine
 10
530.521745
 20
440.36233
 30
0.0
 11
530.521745
 21
438.579409
 31
0.0
  0
LINE
  5
22C
330
1F
100
AcDbEntity
  8
LC-002-100-D00-0
 62
     7
370
    50
100
AcDbLine
 10
530.521745
 20
388.145251
 30
0.0
 11
530.521745
 21
386.36233
 31
0.0
  0
LINE
  5
22D
330
1F
100
AcDbEntity
  8
LC-002-100-D00-0
 62
     7
370
    50
100
AcDbLine
 10
460.988364
 20
436.86233
 30
0.0
 11
460.988364
 21
435.36233
 31
0.0
  0
LINE
  5
22E
330
1F
100
AcDbEntity
  8
LC-002-100-D00-0
 62
     7
370
    50
100
AcDbLine
 10
381.559534
 20
435.36233
 30
0.0
 11
381.559534
 21
436.86233
 31
0.0
  0
ARC
  5
22F
330
1F
100
AcDbEntity
  8
LC-002-100-D00-0
 62
     7
370
    50
100
AcDbCircle
 10
612.273949
 20
343.86233
 30
0.0
 40
0.5
100
AcDbArc
 50
90.0
 51
180.0
  0
ARC
  5
230
330
1F
100
AcDbEntity
  8
LC-002-100-D00-0
 62
     7
370
    50
100
AcDbCircle
 10
630.273949
 20
343.86233
 30
0.0
 40
0.5
100
AcDbArc
 50
0.0
 51
90.0
  0
LINE
  5
231
330
1F
100
AcDbEntity
  8
LC-002-100-D00-0
 62
     7
370
    50
100
AcDbLine
 10
611.773949
 20
343.86233
 30
0.0
 11
611.773949
 21
336.36233
 31
0.0
  0
LINE
  5
232
330
1F
100
AcDbEntity
  8
LC-002-100-D00-0
 62
     7
370
    50
100
AcDbLine
 10
630.773949
 20
336.36233
 30
0.0
 11
630.773949
 21
343.86233
 31
0.0
  0
ARC
  5
233
330
1F
100
AcDbEntity
  8
LC-002-100-D00-0
 62
     7
370
    50
100
AcDbCircle
 10
212.273949
 20
343.86233
 30
0.0
 40
0.5
100
AcDbArc
 50
90.0
 51
180.0
  0
ARC
  5
234
330
1F
100
AcDbEntity
  8
LC-002-100-D00-0
 62
     7
370
    50
100
AcDbCircle
 10
230.273949
 20
343.86233
 30
0.0
 40
0.4999999999999432
100
AcDbArc
 50
0.0
 51
90.0
  0
LINE
  5
235
330
1F
100
AcDbEntity
  8
LC-002-100-D00-0
 62
     7
370
    50
100
AcDbLine
 10
211.773949
 20
343.86233
 30
0.0
 11
211.773949
 21
336.36233
 31
0.0
  0
LINE
  5
236
330
1F
100
AcDbEntity
  8
LC-002-100-D00-0
 62
     7
370
    50
100
AcDbLine
 10
230.773949
 20
336.36233
 30
0.0
 11
230.773949
 21
343.86233
 31
0.0
  0
LINE
  5
237
330
1F
100
AcDbEntity
  8
LC-002-100-D00-0
 62
     7
370
    50
100
AcDbLine
 10
208.500447
 20
438.362331
 30
0.0
 11
208.500446
 21
413.36233
 31
0.0
  0
LINE
  5
238
330
1F
100
AcDbEntity
  8
LC-002-100-D00-0
 62
     7
370
    50
100
AcDbLine
 10
234.047451
 20
413.36233
 30
0.0
 11
234.047445
 21
438.362331
 31
0.0
  0
LINE
  5
239
330
1F
100
AcDbEntity
  8
LC-002-100-D00-0
 62
     7
370
    50
100
AcDbLine
 10
208.500447
 20
444.146034
 30
0.0
 11
208.500446
 21
442.36233
 31
0.0
  0
LINE
  5
23A
330
1F
100
AcDbEntity
  8
LC-002-100-D00-0
 62
     7
370
    50
100
AcDbLine
 10
234.047451
 20
442.36233
 30
0.0
 11
234.047445
 21
443.862329
 31
0.0
  0
LINE
  5
23B
330
1F
100
AcDbEntity
  8
LC-002-100-D00-0
 62
     7
370
    50
100
AcDbLine
 10
634.047451
 20
413.36233
 30
0.0
 11
634.04745
 21
438.362331
 31
0.0
  0
LINE
  5
23C
330
1F
100
AcDbEntity
  8
LC-002-100-D00-0
 62
     7
370
    50
100
AcDbLine
 10
608.500453
 20
443.862329
 30
0.0
 11
608.500446
 21
442.36233
 31
0.0
  0
LINE
  5
23D
330
1F
100
AcDbEntity
  8
LC-002-100-D00-0
 62
     7
370
    50
100
AcDbLine
 10
634.047451
 20
442.36233
 30
0.0
 11
634.04745
 21
444.146034
 31
0.0
  0
LINE
  5
23E
330
1F
100
AcDbEntity
  8
LC-002-100-D00-0
 62
     7
370
    50
100
AcDbLine
 10
611.273949
 20
355.86233
 30
0.0
 11
611.273949
 21
345.36233
 31
0.0
  0
LINE
  5
23F
330
1F
100
AcDbEntity
  8
LC-002-100-D00-0
 62
     7
370
    50
100
AcDbLine
 10
631.273949
 20
345.36233
 30
0.0
 11
631.273949
 21
355.86233
 31
0.0
  0
LINE
  5
240
330
1F
100
AcDbEntity
  8
LC-002-100-D00-0
 62
     7
370
    50
100
AcDbLine
 10
611.273946
 20
442.36233
 30
0.0
 11
611.273946
 21
442.26233
 31
0.0
  0
LINE
  5
241
330
1F
100
AcDbEntity
  8
LC-002-100-D00-0
 62
     7
370
    50
100
AcDbLine
 10
611.273946
 20
388.362327
 30
0.0
 11
611.273949
 21
359.36233
 31
0.0
  0
LINE
  5
242
330
1F
100
AcDbEntity
  8
LC-002-100-D00-0
 62
     7
370
    50
100
AcDbLine
 10
631.273949
 20
359.36233
 30
0.0
 11
631.273942
 21
413.362329
 31
0.0
  0
LINE
  5
243
330
1F
100
AcDbEntity
  8
LC-002-100-D00-0
 62
     7
370
    50
100
AcDbLine
 10
631.273942
 20
442.26233
 30
0.0
 11
631.273942
 21
442.36233
 31
0.0
  0
LINE
  5
244
330
1F
100
AcDbEntity
  8
LC-002-100-D00-0
 62
     7
370
    50
100
AcDbLine
 10
611.273949
 20
345.36233
 30
0.0
 11
612.273949
 21
344.36233
 31
0.0
  0
LINE
  5
245
330
1F
100
AcDbEntity
  8
LC-002-100-D00-0
 62
     7
370
    50
100
AcDbLine
 10
630.273949
 20
344.36233
 30
0.0
 11
631.273949
 21
345.36233
 31
0.0
  0
LINE
  5
246
330
1F
100
AcDbEntity
  8
LC-002-100-D00-0
 62
     7
370
    50
100
AcDbLine
 10
613.373952
 20
359.362327
 30
0.0
 11
613.373952
 21
355.862328
 31
0.0
  0
LINE
  5
247
330
1F
100
AcDbEntity
  8
LC-002-100-D00-0
 62
     7
370
    50
100
AcDbLine
 10
629.173951
 20
355.862328
 30
0.0
 11
629.173951
 21
359.362327
 31
0.0
  0
LINE
  5
248
330
1F
100
AcDbEntity
  8
LC-002-100-D00-0
 62
     7
370
    50
100
AcDbLine
 10
211.273955
 20
413.362329
 30
0.0
 11
211.273949
 21
359.36233
 31
0.0
  0
LINE
  5
249
330
1F
100
AcDbEntity
  8
LC-002-100-D00-0
 62
     7
370
    50
100
AcDbLine
 10
231.273949
 20
359.36233
 30
0.0
 11
231.273951
 21
413.362329
 31
0.0
  0
LINE
  5
24A
330
1F
100
AcDbEntity
  8
LC-002-100-D00-0
 62
     7
370
    50
100
AcDbLine
 10
211.273949
 20
355.86233
 30
0.0
 11
211.273949
 21
345.36233
 31
0.0
  0
LINE
  5
24B
330
1F
100
AcDbEntity
  8
LC-002-100-D00-0
 62
     7
370
    50
100
AcDbLine
 10
231.273949
 20
345.36233
 30
0.0
 11
231.273949
 21
355.86233
 31
0.0
  0
LINE
  5
24C
330
1F
100
AcDbEntity
  8
LC-002-100-D00-0
 62
     7
370
    50
100
AcDbLine
 10
211.273949
 20
345.36233
 30
0.0
 11
212.273949
 21
344.36233
 31
0.0
  0
LINE
  5
24D
330
1F
100
AcDbEntity
  8
LC-002-100-D00-0
 62
     7
370
    50
100
AcDbLine
 10
230.273949
 20
344.36233
 30
0.0
 11
231.273949
 21
345.36233
 31
0.0
  0
LINE
  5
24E
330
1F
100
AcDbEntity
  8
LC-002-100-D00-0
 62
     7
370
    50
100
AcDbLine
 10
213.373946
 20
359.362327
 30
0.0
 11
213.373946
 21
355.862328
 31
0.0
  0
LINE
  5
24F
330
1F
100
AcDbEntity
  8
LC-002-100-D00-0
 62
     7
370
    50
100
AcDbLine
 10
229.173945
 20
355.862328
 30
0.0
 11
229.173945
 21
359.362327
 31
0.0
  0
LINE
  5
250
330
1F
100
AcDbEntity
  8
LC-002-100-D00-0
 62
     7
370
    50
100
AcDbLine
 10
526.473949
 20
454.631096
 30
0.0
 11
526.473949
 21
457.093564
 31
0.0
  0
ARC
  5
251
330
1F
100
AcDbEntity
  8
LC-002-100-D00-0
 62
     7
370
    50
100
AcDbCircle
 10
527.073949
 20
454.631096
 30
0.0
 40
0.6000000000001364
100
AcDbArc
 50
180.0
 51
255.0
  0
LINE
  5
252
330
1F
100
AcDbEntity
  8
LC-002-100-D00-0
 62
     7
370
    50
100
AcDbLine
 10
527.624803
 20
453.862329
 30
0.0
 11
526.918657
 21
454.051541
 31
0.0
  0
LINE
  5
253
330
1F
100
AcDbEntity
  8
LC-002-100-D00-0
 62
     7
370
    50
100
AcDbLine
 10
527.624803
 20
453.862329
 30
0.0
 11
527.624803
 21
451.86233
 31
0.0
  0
LINE
  5
254
330
1F
100
AcDbEntity
  8
LC-002-100-D00-0
 62
     7
370
    50
100
AcDbLine
 10
524.673949
 20
452.86233
 30
0.0
 11
525.673949
 21
451.86233
 31
0.0
  0
LINE
  5
255
330
1F
100
AcDbEntity
  8
LC-002-100-D00-0
 62
     7
370
    50
100
AcDbLine
 10
524.673949
 20
452.86233
 30
0.0
 11
524.673948
 21
458.86233
 31
0.0
  0
LINE
  5
256
330
1F
100
AcDbEntity
  8
LC-002-100-D00-0
 62
     7
370
    50
100
AcDbLine
 10
525.67395
 20
459.86233
 30
0.0
 11
524.673948
 21
458.86233
 31
0.0
  0
LINE
  5
257
330
1F
100
AcDbEntity
  8
LC-002-100-D00-0
 62
     7
370
    50
100
AcDbLine
 10
527.624803
 20
459.86233
 30
0.0
 11
527.624803
 21
457.86233
 31
0.0
  0
LINE
  5
258
330
1F
100
AcDbEntity
  8
LC-002-100-D00-0
 62
     7
370
    50
100
AcDbLine
 10
526.918657
 20
457.673119
 30
0.0
 11
527.624803
 21
457.86233
 31
0.0
  0
ARC
  5
259
330
1F
100
AcDbEntity
  8
LC-002-100-D00-0
 62
     7
370
    50
100
AcDbCircle
 10
527.073949
 20
457.093564
 30
0.0
 40
0.600000000000118
100
AcDbArc
 50
105.0
 51
180.0
  0
LINE
  5
25A
330
1F
100
AcDbEntity
  8
LC-002-100-D00-0
 62
     7
370
    50
100
AcDbLine
 10
525.673949
 20
451.86233
 30
0.0
 11
527.624803
 21
451.86233
 31
0.0
  0
LINE
  5
25B
330
1F
100
AcDbEntity
  8
LC-002-100-D00-0
 62
     7
370
    50
100
AcDbLine
 10
525.67395
 20
459.86233
 30
0.0
 11
527.624803
 21
459.86233
 31
0.0
  0
LINE
  5
25C
330
1F
100
AcDbEntity
  8
LC-002-100-D00-0
 62
     7
370
    50
100
AcDbLine
 10
516.073949
 20
457.093564
 30
0.0
 11
516.073949
 21
454.631096
 31
0.0
  0
LINE
  5
25D
330
1F
100
AcDbEntity
  8
LC-002-100-D00-0
 62
     7
370
    50
100
AcDbLine
 10
517.873952
 20
458.86233
 30
0.0
 11
516.87395
 21
459.86233
 31
0.0
  0
LINE
  5
25E
330
1F
100
AcDbEntity
  8
LC-002-100-D00-0
 62
     7
370
    50
100
AcDbLine
 10
516.873949
 20
451.86233
 30
0.0
 11
517.873949
 21
452.86233
 31
0.0
  0
LINE
  5
25F
330
1F
100
AcDbEntity
  8
LC-002-100-D00-0
 62
     7
370
    50
100
AcDbLine
 10
517.873949
 20
452.86233
 30
0.0
 11
518.031788
 21
452.86233
 31
0.0
  0
LINE
  5
260
330
1F
100
AcDbEntity
  8
LC-002-100-D00-0
 62
     7
370
    50
100
AcDbLine
 10
524.516109
 20
452.86233
 30
0.0
 11
524.673949
 21
452.86233
 31
0.0
  0
LINE
  5
261
330
1F
100
AcDbEntity
  8
LC-002-100-D00-0
 62
     7
370
    50
100
AcDbLine
 10
525.673949
 20
451.86233
 30
0.0
 11
525.138167
 21
451.86233
 31
0.0
  0
LINE
  5
262
330
1F
100
AcDbEntity
  8
LC-002-100-D00-0
 62
     7
370
    50
100
AcDbLine
 10
517.40973
 20
451.86233
 30
0.0
 11
516.873949
 21
451.86233
 31
0.0
  0
LINE
  5
263
330
1F
100
AcDbEntity
  8
LC-002-100-D00-0
 62
     7
370
    50
100
AcDbLine
 10
517.873952
 20
458.86233
 30
0.0
 11
517.873949
 21
452.86233
 31
0.0
  0
LINE
  5
264
330
1F
100
AcDbEntity
  8
LC-002-100-D00-0
 62
     7
370
    50
100
AcDbLine
 10
514.923098
 20
453.862329
 30
0.0
 11
514.923098
 21
451.86233
 31
0.0
  0
LINE
  5
265
330
1F
100
AcDbEntity
  8
LC-002-100-D00-0
 62
     7
370
    50
100
AcDbLine
 10
515.62924
 20
454.051541
 30
0.0
 11
514.923098
 21
453.862329
 31
0.0
  0
ARC
  5
266
330
1F
100
AcDbEntity
  8
LC-002-100-D00-0
 62
     7
370
    50
100
AcDbCircle
 10
515.473949
 20
454.631096
 30
0.0
 40
0.600000000000118
100
AcDbArc
 50
285.0
 51
0.0
  0
ARC
  5
267
330
1F
100
AcDbEntity
  8
LC-002-100-D00-0
 62
     7
370
    50
100
AcDbCircle
 10
515.473949
 20
457.093564
 30
0.0
 40
0.6000000000001364
100
AcDbArc
 50
0.0
 51
75.0
  0
LINE
  5
268
330
1F
100
AcDbEntity
  8
LC-002-100-D00-0
 62
     7
370
    50
100
AcDbLine
 10
514.923098
 20
457.86233
 30
0.0
 11
515.62924
 21
457.673119
 31
0.0
  0
LINE
  5
269
330
1F
100
AcDbEntity
  8
LC-002-100-D00-0
 62
     7
370
    50
100
AcDbLine
 10
514.923098
 20
459.86233
 30
0.0
 11
514.923098
 21
457.86233
 31
0.0
  0
LINE
  5
26A
330
1F
100
AcDbEntity
  8
LC-002-100-D00-0
 62
     7
370
    50
100
AcDbLine
 10
514.923098
 20
451.86233
 30
0.0
 11
516.873949
 21
451.86233
 31
0.0
  0
LINE
  5
26B
330
1F
100
AcDbEntity
  8
LC-002-100-D00-0
 62
     7
370
    50
100
AcDbLine
 10
514.923098
 20
459.86233
 30
0.0
 11
516.87395
 21
459.86233
 31
0.0
  0
LINE
  5
26C
330
1F
100
AcDbEntity
  8
LC-002-100-D00-0
 62
     7
370
    50
100
AcDbLine
 10
527.624803
 20
459.86233
 30
0.0
 11
525.173949
 21
459.86233
 31
0.0
  0
LINE
  5
26D
330
1F
100
AcDbEntity
  8
LC-002-100-D00-0
 62
     7
370
    50
100
AcDbLine
 10
525.173949
 20
459.86233
 30
0.0
 11
525.173949
 21
470.86233
 31
0.0
  0
LINE
  5
26E
330
1F
100
AcDbEntity
  8
LC-002-100-D00-0
 62
     7
370
    50
100
AcDbLine
 10
525.173949
 20
470.86233
 30
0.0
 11
538.523949
 21
470.86233
 31
0.0
  0
ARC
  5
26F
330
1F
100
AcDbEntity
  8
LC-002-100-D00-0
 62
     7
370
    50
100
AcDbCircle
 10
538.523949
 20
469.86233
 30
0.0
 40
0.9999999999998863
100
AcDbArc
 50
0.0
 51
90.0
  0
LINE
  5
270
330
1F
100
AcDbEntity
  8
LC-002-100-D00-0
 62
     7
370
    50
100
AcDbLine
 10
539.523949
 20
469.86233
 30
0.0
 11
539.523946
 21
463.86233
 31
0.0
  0
LINE
  5
271
330
1F
100
AcDbEntity
  8
LC-002-100-D00-0
 62
     7
370
    50
100
AcDbLine
 10
536.523949
 20
463.86233
 30
0.0
 11
539.523946
 21
463.86233
 31
0.0
  0
LINE
  5
272
330
1F
100
AcDbEntity
  8
LC-002-100-D00-0
 62
     7
370
    50
100
AcDbLine
 10
536.523949
 20
463.86233
 30
0.0
 11
536.523947
 21
467.86233
 31
0.0
  0
LINE
  5
273
330
1F
100
AcDbEntity
  8
LC-002-100-D00-0
 62
     7
370
    50
100
AcDbLine
 10
532.023949
 20
467.86233
 30
0.0
 11
536.523947
 21
467.86233
 31
0.0
  0
ARC
  5
274
330
1F
100
AcDbEntity
  8
LC-002-100-D00-0
 62
     7
370
    50
100
AcDbCircle
 10
532.023949
 20
466.86233
 30
0.0
 40
1.0
100
AcDbArc
 50
90.0
 51
180.0
  0
LINE
  5
275
330
1F
100
AcDbEntity
  8
LC-002-100-D00-0
 62
     7
370
    50
100
AcDbLine
 10
531.023949
 20
452.86233
 30
0.0
 11
531.023949
 21
466.86233
 31
0.0
  0
ARC
  5
276
330
1F
100
AcDbEntity
  8
LC-002-100-D00-0
 62
     7
370
    50
100
AcDbCircle
 10
530.023949
 20
452.86233
 30
0.0
 40
1.0
100
AcDbArc
 50
270.0
 51
0.0
  0
LINE
  5
277
330
1F
100
AcDbEntity
  8
LC-002-100-D00-0
 62
     7
370
    50
100
AcDbLine
 10
530.023949
 20
451.86233
 30
0.0
 11
527.624803
 21
451.86233
 31
0.0
  0
LINE
  5
278
330
1F
100
AcDbEntity
  8
LC-002-100-D00-0
 62
     7
370
    50
100
AcDbLine
 10
527.624803
 20
453.862329
 30
0.0
 11
527.624803
 21
451.86233
 31
0.0
  0
LINE
  5
279
330
1F
100
AcDbEntity
  8
LC-002-100-D00-0
 62
     7
370
    50
100
AcDbLine
 10
526.973949
 20
453.86233
 30
0.0
 11
527.624803
 21
453.862329
 31
0.0
  0
ARC
  5
27A
330
1F
100
AcDbEntity
  8
LC-002-100-D00-0
 62
     7
370
    50
100
AcDbCircle
 10
526.973949
 20
454.36233
 30
0.0
 40
0.5000000000001137
100
AcDbArc
 50
180.0
 51
270.0
  0
LINE
  5
27B
330
1F
100
AcDbEntity
  8
LC-002-100-D00-0
 62
     7
370
    50
100
AcDbLine
 10
526.473949
 20
457.36233
 30
0.0
 11
526.473949
 21
454.36233
 31
0.0
  0
ARC
  5
27C
330
1F
100
AcDbEntity
  8
LC-002-100-D00-0
 62
     7
370
    50
100
AcDbCircle
 10
526.973949
 20
457.36233
 30
0.0
 40
0.5
100
AcDbArc
 50
90.0
 51
180.0
  0
LINE
  5
27D
330
1F
100
AcDbEntity
  8
LC-002-100-D00-0
 62
     7
370
    50
100
AcDbLine
 10
527.624803
 20
457.86233
 30
0.0
 11
526.973949
 21
457.86233
 31
0.0
  0
LINE
  5
27E
330
1F
100
AcDbEntity
  8
LC-002-100-D00-0
 62
     7
370
    50
100
AcDbLine
 10
527.624803
 20
459.86233
 30
0.0
 11
527.624803
 21
457.86233
 31
0.0
  0
ARC
  5
27F
330
1F
100
AcDbEntity
  8
LC-002-100-D00-0
 62
     7
370
    50
100
AcDbCircle
 10
510.523949
 20
466.86233
 30
0.0
 40
1.0
100
AcDbArc
 50
0.0
 51
90.0
  0
ARC
  5
280
330
1F
100
AcDbEntity
  8
LC-002-100-D00-0
 62
     7
370
    50
100
AcDbCircle
 10
512.523949
 20
452.86233
 30
0.0
 40
1.000000000000114
100
AcDbArc
 50
180.0
 51
270.0
  0
LINE
  5
281
330
1F
100
AcDbEntity
  8
LC-002-100-D00-0
 62
     7
370
    50
100
AcDbLine
 10
511.523949
 20
466.86233
 30
0.0
 11
511.523949
 21
452.86233
 31
0.0
  0
LINE
  5
282
330
1F
100
AcDbEntity
  8
LC-002-100-D00-0
 62
     7
370
    50
100
AcDbLine
 10
517.373949
 20
470.86233
 30
0.0
 11
517.373951
 21
459.86233
 31
0.0
  0
LINE
  5
283
330
1F
100
AcDbEntity
  8
LC-002-100-D00-0
 62
     7
370
    50
100
AcDbLine
 10
517.373949
 20
470.86233
 30
0.0
 11
525.173949
 21
470.86233
 31
0.0
  0
LINE
  5
284
330
1F
100
AcDbEntity
  8
LC-002-100-D00-0
 62
     7
370
    50
100
AcDbLine
 10
516.073949
 20
454.36233
 30
0.0
 11
516.073949
 21
457.36233
 31
0.0
  0
ARC
  5
285
330
1F
100
AcDbEntity
  8
LC-002-100-D00-0
 62
     7
370
    50
100
AcDbCircle
 10
515.573949
 20
454.36233
 30
0.0
 40
0.5000000000002274
100
AcDbArc
 50
270.0
 51
0.0
  0
LINE
  5
286
330
1F
100
AcDbEntity
  8
LC-002-100-D00-0
 62
     7
370
    50
100
AcDbLine
 10
514.923098
 20
453.862329
 30
0.0
 11
515.573949
 21
453.86233
 31
0.0
  0
LINE
  5
287
330
1F
100
AcDbEntity
  8
LC-002-100-D00-0
 62
     7
370
    50
100
AcDbLine
 10
514.923098
 20
453.862329
 30
0.0
 11
514.923098
 21
451.86233
 31
0.0
  0
LINE
  5
288
330
1F
100
AcDbEntity
  8
LC-002-100-D00-0
 62
     7
370
    50
100
AcDbLine
 10
506.023945
 20
467.86233
 30
0.0
 11
506.023949
 21
463.86233
 31
0.0
  0
LINE
  5
289
330
1F
100
AcDbEntity
  8
LC-002-100-D00-0
 62
     7
370
    50
100
AcDbLine
 10
503.023947
 20
463.86233
 30
0.0
 11
503.023949
 21
469.86233
 31
0.0
  0
ARC
  5
28A
330
1F
100
AcDbEntity
  8
LC-002-100-D00-0
 62
     7
370
    50
100
AcDbCircle
 10
504.023949
 20
469.86233
 30
0.0
 40
0.9999999999997726
100
AcDbArc
 50
90.0
 51
180.0
  0
LINE
  5
28B
330
1F
100
AcDbEntity
  8
LC-002-100-D00-0
 62
     7
370
    50
100
AcDbLine
 10
514.923098
 20
459.86233
 30
0.0
 11
514.923098
 21
457.86233
 31
0.0
  0
LINE
  5
28C
330
1F
100
AcDbEntity
  8
LC-002-100-D00-0
 62
     7
370
    50
100
AcDbLine
 10
515.573949
 20
457.86233
 30
0.0
 11
514.923098
 21
457.86233
 31
0.0
  0
ARC
  5
28D
330
1F
100
AcDbEntity
  8
LC-002-100-D00-0
 62
     7
370
    50
100
AcDbCircle
 10
515.573949
 20
457.36233
 30
0.0
 40
0.5
100
AcDbArc
 50
0.0
 51
90.0
  0
LINE
  5
28E
330
1F
100
AcDbEntity
  8
LC-002-100-D00-0
 62
     7
370
    50
100
AcDbLine
 10
517.373951
 20
459.86233
 30
0.0
 11
514.923098
 21
459.86233
 31
0.0
  0
LINE
  5
28F
330
1F
100
AcDbEntity
  8
LC-002-100-D00-0
 62
     7
370
    50
100
AcDbLine
 10
514.923098
 20
451.86233
 30
0.0
 11
512.523949
 21
451.86233
 31
0.0
  0
LINE
  5
290
330
1F
100
AcDbEntity
  8
LC-002-100-D00-0
 62
     7
370
    50
100
AcDbLine
 10
506.023945
 20
467.86233
 30
0.0
 11
510.523949
 21
467.86233
 31
0.0
  0
LINE
  5
291
330
1F
100
AcDbEntity
  8
LC-002-100-D00-0
 62
     7
370
    50
100
AcDbLine
 10
504.023949
 20
470.86233
 30
0.0
 11
517.373949
 21
470.86233
 31
0.0
  0
LINE
  5
292
330
1F
100
AcDbEntity
  8
LC-002-100-D00-0
 62
     7
370
    50
100
AcDbLine
 10
503.023947
 20
463.86233
 30
0.0
 11
506.023949
 21
463.86233
 31
0.0
  0
LINE
  5
293
330
1F
100
AcDbEntity
  8
LC-002-100-D00-0
 62
     7
370
    50
100
AcDbLine
 10
534.523949
 20
463.86233
 30
0.0
 11
536.523949
 21
463.86233
 31
0.0
  0
LINE
  5
294
330
1F
100
AcDbEntity
  8
LC-002-100-D00-0
 62
     7
370
    50
100
AcDbLine
 10
506.023949
 20
463.86233
 30
0.0
 11
508.023949
 21
463.86233
 31
0.0
  0
LINE
  5
295
330
1F
100
AcDbEntity
  8
LC-002-100-D00-0
 62
     7
370
    50
100
AcDbLine
 10
508.023949
 20
463.86233
 30
0.0
 11
511.523949
 21
463.86233
 31
0.0
  0
LINE
  5
296
330
1F
100
AcDbEntity
  8
LC-002-100-D00-0
 62
     7
370
    50
100
AcDbLine
 10
531.023951
 20
463.86233
 30
0.0
 11
534.523949
 21
463.86233
 31
0.0
  0
LINE
  5
297
330
1F
100
AcDbEntity
  8
LC-002-100-D00-0
 62
     7
370
    50
100
AcDbLine
 10
326.473949
 20
454.631096
 30
0.0
 11
326.473949
 21
457.093564
 31
0.0
  0
ARC
  5
298
330
1F
100
AcDbEntity
  8
LC-002-100-D00-0
 62
     7
370
    50
100
AcDbCircle
 10
327.073949
 20
454.631096
 30
0.0
 40
0.6000000000000796
100
AcDbArc
 50
180.0
 51
255.0
  0
LINE
  5
299
330
1F
100
AcDbEntity
  8
LC-002-100-D00-0
 62
     7
370
    50
100
AcDbLine
 10
327.6248
 20
453.862329
 30
0.0
 11
326.918657
 21
454.051541
 31
0.0
  0
LINE
  5
29A
330
1F
100
AcDbEntity
  8
LC-002-100-D00-0
 62
     7
370
    50
100
AcDbLine
 10
327.6248
 20
453.862329
 30
0.0
 11
327.6248
 21
451.86233
 31
0.0
  0
LINE
  5
29B
330
1F
100
AcDbEntity
  8
LC-002-100-D00-0
 62
     7
370
    50
100
AcDbLine
 10
324.673949
 20
452.86233
 30
0.0
 11
325.673949
 21
451.86233
 31
0.0
  0
LINE
  5
29C
330
1F
100
AcDbEntity
  8
LC-002-100-D00-0
 62
     7
370
    50
100
AcDbLine
 10
324.673949
 20
452.86233
 30
0.0
 11
324.673945
 21
458.86233
 31
0.0
  0
LINE
  5
29D
330
1F
100
AcDbEntity
  8
LC-002-100-D00-0
 62
     7
370
    50
100
AcDbLine
 10
325.673947
 20
459.86233
 30
0.0
 11
324.673945
 21
458.86233
 31
0.0
  0
LINE
  5
29E
330
1F
100
AcDbEntity
  8
LC-002-100-D00-0
 62
     7
370
    50
100
AcDbLine
 10
327.6248
 20
459.86233
 30
0.0
 11
327.6248
 21
457.86233
 31
0.0
  0
LINE
  5
29F
330
1F
100
AcDbEntity
  8
LC-002-100-D00-0
 62
     7
370
    50
100
AcDbLine
 10
326.918657
 20
457.673119
 30
0.0
 11
327.6248
 21
457.86233
 31
0.0
  0
ARC
  5
2A0
330
1F
100
AcDbEntity
  8
LC-002-100-D00-0
 62
     7
370
    50
100
AcDbCircle
 10
327.073949
 20
457.093564
 30
0.0
 40
0.600000000000118
100
AcDbArc
 50
105.0
 51
180.0
  0
LINE
  5
2A1
330
1F
100
AcDbEntity
  8
LC-002-100-D00-0
 62
     7
370
    50
100
AcDbLine
 10
325.673949
 20
451.86233
 30
0.0
 11
327.6248
 21
451.86233
 31
0.0
  0
LINE
  5
2A2
330
1F
100
AcDbEntity
  8
LC-002-100-D00-0
 62
     7
370
    50
100
AcDbLine
 10
325.673947
 20
459.86233
 30
0.0
 11
327.6248
 21
459.86233
 31
0.0
  0
LINE
  5
2A3
330
1F
100
AcDbEntity
  8
LC-002-100-D00-0
 62
     7
370
    50
100
AcDbLine
 10
316.073949
 20
457.093564
 30
0.0
 11
316.073949
 21
454.631096
 31
0.0
  0
LINE
  5
2A4
330
1F
100
AcDbEntity
  8
LC-002-100-D00-0
 62
     7
370
    50
100
AcDbLine
 10
317.873949
 20
458.86233
 30
0.0
 11
316.873947
 21
459.86233
 31
0.0
  0
LINE
  5
2A5
330
1F
100
AcDbEntity
  8
LC-002-100-D00-0
 62
     7
370
    50
100
AcDbLine
 10
316.873949
 20
451.86233
 30
0.0
 11
317.873949
 21
452.86233
 31
0.0
  0
LINE
  5
2A6
330
1F
100
AcDbEntity
  8
LC-002-100-D00-0
 62
     7
370
    50
100
AcDbLine
 10
317.873949
 20
452.86233
 30
0.0
 11
318.031788
 21
452.86233
 31
0.0
  0
LINE
  5
2A7
330
1F
100
AcDbEntity
  8
LC-002-100-D00-0
 62
     7
370
    50
100
AcDbLine
 10
324.516109
 20
452.86233
 30
0.0
 11
324.673949
 21
452.86233
 31
0.0
  0
LINE
  5
2A8
330
1F
100
AcDbEntity
  8
LC-002-100-D00-0
 62
     7
370
    50
100
AcDbLine
 10
325.673949
 20
451.86233
 30
0.0
 11
325.138167
 21
451.86233
 31
0.0
  0
LINE
  5
2A9
330
1F
100
AcDbEntity
  8
LC-002-100-D00-0
 62
     7
370
    50
100
AcDbLine
 10
317.40973
 20
451.86233
 30
0.0
 11
316.873949
 21
451.86233
 31
0.0
  0
LINE
  5
2AA
330
1F
100
AcDbEntity
  8
LC-002-100-D00-0
 62
     7
370
    50
100
AcDbLine
 10
317.873949
 20
458.86233
 30
0.0
 11
317.873949
 21
452.86233
 31
0.0
  0
LINE
  5
2AB
330
1F
100
AcDbEntity
  8
LC-002-100-D00-0
 62
     7
370
    50
100
AcDbLine
 10
314.923095
 20
453.862329
 30
0.0
 11
314.923095
 21
451.86233
 31
0.0
  0
LINE
  5
2AC
330
1F
100
AcDbEntity
  8
LC-002-100-D00-0
 62
     7
370
    50
100
AcDbLine
 10
315.62924
 20
454.051541
 30
0.0
 11
314.923095
 21
453.862329
 31
0.0
  0
ARC
  5
2AD
330
1F
100
AcDbEntity
  8
LC-002-100-D00-0
 62
     7
370
    50
100
AcDbCircle
 10
315.473949
 20
454.631096
 30
0.0
 40
0.600000000000118
100
AcDbArc
 50
285.0
 51
0.0
  0
ARC
  5
2AE
330
1F
100
AcDbEntity
  8
LC-002-100-D00-0
 62
     7
370
    50
100
AcDbCircle
 10
315.473949
 20
457.093564
 30
0.0
 40
0.6000000000001364
100
AcDbArc
 50
0.0
 51
75.0
  0
LINE
  5
2AF
330
1F
100
AcDbEntity
  8
LC-002-100-D00-0
 62
     7
370
    50
100
AcDbLine
 10
314.923095
 20
457.86233
 30
0.0
 11
315.62924
 21
457.673119
 31
0.0
  0
LINE
  5
2B0
330
1F
100
AcDbEntity
  8
LC-002-100-D00-0
 62
     7
370
    50
100
AcDbLine
 10
314.923095
 20
459.86233
 30
0.0
 11
314.923095
 21
457.86233
 31
0.0
  0
LINE
  5
2B1
330
1F
100
AcDbEntity
  8
LC-002-100-D00-0
 62
     7
370
    50
100
AcDbLine
 10
314.923095
 20
451.86233
 30
0.0
 11
316.873949
 21
451.86233
 31
0.0
  0
LINE
  5
2B2
330
1F
100
AcDbEntity
  8
LC-002-100-D00-0
 62
     7
370
    50
100
AcDbLine
 10
314.923095
 20
459.86233
 30
0.0
 11
316.873947
 21
459.86233
 31
0.0
  0
LINE
  5
2B3
330
1F
100
AcDbEntity
  8
LC-002-100-D00-0
 62
     7
370
    50
100
AcDbLine
 10
327.6248
 20
459.86233
 30
0.0
 11
325.173946
 21
459.86233
 31
0.0
  0
LINE
  5
2B4
330
1F
100
AcDbEntity
  8
LC-002-100-D00-0
 62
     7
370
    50
100
AcDbLine
 10
325.173946
 20
459.86233
 30
0.0
 11
325.173949
 21
470.86233
 31
0.0
  0
LINE
  5
2B5
330
1F
100
AcDbEntity
  8
LC-002-100-D00-0
 62
     7
370
    50
100
AcDbLine
 10
325.173949
 20
470.86233
 30
0.0
 11
338.523949
 21
470.86233
 31
0.0
  0
ARC
  5
2B6
330
1F
100
AcDbEntity
  8
LC-002-100-D00-0
 62
     7
370
    50
100
AcDbCircle
 10
338.523949
 20
469.86233
 30
0.0
 40
1.0
100
AcDbArc
 50
0.0
 51
90.0
  0
LINE
  5
2B7
330
1F
100
AcDbEntity
  8
LC-002-100-D00-0
 62
     7
370
    50
100
AcDbLine
 10
339.523949
 20
469.86233
 30
0.0
 11
339.523951
 21
463.86233
 31
0.0
  0
LINE
  5
2B8
330
1F
100
AcDbEntity
  8
LC-002-100-D00-0
 62
     7
370
    50
100
AcDbLine
 10
336.523949
 20
463.86233
 30
0.0
 11
339.523951
 21
463.86233
 31
0.0
  0
LINE
  5
2B9
330
1F
100
AcDbEntity
  8
LC-002-100-D00-0
 62
     7
370
    50
100
AcDbLine
 10
336.523949
 20
463.86233
 30
0.0
 11
336.523952
 21
467.86233
 31
0.0
  0
LINE
  5
2BA
330
1F
100
AcDbEntity
  8
LC-002-100-D00-0
 62
     7
370
    50
100
AcDbLine
 10
332.023949
 20
467.86233
 30
0.0
 11
336.523952
 21
467.86233
 31
0.0
  0
ARC
  5
2BB
330
1F
100
AcDbEntity
  8
LC-002-100-D00-0
 62
     7
370
    50
100
AcDbCircle
 10
332.023949
 20
466.86233
 30
0.0
 40
1.0
100
AcDbArc
 50
90.0
 51
180.0
  0
LINE
  5
2BC
330
1F
100
AcDbEntity
  8
LC-002-100-D00-0
 62
     7
370
    50
100
AcDbLine
 10
331.023949
 20
452.86233
 30
0.0
 11
331.023949
 21
466.86233
 31
0.0
  0
ARC
  5
2BD
330
1F
100
AcDbEntity
  8
LC-002-100-D00-0
 62
     7
370
    50
100
AcDbCircle
 10
330.023949
 20
452.86233
 30
0.0
 40
1.0
100
AcDbArc
 50
270.0
 51
0.0
  0
LINE
  5
2BE
330
1F
100
AcDbEntity
  8
LC-002-100-D00-0
 62
     7
370
    50
100
AcDbLine
 10
330.023949
 20
451.86233
 30
0.0
 11
327.6248
 21
451.86233
 31
0.0
  0
LINE
  5
2BF
330
1F
100
AcDbEntity
  8
LC-002-100-D00-0
 62
     7
370
    50
100
AcDbLine
 10
327.6248
 20
453.862329
 30
0.0
 11
327.6248
 21
451.86233
 31
0.0
  0
LINE
  5
2C0
330
1F
100
AcDbEntity
  8
LC-002-100-D00-0
 62
     7
370
    50
100
AcDbLine
 10
326.973949
 20
453.86233
 30
0.0
 11
327.6248
 21
453.862329
 31
0.0
  0
ARC
  5
2C1
330
1F
100
AcDbEntity
  8
LC-002-100-D00-0
 62
     7
370
    50
100
AcDbCircle
 10
326.973949
 20
454.36233
 30
0.0
 40
0.5
100
AcDbArc
 50
180.0
 51
270.0
  0
LINE
  5
2C2
330
1F
100
AcDbEntity
  8
LC-002-100-D00-0
 62
     7
370
    50
100
AcDbLine
 10
326.473949
 20
457.36233
 30
0.0
 11
326.473949
 21
454.36233
 31
0.0
  0
ARC
  5
2C3
330
1F
100
AcDbEntity
  8
LC-002-100-D00-0
 62
     7
370
    50
100
AcDbCircle
 10
326.973949
 20
457.36233
 30
0.0
 40
0.5
100
AcDbArc
 50
90.0
 51
180.0
  0
LINE
  5
2C4
330
1F
100
AcDbEntity
  8
LC-002-100-D00-0
 62
     7
370
    50
100
AcDbLine
 10
327.6248
 20
457.86233
 30
0.0
 11
326.973949
 21
457.86233
 31
0.0
  0
LINE
  5
2C5
330
1F
100
AcDbEntity
  8
LC-002-100-D00-0
 62
     7
370
    50
100
AcDbLine
 10
327.6248
 20
459.86233
 30
0.0
 11
327.6248
 21
457.86233
 31
0.0
  0
ARC
  5
2C6
330
1F
100
AcDbEntity
  8
LC-002-100-D00-0
 62
     7
370
    50
100
AcDbCircle
 10
310.523949
 20
466.86233
 30
0.0
 40
1.000000000000114
100
AcDbArc
 50
0.0
 51
90.0
  0
ARC
  5
2C7
330
1F
100
AcDbEntity
  8
LC-002-100-D00-0
 62
     7
370
    50
100
AcDbCircle
 10
312.523949
 20
452.86233
 30
0.0
 40
1.0
100
AcDbArc
 50
180.0
 51
270.0
  0
LINE
  5
2C8
330
1F
100
AcDbEntity
  8
LC-002-100-D00-0
 62
     7
370
    50
100
AcDbLine
 10
311.523949
 20
466.86233
 30
0.0
 11
311.523949
 21
452.86233
 31
0.0
  0
LINE
  5
2C9
330
1F
100
AcDbEntity
  8
LC-002-100-D00-0
 62
     7
370
    50
100
AcDbLine
 10
317.373949
 20
470.86233
 30
0.0
 11
317.373948
 21
459.86233
 31
0.0
  0
LINE
  5
2CA
330
1F
100
AcDbEntity
  8
LC-002-100-D00-0
 62
     7
370
    50
100
AcDbLine
 10
317.373949
 20
470.86233
 30
0.0
 11
325.173949
 21
470.86233
 31
0.0
  0
LINE
  5
2CB
330
1F
100
AcDbEntity
  8
LC-002-100-D00-0
 62
     7
370
    50
100
AcDbLine
 10
316.073949
 20
454.36233
 30
0.0
 11
316.073949
 21
457.36233
 31
0.0
  0
ARC
  5
2CC
330
1F
100
AcDbEntity
  8
LC-002-100-D00-0
 62
     7
370
    50
100
AcDbCircle
 10
315.573949
 20
454.36233
 30
0.0
 40
0.5
100
AcDbArc
 50
270.0
 51
0.0
  0
LINE
  5
2CD
330
1F
100
AcDbEntity
  8
LC-002-100-D00-0
 62
     7
370
    50
100
AcDbLine
 10
314.923095
 20
453.862329
 30
0.0
 11
315.573949
 21
453.86233
 31
0.0
  0
LINE
  5
2CE
330
1F
100
AcDbEntity
  8
LC-002-100-D00-0
 62
     7
370
    50
100
AcDbLine
 10
314.923095
 20
453.862329
 30
0.0
 11
314.923095
 21
451.86233
 31
0.0
  0
LINE
  5
2CF
330
1F
100
AcDbEntity
  8
LC-002-100-D00-0
 62
     7
370
    50
100
AcDbLine
 10
306.02395
 20
467.86233
 30
0.0
 11
306.023949
 21
463.86233
 31
0.0
  0
LINE
  5
2D0
330
1F
100
AcDbEntity
  8
LC-002-100-D00-0
 62
     7
370
    50
100
AcDbLine
 10
303.023951
 20
463.86233
 30
0.0
 11
303.023949
 21
469.86233
 31
0.0
  0
ARC
  5
2D1
330
1F
100
AcDbEntity
  8
LC-002-100-D00-0
 62
     7
370
    50
100
AcDbCircle
 10
304.023949
 20
469.86233
 30
0.0
 40
1.0
100
AcDbArc
 50
90.0
 51
180.0
  0
LINE
  5
2D2
330
1F
100
AcDbEntity
  8
LC-002-100-D00-0
 62
     7
370
    50
100
AcDbLine
 10
314.923095
 20
459.86233
 30
0.0
 11
314.923095
 21
457.86233
 31
0.0
  0
LINE
  5
2D3
330
1F
100
AcDbEntity
  8
LC-002-100-D00-0
 62
     7
370
    50
100
AcDbLine
 10
315.573949
 20
457.86233
 30
0.0
 11
314.923095
 21
457.86233
 31
0.0
  0
ARC
  5
2D4
330
1F
100
AcDbEntity
  8
LC-002-100-D00-0
 62
     7
370
    50
100
AcDbCircle
 10
315.573949
 20
457.36233
 30
0.0
 40
0.5000000000000568
100
AcDbArc
 50
0.0
 51
90.0
  0
LINE
  5
2D5
330
1F
100
AcDbEntity
  8
LC-002-100-D00-0
 62
     7
370
    50
100
AcDbLine
 10
317.373948
 20
459.86233
 30
0.0
 11
314.923095
 21
459.86233
 31
0.0
  0
LINE
  5
2D6
330
1F
100
AcDbEntity
  8
LC-002-100-D00-0
 62
     7
370
    50
100
AcDbLine
 10
314.923095
 20
451.86233
 30
0.0
 11
312.523949
 21
451.86233
 31
0.0
  0
LINE
  5
2D7
330
1F
100
AcDbEntity
  8
LC-002-100-D00-0
 62
     7
370
    50
100
AcDbLine
 10
306.02395
 20
467.86233
 30
0.0
 11
310.523949
 21
467.86233
 31
0.0
  0
LINE
  5
2D8
330
1F
100
AcDbEntity
  8
LC-002-100-D00-0
 62
     7
370
    50
100
AcDbLine
 10
304.023949
 20
470.86233
 30
0.0
 11
317.373949
 21
470.86233
 31
0.0
  0
LINE
  5
2D9
330
1F
100
AcDbEntity
  8
LC-002-100-D00-0
 62
     7
370
    50
100
AcDbLine
 10
303.023951
 20
463.86233
 30
0.0
 11
306.023949
 21
463.86233
 31
0.0
  0
LINE
  5
2DA
330
1F
100
AcDbEntity
  8
LC-002-100-D00-0
 62
     7
370
    50
100
AcDbLine
 10
334.523949
 20
463.86233
 30
0.0
 11
336.523949
 21
463.86233
 31
0.0
  0
LINE
  5
2DB
330
1F
100
AcDbEntity
  8
LC-002-100-D00-0
 62
     7
370
    50
100
AcDbLine
 10
306.023949
 20
463.86233
 30
0.0
 11
308.023949
 21
463.86233
 31
0.0
  0
LINE
  5
2DC
330
1F
100
AcDbEntity
  8
LC-002-100-D00-0
 62
     7
370
    50
100
AcDbLine
 10
308.023949
 20
463.86233
 30
0.0
 11
311.523946
 21
463.86233
 31
0.0
  0
LINE
  5
2DD
330
1F
100
AcDbEntity
  8
LC-002-100-D00-0
 62
     7
370
    50
100
AcDbLine
 10
331.023948
 20
463.86233
 30
0.0
 11
334.523949
 21
463.86233
 31
0.0
  0
LINE
  5
2DE
330
1F
100
AcDbEntity
  8
LC-002-100-D00-0
 62
     7
370
    50
100
AcDbLine
 10
636.473949
 20
454.631096
 30
0.0
 11
636.473949
 21
457.093564
 31
0.0
  0
ARC
  5
2DF
330
1F
100
AcDbEntity
  8
LC-002-100-D00-0
 62
     7
370
    50
100
AcDbCircle
 10
637.073949
 20
454.631096
 30
0.0
 40
0.6000000000001364
100
AcDbArc
 50
180.0
 51
255.0
  0
LINE
  5
2E0
330
1F
100
AcDbEntity
  8
LC-002-100-D00-0
 62
     7
370
    50
100
AcDbLine
 10
637.624802
 20
453.862329
 30
0.0
 11
636.918657
 21
454.051541
 31
0.0
  0
LINE
  5
2E1
330
1F
100
AcDbEntity
  8
LC-002-100-D00-0
 62
     7
370
    50
100
AcDbLine
 10
637.624802
 20
453.862329
 30
0.0
 11
637.624802
 21
451.86233
 31
0.0
  0
LINE
  5
2E2
330
1F
100
AcDbEntity
  8
LC-002-100-D00-0
 62
     7
370
    50
100
AcDbLine
 10
634.673949
 20
452.86233
 30
0.0
 11
635.673949
 21
451.86233
 31
0.0
  0
LINE
  5
2E3
330
1F
100
AcDbEntity
  8
LC-002-100-D00-0
 62
     7
370
    50
100
AcDbLine
 10
634.673949
 20
452.86233
 30
0.0
 11
634.673955
 21
458.86233
 31
0.0
  0
LINE
  5
2E4
330
1F
100
AcDbEntity
  8
LC-002-100-D00-0
 62
     7
370
    50
100
AcDbLine
 10
635.673942
 20
459.86233
 30
0.0
 11
634.673955
 21
458.86233
 31
0.0
  0
LINE
  5
2E5
330
1F
100
AcDbEntity
  8
LC-002-100-D00-0
 62
     7
370
    50
100
AcDbLine
 10
637.624802
 20
459.86233
 30
0.0
 11
637.624802
 21
457.86233
 31
0.0
  0
LINE
  5
2E6
330
1F
100
AcDbEntity
  8
LC-002-100-D00-0
 62
     7
370
    50
100
AcDbLine
 10
636.918657
 20
457.673119
 30
0.0
 11
637.624802
 21
457.86233
 31
0.0
  0
ARC
  5
2E7
330
1F
100
AcDbEntity
  8
LC-002-100-D00-0
 62
     7
370
    50
100
AcDbCircle
 10
637.073949
 20
457.093564
 30
0.0
 40
0.6000000000001474
100
AcDbArc
 50
105.0
 51
180.0
  0
LINE
  5
2E8
330
1F
100
AcDbEntity
  8
LC-002-100-D00-0
 62
     7
370
    50
100
AcDbLine
 10
635.673949
 20
451.86233
 30
0.0
 11
637.624802
 21
451.86233
 31
0.0
  0
LINE
  5
2E9
330
1F
100
AcDbEntity
  8
LC-002-100-D00-0
 62
     7
370
    50
100
AcDbLine
 10
635.673942
 20
459.86233
 30
0.0
 11
637.624802
 21
459.86233
 31
0.0
  0
LINE
  5
2EA
330
1F
100
AcDbEntity
  8
LC-002-100-D00-0
 62
     7
370
    50
100
AcDbLine
 10
627.873944
 20
458.86233
 30
0.0
 11
626.873942
 21
459.86233
 31
0.0
  0
LINE
  5
2EB
330
1F
100
AcDbEntity
  8
LC-002-100-D00-0
 62
     7
370
    50
100
AcDbLine
 10
626.873949
 20
451.86233
 30
0.0
 11
627.873949
 21
452.86233
 31
0.0
  0
LINE
  5
2EC
330
1F
100
AcDbEntity
  8
LC-002-100-D00-0
 62
     7
370
    50
100
AcDbLine
 10
627.873949
 20
452.86233
 30
0.0
 11
628.031788
 21
452.86233
 31
0.0
  0
LINE
  5
2ED
330
1F
100
AcDbEntity
  8
LC-002-100-D00-0
 62
     7
370
    50
100
AcDbLine
 10
634.516109
 20
452.86233
 30
0.0
 11
634.673949
 21
452.86233
 31
0.0
  0
LINE
  5
2EE
330
1F
100
AcDbEntity
  8
LC-002-100-D00-0
 62
     7
370
    50
100
AcDbLine
 10
635.673949
 20
451.86233
 30
0.0
 11
635.138167
 21
451.86233
 31
0.0
  0
LINE
  5
2EF
330
1F
100
AcDbEntity
  8
LC-002-100-D00-0
 62
     7
370
    50
100
AcDbLine
 10
627.40973
 20
451.86233
 30
0.0
 11
626.873949
 21
451.86233
 31
0.0
  0
LINE
  5
2F0
330
1F
100
AcDbEntity
  8
LC-002-100-D00-0
 62
     7
370
    50
100
AcDbLine
 10
627.873944
 20
458.86233
 30
0.0
 11
627.873949
 21
452.86233
 31
0.0
  0
LINE
  5
2F1
330
1F
100
AcDbEntity
  8
LC-002-100-D00-0
 62
     7
370
    50
100
AcDbLine
 10
626.073949
 20
457.093564
 30
0.0
 11
626.073949
 21
454.631096
 31
0.0
  0
LINE
  5
2F2
330
1F
100
AcDbEntity
  8
LC-002-100-D00-0
 62
     7
370
    50
100
AcDbLine
 10
624.923097
 20
453.862329
 30
0.0
 11
624.923097
 21
451.86233
 31
0.0
  0
LINE
  5
2F3
330
1F
100
AcDbEntity
  8
LC-002-100-D00-0
 62
     7
370
    50
100
AcDbLine
 10
625.62924
 20
454.051541
 30
0.0
 11
624.923097
 21
453.862329
 31
0.0
  0
ARC
  5
2F4
330
1F
100
AcDbEntity
  8
LC-002-100-D00-0
 62
     7
370
    50
100
AcDbCircle
 10
625.473949
 20
454.631096
 30
0.0
 40
0.600000000000118
100
AcDbArc
 50
285.0
 51
0.0
  0
ARC
  5
2F5
330
1F
100
AcDbEntity
  8
LC-002-100-D00-0
 62
     7
370
    50
100
AcDbCircle
 10
625.473949
 20
457.093564
 30
0.0
 40
0.6000000000001364
100
AcDbArc
 50
0.0
 51
75.0
  0
LINE
  5
2F6
330
1F
100
AcDbEntity
  8
LC-002-100-D00-0
 62
     7
370
    50
100
AcDbLine
 10
624.923097
 20
457.86233
 30
0.0
 11
625.62924
 21
457.673119
 31
0.0
  0
LINE
  5
2F7
330
1F
100
AcDbEntity
  8
LC-002-100-D00-0
 62
     7
370
    50
100
AcDbLine
 10
624.923097
 20
459.86233
 30
0.0
 11
624.923097
 21
457.86233
 31
0.0
  0
LINE
  5
2F8
330
1F
100
AcDbEntity
  8
LC-002-100-D00-0
 62
     7
370
    50
100
AcDbLine
 10
624.923097
 20
451.86233
 30
0.0
 11
626.873949
 21
451.86233
 31
0.0
  0
LINE
  5
2F9
330
1F
100
AcDbEntity
  8
LC-002-100-D00-0
 62
     7
370
    50
100
AcDbLine
 10
624.923097
 20
459.86233
 30
0.0
 11
626.873942
 21
459.86233
 31
0.0
  0
LINE
  5
2FA
330
1F
100
AcDbEntity
  8
LC-002-100-D00-0
 62
     7
370
    50
100
AcDbLine
 10
637.624802
 20
459.86233
 30
0.0
 11
635.173948
 21
459.86233
 31
0.0
  0
LINE
  5
2FB
330
1F
100
AcDbEntity
  8
LC-002-100-D00-0
 62
     7
370
    50
100
AcDbLine
 10
635.173948
 20
459.86233
 30
0.0
 11
635.173949
 21
470.86233
 31
0.0
  0
LINE
  5
2FC
330
1F
100
AcDbEntity
  8
LC-002-100-D00-0
 62
     7
370
    50
100
AcDbLine
 10
635.173949
 20
470.86233
 30
0.0
 11
648.523949
 21
470.86233
 31
0.0
  0
ARC
  5
2FD
330
1F
100
AcDbEntity
  8
LC-002-100-D00-0
 62
     7
370
    50
100
AcDbCircle
 10
648.523949
 20
469.86233
 30
0.0
 40
1.000000000000114
100
AcDbArc
 50
0.0
 51
90.0
  0
LINE
  5
2FE
330
1F
100
AcDbEntity
  8
LC-002-100-D00-0
 62
     7
370
    50
100
AcDbLine
 10
649.523949
 20
469.86233
 30
0.0
 11
649.523946
 21
463.86233
 31
0.0
  0
LINE
  5
2FF
330
1F
100
AcDbEntity
  8
LC-002-100-D00-0
 62
     7
370
    50
100
AcDbLine
 10
646.523949
 20
463.86233
 30
0.0
 11
649.523946
 21
463.86233
 31
0.0
  0
LINE
  5
300
330
1F
100
AcDbEntity
  8
LC-002-100-D00-0
 62
     7
370
    50
100
AcDbLine
 10
646.523949
 20
463.86233
 30
0.0
 11
646.523954
 21
467.86233
 31
0.0
  0
LINE
  5
301
330
1F
100
AcDbEntity
  8
LC-002-100-D00-0
 62
     7
370
    50
100
AcDbLine
 10
642.023949
 20
467.86233
 30
0.0
 11
646.523954
 21
467.86233
 31
0.0
  0
ARC
  5
302
330
1F
100
AcDbEntity
  8
LC-002-100-D00-0
 62
     7
370
    50
100
AcDbCircle
 10
642.023949
 20
466.86233
 30
0.0
 40
1.0
100
AcDbArc
 50
90.0
 51
180.0
  0
LINE
  5
303
330
1F
100
AcDbEntity
  8
LC-002-100-D00-0
 62
     7
370
    50
100
AcDbLine
 10
641.023949
 20
452.86233
 30
0.0
 11
641.023949
 21
466.86233
 31
0.0
  0
ARC
  5
304
330
1F
100
AcDbEntity
  8
LC-002-100-D00-0
 62
     7
370
    50
100
AcDbCircle
 10
640.023949
 20
452.86233
 30
0.0
 40
1.0
100
AcDbArc
 50
270.0
 51
0.0
  0
LINE
  5
305
330
1F
100
AcDbEntity
  8
LC-002-100-D00-0
 62
     7
370
    50
100
AcDbLine
 10
640.023949
 20
451.86233
 30
0.0
 11
637.624802
 21
451.86233
 31
0.0
  0
LINE
  5
306
330
1F
100
AcDbEntity
  8
LC-002-100-D00-0
 62
     7
370
    50
100
AcDbLine
 10
637.624802
 20
453.862329
 30
0.0
 11
637.624802
 21
451.86233
 31
0.0
  0
LINE
  5
307
330
1F
100
AcDbEntity
  8
LC-002-100-D00-0
 62
     7
370
    50
100
AcDbLine
 10
636.973949
 20
453.86233
 30
0.0
 11
637.624802
 21
453.862329
 31
0.0
  0
ARC
  5
308
330
1F
100
AcDbEntity
  8
LC-002-100-D00-0
 62
     7
370
    50
100
AcDbCircle
 10
636.973949
 20
454.36233
 30
0.0
 40
0.5000000000002274
100
AcDbArc
 50
180.0
 51
270.0
  0
LINE
  5
309
330
1F
100
AcDbEntity
  8
LC-002-100-D00-0
 62
     7
370
    50
100
AcDbLine
 10
636.473949
 20
457.36233
 30
0.0
 11
636.473949
 21
454.36233
 31
0.0
  0
ARC
  5
30A
330
1F
100
AcDbEntity
  8
LC-002-100-D00-0
 62
     7
370
    50
100
AcDbCircle
 10
636.973949
 20
457.36233
 30
0.0
 40
0.5
100
AcDbArc
 50
90.0
 51
180.0
  0
LINE
  5
30B
330
1F
100
AcDbEntity
  8
LC-002-100-D00-0
 62
     7
370
    50
100
AcDbLine
 10
637.624802
 20
457.86233
 30
0.0
 11
636.973949
 21
457.86233
 31
0.0
  0
LINE
  5
30C
330
1F
100
AcDbEntity
  8
LC-002-100-D00-0
 62
     7
370
    50
100
AcDbLine
 10
637.624802
 20
459.86233
 30
0.0
 11
637.624802
 21
457.86233
 31
0.0
  0
ARC
  5
30D
330
1F
100
AcDbEntity
  8
LC-002-100-D00-0
 62
     7
370
    50
100
AcDbCircle
 10
620.523949
 20
466.86233
 30
0.0
 40
1.000000000000114
100
AcDbArc
 50
0.0
 51
90.0
  0
ARC
  5
30E
330
1F
100
AcDbEntity
  8
LC-002-100-D00-0
 62
     7
370
    50
100
AcDbCircle
 10
622.523949
 20
452.86233
 30
0.0
 40
0.9999999999998863
100
AcDbArc
 50
180.0
 51
270.0
  0
LINE
  5
30F
330
1F
100
AcDbEntity
  8
LC-002-100-D00-0
 62
     7
370
    50
100
AcDbLine
 10
621.523949
 20
466.86233
 30
0.0
 11
621.523949
 21
452.86233
 31
0.0
  0
LINE
  5
310
330
1F
100
AcDbEntity
  8
LC-002-100-D00-0
 62
     7
370
    50
100
AcDbLine
 10
627.373949
 20
470.86233
 30
0.0
 11
627.373951
 21
459.86233
 31
0.0
  0
LINE
  5
311
330
1F
100
AcDbEntity
  8
LC-002-100-D00-0
 62
     7
370
    50
100
AcDbLine
 10
627.373949
 20
470.86233
 30
0.0
 11
635.173949
 21
470.86233
 31
0.0
  0
LINE
  5
312
330
1F
100
AcDbEntity
  8
LC-002-100-D00-0
 62
     7
370
    50
100
AcDbLine
 10
626.073949
 20
454.36233
 30
0.0
 11
626.073949
 21
457.36233
 31
0.0
  0
ARC
  5
313
330
1F
100
AcDbEntity
  8
LC-002-100-D00-0
 62
     7
370
    50
100
AcDbCircle
 10
625.573949
 20
454.36233
 30
0.0
 40
0.5000000000002274
100
AcDbArc
 50
270.0
 51
0.0
  0
LINE
  5
314
330
1F
100
AcDbEntity
  8
LC-002-100-D00-0
 62
     7
370
    50
100
AcDbLine
 10
624.923097
 20
453.862329
 30
0.0
 11
625.573949
 21
453.86233
 31
0.0
  0
LINE
  5
315
330
1F
100
AcDbEntity
  8
LC-002-100-D00-0
 62
     7
370
    50
100
AcDbLine
 10
624.923097
 20
453.862329
 30
0.0
 11
624.923097
 21
451.86233
 31
0.0
  0
LINE
  5
316
330
1F
100
AcDbEntity
  8
LC-002-100-D00-0
 62
     7
370
    50
100
AcDbLine
 10
616.023945
 20
467.86233
 30
0.0
 11
616.023949
 21
463.86233
 31
0.0
  0
LINE
  5
317
330
1F
100
AcDbEntity
  8
LC-002-100-D00-0
 62
     7
370
    50
100
AcDbLine
 10
613.023954
 20
463.86233
 30
0.0
 11
613.023949
 21
469.86233
 31
0.0
  0
ARC
  5
318
330
1F
100
AcDbEntity
  8
LC-002-100-D00-0
 62
     7
370
    50
100
AcDbCircle
 10
614.023949
 20
469.86233
 30
0.0
 40
1.0
100
AcDbArc
 50
90.0
 51
180.0
  0
LINE
  5
319
330
1F
100
AcDbEntity
  8
LC-002-100-D00-0
 62
     7
370
    50
100
AcDbLine
 10
624.923097
 20
459.86233
 30
0.0
 11
624.923097
 21
457.86233
 31
0.0
  0
LINE
  5
31A
330
1F
100
AcDbEntity
  8
LC-002-100-D00-0
 62
     7
370
    50
100
AcDbLine
 10
625.573949
 20
457.86233
 30
0.0
 11
624.923097
 21
457.86233
 31
0.0
  0
ARC
  5
31B
330
1F
100
AcDbEntity
  8
LC-002-100-D00-0
 62
     7
370
    50
100
AcDbCircle
 10
625.573949
 20
457.36233
 30
0.0
 40
0.5
100
AcDbArc
 50
0.0
 51
90.0
  0
LINE
  5
31C
330
1F
100
AcDbEntity
  8
LC-002-100-D00-0
 62
     7
370
    50
100
AcDbLine
 10
627.373951
 20
459.86233
 30
0.0
 11
624.923097
 21
459.86233
 31
0.0
  0
LINE
  5
31D
330
1F
100
AcDbEntity
  8
LC-002-100-D00-0
 62
     7
370
    50
100
AcDbLine
 10
624.923097
 20
451.86233
 30
0.0
 11
622.523949
 21
451.86233
 31
0.0
  0
LINE
  5
31E
330
1F
100
AcDbEntity
  8
LC-002-100-D00-0
 62
     7
370
    50
100
AcDbLine
 10
616.023945
 20
467.86233
 30
0.0
 11
620.523949
 21
467.86233
 31
0.0
  0
LINE
  5
31F
330
1F
100
AcDbEntity
  8
LC-002-100-D00-0
 62
     7
370
    50
100
AcDbLine
 10
614.023949
 20
470.86233
 30
0.0
 11
627.373949
 21
470.86233
 31
0.0
  0
LINE
  5
320
330
1F
100
AcDbEntity
  8
LC-002-100-D00-0
 62
     7
370
    50
100
AcDbLine
 10
613.023954
 20
463.86233
 30
0.0
 11
616.023949
 21
463.86233
 31
0.0
  0
LINE
  5
321
330
1F
100
AcDbEntity
  8
LC-002-100-D00-0
 62
     7
370
    50
100
AcDbLine
 10
644.523949
 20
463.86233
 30
0.0
 11
646.523949
 21
463.86233
 31
0.0
  0
LINE
  5
322
330
1F
100
AcDbEntity
  8
LC-002-100-D00-0
 62
     7
370
    50
100
AcDbLine
 10
616.023949
 20
463.86233
 30
0.0
 11
618.023949
 21
463.86233
 31
0.0
  0
LINE
  5
323
330
1F
100
AcDbEntity
  8
LC-002-100-D00-0
 62
     7
370
    50
100
AcDbLine
 10
618.023949
 20
463.86233
 30
0.0
 11
621.523948
 21
463.86233
 31
0.0
  0
LINE
  5
324
330
1F
100
AcDbEntity
  8
LC-002-100-D00-0
 62
     7
370
    50
100
AcDbLine
 10
641.023951
 20
463.86233
 30
0.0
 11
644.523949
 21
463.86233
 31
0.0
  0
LINE
  5
325
330
1F
100
AcDbEntity
  8
LC-002-100-D00-0
 62
     7
370
    50
100
AcDbLine
 10
106.473949
 20
454.631096
 30
0.0
 11
106.473949
 21
457.093564
 31
0.0
  0
ARC
  5
326
330
1F
100
AcDbEntity
  8
LC-002-100-D00-0
 62
     7
370
    50
100
AcDbCircle
 10
107.073949
 20
454.631096
 30
0.0
 40
0.600000000000108
100
AcDbArc
 50
180.0
 51
255.0
  0
LINE
  5
327
330
1F
100
AcDbEntity
  8
LC-002-100-D00-0
 62
     7
370
    50
100
AcDbLine
 10
107.624801
 20
453.862329
 30
0.0
 11
106.918657
 21
454.051541
 31
0.0
  0
LINE
  5
328
330
1F
100
AcDbEntity
  8
LC-002-100-D00-0
 62
     7
370
    50
100
AcDbLine
 10
107.624801
 20
453.862329
 30
0.0
 11
107.624801
 21
451.86233
 31
0.0
  0
LINE
  5
329
330
1F
100
AcDbEntity
  8
LC-002-100-D00-0
 62
     7
370
    50
100
AcDbLine
 10
104.673949
 20
452.86233
 30
0.0
 11
105.673949
 21
451.86233
 31
0.0
  0
LINE
  5
32A
330
1F
100
AcDbEntity
  8
LC-002-100-D00-0
 62
     7
370
    50
100
AcDbLine
 10
104.673949
 20
452.86233
 30
0.0
 11
104.673954
 21
458.86233
 31
0.0
  0
LINE
  5
32B
330
1F
100
AcDbEntity
  8
LC-002-100-D00-0
 62
     7
370
    50
100
AcDbLine
 10
105.673941
 20
459.86233
 30
0.0
 11
104.673954
 21
458.86233
 31
0.0
  0
LINE
  5
32C
330
1F
100
AcDbEntity
  8
LC-002-100-D00-0
 62
     7
370
    50
100
AcDbLine
 10
107.624801
 20
459.86233
 30
0.0
 11
107.624801
 21
457.86233
 31
0.0
  0
LINE
  5
32D
330
1F
100
AcDbEntity
  8
LC-002-100-D00-0
 62
     7
370
    50
100
AcDbLine
 10
106.918657
 20
457.673119
 30
0.0
 11
107.624801
 21
457.86233
 31
0.0
  0
ARC
  5
32E
330
1F
100
AcDbEntity
  8
LC-002-100-D00-0
 62
     7
370
    50
100
AcDbCircle
 10
107.073949
 20
457.093564
 30
0.0
 40
0.6000000000001106
100
AcDbArc
 50
105.0
 51
180.0
  0
LINE
  5
32F
330
1F
100
AcDbEntity
  8
LC-002-100-D00-0
 62
     7
370
    50
100
AcDbLine
 10
105.673949
 20
451.86233
 30
0.0
 11
107.624801
 21
451.86233
 31
0.0
  0
LINE
  5
330
330
1F
100
AcDbEntity
  8
LC-002-100-D00-0
 62
     7
370
    50
100
AcDbLine
 10
105.673941
 20
459.86233
 30
0.0
 11
107.624801
 21
459.86233
 31
0.0
  0
LINE
  5
331
330
1F
100
AcDbEntity
  8
LC-002-100-D00-0
 62
     7
370
    50
100
AcDbLine
 10
96.073949
 20
457.093564
 30
0.0
 11
96.073949
 21
454.631096
 31
0.0
  0
LINE
  5
332
330
1F
100
AcDbEntity
  8
LC-002-100-D00-0
 62
     7
370
    50
100
AcDbLine
 10
97.873958
 20
458.86233
 30
0.0
 11
96.873941
 21
459.86233
 31
0.0
  0
LINE
  5
333
330
1F
100
AcDbEntity
  8
LC-002-100-D00-0
 62
     7
370
    50
100
AcDbLine
 10
97.873958
 20
458.86233
 30
0.0
 11
97.873949
 21
452.86233
 31
0.0
  0
LINE
  5
334
330
1F
100
AcDbEntity
  8
LC-002-100-D00-0
 62
     7
370
    50
100
AcDbLine
 10
96.873949
 20
451.86233
 30
0.0
 11
97.873949
 21
452.86233
 31
0.0
  0
LINE
  5
335
330
1F
100
AcDbEntity
  8
LC-002-100-D00-0
 62
     7
370
    50
100
AcDbLine
 10
94.923081
 20
453.862329
 30
0.0
 11
94.923081
 21
451.86233
 31
0.0
  0
LINE
  5
336
330
1F
100
AcDbEntity
  8
LC-002-100-D00-0
 62
     7
370
    50
100
AcDbLine
 10
95.62924
 20
454.051541
 30
0.0
 11
94.923081
 21
453.862329
 31
0.0
  0
ARC
  5
337
330
1F
100
AcDbEntity
  8
LC-002-100-D00-0
 62
     7
370
    50
100
AcDbCircle
 10
95.473949
 20
454.631096
 30
0.0
 40
0.6000000000001106
100
AcDbArc
 50
285.0
 51
0.0
  0
ARC
  5
338
330
1F
100
AcDbEntity
  8
LC-002-100-D00-0
 62
     7
370
    50
100
AcDbCircle
 10
95.473949
 20
457.093564
 30
0.0
 40
0.6000000000001364
100
AcDbArc
 50
0.0
 51
75.0
  0
LINE
  5
339
330
1F
100
AcDbEntity
  8
LC-002-100-D00-0
 62
     7
370
    50
100
AcDbLine
 10
94.923081
 20
457.86233
 30
0.0
 11
95.62924
 21
457.673119
 31
0.0
  0
LINE
  5
33A
330
1F
100
AcDbEntity
  8
LC-002-100-D00-0
 62
     7
370
    50
100
AcDbLine
 10
94.923081
 20
459.86233
 30
0.0
 11
94.923081
 21
457.86233
 31
0.0
  0
LINE
  5
33B
330
1F
100
AcDbEntity
  8
LC-002-100-D00-0
 62
     7
370
    50
100
AcDbLine
 10
94.923081
 20
451.86233
 30
0.0
 11
96.873949
 21
451.86233
 31
0.0
  0
LINE
  5
33C
330
1F
100
AcDbEntity
  8
LC-002-100-D00-0
 62
     7
370
    50
100
AcDbLine
 10
94.923081
 20
459.86233
 30
0.0
 11
96.873941
 21
459.86233
 31
0.0
  0
LINE
  5
33D
330
1F
100
AcDbEntity
  8
LC-002-100-D00-0
 62
     7
370
    50
100
AcDbLine
 10
97.873949
 20
452.86233
 30
0.0
 11
98.031788
 21
452.86233
 31
0.0
  0
LINE
  5
33E
330
1F
100
AcDbEntity
  8
LC-002-100-D00-0
 62
     7
370
    50
100
AcDbLine
 10
104.516109
 20
452.86233
 30
0.0
 11
104.673949
 21
452.86233
 31
0.0
  0
LINE
  5
33F
330
1F
100
AcDbEntity
  8
LC-002-100-D00-0
 62
     7
370
    50
100
AcDbLine
 10
105.673949
 20
451.86233
 30
0.0
 11
105.138167
 21
451.86233
 31
0.0
  0
LINE
  5
340
330
1F
100
AcDbEntity
  8
LC-002-100-D00-0
 62
     7
370
    50
100
AcDbLine
 10
97.40973
 20
451.86233
 30
0.0
 11
96.873949
 21
451.86233
 31
0.0
  0
LINE
  5
341
330
1F
100
AcDbEntity
  8
LC-002-100-D00-0
 62
     7
370
    50
100
AcDbLine
 10
107.624801
 20
459.86233
 30
0.0
 11
105.173947
 21
459.86233
 31
0.0
  0
LINE
  5
342
330
1F
100
AcDbEntity
  8
LC-002-100-D00-0
 62
     7
370
    50
100
AcDbLine
 10
105.173947
 20
459.86233
 30
0.0
 11
105.173949
 21
470.86233
 31
0.0
  0
LINE
  5
343
330
1F
100
AcDbEntity
  8
LC-002-100-D00-0
 62
     7
370
    50
100
AcDbLine
 10
105.173949
 20
470.86233
 30
0.0
 11
118.523949
 21
470.86233
 31
0.0
  0
ARC
  5
344
330
1F
100
AcDbEntity
  8
LC-002-100-D00-0
 62
     7
370
    50
100
AcDbCircle
 10
118.523949
 20
469.86233
 30
0.0
 40
0.9999999999999716
100
AcDbArc
 50
0.0
 51
90.0
  0
LINE
  5
345
330
1F
100
AcDbEntity
  8
LC-002-100-D00-0
 62
     7
370
    50
100
AcDbLine
 10
119.523949
 20
469.86233
 30
0.0
 11
119.523944
 21
463.86233
 31
0.0
  0
LINE
  5
346
330
1F
100
AcDbEntity
  8
LC-002-100-D00-0
 62
     7
370
    50
100
AcDbLine
 10
116.523949
 20
463.86233
 30
0.0
 11
119.523944
 21
463.86233
 31
0.0
  0
LINE
  5
347
330
1F
100
AcDbEntity
  8
LC-002-100-D00-0
 62
     7
370
    50
100
AcDbLine
 10
116.523949
 20
463.86233
 30
0.0
 11
116.523953
 21
467.86233
 31
0.0
  0
LINE
  5
348
330
1F
100
AcDbEntity
  8
LC-002-100-D00-0
 62
     7
370
    50
100
AcDbLine
 10
112.023949
 20
467.86233
 30
0.0
 11
116.523953
 21
467.86233
 31
0.0
  0
ARC
  5
349
330
1F
100
AcDbEntity
  8
LC-002-100-D00-0
 62
     7
370
    50
100
AcDbCircle
 10
112.023949
 20
466.86233
 30
0.0
 40
1.0
100
AcDbArc
 50
90.0
 51
180.0
  0
LINE
  5
34A
330
1F
100
AcDbEntity
  8
LC-002-100-D00-0
 62
     7
370
    50
100
AcDbLine
 10
111.023949
 20
452.86233
 30
0.0
 11
111.023949
 21
466.86233
 31
0.0
  0
ARC
  5
34B
330
1F
100
AcDbEntity
  8
LC-002-100-D00-0
 62
     7
370
    50
100
AcDbCircle
 10
110.023949
 20
452.86233
 30
0.0
 40
1.0
100
AcDbArc
 50
270.0
 51
0.0
  0
LINE
  5
34C
330
1F
100
AcDbEntity
  8
LC-002-100-D00-0
 62
     7
370
    50
100
AcDbLine
 10
110.023949
 20
451.86233
 30
0.0
 11
107.624801
 21
451.86233
 31
0.0
  0
LINE
  5
34D
330
1F
100
AcDbEntity
  8
LC-002-100-D00-0
 62
     7
370
    50
100
AcDbLine
 10
107.624801
 20
453.862329
 30
0.0
 11
107.624801
 21
451.86233
 31
0.0
  0
LINE
  5
34E
330
1F
100
AcDbEntity
  8
LC-002-100-D00-0
 62
     7
370
    50
100
AcDbLine
 10
106.973949
 20
453.86233
 30
0.0
 11
107.624801
 21
453.862329
 31
0.0
  0
ARC
  5
34F
330
1F
100
AcDbEntity
  8
LC-002-100-D00-0
 62
     7
370
    50
100
AcDbCircle
 10
106.973949
 20
454.36233
 30
0.0
 40
0.5000000000000284
100
AcDbArc
 50
180.0
 51
270.0
  0
LINE
  5
350
330
1F
100
AcDbEntity
  8
LC-002-100-D00-0
 62
     7
370
    50
100
AcDbLine
 10
106.473949
 20
457.36233
 30
0.0
 11
106.473949
 21
454.36233
 31
0.0
  0
ARC
  5
351
330
1F
100
AcDbEntity
  8
LC-002-100-D00-0
 62
     7
370
    50
100
AcDbCircle
 10
106.973949
 20
457.36233
 30
0.0
 40
0.5
100
AcDbArc
 50
90.0
 51
180.0
  0
LINE
  5
352
330
1F
100
AcDbEntity
  8
LC-002-100-D00-0
 62
     7
370
    50
100
AcDbLine
 10
107.624801
 20
457.86233
 30
0.0
 11
106.973949
 21
457.86233
 31
0.0
  0
LINE
  5
353
330
1F
100
AcDbEntity
  8
LC-002-100-D00-0
 62
     7
370
    50
100
AcDbLine
 10
107.624801
 20
459.86233
 30
0.0
 11
107.624801
 21
457.86233
 31
0.0
  0
ARC
  5
354
330
1F
100
AcDbEntity
  8
LC-002-100-D00-0
 62
     7
370
    50
100
AcDbCircle
 10
90.523949
 20
466.86233
 30
0.0
 40
1.0
100
AcDbArc
 50
0.0
 51
90.0
  0
ARC
  5
355
330
1F
100
AcDbEntity
  8
LC-002-100-D00-0
 62
     7
370
    50
100
AcDbCircle
 10
92.523949
 20
452.86233
 30
0.0
 40
1.0
100
AcDbArc
 50
180.0
 51
270.0
  0
LINE
  5
356
330
1F
100
AcDbEntity
  8
LC-002-100-D00-0
 62
     7
370
    50
100
AcDbLine
 10
91.523949
 20
466.86233
 30
0.0
 11
91.523949
 21
452.86233
 31
0.0
  0
LINE
  5
357
330
1F
100
AcDbEntity
  8
LC-002-100-D00-0
 62
     7
370
    50
100
AcDbLine
 10
96.073949
 20
454.36233
 30
0.0
 11
96.073949
 21
457.36233
 31
0.0
  0
LINE
  5
358
330
1F
100
AcDbEntity
  8
LC-002-100-D00-0
 62
     7
370
    50
100
AcDbLine
 10
97.373949
 20
470.86233
 30
0.0
 11
97.373934
 21
459.86233
 31
0.0
  0
LINE
  5
359
330
1F
100
AcDbEntity
  8
LC-002-100-D00-0
 62
     7
370
    50
100
AcDbLine
 10
97.373949
 20
470.86233
 30
0.0
 11
105.173949
 21
470.86233
 31
0.0
  0
LINE
  5
35A
330
1F
100
AcDbEntity
  8
LC-002-100-D00-0
 62
     7
370
    50
100
AcDbLine
 10
94.923081
 20
453.862329
 30
0.0
 11
94.923081
 21
451.86233
 31
0.0
  0
LINE
  5
35B
330
1F
100
AcDbEntity
  8
LC-002-100-D00-0
 62
     7
370
    50
100
AcDbLine
 10
94.923081
 20
459.86233
 30
0.0
 11
94.923081
 21
457.86233
 31
0.0
  0
ARC
  5
35C
330
1F
100
AcDbEntity
  8
LC-002-100-D00-0
 62
     7
370
    50
100
AcDbCircle
 10
95.573949
 20
454.36233
 30
0.0
 40
0.5
100
AcDbArc
 50
270.0
 51
0.0
  0
LINE
  5
35D
330
1F
100
AcDbEntity
  8
LC-002-100-D00-0
 62
     7
370
    50
100
AcDbLine
 10
94.923081
 20
453.862329
 30
0.0
 11
95.573949
 21
453.86233
 31
0.0
  0
LINE
  5
35E
330
1F
100
AcDbEntity
  8
LC-002-100-D00-0
 62
     7
370
    50
100
AcDbLine
 10
86.023958
 20
467.86233
 30
0.0
 11
86.023949
 21
463.86233
 31
0.0
  0
LINE
  5
35F
330
1F
100
AcDbEntity
  8
LC-002-100-D00-0
 62
     7
370
    50
100
AcDbLine
 10
83.023937
 20
463.86233
 30
0.0
 11
83.023949
 21
469.86233
 31
0.0
  0
ARC
  5
360
330
1F
100
AcDbEntity
  8
LC-002-100-D00-0
 62
     7
370
    50
100
AcDbCircle
 10
84.023949
 20
469.86233
 30
0.0
 40
0.9999999999997726
100
AcDbArc
 50
90.0
 51
180.0
  0
LINE
  5
361
330
1F
100
AcDbEntity
  8
LC-002-100-D00-0
 62
     7
370
    50
100
AcDbLine
 10
95.573949
 20
457.86233
 30
0.0
 11
94.923081
 21
457.86233
 31
0.0
  0
ARC
  5
362
330
1F
100
AcDbEntity
  8
LC-002-100-D00-0
 62
     7
370
    50
100
AcDbCircle
 10
95.573949
 20
457.36233
 30
0.0
 40
0.5
100
AcDbArc
 50
0.0
 51
90.0
  0
LINE
  5
363
330
1F
100
AcDbEntity
  8
LC-002-100-D00-0
 62
     7
370
    50
100
AcDbLine
 10
97.373934
 20
459.86233
 30
0.0
 11
94.923081
 21
459.86233
 31
0.0
  0
LINE
  5
364
330
1F
100
AcDbEntity
  8
LC-002-100-D00-0
 62
     7
370
    50
100
AcDbLine
 10
94.923081
 20
451.86233
 30
0.0
 11
92.523949
 21
451.86233
 31
0.0
  0
LINE
  5
365
330
1F
100
AcDbEntity
  8
LC-002-100-D00-0
 62
     7
370
    50
100
AcDbLine
 10
83.023937
 20
463.86233
 30
0.0
 11
86.023949
 21
463.86233
 31
0.0
  0
LINE
  5
366
330
1F
100
AcDbEntity
  8
LC-002-100-D00-0
 62
     7
370
    50
100
AcDbLine
 10
86.023958
 20
467.86233
 30
0.0
 11
90.523949
 21
467.86233
 31
0.0
  0
LINE
  5
367
330
1F
100
AcDbEntity
  8
LC-002-100-D00-0
 62
     7
370
    50
100
AcDbLine
 10
84.023949
 20
470.86233
 30
0.0
 11
97.373949
 21
470.86233
 31
0.0
  0
LINE
  5
368
330
1F
100
AcDbEntity
  8
LC-002-100-D00-0
 62
     7
370
    50
100
AcDbLine
 10
114.523949
 20
463.86233
 30
0.0
 11
116.523949
 21
463.86233
 31
0.0
  0
LINE
  5
369
330
1F
100
AcDbEntity
  8
LC-002-100-D00-0
 62
     7
370
    50
100
AcDbLine
 10
86.023949
 20
463.86233
 30
0.0
 11
88.023949
 21
463.86233
 31
0.0
  0
LINE
  5
36A
330
1F
100
AcDbEntity
  8
LC-002-100-D00-0
 62
     7
370
    50
100
AcDbLine
 10
88.023949
 20
463.86233
 30
0.0
 11
91.523947
 21
463.86233
 31
0.0
  0
LINE
  5
36B
330
1F
100
AcDbEntity
  8
LC-002-100-D00-0
 62
     7
370
    50
100
AcDbLine
 10
111.023935
 20
463.86233
 30
0.0
 11
114.523949
 21
463.86233
 31
0.0
  0
LINE
  5
36C
330
1F
100
AcDbEntity
  8
LC-002-100-D00-0
 62
     7
370
    50
100
AcDbLine
 10
216.473949
 20
454.631096
 30
0.0
 11
216.473949
 21
457.093564
 31
0.0
  0
ARC
  5
36D
330
1F
100
AcDbEntity
  8
LC-002-100-D00-0
 62
     7
370
    50
100
AcDbCircle
 10
217.073949
 20
454.631096
 30
0.0
 40
0.6000000000001364
100
AcDbArc
 50
180.0
 51
255.0
  0
LINE
  5
36E
330
1F
100
AcDbEntity
  8
LC-002-100-D00-0
 62
     7
370
    50
100
AcDbLine
 10
217.6248
 20
453.862329
 30
0.0
 11
216.918657
 21
454.051541
 31
0.0
  0
LINE
  5
36F
330
1F
100
AcDbEntity
  8
LC-002-100-D00-0
 62
     7
370
    50
100
AcDbLine
 10
217.6248
 20
453.862329
 30
0.0
 11
217.6248
 21
451.86233
 31
0.0
  0
LINE
  5
370
330
1F
100
AcDbEntity
  8
LC-002-100-D00-0
 62
     7
370
    50
100
AcDbLine
 10
214.673949
 20
452.86233
 30
0.0
 11
215.673949
 21
451.86233
 31
0.0
  0
LINE
  5
371
330
1F
100
AcDbEntity
  8
LC-002-100-D00-0
 62
     7
370
    50
100
AcDbLine
 10
214.673949
 20
452.86233
 30
0.0
 11
214.673953
 21
458.86233
 31
0.0
  0
LINE
  5
372
330
1F
100
AcDbEntity
  8
LC-002-100-D00-0
 62
     7
370
    50
100
AcDbLine
 10
215.673955
 20
459.86233
 30
0.0
 11
214.673953
 21
458.86233
 31
0.0
  0
LINE
  5
373
330
1F
100
AcDbEntity
  8
LC-002-100-D00-0
 62
     7
370
    50
100
AcDbLine
 10
217.6248
 20
459.86233
 30
0.0
 11
217.6248
 21
457.86233
 31
0.0
  0
LINE
  5
374
330
1F
100
AcDbEntity
  8
LC-002-100-D00-0
 62
     7
370
    50
100
AcDbLine
 10
216.918657
 20
457.673119
 30
0.0
 11
217.6248
 21
457.86233
 31
0.0
  0
ARC
  5
375
330
1F
100
AcDbEntity
  8
LC-002-100-D00-0
 62
     7
370
    50
100
AcDbCircle
 10
217.073949
 20
457.093564
 30
0.0
 40
0.600000000000118
100
AcDbArc
 50
105.0
 51
180.0
  0
LINE
  5
376
330
1F
100
AcDbEntity
  8
LC-002-100-D00-0
 62
     7
370
    50
100
AcDbLine
 10
215.673949
 20
451.86233
 30
0.0
 11
217.6248
 21
451.86233
 31
0.0
  0
LINE
  5
377
330
1F
100
AcDbEntity
  8
LC-002-100-D00-0
 62
     7
370
    50
100
AcDbLine
 10
215.673955
 20
459.86233
 30
0.0
 11
217.6248
 21
459.86233
 31
0.0
  0
LINE
  5
378
330
1F
100
AcDbEntity
  8
LC-002-100-D00-0
 62
     7
370
    50
100
AcDbLine
 10
207.873942
 20
458.86233
 30
0.0
 11
206.873955
 21
459.86233
 31
0.0
  0
LINE
  5
379
330
1F
100
AcDbEntity
  8
LC-002-100-D00-0
 62
     7
370
    50
100
AcDbLine
 10
206.873949
 20
451.86233
 30
0.0
 11
207.873949
 21
452.86233
 31
0.0
  0
LINE
  5
37A
330
1F
100
AcDbEntity
  8
LC-002-100-D00-0
 62
     7
370
    50
100
AcDbLine
 10
207.873949
 20
452.86233
 30
0.0
 11
208.031788
 21
452.86233
 31
0.0
  0
LINE
  5
37B
330
1F
100
AcDbEntity
  8
LC-002-100-D00-0
 62
     7
370
    50
100
AcDbLine
 10
214.516109
 20
452.86233
 30
0.0
 11
214.673949
 21
452.86233
 31
0.0
  0
LINE
  5
37C
330
1F
100
AcDbEntity
  8
LC-002-100-D00-0
 62
     7
370
    50
100
AcDbLine
 10
215.673949
 20
451.86233
 30
0.0
 11
215.138167
 21
451.86233
 31
0.0
  0
LINE
  5
37D
330
1F
100
AcDbEntity
  8
LC-002-100-D00-0
 62
     7
370
    50
100
AcDbLine
 10
207.40973
 20
451.86233
 30
0.0
 11
206.873949
 21
451.86233
 31
0.0
  0
LINE
  5
37E
330
1F
100
AcDbEntity
  8
LC-002-100-D00-0
 62
     7
370
    50
100
AcDbLine
 10
207.873942
 20
458.86233
 30
0.0
 11
207.873949
 21
452.86233
 31
0.0
  0
LINE
  5
37F
330
1F
100
AcDbEntity
  8
LC-002-100-D00-0
 62
     7
370
    50
100
AcDbLine
 10
206.073949
 20
457.093564
 30
0.0
 11
206.073949
 21
454.631096
 31
0.0
  0
LINE
  5
380
330
1F
100
AcDbEntity
  8
LC-002-100-D00-0
 62
     7
370
    50
100
AcDbLine
 10
204.923095
 20
453.862329
 30
0.0
 11
204.923095
 21
451.86233
 31
0.0
  0
LINE
  5
381
330
1F
100
AcDbEntity
  8
LC-002-100-D00-0
 62
     7
370
    50
100
AcDbLine
 10
205.62924
 20
454.051541
 30
0.0
 11
204.923095
 21
453.862329
 31
0.0
  0
ARC
  5
382
330
1F
100
AcDbEntity
  8
LC-002-100-D00-0
 62
     7
370
    50
100
AcDbCircle
 10
205.473949
 20
454.631096
 30
0.0
 40
0.6000000000001032
100
AcDbArc
 50
285.0
 51
0.0
  0
ARC
  5
383
330
1F
100
AcDbEntity
  8
LC-002-100-D00-0
 62
     7
370
    50
100
AcDbCircle
 10
205.473949
 20
457.093564
 30
0.0
 40
0.6000000000001364
100
AcDbArc
 50
0.0
 51
75.0
  0
LINE
  5
384
330
1F
100
AcDbEntity
  8
LC-002-100-D00-0
 62
     7
370
    50
100
AcDbLine
 10
204.923095
 20
457.86233
 30
0.0
 11
205.62924
 21
457.673119
 31
0.0
  0
LINE
  5
385
330
1F
100
AcDbEntity
  8
LC-002-100-D00-0
 62
     7
370
    50
100
AcDbLine
 10
204.923095
 20
459.86233
 30
0.0
 11
204.923095
 21
457.86233
 31
0.0
  0
LINE
  5
386
330
1F
100
AcDbEntity
  8
LC-002-100-D00-0
 62
     7
370
    50
100
AcDbLine
 10
204.923095
 20
451.86233
 30
0.0
 11
206.873949
 21
451.86233
 31
0.0
  0
LINE
  5
387
330
1F
100
AcDbEntity
  8
LC-002-100-D00-0
 62
     7
370
    50
100
AcDbLine
 10
204.923095
 20
459.86233
 30
0.0
 11
206.873955
 21
459.86233
 31
0.0
  0
LINE
  5
388
330
1F
100
AcDbEntity
  8
LC-002-100-D00-0
 62
     7
370
    50
100
AcDbLine
 10
217.6248
 20
459.86233
 30
0.0
 11
215.173947
 21
459.86233
 31
0.0
  0
LINE
  5
389
330
1F
100
AcDbEntity
  8
LC-002-100-D00-0
 62
     7
370
    50
100
AcDbLine
 10
215.173947
 20
459.86233
 30
0.0
 11
215.173949
 21
470.86233
 31
0.0
  0
LINE
  5
38A
330
1F
100
AcDbEntity
  8
LC-002-100-D00-0
 62
     7
370
    50
100
AcDbLine
 10
215.173949
 20
470.86233
 30
0.0
 11
228.523949
 21
470.86233
 31
0.0
  0
ARC
  5
38B
330
1F
100
AcDbEntity
  8
LC-002-100-D00-0
 62
     7
370
    50
100
AcDbCircle
 10
228.523949
 20
469.86233
 30
0.0
 40
0.9999999999999432
100
AcDbArc
 50
0.0
 51
90.0
  0
LINE
  5
38C
330
1F
100
AcDbEntity
  8
LC-002-100-D00-0
 62
     7
370
    50
100
AcDbLine
 10
229.523949
 20
469.86233
 30
0.0
 11
229.523944
 21
463.86233
 31
0.0
  0
LINE
  5
38D
330
1F
100
AcDbEntity
  8
LC-002-100-D00-0
 62
     7
370
    50
100
AcDbLine
 10
226.523949
 20
463.86233
 30
0.0
 11
229.523944
 21
463.86233
 31
0.0
  0
LINE
  5
38E
330
1F
100
AcDbEntity
  8
LC-002-100-D00-0
 62
     7
370
    50
100
AcDbLine
 10
226.523949
 20
463.86233
 30
0.0
 11
226.523953
 21
467.86233
 31
0.0
  0
LINE
  5
38F
330
1F
100
AcDbEntity
  8
LC-002-100-D00-0
 62
     7
370
    50
100
AcDbLine
 10
222.023949
 20
467.86233
 30
0.0
 11
226.523953
 21
467.86233
 31
0.0
  0
ARC
  5
390
330
1F
100
AcDbEntity
  8
LC-002-100-D00-0
 62
     7
370
    50
100
AcDbCircle
 10
222.023949
 20
466.86233
 30
0.0
 40
1.0
100
AcDbArc
 50
90.0
 51
180.0
  0
LINE
  5
391
330
1F
100
AcDbEntity
  8
LC-002-100-D00-0
 62
     7
370
    50
100
AcDbLine
 10
221.023949
 20
452.86233
 30
0.0
 11
221.023949
 21
466.86233
 31
0.0
  0
ARC
  5
392
330
1F
100
AcDbEntity
  8
LC-002-100-D00-0
 62
     7
370
    50
100
AcDbCircle
 10
220.023949
 20
452.86233
 30
0.0
 40
1.0
100
AcDbArc
 50
270.0
 51
0.0
  0
LINE
  5
393
330
1F
100
AcDbEntity
  8
LC-002-100-D00-0
 62
     7
370
    50
100
AcDbLine
 10
220.023949
 20
451.86233
 30
0.0
 11
217.6248
 21
451.86233
 31
0.0
  0
LINE
  5
394
330
1F
100
AcDbEntity
  8
LC-002-100-D00-0
 62
     7
370
    50
100
AcDbLine
 10
217.6248
 20
453.862329
 30
0.0
 11
217.6248
 21
451.86233
 31
0.0
  0
LINE
  5
395
330
1F
100
AcDbEntity
  8
LC-002-100-D00-0
 62
     7
370
    50
100
AcDbLine
 10
216.973949
 20
453.86233
 30
0.0
 11
217.6248
 21
453.862329
 31
0.0
  0
ARC
  5
396
330
1F
100
AcDbEntity
  8
LC-002-100-D00-0
 62
     7
370
    50
100
AcDbCircle
 10
216.973949
 20
454.36233
 30
0.0
 40
0.5
100
AcDbArc
 50
180.0
 51
270.0
  0
LINE
  5
397
330
1F
100
AcDbEntity
  8
LC-002-100-D00-0
 62
     7
370
    50
100
AcDbLine
 10
216.473949
 20
457.36233
 30
0.0
 11
216.473949
 21
454.36233
 31
0.0
  0
ARC
  5
398
330
1F
100
AcDbEntity
  8
LC-002-100-D00-0
 62
     7
370
    50
100
AcDbCircle
 10
216.973949
 20
457.36233
 30
0.0
 40
0.5
100
AcDbArc
 50
90.0
 51
180.0
  0
LINE
  5
399
330
1F
100
AcDbEntity
  8
LC-002-100-D00-0
 62
     7
370
    50
100
AcDbLine
 10
217.6248
 20
457.86233
 30
0.0
 11
216.973949
 21
457.86233
 31
0.0
  0
LINE
  5
39A
330
1F
100
AcDbEntity
  8
LC-002-100-D00-0
 62
     7
370
    50
100
AcDbLine
 10
217.6248
 20
459.86233
 30
0.0
 11
217.6248
 21
457.86233
 31
0.0
  0
ARC
  5
39B
330
1F
100
AcDbEntity
  8
LC-002-100-D00-0
 62
     7
370
    50
100
AcDbCircle
 10
200.523949
 20
466.86233
 30
0.0
 40
1.000000000000114
100
AcDbArc
 50
0.0
 51
90.0
  0
ARC
  5
39C
330
1F
100
AcDbEntity
  8
LC-002-100-D00-0
 62
     7
370
    50
100
AcDbCircle
 10
202.523949
 20
452.86233
 30
0.0
 40
1.0
100
AcDbArc
 50
180.0
 51
270.0
  0
LINE
  5
39D
330
1F
100
AcDbEntity
  8
LC-002-100-D00-0
 62
     7
370
    50
100
AcDbLine
 10
201.523949
 20
466.86233
 30
0.0
 11
201.523949
 21
452.86233
 31
0.0
  0
LINE
  5
39E
330
1F
100
AcDbEntity
  8
LC-002-100-D00-0
 62
     7
370
    50
100
AcDbLine
 10
207.373949
 20
470.86233
 30
0.0
 11
207.373949
 21
459.86233
 31
0.0
  0
LINE
  5
39F
330
1F
100
AcDbEntity
  8
LC-002-100-D00-0
 62
     7
370
    50
100
AcDbLine
 10
207.373949
 20
470.86233
 30
0.0
 11
215.173949
 21
470.86233
 31
0.0
  0
LINE
  5
3A0
330
1F
100
AcDbEntity
  8
LC-002-100-D00-0
 62
     7
370
    50
100
AcDbLine
 10
206.073949
 20
454.36233
 30
0.0
 11
206.073949
 21
457.36233
 31
0.0
  0
ARC
  5
3A1
330
1F
100
AcDbEntity
  8
LC-002-100-D00-0
 62
     7
370
    50
100
AcDbCircle
 10
205.573949
 20
454.36233
 30
0.0
 40
0.5
100
AcDbArc
 50
270.0
 51
0.0
  0
LINE
  5
3A2
330
1F
100
AcDbEntity
  8
LC-002-100-D00-0
 62
     7
370
    50
100
AcDbLine
 10
204.923095
 20
453.862329
 30
0.0
 11
205.573949
 21
453.86233
 31
0.0
  0
LINE
  5
3A3
330
1F
100
AcDbEntity
  8
LC-002-100-D00-0
 62
     7
370
    50
100
AcDbLine
 10
204.923095
 20
453.862329
 30
0.0
 11
204.923095
 21
451.86233
 31
0.0
  0
LINE
  5
3A4
330
1F
100
AcDbEntity
  8
LC-002-100-D00-0
 62
     7
370
    50
100
AcDbLine
 10
196.023943
 20
467.86233
 30
0.0
 11
196.023949
 21
463.86233
 31
0.0
  0
LINE
  5
3A5
330
1F
100
AcDbEntity
  8
LC-002-100-D00-0
 62
     7
370
    50
100
AcDbLine
 10
193.023952
 20
463.86233
 30
0.0
 11
193.023949
 21
469.86233
 31
0.0
  0
ARC
  5
3A6
330
1F
100
AcDbEntity
  8
LC-002-100-D00-0
 62
     7
370
    50
100
AcDbCircle
 10
194.023949
 20
469.86233
 30
0.0
 40
0.9999999999997726
100
AcDbArc
 50
90.0
 51
180.0
  0
LINE
  5
3A7
330
1F
100
AcDbEntity
  8
LC-002-100-D00-0
 62
     7
370
    50
100
AcDbLine
 10
204.923095
 20
459.86233
 30
0.0
 11
204.923095
 21
457.86233
 31
0.0
  0
LINE
  5
3A8
330
1F
100
AcDbEntity
  8
LC-002-100-D00-0
 62
     7
370
    50
100
AcDbLine
 10
205.573949
 20
457.86233
 30
0.0
 11
204.923095
 21
457.86233
 31
0.0
  0
ARC
  5
3A9
330
1F
100
AcDbEntity
  8
LC-002-100-D00-0
 62
     7
370
    50
100
AcDbCircle
 10
205.573949
 20
457.36233
 30
0.0
 40
0.4999999999999432
100
AcDbArc
 50
0.0
 51
90.0
  0
LINE
  5
3AA
330
1F
100
AcDbEntity
  8
LC-002-100-D00-0
 62
     7
370
    50
100
AcDbLine
 10
207.373949
 20
459.86233
 30
0.0
 11
204.923095
 21
459.86233
 31
0.0
  0
LINE
  5
3AB
330
1F
100
AcDbEntity
  8
LC-002-100-D00-0
 62
     7
370
    50
100
AcDbLine
 10
204.923095
 20
451.86233
 30
0.0
 11
202.523949
 21
451.86233
 31
0.0
  0
LINE
  5
3AC
330
1F
100
AcDbEntity
  8
LC-002-100-D00-0
 62
     7
370
    50
100
AcDbLine
 10
196.023943
 20
467.86233
 30
0.0
 11
200.523949
 21
467.86233
 31
0.0
  0
LINE
  5
3AD
330
1F
100
AcDbEntity
  8
LC-002-100-D00-0
 62
     7
370
    50
100
AcDbLine
 10
194.023949
 20
470.86233
 30
0.0
 11
207.373949
 21
470.86233
 31
0.0
  0
LINE
  5
3AE
330
1F
100
AcDbEntity
  8
LC-002-100-D00-0
 62
     7
370
    50
100
AcDbLine
 10
193.023952
 20
463.86233
 30
0.0
 11
196.023949
 21
463.86233
 31
0.0
  0
LINE
  5
3AF
330
1F
100
AcDbEntity
  8
LC-002-100-D00-0
 62
     7
370
    50
100
AcDbLine
 10
224.523949
 20
463.86233
 30
0.0
 11
226.523949
 21
463.86233
 31
0.0
  0
LINE
  5
3B0
330
1F
100
AcDbEntity
  8
LC-002-100-D00-0
 62
     7
370
    50
100
AcDbLine
 10
196.023949
 20
463.86233
 30
0.0
 11
198.023949
 21
463.86233
 31
0.0
  0
LINE
  5
3B1
330
1F
100
AcDbEntity
  8
LC-002-100-D00-0
 62
     7
370
    50
100
AcDbLine
 10
198.023949
 20
463.86233
 30
0.0
 11
201.523947
 21
463.86233
 31
0.0
  0
LINE
  5
3B2
330
1F
100
AcDbEntity
  8
LC-002-100-D00-0
 62
     7
370
    50
100
AcDbLine
 10
221.023949
 20
463.86233
 30
0.0
 11
224.523949
 21
463.86233
 31
0.0
  0
LINE
  5
3B3
330
1F
100
AcDbEntity
  8
LC-002-100-D00-0
 62
     7
370
    50
100
AcDbLine
 10
746.473949
 20
454.631096
 30
0.0
 11
746.473949
 21
457.093564
 31
0.0
  0
ARC
  5
3B4
330
1F
100
AcDbEntity
  8
LC-002-100-D00-0
 62
     7
370
    50
100
AcDbCircle
 10
747.073949
 20
454.631096
 30
0.0
 40
0.6000000000001364
100
AcDbArc
 50
180.0
 51
255.0
  0
LINE
  5
3B5
330
1F
100
AcDbEntity
  8
LC-002-100-D00-0
 62
     7
370
    50
100
AcDbLine
 10
747.624816
 20
453.862329
 30
0.0
 11
746.918657
 21
454.051541
 31
0.0
  0
LINE
  5
3B6
330
1F
100
AcDbEntity
  8
LC-002-100-D00-0
 62
     7
370
    50
100
AcDbLine
 10
747.624816
 20
453.862329
 30
0.0
 11
747.624816
 21
451.86233
 31
0.0
  0
LINE
  5
3B7
330
1F
100
AcDbEntity
  8
LC-002-100-D00-0
 62
     7
370
    50
100
AcDbLine
 10
744.673949
 20
452.86233
 30
0.0
 11
745.673949
 21
451.86233
 31
0.0
  0
LINE
  5
3B8
330
1F
100
AcDbEntity
  8
LC-002-100-D00-0
 62
     7
370
    50
100
AcDbLine
 10
744.673949
 20
452.86233
 30
0.0
 11
744.673939
 21
458.86233
 31
0.0
  0
LINE
  5
3B9
330
1F
100
AcDbEntity
  8
LC-002-100-D00-0
 62
     7
370
    50
100
AcDbLine
 10
745.673956
 20
459.86233
 30
0.0
 11
744.673939
 21
458.86233
 31
0.0
  0
LINE
  5
3BA
330
1F
100
AcDbEntity
  8
LC-002-100-D00-0
 62
     7
370
    50
100
AcDbLine
 10
747.624816
 20
459.86233
 30
0.0
 11
747.624816
 21
457.86233
 31
0.0
  0
LINE
  5
3BB
330
1F
100
AcDbEntity
  8
LC-002-100-D00-0
 62
     7
370
    50
100
AcDbLine
 10
746.918657
 20
457.673119
 30
0.0
 11
747.624816
 21
457.86233
 31
0.0
  0
ARC
  5
3BC
330
1F
100
AcDbEntity
  8
LC-002-100-D00-0
 62
     7
370
    50
100
AcDbCircle
 10
747.073949
 20
457.093564
 30
0.0
 40
0.6000000000001474
100
AcDbArc
 50
105.0
 51
180.0
  0
LINE
  5
3BD
330
1F
100
AcDbEntity
  8
LC-002-100-D00-0
 62
     7
370
    50
100
AcDbLine
 10
745.673949
 20
451.86233
 30
0.0
 11
747.624816
 21
451.86233
 31
0.0
  0
LINE
  5
3BE
330
1F
100
AcDbEntity
  8
LC-002-100-D00-0
 62
     7
370
    50
100
AcDbLine
 10
745.673956
 20
459.86233
 30
0.0
 11
747.624816
 21
459.86233
 31
0.0
  0
LINE
  5
3BF
330
1F
100
AcDbEntity
  8
LC-002-100-D00-0
 62
     7
370
    50
100
AcDbLine
 10
736.073949
 20
457.093564
 30
0.0
 11
736.073949
 21
454.631096
 31
0.0
  0
LINE
  5
3C0
330
1F
100
AcDbEntity
  8
LC-002-100-D00-0
 62
     7
370
    50
100
AcDbLine
 10
737.873944
 20
458.86233
 30
0.0
 11
736.873956
 21
459.86233
 31
0.0
  0
LINE
  5
3C1
330
1F
100
AcDbEntity
  8
LC-002-100-D00-0
 62
     7
370
    50
100
AcDbLine
 10
737.873944
 20
458.86233
 30
0.0
 11
737.873949
 21
452.86233
 31
0.0
  0
LINE
  5
3C2
330
1F
100
AcDbEntity
  8
LC-002-100-D00-0
 62
     7
370
    50
100
AcDbLine
 10
736.873949
 20
451.86233
 30
0.0
 11
737.873949
 21
452.86233
 31
0.0
  0
LINE
  5
3C3
330
1F
100
AcDbEntity
  8
LC-002-100-D00-0
 62
     7
370
    50
100
AcDbLine
 10
734.923096
 20
453.862329
 30
0.0
 11
734.923096
 21
451.86233
 31
0.0
  0
LINE
  5
3C4
330
1F
100
AcDbEntity
  8
LC-002-100-D00-0
 62
     7
370
    50
100
AcDbLine
 10
735.62924
 20
454.051541
 30
0.0
 11
734.923096
 21
453.862329
 31
0.0
  0
ARC
  5
3C5
330
1F
100
AcDbEntity
  8
LC-002-100-D00-0
 62
     7
370
    50
100
AcDbCircle
 10
735.473949
 20
454.631096
 30
0.0
 40
0.600000000000118
100
AcDbArc
 50
285.0
 51
0.0
  0
ARC
  5
3C6
330
1F
100
AcDbEntity
  8
LC-002-100-D00-0
 62
     7
370
    50
100
AcDbCircle
 10
735.473949
 20
457.093564
 30
0.0
 40
0.6000000000001364
100
AcDbArc
 50
0.0
 51
75.0
  0
LINE
  5
3C7
330
1F
100
AcDbEntity
  8
LC-002-100-D00-0
 62
     7
370
    50
100
AcDbLine
 10
734.923096
 20
457.86233
 30
0.0
 11
735.62924
 21
457.673119
 31
0.0
  0
LINE
  5
3C8
330
1F
100
AcDbEntity
  8
LC-002-100-D00-0
 62
     7
370
    50
100
AcDbLine
 10
734.923096
 20
459.86233
 30
0.0
 11
734.923096
 21
457.86233
 31
0.0
  0
LINE
  5
3C9
330
1F
100
AcDbEntity
  8
LC-002-100-D00-0
 62
     7
370
    50
100
AcDbLine
 10
734.923096
 20
451.86233
 30
0.0
 11
736.873949
 21
451.86233
 31
0.0
  0
LINE
  5
3CA
330
1F
100
AcDbEntity
  8
LC-002-100-D00-0
 62
     7
370
    50
100
AcDbLine
 10
734.923096
 20
459.86233
 30
0.0
 11
736.873956
 21
459.86233
 31
0.0
  0
LINE
  5
3CB
330
1F
100
AcDbEntity
  8
LC-002-100-D00-0
 62
     7
370
    50
100
AcDbLine
 10
737.873949
 20
452.86233
 30
0.0
 11
738.031788
 21
452.86233
 31
0.0
  0
LINE
  5
3CC
330
1F
100
AcDbEntity
  8
LC-002-100-D00-0
 62
     7
370
    50
100
AcDbLine
 10
744.516109
 20
452.86233
 30
0.0
 11
744.673949
 21
452.86233
 31
0.0
  0
LINE
  5
3CD
330
1F
100
AcDbEntity
  8
LC-002-100-D00-0
 62
     7
370
    50
100
AcDbLine
 10
745.673949
 20
451.86233
 30
0.0
 11
745.138167
 21
451.86233
 31
0.0
  0
LINE
  5
3CE
330
1F
100
AcDbEntity
  8
LC-002-100-D00-0
 62
     7
370
    50
100
AcDbLine
 10
737.40973
 20
451.86233
 30
0.0
 11
736.873949
 21
451.86233
 31
0.0
  0
LINE
  5
3CF
330
1F
100
AcDbEntity
  8
LC-002-100-D00-0
 62
     7
370
    50
100
AcDbLine
 10
747.624816
 20
459.86233
 30
0.0
 11
745.173963
 21
459.86233
 31
0.0
  0
LINE
  5
3D0
330
1F
100
AcDbEntity
  8
LC-002-100-D00-0
 62
     7
370
    50
100
AcDbLine
 10
745.173963
 20
459.86233
 30
0.0
 11
745.173949
 21
470.86233
 31
0.0
  0
LINE
  5
3D1
330
1F
100
AcDbEntity
  8
LC-002-100-D00-0
 62
     7
370
    50
100
AcDbLine
 10
745.173949
 20
470.86233
 30
0.0
 11
758.523949
 21
470.86233
 31
0.0
  0
ARC
  5
3D2
330
1F
100
AcDbEntity
  8
LC-002-100-D00-0
 62
     7
370
    50
100
AcDbCircle
 10
758.523949
 20
469.86233
 30
0.0
 40
1.0
100
AcDbArc
 50
0.0
 51
90.0
  0
LINE
  5
3D3
330
1F
100
AcDbEntity
  8
LC-002-100-D00-0
 62
     7
370
    50
100
AcDbLine
 10
759.523949
 20
469.86233
 30
0.0
 11
759.52396
 21
463.86233
 31
0.0
  0
LINE
  5
3D4
330
1F
100
AcDbEntity
  8
LC-002-100-D00-0
 62
     7
370
    50
100
AcDbLine
 10
756.523949
 20
463.86233
 30
0.0
 11
759.52396
 21
463.86233
 31
0.0
  0
LINE
  5
3D5
330
1F
100
AcDbEntity
  8
LC-002-100-D00-0
 62
     7
370
    50
100
AcDbLine
 10
756.523949
 20
463.86233
 30
0.0
 11
756.523939
 21
467.86233
 31
0.0
  0
LINE
  5
3D6
330
1F
100
AcDbEntity
  8
LC-002-100-D00-0
 62
     7
370
    50
100
AcDbLine
 10
752.023949
 20
467.86233
 30
0.0
 11
756.523939
 21
467.86233
 31
0.0
  0
ARC
  5
3D7
330
1F
100
AcDbEntity
  8
LC-002-100-D00-0
 62
     7
370
    50
100
AcDbCircle
 10
752.023949
 20
466.86233
 30
0.0
 40
1.0
100
AcDbArc
 50
90.0
 51
180.0
  0
LINE
  5
3D8
330
1F
100
AcDbEntity
  8
LC-002-100-D00-0
 62
     7
370
    50
100
AcDbLine
 10
751.023949
 20
452.86233
 30
0.0
 11
751.023949
 21
466.86233
 31
0.0
  0
ARC
  5
3D9
330
1F
100
AcDbEntity
  8
LC-002-100-D00-0
 62
     7
370
    50
100
AcDbCircle
 10
750.023949
 20
452.86233
 30
0.0
 40
1.000000000000227
100
AcDbArc
 50
270.0
 51
0.0
  0
LINE
  5
3DA
330
1F
100
AcDbEntity
  8
LC-002-100-D00-0
 62
     7
370
    50
100
AcDbLine
 10
750.023949
 20
451.86233
 30
0.0
 11
747.624816
 21
451.86233
 31
0.0
  0
LINE
  5
3DB
330
1F
100
AcDbEntity
  8
LC-002-100-D00-0
 62
     7
370
    50
100
AcDbLine
 10
747.624816
 20
453.862329
 30
0.0
 11
747.624816
 21
451.86233
 31
0.0
  0
LINE
  5
3DC
330
1F
100
AcDbEntity
  8
LC-002-100-D00-0
 62
     7
370
    50
100
AcDbLine
 10
746.973949
 20
453.86233
 30
0.0
 11
747.624816
 21
453.862329
 31
0.0
  0
ARC
  5
3DD
330
1F
100
AcDbEntity
  8
LC-002-100-D00-0
 62
     7
370
    50
100
AcDbCircle
 10
746.973949
 20
454.36233
 30
0.0
 40
0.5000000000002274
100
AcDbArc
 50
180.0
 51
270.0
  0
LINE
  5
3DE
330
1F
100
AcDbEntity
  8
LC-002-100-D00-0
 62
     7
370
    50
100
AcDbLine
 10
746.473949
 20
457.36233
 30
0.0
 11
746.473949
 21
454.36233
 31
0.0
  0
ARC
  5
3DF
330
1F
100
AcDbEntity
  8
LC-002-100-D00-0
 62
     7
370
    50
100
AcDbCircle
 10
746.973949
 20
457.36233
 30
0.0
 40
0.5
100
AcDbArc
 50
90.0
 51
180.0
  0
LINE
  5
3E0
330
1F
100
AcDbEntity
  8
LC-002-100-D00-0
 62
     7
370
    50
100
AcDbLine
 10
747.624816
 20
457.86233
 30
0.0
 11
746.973949
 21
457.86233
 31
0.0
  0
LINE
  5
3E1
330
1F
100
AcDbEntity
  8
LC-002-100-D00-0
 62
     7
370
    50
100
AcDbLine
 10
747.624816
 20
459.86233
 30
0.0
 11
747.624816
 21
457.86233
 31
0.0
  0
ARC
  5
3E2
330
1F
100
AcDbEntity
  8
LC-002-100-D00-0
 62
     7
370
    50
100
AcDbCircle
 10
730.523949
 20
466.86233
 30
0.0
 40
1.000000000000114
100
AcDbArc
 50
0.0
 51
90.0
  0
ARC
  5
3E3
330
1F
100
AcDbEntity
  8
LC-002-100-D00-0
 62
     7
370
    50
100
AcDbCircle
 10
732.523949
 20
452.86233
 30
0.0
 40
0.9999999999998863
100
AcDbArc
 50
180.0
 51
270.0
  0
LINE
  5
3E4
330
1F
100
AcDbEntity
  8
LC-002-100-D00-0
 62
     7
370
    50
100
AcDbLine
 10
731.523949
 20
466.86233
 30
0.0
 11
731.523949
 21
452.86233
 31
0.0
  0
LINE
  5
3E5
330
1F
100
AcDbEntity
  8
LC-002-100-D00-0
 62
     7
370
    50
100
AcDbLine
 10
736.073949
 20
454.36233
 30
0.0
 11
736.073949
 21
457.36233
 31
0.0
  0
LINE
  5
3E6
330
1F
100
AcDbEntity
  8
LC-002-100-D00-0
 62
     7
370
    50
100
AcDbLine
 10
737.373949
 20
470.86233
 30
0.0
 11
737.37395
 21
459.86233
 31
0.0
  0
LINE
  5
3E7
330
1F
100
AcDbEntity
  8
LC-002-100-D00-0
 62
     7
370
    50
100
AcDbLine
 10
737.373949
 20
470.86233
 30
0.0
 11
745.173949
 21
470.86233
 31
0.0
  0
LINE
  5
3E8
330
1F
100
AcDbEntity
  8
LC-002-100-D00-0
 62
     7
370
    50
100
AcDbLine
 10
734.923096
 20
453.862329
 30
0.0
 11
734.923096
 21
451.86233
 31
0.0
  0
LINE
  5
3E9
330
1F
100
AcDbEntity
  8
LC-002-100-D00-0
 62
     7
370
    50
100
AcDbLine
 10
734.923096
 20
459.86233
 30
0.0
 11
734.923096
 21
457.86233
 31
0.0
  0
ARC
  5
3EA
330
1F
100
AcDbEntity
  8
LC-002-100-D00-0
 62
     7
370
    50
100
AcDbCircle
 10
735.573949
 20
454.36233
 30
0.0
 40
0.5000000000002274
100
AcDbArc
 50
270.0
 51
0.0
  0
LINE
  5
3EB
330
1F
100
AcDbEntity
  8
LC-002-100-D00-0
 62
     7
370
    50
100
AcDbLine
 10
734.923096
 20
453.862329
 30
0.0
 11
735.573949
 21
453.86233
 31
0.0
  0
LINE
  5
3EC
330
1F
100
AcDbEntity
  8
LC-002-100-D00-0
 62
     7
370
    50
100
AcDbLine
 10
726.023944
 20
467.86233
 30
0.0
 11
726.023949
 21
463.86233
 31
0.0
  0
LINE
  5
3ED
330
1F
100
AcDbEntity
  8
LC-002-100-D00-0
 62
     7
370
    50
100
AcDbLine
 10
723.023953
 20
463.86233
 30
0.0
 11
723.023949
 21
469.86233
 31
0.0
  0
ARC
  5
3EE
330
1F
100
AcDbEntity
  8
LC-002-100-D00-0
 62
     7
370
    50
100
AcDbCircle
 10
724.023949
 20
469.86233
 30
0.0
 40
0.9999999999997726
100
AcDbArc
 50
90.0
 51
180.0
  0
LINE
  5
3EF
330
1F
100
AcDbEntity
  8
LC-002-100-D00-0
 62
     7
370
    50
100
AcDbLine
 10
735.573949
 20
457.86233
 30
0.0
 11
734.923096
 21
457.86233
 31
0.0
  0
ARC
  5
3F0
330
1F
100
AcDbEntity
  8
LC-002-100-D00-0
 62
     7
370
    50
100
AcDbCircle
 10
735.573949
 20
457.36233
 30
0.0
 40
0.5
100
AcDbArc
 50
0.0
 51
90.0
  0
LINE
  5
3F1
330
1F
100
AcDbEntity
  8
LC-002-100-D00-0
 62
     7
370
    50
100
AcDbLine
 10
737.37395
 20
459.86233
 30
0.0
 11
734.923096
 21
459.86233
 31
0.0
  0
LINE
  5
3F2
330
1F
100
AcDbEntity
  8
LC-002-100-D00-0
 62
     7
370
    50
100
AcDbLine
 10
734.923096
 20
451.86233
 30
0.0
 11
732.523949
 21
451.86233
 31
0.0
  0
LINE
  5
3F3
330
1F
100
AcDbEntity
  8
LC-002-100-D00-0
 62
     7
370
    50
100
AcDbLine
 10
723.023953
 20
463.86233
 30
0.0
 11
726.023949
 21
463.86233
 31
0.0
  0
LINE
  5
3F4
330
1F
100
AcDbEntity
  8
LC-002-100-D00-0
 62
     7
370
    50
100
AcDbLine
 10
726.023944
 20
467.86233
 30
0.0
 11
730.523949
 21
467.86233
 31
0.0
  0
LINE
  5
3F5
330
1F
100
AcDbEntity
  8
LC-002-100-D00-0
 62
     7
370
    50
100
AcDbLine
 10
724.023949
 20
470.86233
 30
0.0
 11
737.373949
 21
470.86233
 31
0.0
  0
LINE
  5
3F6
330
1F
100
AcDbEntity
  8
LC-002-100-D00-0
 62
     7
370
    50
100
AcDbLine
 10
754.523949
 20
463.86233
 30
0.0
 11
756.523949
 21
463.86233
 31
0.0
  0
LINE
  5
3F7
330
1F
100
AcDbEntity
  8
LC-002-100-D00-0
 62
     7
370
    50
100
AcDbLine
 10
726.023949
 20
463.86233
 30
0.0
 11
728.023949
 21
463.86233
 31
0.0
  0
LINE
  5
3F8
330
1F
100
AcDbEntity
  8
LC-002-100-D00-0
 62
     7
370
    50
100
AcDbLine
 10
728.023949
 20
463.86233
 30
0.0
 11
731.523963
 21
463.86233
 31
0.0
  0
LINE
  5
3F9
330
1F
100
AcDbEntity
  8
LC-002-100-D00-0
 62
     7
370
    50
100
AcDbLine
 10
751.02395
 20
463.86233
 30
0.0
 11
754.523949
 21
463.86233
 31
0.0
  0
LINE
  5
3FA
330
1F
100
AcDbEntity
  8
LC-002-100-D00-0
 62
     7
370
    50
100
AcDbLine
 10
476.902085
 20
440.113027
 30
0.0
 11
479.908869
 21
440.781201
 31
0.0
  0
ARC
  5
3FB
330
1F
100
AcDbEntity
  8
LC-002-100-D00-0
 62
     7
370
    50
100
AcDbCircle
 10
476.837006
 20
440.405883
 30
0.0
 40
0.3000000000000965
100
AcDbArc
 50
131.633539
 51
282.528808
  0
LINE
  5
3FC
330
1F
100
AcDbEntity
  8
LC-002-100-D00-0
 62
     7
370
    50
100
AcDbLine
 10
479.989784
 20
443.609739
 30
0.0
 11
476.637696
 21
440.630106
 31
0.0
  0
ARC
  5
3FD
330
1F
100
AcDbEntity
  8
LC-002-100-D00-0
 62
     7
370
    50
100
AcDbCircle
 10
480.654148
 20
442.86233
 30
0.0
 40
0.9999999999997726
100
AcDbArc
 50
90.0
 51
131.633539
  0
LINE
  5
3FE
330
1F
100
AcDbEntity
  8
LC-002-100-D00-0
 62
     7
370
    50
100
AcDbLine
 10
486.273946
 20
443.862329
 30
0.0
 11
486.273946
 21
439.86233
 31
0.0
  0
LINE
  5
3FF
330
1F
100
AcDbEntity
  8
LC-002-100-D00-0
 62
     7
370
    50
100
AcDbLine
 10
480.273949
 20
440.488345
 30
0.0
 11
480.273949
 21
439.86233
 31
0.0
  0
ARC
  5
400
330
1F
100
AcDbEntity
  8
LC-002-100-D00-0
 62
     7
370
    50
100
AcDbCircle
 10
479.973949
 20
440.488345
 30
0.0
 40
0.3000000000001819
100
AcDbArc
 50
0.0
 51
102.528808
  0
LINE
  5
401
330
1F
100
AcDbEntity
  8
LC-002-100-D00-0
 62
     7
370
    50
100
AcDbLine
 10
486.273946
 20
443.862329
 30
0.0
 11
480.654148
 21
443.86233
 31
0.0
  0
LINE
  5
402
330
1F
100
AcDbEntity
  8
LC-002-100-D00-0
 62
     7
370
    50
100
AcDbLine
 10
486.273946
 20
439.86233
 30
0.0
 11
480.273949
 21
439.86233
 31
0.0
  0
LINE
  5
403
330
1F
100
AcDbEntity
  8
LC-002-100-D00-0
 62
     7
370
    50
100
AcDbLine
 10
480.273949
 20
439.86233
 30
0.0
 11
478.073949
 21
439.86233
 31
0.0
  0
LINE
  5
404
330
1F
100
AcDbEntity
  8
LC-002-100-D00-0
 62
     7
370
    50
100
AcDbLine
 10
362.273949
 20
439.86233
 30
0.0
 11
362.273949
 21
440.488345
 31
0.0
  0
LINE
  5
405
330
1F
100
AcDbEntity
  8
LC-002-100-D00-0
 62
     7
370
    50
100
AcDbLine
 10
364.473949
 20
439.86233
 30
0.0
 11
362.273949
 21
439.86233
 31
0.0
  0
LINE
  5
406
330
1F
100
AcDbEntity
  8
LC-002-100-D00-0
 62
     7
370
    50
100
AcDbLine
 10
362.639028
 20
440.781201
 30
0.0
 11
365.645813
 21
440.113027
 31
0.0
  0
LINE
  5
407
330
1F
100
AcDbEntity
  8
LC-002-100-D00-0
 62
     7
370
    50
100
AcDbLine
 10
365.910201
 20
440.630106
 30
0.0
 11
362.558113
 21
443.609739
 31
0.0
  0
ARC
  5
408
330
1F
100
AcDbEntity
  8
LC-002-100-D00-0
 62
     7
370
    50
100
AcDbCircle
 10
362.573949
 20
440.488345
 30
0.0
 40
0.3000000000001588
100
AcDbArc
 50
77.471192
 51
180.0
  0
ARC
  5
409
330
1F
100
AcDbEntity
  8
LC-002-100-D00-0
 62
     7
370
    50
100
AcDbCircle
 10
361.893749
 20
442.86233
 30
0.0
 40
0.9999999999999
100
AcDbArc
 50
48.366461
 51
90.0
  0
ARC
  5
40A
330
1F
100
AcDbEntity
  8
LC-002-100-D00-0
 62
     7
370
    50
100
AcDbCircle
 10
365.710892
 20
440.405883
 30
0.0
 40
0.3000000000000478
100
AcDbArc
 50
257.471192
 51
48.366461
  0
LINE
  5
40B
330
1F
100
AcDbEntity
  8
LC-002-100-D00-0
 62
     7
370
    50
100
AcDbLine
 10
356.273951
 20
439.86233
 30
0.0
 11
356.273951
 21
443.862329
 31
0.0
  0
LINE
  5
40C
330
1F
100
AcDbEntity
  8
LC-002-100-D00-0
 62
     7
370
    50
100
AcDbLine
 10
361.893749
 20
443.86233
 30
0.0
 11
356.273951
 21
443.862329
 31
0.0
  0
LINE
  5
40D
330
1F
100
AcDbEntity
  8
LC-002-100-D00-0
 62
     7
370
    50
100
AcDbLine
 10
362.273949
 20
439.86233
 30
0.0
 11
356.273951
 21
439.86233
 31
0.0
  0
LINE
  5
40E
330
1F
100
AcDbEntity
  8
LC-002-100-D00-0
 62
     7
370
    50
100
AcDbLine
 10
495.27395
 20
443.862329
 30
0.0
 11
495.27395
 21
440.112329
 31
0.0
  0
LINE
  5
40F
330
1F
100
AcDbEntity
  8
LC-002-100-D00-0
 62
     7
370
    50
100
AcDbLine
 10
492.273951
 20
440.862331
 30
0.0
 11
492.273949
 21
440.11233
 31
0.0
  0
LINE
  5
410
330
1F
100
AcDbEntity
  8
LC-002-100-D00-0
 62
     7
370
    50
100
AcDbLine
 10
489.273952
 20
440.862331
 30
0.0
 11
489.273952
 21
436.862328
 31
0.0
  0
LINE
  5
411
330
1F
100
AcDbEntity
  8
LC-002-100-D00-0
 62
     7
370
    50
100
AcDbLine
 10
483.273949
 20
436.86233
 30
0.0
 11
489.273952
 21
436.862328
 31
0.0
  0
LINE
  5
412
330
1F
100
AcDbEntity
  8
LC-002-100-D00-0
 62
     7
370
    50
100
AcDbLine
 10
483.273948
 20
439.86233
 30
0.0
 11
483.273949
 21
436.86233
 31
0.0
  0
LINE
  5
413
330
1F
100
AcDbEntity
  8
LC-002-100-D00-0
 62
     7
370
    50
100
AcDbLine
 10
486.273946
 20
439.86233
 30
0.0
 11
483.273948
 21
439.86233
 31
0.0
  0
LINE
  5
414
330
1F
100
AcDbEntity
  8
LC-002-100-D00-0
 62
     7
370
    50
100
AcDbLine
 10
486.273946
 20
439.86233
 30
0.0
 11
486.273946
 21
443.862329
 31
0.0
  0
LINE
  5
415
330
1F
100
AcDbEntity
  8
LC-002-100-D00-0
 62
     7
370
    50
100
AcDbLine
 10
489.273952
 20
440.862331
 30
0.0
 11
492.273951
 21
440.862331
 31
0.0
  0
LINE
  5
416
330
1F
100
AcDbEntity
  8
LC-002-100-D00-0
 62
     7
370
    50
100
AcDbLine
 10
495.27395
 20
443.862329
 30
0.0
 11
486.273946
 21
443.862329
 31
0.0
  0
LINE
  5
417
330
1F
100
AcDbEntity
  8
LC-002-100-D00-0
 62
     7
370
    50
100
AcDbLine
 10
492.273949
 20
440.11233
 30
0.0
 11
495.27395
 21
440.112329
 31
0.0
  0
LINE
  5
418
330
1F
100
AcDbEntity
  8
LC-002-100-D00-0
 62
     7
370
    50
100
AcDbLine
 10
489.273949
 20
440.11233
 30
0.0
 11
492.273949
 21
440.11233
 31
0.0
  0
LINE
  5
419
330
1F
100
AcDbEntity
  8
LC-002-100-D00-0
 62
     7
370
    50
100
AcDbLine
 10
476.373949
 20
436.86233
 30
0.0
 11
483.273949
 21
436.86233
 31
0.0
  0
LINE
  5
41A
330
1F
100
AcDbEntity
  8
LC-002-100-D00-0
 62
     7
370
    50
100
AcDbLine
 10
359.273949
 20
436.86233
 30
0.0
 11
359.27395
 21
439.86233
 31
0.0
  0
LINE
  5
41B
330
1F
100
AcDbEntity
  8
LC-002-100-D00-0
 62
     7
370
    50
100
AcDbLine
 10
359.273949
 20
436.86233
 30
0.0
 11
366.173949
 21
436.86233
 31
0.0
  0
LINE
  5
41C
330
1F
100
AcDbEntity
  8
LC-002-100-D00-0
 62
     7
370
    50
100
AcDbLine
 10
356.273951
 20
443.862329
 30
0.0
 11
356.273951
 21
439.86233
 31
0.0
  0
LINE
  5
41D
330
1F
100
AcDbEntity
  8
LC-002-100-D00-0
 62
     7
370
    50
100
AcDbLine
 10
353.273945
 20
436.862328
 30
0.0
 11
353.273945
 21
440.862331
 31
0.0
  0
LINE
  5
41E
330
1F
100
AcDbEntity
  8
LC-002-100-D00-0
 62
     7
370
    50
100
AcDbLine
 10
350.273949
 20
440.11233
 30
0.0
 11
350.273946
 21
440.862331
 31
0.0
  0
LINE
  5
41F
330
1F
100
AcDbEntity
  8
LC-002-100-D00-0
 62
     7
370
    50
100
AcDbLine
 10
350.273949
 20
440.11233
 30
0.0
 11
353.273949
 21
440.11233
 31
0.0
  0
LINE
  5
420
330
1F
100
AcDbEntity
  8
LC-002-100-D00-0
 62
     7
370
    50
100
AcDbLine
 10
347.273948
 20
440.112329
 30
0.0
 11
347.273948
 21
443.862329
 31
0.0
  0
LINE
  5
421
330
1F
100
AcDbEntity
  8
LC-002-100-D00-0
 62
     7
370
    50
100
AcDbLine
 10
359.27395
 20
439.86233
 30
0.0
 11
356.273951
 21
439.86233
 31
0.0
  0
LINE
  5
422
330
1F
100
AcDbEntity
  8
LC-002-100-D00-0
 62
     7
370
    50
100
AcDbLine
 10
353.273945
 20
436.862328
 30
0.0
 11
359.273949
 21
436.86233
 31
0.0
  0
LINE
  5
423
330
1F
100
AcDbEntity
  8
LC-002-100-D00-0
 62
     7
370
    50
100
AcDbLine
 10
350.273946
 20
440.862331
 30
0.0
 11
353.273945
 21
440.862331
 31
0.0
  0
LINE
  5
424
330
1F
100
AcDbEntity
  8
LC-002-100-D00-0
 62
     7
370
    50
100
AcDbLine
 10
356.273951
 20
443.862329
 30
0.0
 11
347.273948
 21
443.862329
 31
0.0
  0
LINE
  5
425
330
1F
100
AcDbEntity
  8
LC-002-100-D00-0
 62
     7
370
    50
100
AcDbLine
 10
347.273948
 20
440.112329
 30
0.0
 11
350.273949
 21
440.11233
 31
0.0
  0
LINE
  5
426
330
1F
100
AcDbEntity
  8
LC-002-100-D00-0
 62
     7
370
    50
100
AcDbLine
 10
495.27395
 20
439.362329
 30
0.0
 11
506.27395
 21
439.362329
 31
0.0
  0
LINE
  5
427
330
1F
100
AcDbEntity
  8
LC-002-100-D00-0
 62
     7
370
    50
100
AcDbLine
 10
506.27395
 20
387.362332
 30
0.0
 11
495.27395
 21
387.362332
 31
0.0
  0
LINE
  5
428
330
1F
100
AcDbEntity
  8
LC-002-100-D00-0
 62
     7
370
    50
100
AcDbLine
 10
495.27395
 20
440.112329
 30
0.0
 11
495.27395
 21
439.362329
 31
0.0
  0
INSERT
  5
439
330
1F
100
AcDbEntity
  8
LC-002-100-D00-0
 62
     7
370
    50
100
AcDbBlockReference
  2
KLON11
 10
0.0
 20
0.0
 30
0.0
  0
INSERT
  5
44D
330
1F
100
AcDbEntity
  8
LC-002-100-D00-0
 62
     7
370
    50
100
AcDbBlockReference
  2
KLON12
 10
0.0
 20
0.0
 30
0.0
  0
LINE
  5
44E
330
1F
100
AcDbEntity
  8
LC-002-100-D00-0
 62
     7
370
    50
100
AcDbLine
 10
492.273951
 20
436.362331
 30
0.0
 11
534.171134
 21
436.36233
 31
0.0
  0
LINE
  5
44F
330
1F
100
AcDbEntity
  8
LC-002-100-D00-0
 62
     7
370
    50
100
AcDbLine
 10
534.171134
 20
390.36233
 30
0.0
 11
534.171134
 21
436.36233
 31
0.0
  0
LINE
  5
450
330
1F
100
AcDbEntity
  8
LC-002-100-D00-0
 62
     7
370
    50
100
AcDbLine
 10
534.171134
 20
390.36233
 30
0.0
 11
495.27395
 21
390.362331
 31
0.0
  0
INSERT
  5
456
330
1F
100
AcDbEntity
  8
LC-002-100-D00-0
 62
     7
370
    50
100
AcDbBlockReference
  2
KLON13
 10
0.0
 20
0.0
 30
0.0
  0
LINE
  5
457
330
1F
100
AcDbEntity
  8
LC-002-100-D00-0
 62
     7
370
    50
100
AcDbLine
 10
492.273949
 20
440.11233
 30
0.0
 11
489.273949
 21
440.11233
 31
0.0
  0
LINE
  5
458
330
1F
100
AcDbEntity
  8
LC-002-100-D00-0
 62
     7
370
    50
100
AcDbLine
 10
492.273949
 20
440.11233
 30
0.0
 11
492.273951
 21
436.362331
 31
0.0
  0
LINE
  5
459
330
1F
100
AcDbEntity
  8
LC-002-100-D00-0
 62
     7
370
    50
100
AcDbLine
 10
482.273949
 20
387.36233
 30
0.0
 11
495.27395
 21
387.362332
 31
0.0
  0
ARC
  5
45A
330
1F
100
AcDbEntity
  8
LC-002-100-D00-0
 62
     7
370
    50
100
AcDbCircle
 10
475.291829
 20
387.86233
 30
0.0
 40
7.000000000000227
100
AcDbArc
 50
270.0
 51
355.903956
  0
LINE
  5
45B
330
1F
100
AcDbEntity
  8
LC-002-100-D00-0
 62
     7
370
    50
100
AcDbLine
 10
475.291829
 20
380.86233
 30
0.0
 11
367.256069
 21
380.86233
 31
0.0
  0
ARC
  5
45C
330
1F
100
AcDbEntity
  8
LC-002-100-D00-0
 62
     7
370
    50
100
AcDbCircle
 10
367.256069
 20
387.86233
 30
0.0
 40
7.000000000000016
100
AcDbArc
 50
184.096044
 51
270.0
  0
LINE
  5
45D
330
1F
100
AcDbEntity
  8
LC-002-100-D00-0
 62
     7
370
    50
100
AcDbLine
 10
359.773949
 20
387.36233
 30
0.0
 11
360.273949
 21
387.36233
 31
0.0
  0
ARC
  5
45E
330
1F
100
AcDbEntity
  8
LC-002-100-D00-0
 62
     7
370
    50
100
AcDbCircle
 10
359.773949
 20
399.86233
 30
0.0
 40
12.5
100
AcDbArc
 50
180.0
 51
270.0
  0
LINE
  5
45F
330
1F
100
AcDbEntity
  8
LC-002-100-D00-0
 62
     7
370
    50
100
AcDbLine
 10
347.273949
 20
399.86233
 30
0.0
 11
347.273948
 21
440.112329
 31
0.0
  0
LINE
  5
460
330
1F
100
AcDbEntity
  8
LC-002-100-D00-0
 62
     7
370
    50
100
AcDbLine
 10
347.273948
 20
440.112329
 30
0.0
 11
350.273949
 21
440.11233
 31
0.0
  0
LINE
  5
461
330
1F
100
AcDbEntity
  8
LC-002-100-D00-0
 62
     7
370
    50
100
AcDbLine
 10
350.273949
 20
399.86233
 30
0.0
 11
350.273949
 21
440.11233
 31
0.0
  0
ARC
  5
462
330
1F
100
AcDbEntity
  8
LC-002-100-D00-0
 62
     7
370
    50
100
AcDbCircle
 10
359.773949
 20
399.86233
 30
0.0
 40
9.500000000000057
100
AcDbArc
 50
180.0
 51
270.0
  0
LINE
  5
463
330
1F
100
AcDbEntity
  8
LC-002-100-D00-0
 62
     7
370
    50
100
AcDbLine
 10
359.773949
 20
390.36233
 30
0.0
 11
362.273949
 21
390.36233
 31
0.0
  0
ARC
  5
464
330
1F
100
AcDbEntity
  8
LC-002-100-D00-0
 62
     7
370
    50
100
AcDbCircle
 10
362.273949
 20
389.36233
 30
0.0
 40
1.000000000000057
100
AcDbArc
 50
0.0
 51
90.0
  0
LINE
  5
465
330
1F
100
AcDbEntity
  8
LC-002-100-D00-0
 62
     7
370
    50
100
AcDbLine
 10
363.273949
 20
389.36233
 30
0.0
 11
363.273949
 21
387.86233
 31
0.0
  0
ARC
  5
466
330
1F
100
AcDbEntity
  8
LC-002-100-D00-0
 62
     7
370
    50
100
AcDbCircle
 10
367.273949
 20
387.86233
 30
0.0
 40
4.000000000000057
100
AcDbArc
 50
180.0
 51
270.0
  0
LINE
  5
467
330
1F
100
AcDbEntity
  8
LC-002-100-D00-0
 62
     7
370
    50
100
AcDbLine
 10
475.273949
 20
383.86233
 30
0.0
 11
367.273949
 21
383.86233
 31
0.0
  0
ARC
  5
468
330
1F
100
AcDbEntity
  8
LC-002-100-D00-0
 62
     7
370
    50
100
AcDbCircle
 10
475.273949
 20
387.86233
 30
0.0
 40
4.000000000000227
100
AcDbArc
 50
270.0
 51
0.0
  0
LINE
  5
469
330
1F
100
AcDbEntity
  8
LC-002-100-D00-0
 62
     7
370
    50
100
AcDbLine
 10
479.273949
 20
387.86233
 30
0.0
 11
479.273949
 21
389.36233
 31
0.0
  0
ARC
  5
46A
330
1F
100
AcDbEntity
  8
LC-002-100-D00-0
 62
     7
370
    50
100
AcDbCircle
 10
480.273949
 20
389.36233
 30
0.0
 40
1.0
100
AcDbArc
 50
90.0
 51
180.0
  0
LINE
  5
46B
330
1F
100
AcDbEntity
  8
LC-002-100-D00-0
 62
     7
370
    50
100
AcDbLine
 10
480.273949
 20
390.36233
 30
0.0
 11
495.27395
 21
390.362331
 31
0.0
  0
LINE
  5
46C
330
1F
100
AcDbEntity
  8
LC-002-100-D00-0
 62
     7
370
    50
100
AcDbLine
 10
539.771134
 20
388.861814
 30
0.0
 11
534.171134
 21
390.36233
 31
0.0
  0
LINE
  5
46D
330
1F
100
AcDbEntity
  8
LC-002-100-D00-0
 62
     7
370
    50
100
AcDbLine
 10
539.771134
 20
388.428075
 30
0.0
 11
539.771134
 21
388.861814
 31
0.0
  0
ARC
  5
46E
330
1F
100
AcDbEntity
  8
LC-002-100-D00-0
 62
     7
370
    50
100
AcDbCircle
 10
539.271177
 20
388.428075
 30
0.0
 40
0.4999578796799692
100
AcDbArc
 50
301.198872
 51
0.0
  0
ARC
  5
46F
330
1F
100
AcDbEntity
  8
LC-002-100-D00-0
 62
     7
370
    50
100
AcDbCircle
 10
524.172452
 20
413.36014
 30
0.0
 40
29.64750216706079
100
AcDbArc
 50
292.382556
 51
301.198872
  0
ARC
  5
470
330
1F
100
AcDbEntity
  8
LC-002-100-D00-0
 62
     7
370
    50
100
AcDbCircle
 10
535.271513
 20
386.408513
 30
0.0
 40
0.4999578796800961
100
AcDbArc
 50
180.0
 51
292.382556
  0
LINE
  5
471
330
1F
100
AcDbEntity
  8
LC-002-100-D00-0
 62
     7
370
    50
100
AcDbLine
 10
534.771555
 20
387.712372
 30
0.0
 11
534.771555
 21
386.408513
 31
0.0
  0
ARC
  5
472
330
1F
100
AcDbEntity
  8
LC-002-100-D00-0
 62
     7
370
    50
100
AcDbCircle
 10
534.271597
 20
387.712372
 30
0.0
 40
0.4999578796800961
100
AcDbArc
 50
0.0
 51
90.0
  0
LINE
  5
473
330
1F
100
AcDbEntity
  8
LC-002-100-D00-0
 62
     7
370
    50
100
AcDbLine
 10
530.771892
 20
388.21233
 30
0.0
 11
534.271597
 21
388.21233
 31
0.0
  0
ARC
  5
474
330
1F
100
AcDbEntity
  8
LC-002-100-D00-0
 62
     7
370
    50
100
AcDbCircle
 10
530.771892
 20
387.712372
 30
0.0
 40
0.4999578796803235
100
AcDbArc
 50
90.0
 51
180.0
  0
LINE
  5
475
330
1F
100
AcDbEntity
  8
LC-002-100-D00-0
 62
     7
370
    50
100
AcDbLine
 10
530.271934
 20
384.755511
 30
0.0
 11
530.271934
 21
387.712372
 31
0.0
  0
ARC
  5
476
330
1F
100
AcDbEntity
  8
LC-002-100-D00-0
 62
     7
370
    50
100
AcDbCircle
 10
529.771976
 20
384.755511
 30
0.0
 40
0.499957879680312
100
AcDbArc
 50
281.075925
 51
0.0
  0
ARC
  5
477
330
1F
100
AcDbEntity
  8
LC-002-100-D00-0
 62
     7
370
    50
100
AcDbCircle
 10
524.172452
 20
413.36014
 30
0.0
 40
29.64750432250043
100
AcDbArc
 50
241.270296
 51
281.075925
  0
LINE
  5
478
330
1F
100
AcDbEntity
  8
LC-002-100-D00-0
 62
     7
370
    50
100
AcDbLine
 10
508.773746
 20
387.362332
 30
0.0
 11
509.921544
 21
387.36233
 31
0.0
  0
LINE
  5
479
330
1F
100
AcDbEntity
  8
LC-002-100-D00-0
 62
     7
370
    50
100
AcDbLine
 10
508.773746
 20
385.862329
 30
0.0
 11
508.773746
 21
387.362332
 31
0.0
  0
LINE
  5
47A
330
1F
100
AcDbEntity
  8
LC-002-100-D00-0
 62
     7
370
    50
100
AcDbLine
 10
506.27395
 20
385.862329
 30
0.0
 11
508.773746
 21
385.862329
 31
0.0
  0
LINE
  5
47B
330
1F
100
AcDbEntity
  8
LC-002-100-D00-0
 62
     7
370
    50
100
AcDbLine
 10
506.27395
 20
387.362332
 30
0.0
 11
506.27395
 21
385.862329
 31
0.0
  0
ARC
  5
47C
330
1F
100
AcDbEntity
  8
LC-002-100-D00-0
 62
     7
370
    50
100
AcDbCircle
 10
524.172452
 20
413.36452
 30
0.0
 40
29.64750216706081
100
AcDbArc
 50
58.801128
 51
67.617444
  0
ARC
  5
47D
330
1F
100
AcDbEntity
  8
LC-002-100-D00-0
 62
     7
370
    50
100
AcDbCircle
 10
539.271177
 20
438.296585
 30
0.0
 40
0.4999578796800961
100
AcDbArc
 50
0.0
 51
58.801128
  0
ARC
  5
47E
330
1F
100
AcDbEntity
  8
LC-002-100-D00-0
 62
     7
370
    50
100
AcDbCircle
 10
534.271597
 20
439.012288
 30
0.0
 40
0.4999578796798687
100
AcDbArc
 50
270.0
 51
0.0
  0
LINE
  5
47F
330
1F
100
AcDbEntity
  8
LC-002-100-D00-0
 62
     7
370
    50
100
AcDbLine
 10
534.771555
 20
440.316147
 30
0.0
 11
534.771555
 21
439.012288
 31
0.0
  0
ARC
  5
480
330
1F
100
AcDbEntity
  8
LC-002-100-D00-0
 62
     7
370
    50
100
AcDbCircle
 10
535.271513
 20
440.316147
 30
0.0
 40
0.4999578796801971
100
AcDbArc
 50
67.617444
 51
180.0
  0
LINE
  5
481
330
1F
100
AcDbEntity
  8
LC-002-100-D00-0
 62
     7
370
    50
100
AcDbLine
 10
539.771134
 20
437.862845
 30
0.0
 11
539.771134
 21
438.296585
 31
0.0
  0
LINE
  5
482
330
1F
100
AcDbEntity
  8
LC-002-100-D00-0
 62
     7
370
    50
100
AcDbLine
 10
534.171134
 20
436.36233
 30
0.0
 11
539.771134
 21
437.862845
 31
0.0
  0
LINE
  5
483
330
1F
100
AcDbEntity
  8
LC-002-100-D00-0
 62
     7
370
    50
100
AcDbLine
 10
492.273949
 20
440.11233
 30
0.0
 11
495.27395
 21
440.112329
 31
0.0
  0
LINE
  5
484
330
1F
100
AcDbEntity
  8
LC-002-100-D00-0
 62
     7
370
    50
100
AcDbLine
 10
506.27395
 20
440.862331
 30
0.0
 11
506.27395
 21
439.362329
 31
0.0
  0
LINE
  5
485
330
1F
100
AcDbEntity
  8
LC-002-100-D00-0
 62
     7
370
    50
100
AcDbLine
 10
508.773746
 20
440.86233
 30
0.0
 11
506.27395
 21
440.862331
 31
0.0
  0
ARC
  5
486
330
1F
100
AcDbEntity
  8
LC-002-100-D00-0
 62
     7
370
    50
100
AcDbCircle
 10
524.136037
 20
413.36233
 30
0.0
 40
31.50000000000017
100
AcDbArc
 50
105.394857
 51
119.188982
  0
LINE
  5
487
330
1F
100
AcDbEntity
  8
LC-002-100-D00-0
 62
     7
370
    50
100
AcDbLine
 10
515.773746
 20
443.732086
 30
0.0
 11
515.773746
 21
441.797533
 31
0.0
  0
ARC
  5
488
330
1F
100
AcDbEntity
  8
LC-002-100-D00-0
 62
     7
370
    50
100
AcDbCircle
 10
524.172452
 20
413.36452
 30
0.0
 40
29.6475043225003
100
AcDbArc
 50
78.924075
 51
106.456389
  0
ARC
  5
489
330
1F
100
AcDbEntity
  8
LC-002-100-D00-0
 62
     7
370
    50
100
AcDbCircle
 10
529.771976
 20
441.969149
 30
0.0
 40
0.4999578796800961
100
AcDbArc
 50
0.0
 51
78.924075
  0
LINE
  5
48A
330
1F
100
AcDbEntity
  8
LC-002-100-D00-0
 62
     7
370
    50
100
AcDbLine
 10
530.271934
 20
439.012288
 30
0.0
 11
530.271934
 21
441.969149
 31
0.0
  0
ARC
  5
48B
330
1F
100
AcDbEntity
  8
LC-002-100-D00-0
 62
     7
370
    50
100
AcDbCircle
 10
530.771892
 20
439.012288
 30
0.0
 40
0.4999578796799824
100
AcDbArc
 50
180.0
 51
270.0
  0
LINE
  5
48C
330
1F
100
AcDbEntity
  8
LC-002-100-D00-0
 62
     7
370
    50
100
AcDbLine
 10
534.271597
 20
438.51233
 30
0.0
 11
530.771892
 21
438.51233
 31
0.0
  0
LINE
  5
48D
330
1F
100
AcDbEntity
  8
LC-002-100-D00-0
 62
     7
370
    50
100
AcDbLine
 10
539.771134
 20
437.862845
 30
0.0
 11
539.771134
 21
388.861814
 31
0.0
  0
LINE
  5
48E
330
1F
100
AcDbEntity
  8
LC-002-100-D00-0
 62
     7
370
    50
100
AcDbLine
 10
465.707569
 20
390.36233
 30
0.0
 11
480.273949
 21
390.36233
 31
0.0
  0
LINE
  5
48F
330
1F
100
AcDbEntity
  8
LC-002-100-D00-0
 62
     7
370
    50
100
AcDbLine
 10
362.273949
 20
390.36233
 30
0.0
 11
376.840329
 21
390.36233
 31
0.0
  0
LINE
  5
490
330
1F
100
AcDbEntity
  8
LC-002-100-D00-0
 62
     7
370
    50
100
AcDbLine
 10
353.273949
 20
440.11233
 30
0.0
 11
350.273949
 21
440.11233
 31
0.0
  0
LINE
  5
491
330
1F
100
AcDbEntity
  8
LC-002-100-D00-0
 62
     7
370
    50
100
AcDbLine
 10
463.263074
 20
390.36233
 30
0.0
 11
465.707569
 21
390.36233
 31
0.0
  0
LINE
  5
492
330
1F
100
AcDbEntity
  8
LC-002-100-D00-0
 62
     7
370
    50
100
AcDbLine
 10
376.840329
 20
390.36233
 30
0.0
 11
379.284823
 21
390.36233
 31
0.0
  0
LINE
  5
493
330
1F
100
AcDbEntity
  8
LC-002-100-D00-0
 62
     7
370
    50
100
AcDbLine
 10
379.284823
 20
390.36233
 30
0.0
 11
380.273947
 21
390.362331
 31
0.0
  0
LINE
  5
494
330
1F
100
AcDbEntity
  8
LC-002-100-D00-0
 62
     7
370
    50
100
AcDbLine
 10
462.27395
 20
390.362331
 30
0.0
 11
463.263074
 21
390.36233
 31
0.0
  0
CIRCLE
  5
495
330
1F
100
AcDbEntity
  8
LC-002-100-D00-0
 62
     7
370
    50
100
AcDbCircle
 10
475.523949
 20
441.61233
 30
0.0
 40
1.750000000000114
  0
CIRCLE
  5
496
330
1F
100
AcDbEntity
  8
LC-002-100-D00-0
 62
     7
370
    50
100
AcDbCircle
 10
367.023949
 20
441.61233
 30
0.0
 40
1.750000000000114
  0
LINE
  5
497
330
1F
100
AcDbEntity
  8
LC-002-100-D00-0
 62
     7
370
    50
100
AcDbLine
 10
475.773947
 20
443.36233
 30
0.0
 11
475.773947
 21
444.862329
 31
0.0
  0
LINE
  5
498
330
1F
100
AcDbEntity
  8
LC-002-100-D00-0
 62
     7
370
    50
100
AcDbLine
 10
473.773947
 20
443.36233
 30
0.0
 11
475.773947
 21
443.36233
 31
0.0
  0
LINE
  5
499
330
1F
100
AcDbEntity
  8
LC-002-100-D00-0
 62
     7
370
    50
100
AcDbLine
 10
473.773947
 20
443.36233
 30
0.0
 11
473.773947
 21
439.86233
 31
0.0
  0
LINE
  5
49A
330
1F
100
AcDbEntity
  8
LC-002-100-D00-0
 62
     7
370
    50
100
AcDbLine
 10
473.773947
 20
439.86233
 30
0.0
 11
475.773947
 21
439.86233
 31
0.0
  0
LINE
  5
49B
330
1F
100
AcDbEntity
  8
LC-002-100-D00-0
 62
     7
370
    50
100
AcDbLine
 10
475.773947
 20
439.86233
 30
0.0
 11
475.773947
 21
438.862328
 31
0.0
  0
LINE
  5
49C
330
1F
100
AcDbEntity
  8
LC-002-100-D00-0
 62
     7
370
    50
100
AcDbLine
 10
460.273949
 20
438.86233
 30
0.0
 11
475.773947
 21
438.862328
 31
0.0
  0
ARC
  5
49D
330
1F
100
AcDbEntity
  8
LC-002-100-D00-0
 62
     7
370
    50
100
AcDbCircle
 10
460.273949
 20
428.86233
 30
0.0
 40
10.0
100
AcDbArc
 50
90.0
 51
180.0
  0
LINE
  5
49E
330
1F
100
AcDbEntity
  8
LC-002-100-D00-0
 62
     7
370
    50
100
AcDbLine
 10
450.273949
 20
428.86233
 30
0.0
 11
450.273948
 21
399.362327
 31
0.0
  0
LINE
  5
49F
330
1F
100
AcDbEntity
  8
LC-002-100-D00-0
 62
     7
370
    50
100
AcDbLine
 10
448.773949
 20
399.36233
 30
0.0
 11
450.273948
 21
399.362327
 31
0.0
  0
LINE
  5
4A0
330
1F
100
AcDbEntity
  8
LC-002-100-D00-0
 62
     7
370
    50
100
AcDbLine
 10
448.773949
 20
442.86233
 30
0.0
 11
448.773949
 21
399.36233
 31
0.0
  0
ARC
  5
4A1
330
1F
100
AcDbEntity
  8
LC-002-100-D00-0
 62
     7
370
    50
100
AcDbCircle
 10
450.773949
 20
442.86233
 30
0.0
 40
2.0
100
AcDbArc
 50
90.0
 51
180.0
  0
LINE
  5
4A2
330
1F
100
AcDbEntity
  8
LC-002-100-D00-0
 62
     7
370
    50
100
AcDbLine
 10
450.773949
 20
444.86233
 30
0.0
 11
475.773947
 21
444.862329
 31
0.0
  0
LINE
  5
4A3
330
1F
100
AcDbEntity
  8
LC-002-100-D00-0
 62
     7
370
    50
100
AcDbLine
 10
432.773949
 20
444.86233
 30
0.0
 11
450.773949
 21
444.86233
 31
0.0
  0
LINE
  5
4A4
330
1F
100
AcDbEntity
  8
LC-002-100-D00-0
 62
     7
370
    50
100
AcDbLine
 10
432.773949
 20
399.36233
 30
0.0
 11
448.773949
 21
399.36233
 31
0.0
  0
LINE
  5
4A5
330
1F
100
AcDbEntity
  8
LC-002-100-D00-0
 62
     7
370
    50
100
AcDbLine
 10
392.273949
 20
399.362327
 30
0.0
 11
392.273949
 21
428.86233
 31
0.0
  0
ARC
  5
4A6
330
1F
100
AcDbEntity
  8
LC-002-100-D00-0
 62
     7
370
    50
100
AcDbCircle
 10
391.773949
 20
442.86233
 30
0.0
 40
2.000000000000057
100
AcDbArc
 50
0.0
 51
90.0
  0
LINE
  5
4A7
330
1F
100
AcDbEntity
  8
LC-002-100-D00-0
 62
     7
370
    50
100
AcDbLine
 10
391.773949
 20
444.86233
 30
0.0
 11
409.773949
 21
444.86233
 31
0.0
  0
LINE
  5
4A8
330
1F
100
AcDbEntity
  8
LC-002-100-D00-0
 62
     7
370
    50
100
AcDbLine
 10
393.773949
 20
399.36233
 30
0.0
 11
393.773949
 21
442.86233
 31
0.0
  0
LINE
  5
4A9
330
1F
100
AcDbEntity
  8
LC-002-100-D00-0
 62
     7
370
    50
100
AcDbLine
 10
393.773949
 20
399.36233
 30
0.0
 11
409.773949
 21
399.36233
 31
0.0
  0
ARC
  5
4AA
330
1F
100
AcDbEntity
  8
LC-002-100-D00-0
 62
     7
370
    50
100
AcDbCircle
 10
382.273949
 20
428.86233
 30
0.0
 40
10.0
100
AcDbArc
 50
0.0
 51
90.0
  0
LINE
  5
4AB
330
1F
100
AcDbEntity
  8
LC-002-100-D00-0
 62
     7
370
    50
100
AcDbLine
 10
366.77395
 20
438.862328
 30
0.0
 11
366.77395
 21
439.86233
 31
0.0
  0
LINE
  5
4AC
330
1F
100
AcDbEntity
  8
LC-002-100-D00-0
 62
     7
370
    50
100
AcDbLine
 10
368.77395
 20
439.86233
 30
0.0
 11
368.77395
 21
443.36233
 31
0.0
  0
LINE
  5
4AD
330
1F
100
AcDbEntity
  8
LC-002-100-D00-0
 62
     7
370
    50
100
AcDbLine
 10
366.77395
 20
444.862329
 30
0.0
 11
366.77395
 21
443.36233
 31
0.0
  0
LINE
  5
4AE
330
1F
100
AcDbEntity
  8
LC-002-100-D00-0
 62
     7
370
    50
100
AcDbLine
 10
392.273949
 20
399.362327
 30
0.0
 11
393.773949
 21
399.36233
 31
0.0
  0
LINE
  5
4AF
330
1F
100
AcDbEntity
  8
LC-002-100-D00-0
 62
     7
370
    50
100
AcDbLine
 10
366.77395
 20
439.86233
 30
0.0
 11
368.77395
 21
439.86233
 31
0.0
  0
LINE
  5
4B0
330
1F
100
AcDbEntity
  8
LC-002-100-D00-0
 62
     7
370
    50
100
AcDbLine
 10
366.77395
 20
443.36233
 30
0.0
 11
368.77395
 21
443.36233
 31
0.0
  0
LINE
  5
4B1
330
1F
100
AcDbEntity
  8
LC-002-100-D00-0
 62
     7
370
    50
100
AcDbLine
 10
366.77395
 20
444.862329
 30
0.0
 11
391.773949
 21
444.86233
 31
0.0
  0
LINE
  5
4B2
330
1F
100
AcDbEntity
  8
LC-002-100-D00-0
 62
     7
370
    50
100
AcDbLine
 10
366.77395
 20
438.862328
 30
0.0
 11
382.273949
 21
438.86233
 31
0.0
  0
LINE
  5
4B3
330
1F
100
AcDbEntity
  8
LC-002-100-D00-0
 62
     7
370
    50
100
AcDbLine
 10
409.773949
 20
444.86233
 30
0.0
 11
432.773949
 21
444.86233
 31
0.0
  0
LINE
  5
4B4
330
1F
100
AcDbEntity
  8
LC-002-100-D00-0
 62
     7
370
    50
100
AcDbLine
 10
409.773949
 20
399.36233
 30
0.0
 11
432.773949
 21
399.36233
 31
0.0
  0
LINE
  5
4B5
330
1F
100
AcDbEntity
  8
LC-002-100-D00-0
 62
     7
370
    50
100
AcDbLine
 10
462.27395
 20
429.362331
 30
0.0
 11
472.209634
 21
436.667981
 31
0.0
  0
LINE
  5
4B6
330
1F
100
AcDbEntity
  8
LC-002-100-D00-0
 62
     7
370
    50
100
AcDbLine
 10
462.27395
 20
429.362331
 30
0.0
 11
462.273949
 21
388.36233
 31
0.0
  0
ARC
  5
4B7
330
1F
100
AcDbEntity
  8
LC-002-100-D00-0
 62
     7
370
    50
100
AcDbCircle
 10
457.273949
 20
388.36233
 30
0.0
 40
5.0
100
AcDbArc
 50
270.0
 51
0.0
  0
LINE
  5
4B8
330
1F
100
AcDbEntity
  8
LC-002-100-D00-0
 62
     7
370
    50
100
AcDbLine
 10
457.273949
 20
383.36233
 30
0.0
 11
385.273949
 21
383.36233
 31
0.0
  0
ARC
  5
4B9
330
1F
100
AcDbEntity
  8
LC-002-100-D00-0
 62
     7
370
    50
100
AcDbCircle
 10
385.273949
 20
388.36233
 30
0.0
 40
5.0
100
AcDbArc
 50
180.0
 51
270.0
  0
LINE
  5
4BA
330
1F
100
AcDbEntity
  8
LC-002-100-D00-0
 62
     7
370
    50
100
AcDbLine
 10
380.273949
 20
388.36233
 30
0.0
 11
380.273947
 21
429.362331
 31
0.0
  0
LINE
  5
4BB
330
1F
100
AcDbEntity
  8
LC-002-100-D00-0
 62
     7
370
    50
100
AcDbLine
 10
380.273947
 20
429.362331
 30
0.0
 11
370.338263
 21
436.667981
 31
0.0
  0
ARC
  5
4BC
330
1F
100
AcDbEntity
  8
LC-002-100-D00-0
 62
     7
370
    50
100
AcDbCircle
 10
369.745873
 20
435.86233
 30
0.0
 40
1.000000000000197
100
AcDbArc
 50
53.673174
 51
90.0
  0
LINE
  5
4BD
330
1F
100
AcDbEntity
  8
LC-002-100-D00-0
 62
     7
370
    50
100
AcDbLine
 10
366.173949
 20
436.86233
 30
0.0
 11
369.745873
 21
436.86233
 31
0.0
  0
LINE
  5
4BE
330
1F
100
AcDbEntity
  8
LC-002-100-D00-0
 62
     7
370
    50
100
AcDbLine
 10
366.173949
 20
436.86233
 30
0.0
 11
366.173949
 21
438.86233
 31
0.0
  0
LINE
  5
4BF
330
1F
100
AcDbEntity
  8
LC-002-100-D00-0
 62
     7
370
    50
100
AcDbLine
 10
366.173949
 20
438.86233
 30
0.0
 11
369.745873
 21
438.86233
 31
0.0
  0
ARC
  5
4C0
330
1F
100
AcDbEntity
  8
LC-002-100-D00-0
 62
     7
370
    50
100
AcDbCircle
 10
369.745873
 20
435.86233
 30
0.0
 40
3.000000000000124
100
AcDbArc
 50
53.673174
 51
90.0
  0
LINE
  5
4C1
330
1F
100
AcDbEntity
  8
LC-002-100-D00-0
 62
     7
370
    50
100
AcDbLine
 10
371.523044
 20
438.279283
 30
0.0
 11
381.366339
 21
431.041566
 31
0.0
  0
ARC
  5
4C2
330
1F
100
AcDbEntity
  8
LC-002-100-D00-0
 62
     7
370
    50
100
AcDbCircle
 10
380.773949
 20
430.235915
 30
0.0
 40
1.000000000000171
100
AcDbArc
 50
0.0
 51
53.673174
  0
LINE
  5
4C3
330
1F
100
AcDbEntity
  8
LC-002-100-D00-0
 62
     7
370
    50
100
AcDbLine
 10
381.773949
 20
388.36233
 30
0.0
 11
381.773949
 21
430.235915
 31
0.0
  0
ARC
  5
4C4
330
1F
100
AcDbEntity
  8
LC-002-100-D00-0
 62
     7
370
    50
100
AcDbCircle
 10
385.273949
 20
388.36233
 30
0.0
 40
3.500000000000114
100
AcDbArc
 50
180.0
 51
270.0
  0
LINE
  5
4C5
330
1F
100
AcDbEntity
  8
LC-002-100-D00-0
 62
     7
370
    50
100
AcDbLine
 10
457.273949
 20
384.86233
 30
0.0
 11
385.273949
 21
384.86233
 31
0.0
  0
ARC
  5
4C6
330
1F
100
AcDbEntity
  8
LC-002-100-D00-0
 62
     7
370
    50
100
AcDbCircle
 10
457.273949
 20
388.36233
 30
0.0
 40
3.499999999999773
100
AcDbArc
 50
270.0
 51
0.0
  0
LINE
  5
4C7
330
1F
100
AcDbEntity
  8
LC-002-100-D00-0
 62
     7
370
    50
100
AcDbLine
 10
460.773949
 20
430.235915
 30
0.0
 11
460.773949
 21
388.36233
 31
0.0
  0
ARC
  5
4C8
330
1F
100
AcDbEntity
  8
LC-002-100-D00-0
 62
     7
370
    50
100
AcDbCircle
 10
461.773949
 20
430.235915
 30
0.0
 40
1.000000000000197
100
AcDbArc
 50
126.326826
 51
180.0
  0
LINE
  5
4C9
330
1F
100
AcDbEntity
  8
LC-002-100-D00-0
 62
     7
370
    50
100
AcDbLine
 10
471.024853
 20
438.279283
 30
0.0
 11
461.181558
 21
431.041566
 31
0.0
  0
ARC
  5
4CA
330
1F
100
AcDbEntity
  8
LC-002-100-D00-0
 62
     7
370
    50
100
AcDbCircle
 10
472.802024
 20
435.86233
 30
0.0
 40
3.0
100
AcDbArc
 50
90.0
 51
126.326826
  0
LINE
  5
4CB
330
1F
100
AcDbEntity
  8
LC-002-100-D00-0
 62
     7
370
    50
100
AcDbLine
 10
472.802024
 20
438.86233
 30
0.0
 11
476.373949
 21
438.86233
 31
0.0
  0
LINE
  5
4CC
330
1F
100
AcDbEntity
  8
LC-002-100-D00-0
 62
     7
370
    50
100
AcDbLine
 10
476.373949
 20
438.86233
 30
0.0
 11
476.373949
 21
436.86233
 31
0.0
  0
LINE
  5
4CD
330
1F
100
AcDbEntity
  8
LC-002-100-D00-0
 62
     7
370
    50
100
AcDbLine
 10
472.802024
 20
436.86233
 30
0.0
 11
476.373949
 21
436.86233
 31
0.0
  0
ARC
  5
4CE
330
1F
100
AcDbEntity
  8
LC-002-100-D00-0
 62
     7
370
    50
100
AcDbCircle
 10
472.802024
 20
435.86233
 30
0.0
 40
1.000000000000227
100
AcDbArc
 50
90.0
 51
126.326826
  0
LINE
  5
4CF
330
1F
100
AcDbEntity
  8
LC-002-100-D00-0
 62
     7
370
    50
100
AcDbLine
 10
460.766828
 20
429.36233
 30
0.0
 11
456.353344
 21
429.36233
 31
0.0
  0
LINE
  5
4D0
330
1F
100
AcDbEntity
  8
LC-002-100-D00-0
 62
     7
370
    50
100
AcDbLine
 10
460.766828
 20
430.230548
 30
0.0
 11
460.766828
 21
429.36233
 31
0.0
  0
ARC
  5
4D1
330
1F
100
AcDbEntity
  8
LC-002-100-D00-0
 62
     7
370
    50
100
AcDbCircle
 10
461.767201
 20
430.230489
 30
0.0
 40
1.000373573444883
100
AcDbArc
 50
126.325165
 51
180.0
  0
LINE
  5
4D2
330
1F
100
AcDbEntity
  8
LC-002-100-D00-0
 62
     7
370
    50
100
AcDbLine
 10
461.174613
 20
431.036458
 30
0.0
 11
461.181558
 21
431.041566
 31
0.0
  0
LINE
  5
4D3
330
1F
100
AcDbEntity
  8
LC-002-100-D00-0
 62
     7
370
    50
100
AcDbLine
 10
381.78107
 20
430.230548
 30
0.0
 11
381.78107
 21
429.36233
 31
0.0
  0
LINE
  5
4D4
330
1F
100
AcDbEntity
  8
LC-002-100-D00-0
 62
     7
370
    50
100
AcDbLine
 10
386.194553
 20
429.36233
 30
0.0
 11
381.78107
 21
429.36233
 31
0.0
  0
ARC
  5
4D5
330
1F
100
AcDbEntity
  8
LC-002-100-D00-0
 62
     7
370
    50
100
AcDbCircle
 10
380.780723
 20
430.230503
 30
0.0
 40
1.000347039120072
100
AcDbArc
 50
0.0
 51
53.675603
  0
LINE
  5
4D6
330
1F
100
AcDbEntity
  8
LC-002-100-D00-0
 62
     7
370
    50
100
AcDbLine
 10
454.226384
 20
436.826435
 30
0.0
 11
454.226384
 21
429.362331
 31
0.0
  0
LINE
  5
4D7
330
1F
100
AcDbEntity
  8
LC-002-100-D00-0
 62
     7
370
    50
100
AcDbLine
 10
454.226382
 20
436.86233
 30
0.0
 11
460.988364
 21
436.86233
 31
0.0
  0
LINE
  5
4D8
330
1F
100
AcDbEntity
  8
LC-002-100-D00-0
 62
     7
370
    50
100
AcDbLine
 10
465.361815
 20
436.86233
 30
0.0
 11
469.097797
 21
436.86233
 31
0.0
  0
LINE
  5
4D9
330
1F
100
AcDbEntity
  8
LC-002-100-D00-0
 62
     7
370
    50
100
AcDbLine
 10
388.321513
 20
436.826435
 30
0.0
 11
388.321513
 21
429.362331
 31
0.0
  0
LINE
  5
4DA
330
1F
100
AcDbEntity
  8
LC-002-100-D00-0
 62
     7
370
    50
100
AcDbLine
 10
373.4501
 20
436.86233
 30
0.0
 11
377.186082
 21
436.86233
 31
0.0
  0
LINE
  5
4DB
330
1F
100
AcDbEntity
  8
LC-002-100-D00-0
 62
     7
370
    50
100
AcDbLine
 10
381.559534
 20
436.86233
 30
0.0
 11
388.321515
 21
436.86233
 31
0.0
  0
LINE
  5
4DC
330
1F
100
AcDbEntity
  8
LC-002-100-D00-0
 62
     7
370
    50
100
AcDbLine
 10
456.353344
 20
429.36233
 30
0.0
 11
450.286456
 21
429.36233
 31
0.0
  0
LINE
  5
4DD
330
1F
100
AcDbEntity
  8
LC-002-100-D00-0
 62
     7
370
    50
100
AcDbLine
 10
392.261441
 20
429.36233
 30
0.0
 11
386.194553
 21
429.36233
 31
0.0
  0
ARC
  5
4DE
330
1F
100
AcDbEntity
  8
LC-002-100-D00-0
 62
     7
370
    50
100
AcDbCircle
 10
524.273746
 20
413.36233
 30
0.0
 40
32.00000000000018
100
AcDbArc
 50
51.375167
 51
90.0
  0
LINE
  5
4DF
330
1F
100
AcDbEntity
  8
LC-002-100-D00-0
 62
     7
370
    50
100
AcDbLine
 10
544.24873
 20
438.36233
 30
0.0
 11
627.27374
 21
438.362331
 31
0.0
  0
LINE
  5
4E0
330
1F
100
AcDbEntity
  8
LC-002-100-D00-0
 62
     7
370
    50
100
AcDbLine
 10
627.27374
 20
438.362331
 30
0.0
 11
630.77374
 21
437.424508
 31
0.0
  0
LINE
  5
4E1
330
1F
100
AcDbEntity
  8
LC-002-100-D00-0
 62
     7
370
    50
100
AcDbLine
 10
630.77374
 20
437.424508
 30
0.0
 11
630.773746
 21
436.11233
 31
0.0
  0
LINE
  5
4E2
330
1F
100
AcDbEntity
  8
LC-002-100-D00-0
 62
     7
370
    50
100
AcDbLine
 10
630.773746
 20
436.11233
 30
0.0
 11
543.053722
 21
436.11233
 31
0.0
  0
ARC
  5
4E3
330
1F
100
AcDbEntity
  8
LC-002-100-D00-0
 62
     7
370
    50
100
AcDbCircle
 10
524.273746
 20
413.36233
 30
0.0
 40
29.50000000000022
100
AcDbArc
 50
50.46055
 51
104.235124
  0
ARC
  5
4E4
330
1F
100
AcDbEntity
  8
LC-002-100-D00-0
 62
     7
370
    50
100
AcDbCircle
 10
516.773746
 20
442.925821
 30
0.0
 40
1.0
100
AcDbArc
 50
180.0
 51
284.235124
  0
LINE
  5
4E5
330
1F
100
AcDbEntity
  8
LC-002-100-D00-0
 62
     7
370
    50
100
AcDbLine
 10
515.773746
 20
442.925821
 30
0.0
 11
515.773745
 21
445.36233
 31
0.0
  0
LINE
  5
4E6
330
1F
100
AcDbEntity
  8
LC-002-100-D00-0
 62
     7
370
    50
100
AcDbLine
 10
515.773745
 20
445.36233
 30
0.0
 11
524.273746
 21
445.36233
 31
0.0
  0
LINE
  5
4E7
330
1F
100
AcDbEntity
  8
LC-002-100-D00-0
 62
     7
370
    50
100
AcDbLine
 10
515.773745
 20
381.362327
 30
0.0
 11
515.773746
 21
383.798839
 31
0.0
  0
ARC
  5
4E8
330
1F
100
AcDbEntity
  8
LC-002-100-D00-0
 62
     7
370
    50
100
AcDbCircle
 10
516.773746
 20
383.798839
 30
0.0
 40
1.000000000000111
100
AcDbArc
 50
75.764876
 51
180.0
  0
ARC
  5
4E9
330
1F
100
AcDbEntity
  8
LC-002-100-D00-0
 62
     7
370
    50
100
AcDbCircle
 10
524.273746
 20
413.36233
 30
0.0
 40
29.5
100
AcDbArc
 50
255.764876
 51
309.53945
  0
LINE
  5
4EA
330
1F
100
AcDbEntity
  8
LC-002-100-D00-0
 62
     7
370
    50
100
AcDbLine
 10
543.053722
 20
390.61233
 30
0.0
 11
630.773746
 21
390.61233
 31
0.0
  0
LINE
  5
4EB
330
1F
100
AcDbEntity
  8
LC-002-100-D00-0
 62
     7
370
    50
100
AcDbLine
 10
630.773746
 20
390.61233
 30
0.0
 11
630.77374
 21
389.300154
 31
0.0
  0
LINE
  5
4EC
330
1F
100
AcDbEntity
  8
LC-002-100-D00-0
 62
     7
370
    50
100
AcDbLine
 10
630.77374
 20
389.300154
 30
0.0
 11
627.27374
 21
388.362327
 31
0.0
  0
LINE
  5
4ED
330
1F
100
AcDbEntity
  8
LC-002-100-D00-0
 62
     7
370
    50
100
AcDbLine
 10
627.27374
 20
388.362327
 30
0.0
 11
544.24873
 21
388.36233
 31
0.0
  0
ARC
  5
4EE
330
1F
100
AcDbEntity
  8
LC-002-100-D00-0
 62
     7
370
    50
100
AcDbCircle
 10
524.273746
 20
413.36233
 30
0.0
 40
32.0
100
AcDbArc
 50
270.0
 51
308.624833
  0
LINE
  5
4EF
330
1F
100
AcDbEntity
  8
LC-002-100-D00-0
 62
     7
370
    50
100
AcDbLine
 10
524.273746
 20
381.36233
 30
0.0
 11
515.773745
 21
381.362327
 31
0.0
  0
LINE
  5
4F0
330
1F
100
AcDbEntity
  8
LC-002-100-D00-0
 62
     7
370
    50
100
AcDbLine
 10
630.773746
 20
436.11233
 30
0.0
 11
630.773746
 21
390.61233
 31
0.0
  0
LINE
  5
4F1
330
1F
100
AcDbEntity
  8
LC-002-100-D00-0
 62
     7
370
    50
100
AcDbLine
 10
543.053722
 20
436.11233
 30
0.0
 11
543.053722
 21
390.61233
 31
0.0
  0
LINE
  5
4F2
330
1F
100
AcDbEntity
  8
LC-002-100-D00-0
 62
     7
370
    50
100
AcDbLine
 10
515.773746
 20
384.927127
 30
0.0
 11
515.773746
 21
383.798839
 31
0.0
  0
CIRCLE
  5
4F3
330
1F
100
AcDbEntity
  8
LC-002-100-D00-0
 62
     7
370
    50
100
AcDbCircle
 10
532.521745
 20
440.36233
 30
0.0
 40
1.999999999999886
  0
CIRCLE
  5
4F4
330
1F
100
AcDbEntity
  8
LC-002-100-D00-0
 62
     7
370
    50
100
AcDbCircle
 10
532.521745
 20
386.36233
 30
0.0
 40
2.000000000000227
  0
LINE
  5
4F5
330
1F
100
AcDbEntity
  8
LC-002-100-D00-0
 62
     7
370
    50
100
AcDbLine
 10
514.616286
 20
448.777144
 30
0.0
 11
496.782615
 21
443.998627
 31
0.0
  0
ARC
  5
4F6
330
1F
100
AcDbEntity
  8
LC-002-100-D00-0
 62
     7
370
    50
100
AcDbCircle
 10
495.747339
 20
447.86233
 30
0.0
 40
4.0
100
AcDbArc
 50
270.0
 51
285.0
  0
LINE
  5
4F7
330
1F
100
AcDbEntity
  8
LC-002-100-D00-0
 62
     7
370
    50
100
AcDbLine
 10
495.747339
 20
443.86233
 30
0.0
 11
479.073949
 21
443.86233
 31
0.0
  0
ARC
  5
4F8
330
1F
100
AcDbEntity
  8
LC-002-100-D00-0
 62
     7
370
    50
100
AcDbCircle
 10
479.073949
 20
442.86233
 30
0.0
 40
1.0
100
AcDbArc
 50
90.0
 51
180.0
  0
LINE
  5
4F9
330
1F
100
AcDbEntity
  8
LC-002-100-D00-0
 62
     7
370
    50
100
AcDbLine
 10
478.073949
 20
442.86233
 30
0.0
 11
478.073949
 21
438.862328
 31
0.0
  0
LINE
  5
4FA
330
1F
100
AcDbEntity
  8
LC-002-100-D00-0
 62
     7
370
    50
100
AcDbLine
 10
478.073949
 20
438.862328
 30
0.0
 11
476.573949
 21
438.86233
 31
0.0
  0
LINE
  5
4FB
330
1F
100
AcDbEntity
  8
LC-002-100-D00-0
 62
     7
370
    50
100
AcDbLine
 10
476.573949
 20
442.86233
 30
0.0
 11
476.573949
 21
438.86233
 31
0.0
  0
ARC
  5
4FC
330
1F
100
AcDbEntity
  8
LC-002-100-D00-0
 62
     7
370
    50
100
AcDbCircle
 10
479.073949
 20
442.86233
 30
0.0
 40
2.5
100
AcDbArc
 50
90.0
 51
180.0
  0
LINE
  5
4FD
330
1F
100
AcDbEntity
  8
LC-002-100-D00-0
 62
     7
370
    50
100
AcDbLine
 10
495.747339
 20
445.36233
 30
0.0
 11
479.073949
 21
445.36233
 31
0.0
  0
ARC
  5
4FE
330
1F
100
AcDbEntity
  8
LC-002-100-D00-0
 62
     7
370
    50
100
AcDbCircle
 10
495.747339
 20
447.86233
 30
0.0
 40
2.5
100
AcDbArc
 50
270.0
 51
285.0
  0
LINE
  5
4FF
330
1F
100
AcDbEntity
  8
LC-002-100-D00-0
 62
     7
370
    50
100
AcDbLine
 10
514.228058
 20
450.226033
 30
0.0
 11
496.394386
 21
445.447515
 31
0.0
  0
ARC
  5
500
330
1F
100
AcDbEntity
  8
LC-002-100-D00-0
 62
     7
370
    50
100
AcDbCircle
 10
515.263334
 20
446.36233
 30
0.0
 40
4.0
100
AcDbArc
 50
90.0
 51
105.0
  0
LINE
  5
501
330
1F
100
AcDbEntity
  8
LC-002-100-D00-0
 62
     7
370
    50
100
AcDbLine
 10
515.263334
 20
450.36233
 30
0.0
 11
516.773948
 21
450.362329
 31
0.0
  0
LINE
  5
502
330
1F
100
AcDbEntity
  8
LC-002-100-D00-0
 62
     7
370
    50
100
AcDbLine
 10
516.773948
 20
450.362329
 30
0.0
 11
516.773948
 21
451.762331
 31
0.0
  0
LINE
  5
503
330
1F
100
AcDbEntity
  8
LC-002-100-D00-0
 62
     7
370
    50
100
AcDbLine
 10
517.273949
 20
451.76233
 30
0.0
 11
516.773948
 21
451.762331
 31
0.0
  0
ARC
  5
504
330
1F
100
AcDbEntity
  8
LC-002-100-D00-0
 62
     7
370
    50
100
AcDbCircle
 10
516.273949
 20
453.26233
 30
0.0
 40
1.802775637731932
100
AcDbArc
 50
303.690068
 51
56.309932
  0
LINE
  5
505
330
1F
100
AcDbEntity
  8
LC-002-100-D00-0
 62
     7
370
    50
100
AcDbLine
 10
517.273949
 20
469.36233
 30
0.0
 11
517.273949
 21
454.76233
 31
0.0
  0
LINE
  5
506
330
1F
100
AcDbEntity
  8
LC-002-100-D00-0
 62
     7
370
    50
100
AcDbLine
 10
518.273951
 20
470.36233
 30
0.0
 11
517.273949
 21
469.36233
 31
0.0
  0
LINE
  5
507
330
1F
100
AcDbEntity
  8
LC-002-100-D00-0
 62
     7
370
    50
100
AcDbLine
 10
524.273949
 20
470.36233
 30
0.0
 11
518.273951
 21
470.36233
 31
0.0
  0
LINE
  5
508
330
1F
100
AcDbEntity
  8
LC-002-100-D00-0
 62
     7
370
    50
100
AcDbLine
 10
525.273951
 20
469.36233
 30
0.0
 11
524.273949
 21
470.36233
 31
0.0
  0
LINE
  5
509
330
1F
100
AcDbEntity
  8
LC-002-100-D00-0
 62
     7
370
    50
100
AcDbLine
 10
525.273949
 20
454.76233
 30
0.0
 11
525.273951
 21
469.36233
 31
0.0
  0
ARC
  5
50A
330
1F
100
AcDbEntity
  8
LC-002-100-D00-0
 62
     7
370
    50
100
AcDbCircle
 10
526.273949
 20
453.26233
 30
0.0
 40
1.80277563773231
100
AcDbArc
 50
123.690068
 51
236.309932
  0
LINE
  5
50B
330
1F
100
AcDbEntity
  8
LC-002-100-D00-0
 62
     7
370
    50
100
AcDbLine
 10
525.773952
 20
451.762331
 30
0.0
 11
525.273949
 21
451.76233
 31
0.0
  0
LINE
  5
50C
330
1F
100
AcDbEntity
  8
LC-002-100-D00-0
 62
     7
370
    50
100
AcDbLine
 10
525.773952
 20
451.762331
 30
0.0
 11
525.773952
 21
450.362329
 31
0.0
  0
LINE
  5
50D
330
1F
100
AcDbEntity
  8
LC-002-100-D00-0
 62
     7
370
    50
100
AcDbLine
 10
525.773952
 20
450.362329
 30
0.0
 11
626.773955
 21
450.362329
 31
0.0
  0
LINE
  5
50E
330
1F
100
AcDbEntity
  8
LC-002-100-D00-0
 62
     7
370
    50
100
AcDbLine
 10
626.773955
 20
450.362329
 30
0.0
 11
626.773955
 21
451.762331
 31
0.0
  0
LINE
  5
50F
330
1F
100
AcDbEntity
  8
LC-002-100-D00-0
 62
     7
370
    50
100
AcDbLine
 10
627.273949
 20
451.76233
 30
0.0
 11
626.773955
 21
451.762331
 31
0.0
  0
ARC
  5
510
330
1F
100
AcDbEntity
  8
LC-002-100-D00-0
 62
     7
370
    50
100
AcDbCircle
 10
626.273949
 20
453.26233
 30
0.0
 40
1.802775637731932
100
AcDbArc
 50
303.690068
 51
56.309932
  0
LINE
  5
511
330
1F
100
AcDbEntity
  8
LC-002-100-D00-0
 62
     7
370
    50
100
AcDbLine
 10
627.273949
 20
469.36233
 30
0.0
 11
627.273949
 21
454.76233
 31
0.0
  0
LINE
  5
512
330
1F
100
AcDbEntity
  8
LC-002-100-D00-0
 62
     7
370
    50
100
AcDbLine
 10
628.273951
 20
470.36233
 30
0.0
 11
627.273949
 21
469.36233
 31
0.0
  0
LINE
  5
513
330
1F
100
AcDbEntity
  8
LC-002-100-D00-0
 62
     7
370
    50
100
AcDbLine
 10
634.273948
 20
470.36233
 30
0.0
 11
628.273951
 21
470.36233
 31
0.0
  0
LINE
  5
514
330
1F
100
AcDbEntity
  8
LC-002-100-D00-0
 62
     7
370
    50
100
AcDbLine
 10
635.27395
 20
469.36233
 30
0.0
 11
634.273948
 21
470.36233
 31
0.0
  0
LINE
  5
515
330
1F
100
AcDbEntity
  8
LC-002-100-D00-0
 62
     7
370
    50
100
AcDbLine
 10
635.273949
 20
454.76233
 30
0.0
 11
635.27395
 21
469.36233
 31
0.0
  0
ARC
  5
516
330
1F
100
AcDbEntity
  8
LC-002-100-D00-0
 62
     7
370
    50
100
AcDbCircle
 10
636.273949
 20
453.26233
 30
0.0
 40
1.802775637732247
100
AcDbArc
 50
123.690068
 51
236.309932
  0
LINE
  5
517
330
1F
100
AcDbEntity
  8
LC-002-100-D00-0
 62
     7
370
    50
100
AcDbLine
 10
635.773944
 20
451.762331
 30
0.0
 11
635.273949
 21
451.76233
 31
0.0
  0
LINE
  5
518
330
1F
100
AcDbEntity
  8
LC-002-100-D00-0
 62
     7
370
    50
100
AcDbLine
 10
635.773944
 20
451.762331
 30
0.0
 11
635.773944
 21
450.362329
 31
0.0
  0
LINE
  5
519
330
1F
100
AcDbEntity
  8
LC-002-100-D00-0
 62
     7
370
    50
100
AcDbLine
 10
635.773944
 20
450.362329
 30
0.0
 11
736.77394
 21
450.362329
 31
0.0
  0
LINE
  5
51A
330
1F
100
AcDbEntity
  8
LC-002-100-D00-0
 62
     7
370
    50
100
AcDbLine
 10
736.77394
 20
450.362329
 30
0.0
 11
736.77394
 21
451.762331
 31
0.0
  0
LINE
  5
51B
330
1F
100
AcDbEntity
  8
LC-002-100-D00-0
 62
     7
370
    50
100
AcDbLine
 10
737.273949
 20
451.76233
 30
0.0
 11
736.77394
 21
451.762331
 31
0.0
  0
ARC
  5
51C
330
1F
100
AcDbEntity
  8
LC-002-100-D00-0
 62
     7
370
    50
100
AcDbCircle
 10
736.273949
 20
453.26233
 30
0.0
 40
1.802775637731742
100
AcDbArc
 50
303.690068
 51
56.309932
  0
LINE
  5
51D
330
1F
100
AcDbEntity
  8
LC-002-100-D00-0
 62
     7
370
    50
100
AcDbLine
 10
737.273963
 20
469.36233
 30
0.0
 11
737.273949
 21
454.76233
 31
0.0
  0
LINE
  5
51E
330
1F
100
AcDbEntity
  8
LC-002-100-D00-0
 62
     7
370
    50
100
AcDbLine
 10
738.27395
 20
470.36233
 30
0.0
 11
737.273963
 21
469.36233
 31
0.0
  0
LINE
  5
51F
330
1F
100
AcDbEntity
  8
LC-002-100-D00-0
 62
     7
370
    50
100
AcDbLine
 10
744.273962
 20
470.36233
 30
0.0
 11
738.27395
 21
470.36233
 31
0.0
  0
LINE
  5
520
330
1F
100
AcDbEntity
  8
LC-002-100-D00-0
 62
     7
370
    50
100
AcDbLine
 10
745.27395
 20
469.36233
 30
0.0
 11
744.273962
 21
470.36233
 31
0.0
  0
LINE
  5
521
330
1F
100
AcDbEntity
  8
LC-002-100-D00-0
 62
     7
370
    50
100
AcDbLine
 10
745.273949
 20
454.76233
 30
0.0
 11
745.27395
 21
469.36233
 31
0.0
  0
ARC
  5
522
330
1F
100
AcDbEntity
  8
LC-002-100-D00-0
 62
     7
370
    50
100
AcDbCircle
 10
746.273949
 20
453.26233
 30
0.0
 40
1.802775637731805
100
AcDbArc
 50
123.690068
 51
236.309932
  0
LINE
  5
523
330
1F
100
AcDbEntity
  8
LC-002-100-D00-0
 62
     7
370
    50
100
AcDbLine
 10
745.773943
 20
451.762331
 30
0.0
 11
745.273949
 21
451.76233
 31
0.0
  0
LINE
  5
524
330
1F
100
AcDbEntity
  8
LC-002-100-D00-0
 62
     7
370
    50
100
AcDbLine
 10
745.773943
 20
451.762331
 30
0.0
 11
745.773943
 21
450.362329
 31
0.0
  0
LINE
  5
525
330
1F
100
AcDbEntity
  8
LC-002-100-D00-0
 62
     7
370
    50
100
AcDbLine
 10
745.773943
 20
450.362329
 30
0.0
 11
763.273949
 21
450.36233
 31
0.0
  0
ARC
  5
526
330
1F
100
AcDbEntity
  8
LC-002-100-D00-0
 62
     7
370
    50
100
AcDbCircle
 10
763.273949
 20
458.36233
 30
0.0
 40
7.999999999999773
100
AcDbArc
 50
270.0
 51
0.0
  0
LINE
  5
527
330
1F
100
AcDbEntity
  8
LC-002-100-D00-0
 62
     7
370
    50
100
AcDbLine
 10
771.273949
 20
458.36233
 30
0.0
 11
771.273949
 21
467.86233
 31
0.0
  0
ARC
  5
528
330
1F
100
AcDbEntity
  8
LC-002-100-D00-0
 62
     7
370
    50
100
AcDbCircle
 10
774.273949
 20
467.86233
 30
0.0
 40
2.999999999999773
100
AcDbArc
 50
90.0
 51
180.0
  0
LINE
  5
529
330
1F
100
AcDbEntity
  8
LC-002-100-D00-0
 62
     7
370
    50
100
AcDbLine
 10
821.273955
 20
470.86233
 30
0.0
 11
774.273949
 21
470.86233
 31
0.0
  0
LINE
  5
52A
330
1F
100
AcDbEntity
  8
LC-002-100-D00-0
 62
     7
370
    50
100
AcDbLine
 10
821.273955
 20
469.36233
 30
0.0
 11
821.273955
 21
470.86233
 31
0.0
  0
LINE
  5
52B
330
1F
100
AcDbEntity
  8
LC-002-100-D00-0
 62
     7
370
    50
100
AcDbLine
 10
821.273955
 20
469.36233
 30
0.0
 11
774.273949
 21
469.36233
 31
0.0
  0
ARC
  5
52C
330
1F
100
AcDbEntity
  8
LC-002-100-D00-0
 62
     7
370
    50
100
AcDbCircle
 10
774.273949
 20
467.86233
 30
0.0
 40
1.499999999999773
100
AcDbArc
 50
90.0
 51
180.0
  0
LINE
  5
52D
330
1F
100
AcDbEntity
  8
LC-002-100-D00-0
 62
     7
370
    50
100
AcDbLine
 10
772.773949
 20
458.36233
 30
0.0
 11
772.773949
 21
467.86233
 31
0.0
  0
ARC
  5
52E
330
1F
100
AcDbEntity
  8
LC-002-100-D00-0
 62
     7
370
    50
100
AcDbCircle
 10
763.273949
 20
458.36233
 30
0.0
 40
9.5
100
AcDbArc
 50
270.0
 51
0.0
  0
LINE
  5
52F
330
1F
100
AcDbEntity
  8
LC-002-100-D00-0
 62
     7
370
    50
100
AcDbLine
 10
515.263334
 20
448.86233
 30
0.0
 11
763.273949
 21
448.86233
 31
0.0
  0
ARC
  5
530
330
1F
100
AcDbEntity
  8
LC-002-100-D00-0
 62
     7
370
    50
100
AcDbCircle
 10
515.263334
 20
446.36233
 30
0.0
 40
2.5
100
AcDbArc
 50
90.0
 51
105.0
  0
LINE
  5
531
330
1F
100
AcDbEntity
  8
LC-002-100-D00-0
 62
     7
370
    50
100
AcDbLine
 10
465.667832
 20
445.36233
 30
0.0
 11
479.073949
 21
445.36233
 31
0.0
  0
LINE
  5
532
330
1F
100
AcDbEntity
  8
LC-002-100-D00-0
 62
     7
370
    50
100
AcDbLine
 10
476.573949
 20
438.86233
 30
0.0
 11
476.373949
 21
438.86233
 31
0.0
  0
LINE
  5
533
330
1F
100
AcDbEntity
  8
LC-002-100-D00-0
 62
     7
370
    50
100
AcDbLine
 10
366.173949
 20
438.86233
 30
0.0
 11
365.973949
 21
438.86233
 31
0.0
  0
LINE
  5
534
330
1F
100
AcDbEntity
  8
LC-002-100-D00-0
 62
     7
370
    50
100
AcDbLine
 10
365.973949
 20
438.86233
 30
0.0
 11
365.973949
 21
442.86233
 31
0.0
  0
LINE
  5
535
330
1F
100
AcDbEntity
  8
LC-002-100-D00-0
 62
     7
370
    50
100
AcDbLine
 10
364.473948
 20
438.862328
 30
0.0
 11
364.473949
 21
442.86233
 31
0.0
  0
ARC
  5
536
330
1F
100
AcDbEntity
  8
LC-002-100-D00-0
 62
     7
370
    50
100
AcDbCircle
 10
363.473949
 20
442.86233
 30
0.0
 40
2.5
100
AcDbArc
 50
0.0
 51
90.0
  0
LINE
  5
537
330
1F
100
AcDbEntity
  8
LC-002-100-D00-0
 62
     7
370
    50
100
AcDbLine
 10
376.880065
 20
445.36233
 30
0.0
 11
363.473949
 21
445.36233
 31
0.0
  0
ARC
  5
538
330
1F
100
AcDbEntity
  8
LC-002-100-D00-0
 62
     7
370
    50
100
AcDbCircle
 10
363.473949
 20
442.86233
 30
0.0
 40
1.000000000000057
100
AcDbArc
 50
0.0
 51
90.0
  0
LINE
  5
539
330
1F
100
AcDbEntity
  8
LC-002-100-D00-0
 62
     7
370
    50
100
AcDbLine
 10
105.773957
 20
451.762331
 30
0.0
 11
105.273949
 21
451.76233
 31
0.0
  0
LINE
  5
53A
330
1F
100
AcDbEntity
  8
LC-002-100-D00-0
 62
     7
370
    50
100
AcDbLine
 10
105.773957
 20
451.762331
 30
0.0
 11
105.773957
 21
450.362329
 31
0.0
  0
LINE
  5
53B
330
1F
100
AcDbEntity
  8
LC-002-100-D00-0
 62
     7
370
    50
100
AcDbLine
 10
105.773957
 20
450.362329
 30
0.0
 11
206.773954
 21
450.362329
 31
0.0
  0
LINE
  5
53C
330
1F
100
AcDbEntity
  8
LC-002-100-D00-0
 62
     7
370
    50
100
AcDbLine
 10
206.773954
 20
450.362329
 30
0.0
 11
206.773954
 21
451.762331
 31
0.0
  0
LINE
  5
53D
330
1F
100
AcDbEntity
  8
LC-002-100-D00-0
 62
     7
370
    50
100
AcDbLine
 10
207.273949
 20
451.76233
 30
0.0
 11
206.773954
 21
451.762331
 31
0.0
  0
ARC
  5
53E
330
1F
100
AcDbEntity
  8
LC-002-100-D00-0
 62
     7
370
    50
100
AcDbCircle
 10
206.273949
 20
453.26233
 30
0.0
 40
1.802775637731932
100
AcDbArc
 50
303.690068
 51
56.309932
  0
LINE
  5
53F
330
1F
100
AcDbEntity
  8
LC-002-100-D00-0
 62
     7
370
    50
100
AcDbLine
 10
207.273947
 20
469.36233
 30
0.0
 11
207.273949
 21
454.76233
 31
0.0
  0
LINE
  5
540
330
1F
100
AcDbEntity
  8
LC-002-100-D00-0
 62
     7
370
    50
100
AcDbLine
 10
208.273949
 20
470.36233
 30
0.0
 11
207.273947
 21
469.36233
 31
0.0
  0
LINE
  5
541
330
1F
100
AcDbEntity
  8
LC-002-100-D00-0
 62
     7
370
    50
100
AcDbLine
 10
214.273946
 20
470.36233
 30
0.0
 11
208.273949
 21
470.36233
 31
0.0
  0
LINE
  5
542
330
1F
100
AcDbEntity
  8
LC-002-100-D00-0
 62
     7
370
    50
100
AcDbLine
 10
215.273948
 20
469.36233
 30
0.0
 11
214.273946
 21
470.36233
 31
0.0
  0
LINE
  5
543
330
1F
100
AcDbEntity
  8
LC-002-100-D00-0
 62
     7
370
    50
100
AcDbLine
 10
215.273949
 20
454.76233
 30
0.0
 11
215.273948
 21
469.36233
 31
0.0
  0
ARC
  5
544
330
1F
100
AcDbEntity
  8
LC-002-100-D00-0
 62
     7
370
    50
100
AcDbCircle
 10
216.273949
 20
453.26233
 30
0.0
 40
1.802775637732089
100
AcDbArc
 50
123.690068
 51
236.309932
  0
LINE
  5
545
330
1F
100
AcDbEntity
  8
LC-002-100-D00-0
 62
     7
370
    50
100
AcDbLine
 10
215.773942
 20
451.762331
 30
0.0
 11
215.273949
 21
451.76233
 31
0.0
  0
LINE
  5
546
330
1F
100
AcDbEntity
  8
LC-002-100-D00-0
 62
     7
370
    50
100
AcDbLine
 10
215.773942
 20
451.762331
 30
0.0
 11
215.773942
 21
450.362329
 31
0.0
  0
LINE
  5
547
330
1F
100
AcDbEntity
  8
LC-002-100-D00-0
 62
     7
370
    50
100
AcDbLine
 10
215.773942
 20
450.362329
 30
0.0
 11
316.773945
 21
450.362329
 31
0.0
  0
LINE
  5
548
330
1F
100
AcDbEntity
  8
LC-002-100-D00-0
 62
     7
370
    50
100
AcDbLine
 10
316.773945
 20
450.362329
 30
0.0
 11
316.773945
 21
451.762331
 31
0.0
  0
LINE
  5
549
330
1F
100
AcDbEntity
  8
LC-002-100-D00-0
 62
     7
370
    50
100
AcDbLine
 10
317.273949
 20
451.76233
 30
0.0
 11
316.773945
 21
451.762331
 31
0.0
  0
ARC
  5
54A
330
1F
100
AcDbEntity
  8
LC-002-100-D00-0
 62
     7
370
    50
100
AcDbCircle
 10
316.273949
 20
453.26233
 30
0.0
 40
1.802775637731963
100
AcDbArc
 50
303.690068
 51
56.309932
  0
LINE
  5
54B
330
1F
100
AcDbEntity
  8
LC-002-100-D00-0
 62
     7
370
    50
100
AcDbLine
 10
317.273946
 20
469.36233
 30
0.0
 11
317.273949
 21
454.76233
 31
0.0
  0
LINE
  5
54C
330
1F
100
AcDbEntity
  8
LC-002-100-D00-0
 62
     7
370
    50
100
AcDbLine
 10
318.273948
 20
470.36233
 30
0.0
 11
317.273946
 21
469.36233
 31
0.0
  0
LINE
  5
54D
330
1F
100
AcDbEntity
  8
LC-002-100-D00-0
 62
     7
370
    50
100
AcDbLine
 10
324.273946
 20
470.36233
 30
0.0
 11
318.273948
 21
470.36233
 31
0.0
  0
LINE
  5
54E
330
1F
100
AcDbEntity
  8
LC-002-100-D00-0
 62
     7
370
    50
100
AcDbLine
 10
325.273948
 20
469.36233
 30
0.0
 11
324.273946
 21
470.36233
 31
0.0
  0
LINE
  5
54F
330
1F
100
AcDbEntity
  8
LC-002-100-D00-0
 62
     7
370
    50
100
AcDbLine
 10
325.273949
 20
454.76233
 30
0.0
 11
325.273948
 21
469.36233
 31
0.0
  0
ARC
  5
550
330
1F
100
AcDbEntity
  8
LC-002-100-D00-0
 62
     7
370
    50
100
AcDbCircle
 10
326.273949
 20
453.26233
 30
0.0
 40
1.802775637732121
100
AcDbArc
 50
123.690068
 51
236.309932
  0
LINE
  5
551
330
1F
100
AcDbEntity
  8
LC-002-100-D00-0
 62
     7
370
    50
100
AcDbLine
 10
325.773949
 20
451.762331
 30
0.0
 11
325.273949
 21
451.76233
 31
0.0
  0
LINE
  5
552
330
1F
100
AcDbEntity
  8
LC-002-100-D00-0
 62
     7
370
    50
100
AcDbLine
 10
325.773949
 20
451.762331
 30
0.0
 11
325.773949
 21
450.362329
 31
0.0
  0
LINE
  5
553
330
1F
100
AcDbEntity
  8
LC-002-100-D00-0
 62
     7
370
    50
100
AcDbLine
 10
325.773949
 20
450.362329
 30
0.0
 11
327.284563
 21
450.36233
 31
0.0
  0
ARC
  5
554
330
1F
100
AcDbEntity
  8
LC-002-100-D00-0
 62
     7
370
    50
100
AcDbCircle
 10
327.284563
 20
446.36233
 30
0.0
 40
3.999999999999873
100
AcDbArc
 50
75.0
 51
90.0
  0
LINE
  5
555
330
1F
100
AcDbEntity
  8
LC-002-100-D00-0
 62
     7
370
    50
100
AcDbLine
 10
346.153511
 20
445.447515
 30
0.0
 11
328.31984
 21
450.226033
 31
0.0
  0
ARC
  5
556
330
1F
100
AcDbEntity
  8
LC-002-100-D00-0
 62
     7
370
    50
100
AcDbCircle
 10
346.800559
 20
447.86233
 30
0.0
 40
2.500000000000062
100
AcDbArc
 50
255.0
 51
270.0
  0
LINE
  5
557
330
1F
100
AcDbEntity
  8
LC-002-100-D00-0
 62
     7
370
    50
100
AcDbLine
 10
352.19674
 20
445.262331
 30
0.0
 11
352.19674
 21
445.36233
 31
0.0
  0
LINE
  5
558
330
1F
100
AcDbEntity
  8
LC-002-100-D00-0
 62
     7
370
    50
100
AcDbLine
 10
352.720575
 20
445.262331
 30
0.0
 11
352.19674
 21
445.262331
 31
0.0
  0
LINE
  5
559
330
1F
100
AcDbEntity
  8
LC-002-100-D00-0
 62
     7
370
    50
100
AcDbLine
 10
352.720575
 20
445.36233
 30
0.0
 11
352.720575
 21
445.262331
 31
0.0
  0
LINE
  5
55A
330
1F
100
AcDbEntity
  8
LC-002-100-D00-0
 62
     7
370
    50
100
AcDbLine
 10
353.41482
 20
445.262331
 30
0.0
 11
353.41482
 21
445.36233
 31
0.0
  0
LINE
  5
55B
330
1F
100
AcDbEntity
  8
LC-002-100-D00-0
 62
     7
370
    50
100
AcDbLine
 10
353.93917
 20
445.262331
 30
0.0
 11
353.41482
 21
445.262331
 31
0.0
  0
LINE
  5
55C
330
1F
100
AcDbEntity
  8
LC-002-100-D00-0
 62
     7
370
    50
100
AcDbLine
 10
353.93917
 20
445.36233
 30
0.0
 11
353.93917
 21
445.262331
 31
0.0
  0
ARC
  5
55D
330
1F
100
AcDbEntity
  8
LC-002-100-D00-0
 62
     7
370
    50
100
AcDbCircle
 10
346.800559
 20
447.86233
 30
0.0
 40
3.999999999999888
100
AcDbArc
 50
255.0
 51
270.0
  0
LINE
  5
55E
330
1F
100
AcDbEntity
  8
LC-002-100-D00-0
 62
     7
370
    50
100
AcDbLine
 10
345.765282
 20
443.998627
 30
0.0
 11
327.931611
 21
448.777144
 31
0.0
  0
ARC
  5
55F
330
1F
100
AcDbEntity
  8
LC-002-100-D00-0
 62
     7
370
    50
100
AcDbCircle
 10
327.284563
 20
446.36233
 30
0.0
 40
2.500000000000062
100
AcDbArc
 50
75.0
 51
90.0
  0
LINE
  5
560
330
1F
100
AcDbEntity
  8
LC-002-100-D00-0
 62
     7
370
    50
100
AcDbLine
 10
79.273949
 20
448.86233
 30
0.0
 11
327.284563
 21
448.86233
 31
0.0
  0
ARC
  5
561
330
1F
100
AcDbEntity
  8
LC-002-100-D00-0
 62
     7
370
    50
100
AcDbCircle
 10
79.273949
 20
458.36233
 30
0.0
 40
9.5
100
AcDbArc
 50
180.0
 51
270.0
  0
LINE
  5
562
330
1F
100
AcDbEntity
  8
LC-002-100-D00-0
 62
     7
370
    50
100
AcDbLine
 10
69.773949
 20
467.86233
 30
0.0
 11
69.773949
 21
458.36233
 31
0.0
  0
ARC
  5
563
330
1F
100
AcDbEntity
  8
LC-002-100-D00-0
 62
     7
370
    50
100
AcDbCircle
 10
68.273949
 20
467.86233
 30
0.0
 40
1.5
100
AcDbArc
 50
0.0
 51
90.0
  0
LINE
  5
564
330
1F
100
AcDbEntity
  8
LC-002-100-D00-0
 62
     7
370
    50
100
AcDbLine
 10
21.273943
 20
470.86233
 30
0.0
 11
21.273943
 21
469.36233
 31
0.0
  0
ARC
  5
565
330
1F
100
AcDbEntity
  8
LC-002-100-D00-0
 62
     7
370
    50
100
AcDbCircle
 10
68.273949
 20
467.86233
 30
0.0
 40
2.999999999999972
100
AcDbArc
 50
0.0
 51
90.0
  0
LINE
  5
566
330
1F
100
AcDbEntity
  8
LC-002-100-D00-0
 62
     7
370
    50
100
AcDbLine
 10
71.273949
 20
467.86233
 30
0.0
 11
71.273949
 21
458.36233
 31
0.0
  0
ARC
  5
567
330
1F
100
AcDbEntity
  8
LC-002-100-D00-0
 62
     7
370
    50
100
AcDbCircle
 10
79.273949
 20
458.36233
 30
0.0
 40
8.000000000000114
100
AcDbArc
 50
180.0
 51
270.0
  0
LINE
  5
568
330
1F
100
AcDbEntity
  8
LC-002-100-D00-0
 62
     7
370
    50
100
AcDbLine
 10
79.273949
 20
450.36233
 30
0.0
 11
96.773954
 21
450.362329
 31
0.0
  0
LINE
  5
569
330
1F
100
AcDbEntity
  8
LC-002-100-D00-0
 62
     7
370
    50
100
AcDbLine
 10
96.773954
 20
450.362329
 30
0.0
 11
96.773954
 21
451.762331
 31
0.0
  0
LINE
  5
56A
330
1F
100
AcDbEntity
  8
LC-002-100-D00-0
 62
     7
370
    50
100
AcDbLine
 10
97.273949
 20
451.76233
 30
0.0
 11
96.773954
 21
451.762331
 31
0.0
  0
ARC
  5
56B
330
1F
100
AcDbEntity
  8
LC-002-100-D00-0
 62
     7
370
    50
100
AcDbCircle
 10
96.273949
 20
453.26233
 30
0.0
 40
1.802775637731679
100
AcDbArc
 50
303.690068
 51
56.309932
  0
LINE
  5
56C
330
1F
100
AcDbEntity
  8
LC-002-100-D00-0
 62
     7
370
    50
100
AcDbLine
 10
97.273948
 20
469.36233
 30
0.0
 11
97.273949
 21
454.76233
 31
0.0
  0
LINE
  5
56D
330
1F
100
AcDbEntity
  8
LC-002-100-D00-0
 62
     7
370
    50
100
AcDbLine
 10
98.273935
 20
470.36233
 30
0.0
 11
97.273948
 21
469.36233
 31
0.0
  0
LINE
  5
56E
330
1F
100
AcDbEntity
  8
LC-002-100-D00-0
 62
     7
370
    50
100
AcDbLine
 10
104.273947
 20
470.36233
 30
0.0
 11
98.273935
 21
470.36233
 31
0.0
  0
LINE
  5
56F
330
1F
100
AcDbEntity
  8
LC-002-100-D00-0
 62
     7
370
    50
100
AcDbLine
 10
105.273934
 20
469.36233
 30
0.0
 11
104.273947
 21
470.36233
 31
0.0
  0
LINE
  5
570
330
1F
100
AcDbEntity
  8
LC-002-100-D00-0
 62
     7
370
    50
100
AcDbLine
 10
105.273949
 20
454.76233
 30
0.0
 11
105.273934
 21
469.36233
 31
0.0
  0
ARC
  5
571
330
1F
100
AcDbEntity
  8
LC-002-100-D00-0
 62
     7
370
    50
100
AcDbCircle
 10
106.273949
 20
453.26233
 30
0.0
 40
1.802775637731837
100
AcDbArc
 50
123.690068
 51
236.309932
  0
LINE
  5
572
330
1F
100
AcDbEntity
  8
LC-002-100-D00-0
 62
     7
370
    50
100
AcDbLine
 10
365.973949
 20
438.86233
 30
0.0
 11
364.473948
 21
438.862328
 31
0.0
  0
LINE
  5
573
330
1F
100
AcDbEntity
  8
LC-002-100-D00-0
 62
     7
370
    50
100
AcDbLine
 10
363.473949
 20
443.86233
 30
0.0
 11
346.800559
 21
443.86233
 31
0.0
  0
LINE
  5
574
330
1F
100
AcDbEntity
  8
LC-002-100-D00-0
 62
     7
370
    50
100
AcDbLine
 10
353.41482
 20
445.36233
 30
0.0
 11
352.720575
 21
445.36233
 31
0.0
  0
LINE
  5
575
330
1F
100
AcDbEntity
  8
LC-002-100-D00-0
 62
     7
370
    50
100
AcDbLine
 10
352.19674
 20
445.36233
 30
0.0
 11
346.800559
 21
445.36233
 31
0.0
  0
LINE
  5
576
330
1F
100
AcDbEntity
  8
LC-002-100-D00-0
 62
     7
370
    50
100
AcDbLine
 10
363.473949
 20
445.36233
 30
0.0
 11
353.93917
 21
445.36233
 31
0.0
  0
LINE
  5
577
330
1F
100
AcDbEntity
  8
LC-002-100-D00-0
 62
     7
370
    50
100
AcDbLine
 10
68.273949
 20
470.86233
 30
0.0
 11
21.273943
 21
470.86233
 31
0.0
  0
LINE
  5
578
330
1F
100
AcDbEntity
  8
LC-002-100-D00-0
 62
     7
370
    50
100
AcDbLine
 10
68.273949
 20
469.36233
 30
0.0
 11
21.273943
 21
469.36233
 31
0.0
  0
LINE
  5
579
330
1F
100
AcDbEntity
  8
LC-002-100-D00-0
 62
     7
370
    50
100
AcDbLine
 10
353.41482
 20
445.36233
 30
0.0
 11
353.93917
 21
445.36233
 31
0.0
  0
LINE
  5
57A
330
1F
100
AcDbEntity
  8
LC-002-100-D00-0
 62
     7
370
    50
100
AcDbLine
 10
352.19674
 20
445.36233
 30
0.0
 11
352.720575
 21
445.36233
 31
0.0
  0
ELLIPSE
  5
57B
330
1F
100
AcDbEntity
  8
LC-002-100-D00-0
 62
     7
370
    50
100
AcDbEllipse
 10
626.295766
 20
446.36233
 30
0.0
 11
0.0
 21
-2.499999999999858
 31
0.0
210
0.0
220
0.0
230
1.0
 40
0.027578
 41
0.0
 42
0.3217505543972286
  0
ELLIPSE
  5
57C
330
1F
100
AcDbEntity
  8
LC-002-100-D00-0
 62
     7
370
    50
100
AcDbEllipse
 10
216.252131
 20
446.36233
 30
0.0
 11
0.0
 21
-2.500000001907349
 31
0.0
210
0.0
220
0.0
230
1.0
 40
0.027578
 41
5.961434752782871
 42
6.283185307179998
  0
LINE
  5
57D
330
1F
100
AcDbEntity
  8
LC-002-100-D00-0
 62
     7
370
    50
100
AcDbLine
 10
626.273947
 20
448.733677
 30
0.0
 11
626.273947
 21
444.068289
 31
0.0
  0
LINE
  5
57E
330
1F
100
AcDbEntity
  8
LC-002-100-D00-0
 62
     7
370
    50
100
AcDbLine
 10
216.27395
 20
448.733677
 30
0.0
 11
216.27395
 21
444.068289
 31
0.0
  0
INSERT
  5
588
330
1F
100
AcDbEntity
  8
LC-002-100-D00-0
 62
     7
370
    50
100
AcDbBlockReference
  2
KLON14
 10
0.0
 20
0.0
 30
0.0
  0
INSERT
  5
592
330
1F
100
AcDbEntity
  8
LC-002-100-D00-0
 62
     7
370
    50
100
AcDbBlockReference
  2
KLON15
 10
0.0
 20
0.0
 30
0.0
  0
LINE
  5
593
330
1F
100
AcDbEntity
  8
LC-002-100-D00-0
 62
     7
370
    50
100
AcDbLine
 10
626.273932
 20
443.862329
 30
0.0
 11
626.273917
 21
444.067596
 31
0.0
  0
LINE
  5
594
330
1F
100
AcDbEntity
  8
LC-002-100-D00-0
 62
     7
370
    50
100
AcDbLine
 10
626.273947
 20
443.862329
 30
0.0
 11
754.181625
 21
448.530494
 31
0.0
  0
LINE
  5
595
330
1F
100
AcDbEntity
  8
LC-002-100-D00-0
 62
     7
370
    50
100
AcDbLine
 10
626.273932
 20
443.862329
 30
0.0
 11
626.273932
 21
443.862329
 31
0.0
  0
LINE
  5
596
330
1F
100
AcDbEntity
  8
LC-002-100-D00-0
 62
     7
370
    50
100
AcDbLine
 10
216.273965
 20
443.862329
 30
0.0
 11
216.27398
 21
444.067596
 31
0.0
  0
LINE
  5
597
330
1F
100
AcDbEntity
  8
LC-002-100-D00-0
 62
     7
370
    50
100
AcDbLine
 10
216.27395
 20
443.862329
 30
0.0
 11
88.366272
 21
448.530494
 31
0.0
  0
LINE
  5
598
330
1F
100
AcDbEntity
  8
LC-002-100-D00-0
 62
     7
370
    50
100
AcDbLine
 10
216.273965
 20
443.862329
 30
0.0
 11
216.273965
 21
443.862329
 31
0.0
  0
LINE
  5
599
330
1F
100
AcDbEntity
  8
LC-002-100-D00-0
 62
     7
370
    50
100
AcDbLine
 10
463.060105
 20
436.86233
 30
0.0
 11
465.361815
 21
436.86233
 31
0.0
  0
LINE
  5
59A
330
1F
100
AcDbEntity
  8
LC-002-100-D00-0
 62
     7
370
    50
100
AcDbLine
 10
466.423864
 20
435.36233
 30
0.0
 11
466.519451
 21
435.37039
 31
0.0
  0
LINE
  5
59B
330
1F
100
AcDbEntity
  8
LC-002-100-D00-0
 62
     7
370
    50
100
AcDbLine
 10
466.423864
 20
435.36233
 30
0.0
 11
463.060105
 21
435.36233
 31
0.0
  0
LINE
  5
59C
330
1F
100
AcDbEntity
  8
LC-002-100-D00-0
 62
     7
370
    50
100
AcDbLine
 10
376.028446
 20
435.37039
 30
0.0
 11
376.124033
 21
435.36233
 31
0.0
  0
LINE
  5
59D
330
1F
100
AcDbEntity
  8
LC-002-100-D00-0
 62
     7
370
    50
100
AcDbLine
 10
377.186082
 20
436.86233
 30
0.0
 11
379.487792
 21
436.86233
 31
0.0
  0
LINE
  5
59E
330
1F
100
AcDbEntity
  8
LC-002-100-D00-0
 62
     7
370
    50
100
AcDbLine
 10
379.487792
 20
435.36233
 30
0.0
 11
376.124033
 21
435.36233
 31
0.0
  0
LINE
  5
59F
330
1F
100
AcDbEntity
  8
LC-002-100-D00-0
 62
     7
370
    50
100
AcDbLine
 10
463.060105
 20
436.86233
 30
0.0
 11
462.283177
 21
436.86233
 31
0.0
  0
LINE
  5
5A0
330
1F
100
AcDbEntity
  8
LC-002-100-D00-0
 62
     7
370
    50
100
AcDbLine
 10
463.060105
 20
435.36233
 30
0.0
 11
462.283177
 21
435.36233
 31
0.0
  0
LINE
  5
5A1
330
1F
100
AcDbEntity
  8
LC-002-100-D00-0
 62
     7
370
    50
100
AcDbLine
 10
379.487792
 20
436.86233
 30
0.0
 11
380.26472
 21
436.86233
 31
0.0
  0
LINE
  5
5A2
330
1F
100
AcDbEntity
  8
LC-002-100-D00-0
 62
     7
370
    50
100
AcDbLine
 10
379.487792
 20
435.36233
 30
0.0
 11
380.26472
 21
435.36233
 31
0.0
  0
LINE
  5
5A3
330
1F
100
AcDbEntity
  8
LC-002-100-D00-0
 62
     7
370
    50
100
AcDbLine
 10
495.747339
 20
443.86233
 30
0.0
 11
497.847939
 21
443.862329
 31
0.0
  0
LINE
  5
5A4
330
1F
100
AcDbEntity
  8
LC-002-100-D00-0
 62
     7
370
    50
100
AcDbLine
 10
346.800559
 20
443.86233
 30
0.0
 11
344.699958
 21
443.862329
 31
0.0
  0
LINE
  5
5A5
330
1F
100
AcDbEntity
  8
LC-002-100-D00-0
 62
     7
370
    50
100
AcDbLine
 10
461.01275
 20
436.86233
 30
0.0
 11
462.283177
 21
436.86233
 31
0.0
  0
LINE
  5
5A6
330
1F
100
AcDbEntity
  8
LC-002-100-D00-0
 62
     7
370
    50
100
AcDbLine
 10
462.283177
 20
435.36233
 30
0.0
 11
460.988364
 21
435.36233
 31
0.0
  0
LINE
  5
5A7
330
1F
100
AcDbEntity
  8
LC-002-100-D00-0
 62
     7
370
    50
100
AcDbLine
 10
380.26472
 20
436.86233
 30
0.0
 11
381.535147
 21
436.86233
 31
0.0
  0
LINE
  5
5A8
330
1F
100
AcDbEntity
  8
LC-002-100-D00-0
 62
     7
370
    50
100
AcDbLine
 10
381.559534
 20
435.36233
 30
0.0
 11
380.26472
 21
435.36233
 31
0.0
  0
LINE
  5
5A9
330
1F
100
AcDbEntity
  8
LC-002-100-D00-0
 62
     7
370
    50
100
AcDbLine
 10
497.847939
 20
443.862329
 30
0.0
 11
515.773745
 21
443.862329
 31
0.0
  0
LINE
  5
5AA
330
1F
100
AcDbEntity
  8
LC-002-100-D00-0
 62
     7
370
    50
100
AcDbLine
 10
533.956202
 20
443.862329
 30
0.0
 11
626.273932
 21
443.862329
 31
0.0
  0
LINE
  5
5AB
330
1F
100
AcDbEntity
  8
LC-002-100-D00-0
 62
     7
370
    50
100
AcDbLine
 10
344.699958
 20
443.862329
 30
0.0
 11
216.273965
 21
443.862329
 31
0.0
  0
ARC
  5
5AC
330
1F
100
AcDbEntity
  8
LC-002-100-D00-0
 62
     7
370
    50
100
AcDbCircle
 10
465.789576
 20
436.796481
 30
0.0
 40
1.602014939990651
100
AcDbArc
 50
297.103406
 51
2.355668
  0
INSERT
  5
5B5
330
1F
100
AcDbEntity
  8
LC-002-100-D00-0
 62
     7
370
    50
100
AcDbBlockReference
  2
KLON16
 10
0.0
 20
0.0
 30
0.0
  0
INSERT
  5
5C2
330
1F
100
AcDbEntity
  8
LC-002-100-D00-0
 62
     7
370
    50
100
AcDbBlockReference
  2
KLON17
 10
0.0
 20
0.0
 30
0.0
  0
INSERT
  5
5CF
330
1F
100
AcDbEntity
  8
LC-002-100-D00-0
 62
     7
370
    50
100
AcDbBlockReference
  2
KLON18
 10
0.0
 20
0.0
 30
0.0
  0
LINE
  5
5D0
330
1F
100
AcDbEntity
  8
LC-002-100-D00-0
 62
     7
370
    50
100
AcDbLine
 10
768.773949
 20
470.86233
 30
0.0
 11
774.273949
 21
470.86233
 31
0.0
  0
LINE
  5
5D1
330
1F
100
AcDbEntity
  8
LC-002-100-D00-0
 62
     7
370
    50
100
AcDbLine
 10
73.773949
 20
470.86233
 30
0.0
 11
68.273949
 21
470.86233
 31
0.0
  0
LINE
  5
5D2
330
1F
100
AcDbEntity
  8
LC-002-100-D00-0
 62
     7
370
    50
100
AcDbLine
 10
768.773949
 20
470.86233
 30
0.0
 11
758.523949
 21
470.86233
 31
0.0
  0
LINE
  5
5D3
330
1F
100
AcDbEntity
  8
LC-002-100-D00-0
 62
     7
370
    50
100
AcDbLine
 10
724.023949
 20
470.86233
 30
0.0
 11
648.523949
 21
470.86233
 31
0.0
  0
LINE
  5
5D4
330
1F
100
AcDbEntity
  8
LC-002-100-D00-0
 62
     7
370
    50
100
AcDbLine
 10
614.023949
 20
470.86233
 30
0.0
 11
538.523949
 21
470.86233
 31
0.0
  0
LINE
  5
5D5
330
1F
100
AcDbEntity
  8
LC-002-100-D00-0
 62
     7
370
    50
100
AcDbLine
 10
504.023949
 20
470.86233
 30
0.0
 11
338.523949
 21
470.86233
 31
0.0
  0
LINE
  5
5D6
330
1F
100
AcDbEntity
  8
LC-002-100-D00-0
 62
     7
370
    50
100
AcDbLine
 10
304.023949
 20
470.86233
 30
0.0
 11
228.523949
 21
470.86233
 31
0.0
  0
LINE
  5
5D7
330
1F
100
AcDbEntity
  8
LC-002-100-D00-0
 62
     7
370
    50
100
AcDbLine
 10
194.023949
 20
470.86233
 30
0.0
 11
118.523949
 21
470.86233
 31
0.0
  0
LINE
  5
5D8
330
1F
100
AcDbEntity
  8
LC-002-100-D00-0
 62
     7
370
    50
100
AcDbLine
 10
84.023949
 20
470.86233
 30
0.0
 11
73.773949
 21
470.86233
 31
0.0
  0
ARC
  5
5D9
330
1F
100
AcDbEntity
  8
LC-002-100-D00-0
 62
     7
370
    50
100
AcDbCircle
 10
608.373949
 20
444.26233
 30
0.0
 40
2.000000000000088
100
AcDbArc
 50
191.536959
 51
270.0
  0
LINE
  5
5DA
330
1F
100
AcDbEntity
  8
LC-002-100-D00-0
 62
     7
370
    50
100
AcDbLine
 10
608.373949
 20
442.26233
 30
0.0
 11
634.173949
 21
442.26233
 31
0.0
  0
ARC
  5
5DB
330
1F
100
AcDbEntity
  8
LC-002-100-D00-0
 62
     7
370
    50
100
AcDbCircle
 10
634.173949
 20
444.26233
 30
0.0
 40
2.0
100
AcDbArc
 50
270.0
 51
0.0
  0
LINE
  5
5DC
330
1F
100
AcDbEntity
  8
LC-002-100-D00-0
 62
     7
370
    50
100
AcDbLine
 10
638.173955
 20
444.296637
 30
0.0
 11
638.173949
 21
444.26233
 31
0.0
  0
ARC
  5
5DD
330
1F
100
AcDbEntity
  8
LC-002-100-D00-0
 62
     7
370
    50
100
AcDbCircle
 10
634.173949
 20
444.26233
 30
0.0
 40
4.0
100
AcDbArc
 50
270.0
 51
0.0
  0
LINE
  5
5DE
330
1F
100
AcDbEntity
  8
LC-002-100-D00-0
 62
     7
370
    50
100
AcDbLine
 10
634.173949
 20
440.26233
 30
0.0
 11
608.373949
 21
440.26233
 31
0.0
  0
ARC
  5
5DF
330
1F
100
AcDbEntity
  8
LC-002-100-D00-0
 62
     7
370
    50
100
AcDbCircle
 10
608.373949
 20
444.26233
 30
0.0
 40
4.00000000000005
100
AcDbArc
 50
185.73917
 51
270.0
  0
ARC
  5
5E0
330
1F
100
AcDbEntity
  8
LC-002-100-D00-0
 62
     7
370
    50
100
AcDbCircle
 10
234.173949
 20
444.26233
 30
0.0
 40
3.999999999999773
100
AcDbArc
 50
270.0
 51
354.26083
  0
LINE
  5
5E1
330
1F
100
AcDbEntity
  8
LC-002-100-D00-0
 62
     7
370
    50
100
AcDbLine
 10
208.373949
 20
440.26233
 30
0.0
 11
234.173949
 21
440.26233
 31
0.0
  0
ARC
  5
5E2
330
1F
100
AcDbEntity
  8
LC-002-100-D00-0
 62
     7
370
    50
100
AcDbCircle
 10
208.373949
 20
444.26233
 30
0.0
 40
4.0
100
AcDbArc
 50
180.0
 51
270.0
  0
LINE
  5
5E3
330
1F
100
AcDbEntity
  8
LC-002-100-D00-0
 62
     7
370
    50
100
AcDbLine
 10
204.373943
 20
444.296637
 30
0.0
 11
204.373949
 21
444.26233
 31
0.0
  0
ARC
  5
5E4
330
1F
100
AcDbEntity
  8
LC-002-100-D00-0
 62
     7
370
    50
100
AcDbCircle
 10
208.373949
 20
444.26233
 30
0.0
 40
2.000000000000057
100
AcDbArc
 50
180.0
 51
270.0
  0
LINE
  5
5E5
330
1F
100
AcDbEntity
  8
LC-002-100-D00-0
 62
     7
370
    50
100
AcDbLine
 10
234.173949
 20
442.26233
 30
0.0
 11
208.373949
 21
442.26233
 31
0.0
  0
ARC
  5
5E6
330
1F
100
AcDbEntity
  8
LC-002-100-D00-0
 62
     7
370
    50
100
AcDbCircle
 10
234.173949
 20
444.26233
 30
0.0
 40
2.0
100
AcDbArc
 50
270.0
 51
348.463041
  0
LINE
  5
5E7
330
1F
100
AcDbEntity
  8
LC-002-100-D00-0
 62
     7
370
    50
100
AcDbLine
 10
623.109685
 20
344.362334
 30
0.0
 11
612.43202
 21
344.362334
 31
0.0
  0
LINE
  5
5E8
330
1F
100
AcDbEntity
  8
LC-002-100-D00-0
 62
     7
370
    50
100
AcDbLine
 10
623.109685
 20
344.362334
 30
0.0
 11
630.141841
 21
344.362334
 31
0.0
  0
LINE
  5
5E9
330
1F
100
AcDbEntity
  8
LC-002-100-D00-0
 62
     7
370
    50
100
AcDbLine
 10
611.973667
 20
336.36233
 30
0.0
 11
611.773949
 21
336.36233
 31
0.0
  0
LINE
  5
5EA
330
1F
100
AcDbEntity
  8
LC-002-100-D00-0
 62
     7
370
    50
100
AcDbLine
 10
630.773949
 20
336.36233
 30
0.0
 11
611.973667
 21
336.36233
 31
0.0
  0
LINE
  5
5EB
330
1F
100
AcDbEntity
  8
LC-002-100-D00-0
 62
     7
370
    50
100
AcDbLine
 10
223.109679
 20
344.362334
 30
0.0
 11
212.432029
 21
344.362334
 31
0.0
  0
LINE
  5
5EC
330
1F
100
AcDbEntity
  8
LC-002-100-D00-0
 62
     7
370
    50
100
AcDbLine
 10
223.109679
 20
344.362334
 30
0.0
 11
230.14185
 21
344.362334
 31
0.0
  0
LINE
  5
5ED
330
1F
100
AcDbEntity
  8
LC-002-100-D00-0
 62
     7
370
    50
100
AcDbLine
 10
211.973667
 20
336.36233
 30
0.0
 11
211.773949
 21
336.36233
 31
0.0
  0
LINE
  5
5EE
330
1F
100
AcDbEntity
  8
LC-002-100-D00-0
 62
     7
370
    50
100
AcDbLine
 10
230.773949
 20
336.36233
 30
0.0
 11
211.973667
 21
336.36233
 31
0.0
  0
LINE
  5
5EF
330
1F
100
AcDbEntity
  8
LC-002-100-D00-0
 62
     7
370
    50
100
AcDbLine
 10
230.273949
 20
438.36233
 30
0.0
 11
224.160703
 21
438.362331
 31
0.0
  0
LINE
  5
5F0
330
1F
100
AcDbEntity
  8
LC-002-100-D00-0
 62
     7
370
    50
100
AcDbLine
 10
218.387203
 20
438.362331
 30
0.0
 11
212.273949
 21
438.36233
 31
0.0
  0
LINE
  5
5F1
330
1F
100
AcDbEntity
  8
LC-002-100-D00-0
 62
     7
370
    50
100
AcDbLine
 10
224.1607
 20
413.36233
 30
0.0
 11
218.387197
 21
413.36233
 31
0.0
  0
LINE
  5
5F2
330
1F
100
AcDbEntity
  8
LC-002-100-D00-0
 62
     7
370
    50
100
AcDbLine
 10
218.387197
 20
413.36233
 30
0.0
 11
212.325019
 21
413.36233
 31
0.0
  0
LINE
  5
5F3
330
1F
100
AcDbEntity
  8
LC-002-100-D00-0
 62
     7
370
    50
100
AcDbLine
 10
235.062768
 20
440.36233
 30
0.0
 11
236.273949
 21
440.36233
 31
0.0
  0
LINE
  5
5F4
330
1F
100
AcDbEntity
  8
LC-002-100-D00-0
 62
     7
370
    50
100
AcDbLine
 10
236.273949
 20
440.36233
 30
0.0
 11
236.273949
 21
438.36233
 31
0.0
  0
LINE
  5
5F5
330
1F
100
AcDbEntity
  8
LC-002-100-D00-0
 62
     7
370
    50
100
AcDbLine
 10
236.273949
 20
438.36233
 30
0.0
 11
230.273949
 21
438.36233
 31
0.0
  0
LINE
  5
5F6
330
1F
100
AcDbEntity
  8
LC-002-100-D00-0
 62
     7
370
    50
100
AcDbLine
 10
230.222878
 20
413.36233
 30
0.0
 11
224.1607
 21
413.36233
 31
0.0
  0
LINE
  5
5F7
330
1F
100
AcDbEntity
  8
LC-002-100-D00-0
 62
     7
370
    50
100
AcDbLine
 10
206.273949
 20
438.36233
 30
0.0
 11
206.273949
 21
440.36233
 31
0.0
  0
LINE
  5
5F8
330
1F
100
AcDbEntity
  8
LC-002-100-D00-0
 62
     7
370
    50
100
AcDbLine
 10
212.273949
 20
438.36233
 30
0.0
 11
206.273949
 21
438.36233
 31
0.0
  0
LINE
  5
5F9
330
1F
100
AcDbEntity
  8
LC-002-100-D00-0
 62
     7
370
    50
100
AcDbLine
 10
206.273949
 20
440.36233
 30
0.0
 11
207.485129
 21
440.36233
 31
0.0
  0
LINE
  5
5FA
330
1F
100
AcDbEntity
  8
LC-002-100-D00-0
 62
     7
370
    50
100
AcDbLine
 10
233.109629
 20
413.36233
 30
0.0
 11
230.222878
 21
413.36233
 31
0.0
  0
LINE
  5
5FB
330
1F
100
AcDbEntity
  8
LC-002-100-D00-0
 62
     7
370
    50
100
AcDbLine
 10
212.325019
 20
413.36233
 30
0.0
 11
209.438268
 21
413.36233
 31
0.0
  0
LINE
  5
5FC
330
1F
100
AcDbEntity
  8
LC-002-100-D00-0
 62
     7
370
    50
100
AcDbLine
 10
209.438268
 20
413.36233
 30
0.0
 11
208.500446
 21
413.36233
 31
0.0
  0
LINE
  5
5FD
330
1F
100
AcDbEntity
  8
LC-002-100-D00-0
 62
     7
370
    50
100
AcDbLine
 10
234.047451
 20
413.36233
 30
0.0
 11
233.109629
 21
413.36233
 31
0.0
  0
LINE
  5
5FE
330
1F
100
AcDbEntity
  8
LC-002-100-D00-0
 62
     7
370
    50
100
AcDbLine
 10
224.1607
 20
442.36233
 30
0.0
 11
218.387197
 21
442.36233
 31
0.0
  0
LINE
  5
5FF
330
1F
100
AcDbEntity
  8
LC-002-100-D00-0
 62
     7
370
    50
100
AcDbLine
 10
218.387197
 20
442.36233
 30
0.0
 11
212.325019
 21
442.36233
 31
0.0
  0
LINE
  5
600
330
1F
100
AcDbEntity
  8
LC-002-100-D00-0
 62
     7
370
    50
100
AcDbLine
 10
230.222878
 20
442.36233
 30
0.0
 11
224.1607
 21
442.36233
 31
0.0
  0
LINE
  5
601
330
1F
100
AcDbEntity
  8
LC-002-100-D00-0
 62
     7
370
    50
100
AcDbLine
 10
233.109629
 20
442.36233
 30
0.0
 11
230.222878
 21
442.36233
 31
0.0
  0
LINE
  5
602
330
1F
100
AcDbEntity
  8
LC-002-100-D00-0
 62
     7
370
    50
100
AcDbLine
 10
212.325019
 20
442.36233
 30
0.0
 11
209.438268
 21
442.36233
 31
0.0
  0
LINE
  5
603
330
1F
100
AcDbEntity
  8
LC-002-100-D00-0
 62
     7
370
    50
100
AcDbLine
 10
209.438268
 20
442.36233
 30
0.0
 11
208.500446
 21
442.36233
 31
0.0
  0
LINE
  5
604
330
1F
100
AcDbEntity
  8
LC-002-100-D00-0
 62
     7
370
    50
100
AcDbLine
 10
234.047451
 20
442.36233
 30
0.0
 11
233.109629
 21
442.36233
 31
0.0
  0
LINE
  5
605
330
1F
100
AcDbEntity
  8
LC-002-100-D00-0
 62
     7
370
    50
100
AcDbLine
 10
630.273949
 20
438.36233
 30
0.0
 11
627.27374
 21
438.362331
 31
0.0
  0
LINE
  5
606
330
1F
100
AcDbEntity
  8
LC-002-100-D00-0
 62
     7
370
    50
100
AcDbLine
 10
635.062768
 20
440.36233
 30
0.0
 11
636.273949
 21
440.36233
 31
0.0
  0
LINE
  5
607
330
1F
100
AcDbEntity
  8
LC-002-100-D00-0
 62
     7
370
    50
100
AcDbLine
 10
636.273949
 20
440.36233
 30
0.0
 11
636.273949
 21
438.36233
 31
0.0
  0
LINE
  5
608
330
1F
100
AcDbEntity
  8
LC-002-100-D00-0
 62
     7
370
    50
100
AcDbLine
 10
636.273949
 20
438.36233
 30
0.0
 11
630.273949
 21
438.36233
 31
0.0
  0
LINE
  5
609
330
1F
100
AcDbEntity
  8
LC-002-100-D00-0
 62
     7
370
    50
100
AcDbLine
 10
606.273951
 20
438.362331
 30
0.0
 11
606.273949
 21
440.36233
 31
0.0
  0
LINE
  5
60A
330
1F
100
AcDbEntity
  8
LC-002-100-D00-0
 62
     7
370
    50
100
AcDbLine
 10
606.273949
 20
440.36233
 30
0.0
 11
607.485129
 21
440.36233
 31
0.0
  0
LINE
  5
60B
330
1F
100
AcDbEntity
  8
LC-002-100-D00-0
 62
     7
370
    50
100
AcDbLine
 10
633.109629
 20
413.36233
 30
0.0
 11
630.77374
 21
413.362329
 31
0.0
  0
LINE
  5
60C
330
1F
100
AcDbEntity
  8
LC-002-100-D00-0
 62
     7
370
    50
100
AcDbLine
 10
634.047451
 20
413.36233
 30
0.0
 11
633.109629
 21
413.36233
 31
0.0
  0
LINE
  5
60D
330
1F
100
AcDbEntity
  8
LC-002-100-D00-0
 62
     7
370
    50
100
AcDbLine
 10
624.1607
 20
442.36233
 30
0.0
 11
618.387197
 21
442.36233
 31
0.0
  0
LINE
  5
60E
330
1F
100
AcDbEntity
  8
LC-002-100-D00-0
 62
     7
370
    50
100
AcDbLine
 10
618.387197
 20
442.36233
 30
0.0
 11
612.325019
 21
442.36233
 31
0.0
  0
LINE
  5
60F
330
1F
100
AcDbEntity
  8
LC-002-100-D00-0
 62
     7
370
    50
100
AcDbLine
 10
630.222878
 20
442.36233
 30
0.0
 11
624.1607
 21
442.36233
 31
0.0
  0
LINE
  5
610
330
1F
100
AcDbEntity
  8
LC-002-100-D00-0
 62
     7
370
    50
100
AcDbLine
 10
633.109629
 20
442.36233
 30
0.0
 11
630.222878
 21
442.36233
 31
0.0
  0
LINE
  5
611
330
1F
100
AcDbEntity
  8
LC-002-100-D00-0
 62
     7
370
    50
100
AcDbLine
 10
612.325019
 20
442.36233
 30
0.0
 11
609.438268
 21
442.36233
 31
0.0
  0
LINE
  5
612
330
1F
100
AcDbEntity
  8
LC-002-100-D00-0
 62
     7
370
    50
100
AcDbLine
 10
609.438268
 20
442.36233
 30
0.0
 11
608.500446
 21
442.36233
 31
0.0
  0
LINE
  5
613
330
1F
100
AcDbEntity
  8
LC-002-100-D00-0
 62
     7
370
    50
100
AcDbLine
 10
634.047451
 20
442.36233
 30
0.0
 11
633.109629
 21
442.36233
 31
0.0
  0
LINE
  5
614
330
1F
100
AcDbEntity
  8
LC-002-100-D00-0
 62
     7
370
    50
100
AcDbLine
 10
611.484178
 20
345.36233
 30
0.0
 11
631.273949
 21
345.36233
 31
0.0
  0
LINE
  5
615
330
1F
100
AcDbEntity
  8
LC-002-100-D00-0
 62
     7
370
    50
100
AcDbLine
 10
611.273949
 20
345.36233
 30
0.0
 11
611.484178
 21
345.36233
 31
0.0
  0
LINE
  5
616
330
1F
100
AcDbEntity
  8
LC-002-100-D00-0
 62
     7
370
    50
100
AcDbLine
 10
611.273949
 20
355.86233
 30
0.0
 11
631.273949
 21
355.86233
 31
0.0
  0
LINE
  5
617
330
1F
100
AcDbEntity
  8
LC-002-100-D00-0
 62
     7
370
    50
100
AcDbLine
 10
611.273949
 20
359.36233
 30
0.0
 11
631.273949
 21
359.36233
 31
0.0
  0
LINE
  5
618
330
1F
100
AcDbEntity
  8
LC-002-100-D00-0
 62
     7
370
    50
100
AcDbLine
 10
612.463155
 20
344.36233
 30
0.0
 11
612.273949
 21
344.36233
 31
0.0
  0
LINE
  5
619
330
1F
100
AcDbEntity
  8
LC-002-100-D00-0
 62
     7
370
    50
100
AcDbLine
 10
630.273949
 20
344.36233
 30
0.0
 11
612.463155
 21
344.36233
 31
0.0
  0
LINE
  5
61A
330
1F
100
AcDbEntity
  8
LC-002-100-D00-0
 62
     7
370
    50
100
AcDbLine
 10
211.273949
 20
359.36233
 30
0.0
 11
231.273949
 21
359.36233
 31
0.0
  0
LINE
  5
61B
330
1F
100
AcDbEntity
  8
LC-002-100-D00-0
 62
     7
370
    50
100
AcDbLine
 10
211.273949
 20
355.86233
 30
0.0
 11
231.273949
 21
355.86233
 31
0.0
  0
LINE
  5
61C
330
1F
100
AcDbEntity
  8
LC-002-100-D00-0
 62
     7
370
    50
100
AcDbLine
 10
211.484178
 20
345.36233
 30
0.0
 11
231.273949
 21
345.36233
 31
0.0
  0
LINE
  5
61D
330
1F
100
AcDbEntity
  8
LC-002-100-D00-0
 62
     7
370
    50
100
AcDbLine
 10
211.273949
 20
345.36233
 30
0.0
 11
211.484178
 21
345.36233
 31
0.0
  0
LINE
  5
61E
330
1F
100
AcDbEntity
  8
LC-002-100-D00-0
 62
     7
370
    50
100
AcDbLine
 10
212.463155
 20
344.36233
 30
0.0
 11
212.273949
 21
344.36233
 31
0.0
  0
LINE
  5
61F
330
1F
100
AcDbEntity
  8
LC-002-100-D00-0
 62
     7
370
    50
100
AcDbLine
 10
230.273949
 20
344.36233
 30
0.0
 11
212.463155
 21
344.36233
 31
0.0
  0
DIMENSION
  5
620
330
1F
100
AcDbEntity
  8
LC-002-100-D00-0
 62
     7
370
    25
100
AcDbDimension
  2
*D21
 10
848.677923
 20
413.36233
 30
0.0
 11
826.677923
 21
442.145844
 31
0.0
 70
   160
  1
57,5
 71
     5
 42
57.5
 53
90.0
  3
LC-DIM-L-0100-02-02
100
AcDbAlignedDimension
 13
821.273949
 23
470.86233
 33
0.0
 14
637.273746
 24
413.36233
 34
0.0
 50
90.0
100
AcDbRotatedDimension
  0
DIMENSION
  5
62D
330
1F
100
AcDbEntity
  8
LC-002-100-D00-0
 62
     7
370
    25
100
AcDbDimension
  2
*D22
 10
54.35087
 20
380.86233
 30
0.0
 11
32.35087
 21
422.171744
 31
0.0
 70
   160
  1
90
 71
     5
 42
90.0
 53
90.0
  3
LC-DIM-L-0100-02-02
100
AcDbAlignedDimension
 13
21.273949
 23
470.86233
 33
0.0
 14
367.256069
 24
380.86233
 34
0.0
 50
90.0
100
AcDbRotatedDimension
  0
DIMENSION
  5
63A
330
1F
100
AcDbEntity
  8
LC-002-100-D00-0
 62
     7
370
    25
100
AcDbDimension
  2
*D23
 10
896.14314
 20
336.36233
 30
0.0
 11
874.14314
 21
396.971744
 31
0.0
 70
   160
  1
90-129,5
 71
     5
 42
134.5
 53
90.0
  3
LC-DIM-L-0100-02-02
100
AcDbAlignedDimension
 13
821.273949
 23
470.86233
 33
0.0
 14
630.773949
 24
336.36233
 34
0.0
 50
90.0
100
AcDbRotatedDimension
  0
DIMENSION
  5
647
330
1F
100
AcDbEntity
  8
LC-002-100-D00-0
 62
     7
370
    25
100
AcDbDimension
  2
*D24
 10
630.773746
 20
320.704001
 30
0.0
 11
487.619886
 21
342.704001
 31
0.0
 70
   160
  1
284
 71
     5
 42
283.499797
  3
LC-DIM-L-0100-02-02
100
AcDbAlignedDimension
 13
347.273949
 23
399.86233
 33
0.0
 14
630.773746
 24
389.300152
 34
0.0
100
AcDbRotatedDimension
  0
DIMENSION
  5
654
330
1F
100
AcDbEntity
  8
LC-002-100-D00-0
 62
     7
370
    25
100
AcDbDimension
  2
*D25
 10
296.824614
 20
429.36233
 30
0.0
 11
274.824614
 21
360.851744
 31
0.0
 70
   160
  1
30
 71
     5
 42
30.0
 53
90.0
  3
LC-DIM-L-0100-02-02
100
AcDbAlignedDimension
 13
392.273949
 23
399.36233
 33
0.0
 14
386.194553
 24
429.36233
 34
0.0
 50
90.0
100
AcDbRotatedDimension
  0
DIMENSION
  5
662
330
1F
100
AcDbEntity
  8
LC-002-100-D00-0
 62
     7
370
    25
100
AcDbDimension
  2
*D26
 10
21.273949
 20
566.473974
 30
0.0
 11
418.937171
 21
588.473974
 31
0.0
 70
   160
  1
800
 71
     5
 42
800.0
  3
LC-DIM-L-0100-02-02
100
AcDbAlignedDimension
 13
821.273949
 23
469.36233
 33
0.0
 14
21.273949
 24
469.36233
 34
0.0
100
AcDbRotatedDimension
  0
DIMENSION
  5
66F
330
1F
100
AcDbEntity
  8
LC-002-100-D00-0
 62
     7
370
    25
100
AcDbDimension
  2
*D27
 10
771.273949
 20
513.750537
 30
0.0
 11
417.861864
 21
535.750537
 31
0.0
 70
   160
  1
700
 71
     5
 42
700.0
  3
LC-DIM-L-0100-02-02
100
AcDbAlignedDimension
 13
71.273949
 23
467.86233
 33
0.0
 14
771.273949
 24
467.86233
 34
0.0
100
AcDbRotatedDimension
  0
INSERT
  5
682
330
1F
100
AcDbEntity
  8
LC-002-100-D00-0
 62
     7
370
    25
100
AcDbBlockReference
  2
KLON19
 10
0.0
 20
0.0
 30
0.0
  0
INSERT
  5
689
330
1F
100
AcDbEntity
  8
LC-002-100-D00-0
 62
     7
370
    25
100
AcDbBlockReference
  2
KLON20
 10
0.0
 20
0.0
 30
0.0
  0
INSERT
  5
696
330
1F
100
AcDbEntity
  8
LC-002-100-D00-0
 62
     7
370
    25
100
AcDbBlockReference
  2
KLON21
 10
0.0
 20
0.0
 30
0.0
  0
INSERT
  5
69D
330
1F
100
AcDbEntity
  8
LC-002-100-D00-0
 62
     7
370
    25
100
AcDbBlockReference
  2
KLON22
 10
0.0
 20
0.0
 30
0.0
  0
INSERT
  5
6A5
330
1F
100
AcDbEntity
  8
LC-002-100-D00-0
 62
     7
370
    25
100
AcDbBlockReference
  2
KLON23
 10
0.0
 20
0.0
 30
0.0
  0
LINE
  5
6A6
330
1F
100
AcDbEntity
  8
LC-002-100-D00-0
 62
     7
370
    50
100
AcDbLine
 10
530.533024
 20
440.150221
 30
0.0
 11
532.733854
 21
442.351051
 31
0.0
  0
INSERT
  5
6BB
330
1F
100
AcDbEntity
  8
LC-002-100-D00-0
 62
     7
370
    25
100
AcDbBlockReference
  2
KLON24
 10
0.0
 20
0.0
 30
0.0
  0
INSERT
  5
6D3
330
1F
100
AcDbEntity
  8
LC-002-100-D00-0
 62
     7
370
    25
100
AcDbBlockReference
  2
KLON25
 10
0.0
 20
0.0
 30
0.0
  0
INSERT
  5
6E3
330
1F
100
AcDbEntity
  8
LC-002-100-D00-0
 62
     7
370
    25
100
AcDbBlockReference
  2
KLON26
 10
0.0
 20
0.0
 30
0.0
  0
INSERT
  5
6E9
330
1F
100
AcDbEntity
  8
LC-002-100-D00-0
 62
     7
370
    25
100
AcDbBlockReference
  2
KLON27
 10
0.0
 20
0.0
 30
0.0
  0
LINE
  5
6EA
330
1F
100
AcDbEntity
  8
LC-002-100-D00-0
 62
     7
370
    50
100
AcDbLine
 10
485.343873
 20
439.86233
 30
0.0
 11
486.273949
 21
440.792406
 31
0.0
  0
INSERT
  5
6F0
330
1F
100
AcDbEntity
  8
LC-002-100-D00-0
 62
     7
370
    25
100
AcDbBlockReference
  2
KLON28
 10
0.0
 20
0.0
 30
0.0
  0
LINE
  5
6F1
330
1F
100
AcDbEntity
  8
LC-002-100-D00-0
 62
     7
370
    50
100
AcDbLine
 10
351.640036
 20
440.86233
 30
0.0
 11
354.640035
 21
443.86233
 31
0.0
  0
LINE
  5
6F2
330
1F
100
AcDbEntity
  8
LC-002-100-D00-0
 62
     7
370
    50
100
AcDbLine
 10
731.523949
 20
461.536013
 30
0.0
 11
737.373949
 21
467.386013
 31
0.0
  0
INSERT
  5
6F8
330
1F
100
AcDbEntity
  8
LC-002-100-D00-0
 62
     7
370
    50
100
AcDbBlockReference
  2
KLON29
 10
0.0
 20
0.0
 30
0.0
  0
LINE
  5
6F9
330
1F
100
AcDbEntity
  8
LC-002-100-D00-0
 62
     7
370
    50
100
AcDbLine
 10
744.987427
 20
452.548851
 30
0.0
 11
746.647552
 21
454.208976
 31
0.0
  0
LINE
  5
6FA
330
1F
100
AcDbEntity
  8
LC-002-100-D00-0
 62
     7
370
    50
100
AcDbLine
 10
621.523949
 20
463.78921
 30
0.0
 11
627.373949
 21
469.639211
 31
0.0
  0
INSERT
  5
700
330
1F
100
AcDbEntity
  8
LC-002-100-D00-0
 62
     7
370
    50
100
AcDbBlockReference
  2
KLON30
 10
0.0
 20
0.0
 30
0.0
  0
LINE
  5
701
330
1F
100
AcDbEntity
  8
LC-002-100-D00-0
 62
     7
370
    50
100
AcDbLine
 10
634.673949
 20
454.48857
 30
0.0
 11
636.473949
 21
456.28857
 31
0.0
  0
INSERT
  5
709
330
1F
100
AcDbEntity
  8
LC-002-100-D00-0
 62
     7
370
    25
100
AcDbBlockReference
  2
KLON31
 10
0.0
 20
0.0
 30
0.0
  0
LINE
  5
70A
330
1F
100
AcDbEntity
  8
LC-002-100-D00-0
 62
     7
370
    25
100
AcDbLine
 10
105.173949
 20
463.803918
 30
0.0
 11
112.23236
 21
470.86233
 31
0.0
  0
INSERT
  5
710
330
1F
100
AcDbEntity
  8
LC-002-100-D00-0
 62
     7
370
    50
100
AcDbBlockReference
  2
KLON32
 10
0.0
 20
0.0
 30
0.0
  0
INSERT
  5
716
330
1F
100
AcDbEntity
  8
LC-002-100-D00-0
 62
     7
370
    25
100
AcDbBlockReference
  2
KLON33
 10
0.0
 20
0.0
 30
0.0
  0
LINE
  5
717
330
1F
100
AcDbEntity
  8
LC-002-100-D00-0
 62
     7
370
    25
100
AcDbLine
 10
215.173949
 20
461.550721
 30
0.0
 11
224.485557
 21
470.86233
 31
0.0
  0
LINE
  5
718
330
1F
100
AcDbEntity
  8
LC-002-100-D00-0
 62
     7
370
    50
100
AcDbLine
 10
205.485559
 20
451.86233
 30
0.0
 11
207.873949
 21
454.25072
 31
0.0
  0
LINE
  5
719
330
1F
100
AcDbEntity
  8
LC-002-100-D00-0
 62
     7
370
    25
100
AcDbLine
 10
311.103238
 20
467.677452
 30
0.0
 11
314.288115
 21
470.86233
 31
0.0
  0
INSERT
  5
71F
330
1F
100
AcDbEntity
  8
LC-002-100-D00-0
 62
     7
370
    25
100
AcDbBlockReference
  2
KLON34
 10
0.0
 20
0.0
 30
0.0
  0
LINE
  5
720
330
1F
100
AcDbEntity
  8
LC-002-100-D00-0
 62
     7
370
    50
100
AcDbLine
 10
324.673949
 20
458.797523
 30
0.0
 11
325.738755
 21
459.86233
 31
0.0
  0
LINE
  5
721
330
1F
100
AcDbEntity
  8
LC-002-100-D00-0
 62
     7
370
    25
100
AcDbLine
 10
511.523949
 20
466.042408
 30
0.0
 11
516.34387
 21
470.86233
 31
0.0
  0
INSERT
  5
727
330
1F
100
AcDbEntity
  8
LC-002-100-D00-0
 62
     7
370
    25
100
AcDbBlockReference
  2
KLON35
 10
0.0
 20
0.0
 30
0.0
  0
LINE
  5
728
330
1F
100
AcDbEntity
  8
LC-002-100-D00-0
 62
     7
370
    50
100
AcDbLine
 10
524.673949
 20
456.741768
 30
0.0
 11
527.624802
 21
459.692621
 31
0.0
  0
LINE
  5
729
330
1F
100
AcDbEntity
  8
LC-002-100-D00-0
  6
DASHDOT
 62
     7
370
    25
100
AcDbLine
 10
221.273949
 20
349.36233
 30
0.0
 11
221.273949
 21
447.36233
 31
0.0
  0
LINE
  5
72A
330
1F
100
AcDbEntity
  8
LC-002-100-D00-0
  6
DASHDOT
 62
     7
370
    25
100
AcDbLine
 10
421.273949
 20
470.86233
 30
0.0
 11
421.273949
 21
378.36233
 31
0.0
  0
LINE
  5
72B
330
1F
100
AcDbEntity
  8
LC-002-100-D00-0
  6
DASHDOT
 62
     7
370
    25
100
AcDbLine
 10
621.273949
 20
349.36233
 30
0.0
 11
621.273949
 21
473.36233
 31
0.0
  0
LINE
  5
72C
330
1F
100
AcDbEntity
  8
LC-002-100-D00-0
  6
DASHDOT
 62
     7
370
    25
100
AcDbLine
 10
101.273949
 20
442.86233
 30
0.0
 11
101.273949
 21
476.86233
 31
0.0
  0
LINE
  5
72D
330
1F
100
AcDbEntity
  8
LC-002-100-D00-0
  6
DASHDOT
 62
     7
370
    25
100
AcDbLine
 10
211.273949
 20
442.86233
 30
0.0
 11
211.273949
 21
476.86233
 31
0.0
  0
LINE
  5
72E
330
1F
100
AcDbEntity
  8
LC-002-100-D00-0
  6
DASHDOT
 62
     7
370
    25
100
AcDbLine
 10
321.273949
 20
442.86233
 30
0.0
 11
321.273949
 21
476.86233
 31
0.0
  0
LINE
  5
72F
330
1F
100
AcDbEntity
  8
LC-002-100-D00-0
  6
DASHDOT
 62
     7
370
    25
100
AcDbLine
 10
521.273949
 20
442.86233
 30
0.0
 11
521.273949
 21
476.86233
 31
0.0
  0
LINE
  5
730
330
1F
100
AcDbEntity
  8
LC-002-100-D00-0
  6
DASHDOT
 62
     7
370
    25
100
AcDbLine
 10
631.223949
 20
447.31233
 30
0.0
 11
631.223949
 21
480.11233
 31
0.0
  0
LINE
  5
731
330
1F
100
AcDbEntity
  8
LC-002-100-D00-0
  6
DASHDOT
 62
     7
370
    25
100
AcDbLine
 10
741.273949
 20
442.86233
 30
0.0
 11
741.273949
 21
476.86233
 31
0.0
  0
LINE
  5
732
330
1F
100
AcDbEntity
  8
LC-002-100-D00-0
  6
DASHDOT
 62
     7
370
    25
100
AcDbLine
 10
637.273746
 20
413.36233
 30
0.0
 11
534.24873
 21
413.36233
 31
0.0
  0
DIMENSION
  5
734
330
1F
100
AcDbEntity
  8
LC-003-003-----0
 62
     7
370
    25
100
AcDbDimension
  2
*D45
 10
718.295029
 20
388.362327
 30
0.0
 11
696.295029
 21
391.931744
 31
0.0
 70
   160
  1
DN50
 71
     5
 42
50.000004
 53
90.0
  3
LC-DIM-L-0100-02-02
100
AcDbAlignedDimension
 13
628.773844
 23
438.36233
 33
0.0
 14
627.27374
 24
388.362327
 34
0.0
 50
90.0
100
AcDbRotatedDimension
  0
ENDSEC
  0
SECTION
  2
OBJECTS
  0
DICTIONARY
  5
C
330
0
100
AcDbDictionary
281
     1
  3
ACAD_GROUP
350
D
  3
ACAD_LAYOUT
350
1A
  3
ACAD_MLINESTYLE
350
17
  3
ACAD_PLOTSETTINGS
350
19
  3
ACAD_PLOTSTYLENAME
350
E
  0
DICTIONARY
  5
D
102
{ACAD_REACTORS
330
C
102
}
330
C
100
AcDbDictionary
281
     1
  0
DICTIONARY
  5
1A
102
{ACAD_REACTORS
330
C
102
}
330
C
100
AcDbDictionary
281
     1
  3
Layout1
350
1E
  3
Layout2
350
26
  3
Model
350
22
  0
DICTIONARY
  5
17
102
{ACAD_REACTORS
330
C
102
}
330
C
100
AcDbDictionary
281
     1
  3
Standard
350
18
  0
DICTIONARY
  5
19
102
{ACAD_REACTORS
330
C
102
}
330
C
100
AcDbDictionary
281
     1
  0
ACDBDICTIONARYWDFLT
  5
E
102
{ACAD_REACTORS
330
C
102
}
330
C
100
AcDbDictionary
281
     1
  3
Normal
350
F
100
AcDbDictionaryWithDefault
340
F
  0
LAYOUT
  5
1E
102
{ACAD_REACTORS
330
1A
102
}
330
1A
100
AcDbPlotSettings
  1

  2

  4

  6

 40
0.0
 41
0.0
 42
0.0
 43
0.0
 44
0.0
 45
0.0
 46
0.0
 47
0.0
 48
0.0
 49
0.0
140
0.0
141
0.0
142
1.0
143
1.0
 70
   688
 72
     0
 73
     0
 74
     5
  7

 75
    16
147
1.0
148
0.0
149
0.0
100
AcDbLayout
  1
Layout1
 70
     1
 71
     1
 10
5.482895
 20
10.571744
 11
1193.482895
 21
850.571744
 12
0.0
 22
0.0
 32
0.0
 14
5.482895
 24
10.571744
 34
0.0
 15
1193.482895
 25
850.571744
 35
0.0
146
0.0
 13
0.0
 23
0.0
 33
0.0
 16
1.0
 26
0.0
 36
0.0
 17
0.0
 27
1.0
 37
0.0
 76
     0
330
1B
  0
LAYOUT
  5
26
102
{ACAD_REACTORS
330
1A
102
}
330
1A
100
AcDbPlotSettings
  1

  2

  4

  6

 40
0.0
 41
0.0
 42
0.0
 43
0.0
 44
0.0
 45
0.0
 46
0.0
 47
0.0
 48
0.0
 49
0.0
140
0.0
141
0.0
142
1.0
143
1.0
 70
   688
 72
     0
 73
     0
 74
     5
  7

 75
    16
147
1.0
148
0.0
149
0.0
100
AcDbLayout
  1
Layout2
 70
     1
 71
     2
 10
0.0
 20
0.0
 11
0.0
 21
0.0
 12
0.0
 22
0.0
 32
0.0
 14
0.0
 24
0.0
 34
0.0
 15
0.0
 25
0.0
 35
0.0
146
0.0
 13
0.0
 23
0.0
 33
0.0
 16
1.0
 26
0.0
 36
0.0
 17
0.0
 27
1.0
 37
0.0
 76
     0
330
23
  0
LAYOUT
  5
22
102
{ACAD_REACTORS
330
1A
102
}
330
1A
100
AcDbPlotSettings
  1

  2

  4

  6

 40
0.0
 41
0.0
 42
0.0
 43
0.0
 44
0.0
 45
0.0
 46
0.0
 47
0.0
 48
0.0
 49
0.0
140
0.0
141
0.0
142
1.0
143
1.0
 70
  1776
 72
     0
 73
     0
 74
     0
  7

 75
     0
147
1.0
148
0.0
149
0.0
100
AcDbLayout
  1
Model
 70
     1
 71
     0
 10
5.482895
 20
10.571744
 11
1193.482895
 21
850.571744
 12
5.482895
 22
10.571744
 32
0.0
 14
5.482895
 24
10.571744
 34
0.0
 15
1193.482895
 25
850.571744
 35
0.0
146
0.0
 13
0.0
 23
0.0
 33
0.0
 16
1.0
 26
0.0
 36
0.0
 17
0.0
 27
1.0
 37
0.0
 76
     0
330
1F
  0
MLINESTYLE
  5
18
102
{ACAD_REACTORS
330
17
102
}
330
17
100
AcDbMlineStyle
  2
Standard
 70
     0
  3

 62
   256
 51
90.0
 52
90.0
 71
     2
 49
0.5
 62
   256
  6
BYLAYER
 49
-0.5
 62
   256
  6
BYLAYER
  0
ACDBPLACEHOLDER
  5
F
102
{ACAD_REACTORS
330
E
102
}
330
E
  0
ENDSEC
  0
EOF
