  0
SECTION
  2
HEADER
  9
$ACADVER
  1
AC1009
  9
$INSBASE
 10
0.0
 20
0.0
 30
0.0
  9
$EXTMIN
 10
-123.0
 20
-87.0
 30
0.0
  9
$EXTMAX
 10
717.0
 20
507.0
 30
0.0
  9
$LIMMIN
 10
-123.0
 20
-87.0
  9
$LIMMAX
 10
717.0
 20
507.0
  9
$ORTHOMODE
 70
     0
  9
$REGENMODE
 70
     1
  9
$FILLMODE
 70
     1
  9
$QTEXTMODE
 70
     0
  9
$MIRRTEXT
 70
     1
  9
$DRAGMODE
 70
     2
  9
$LTSCALE
 40
2.0
  9
$OSMODE
 70
     0
  9
$ATTMODE
 70
     1
  9
$TEXTSIZE
 40
0.2
  9
$TRACEWID
 40
0.05
  9
$TEXTSTYLE
  7
STANDARD
  9
$CLAYER
  8
0
  9
$CELTYPE
  6
BYLAYER
  9
$CECOLOR
 62
     7
  9
$DIMSCALE
 40
2.0
  9
$DIMASZ
 40
3.5
  9
$DIMEXO
 40
0.0625
  9
$DIMDLI
 40
0.38
  9
$DIMRND
 40
0.0
  9
$DIMDLE
 40
0.0
  9
$DIMEXE
 40
0.18
  9
$DIMTP
 40
0.0
  9
$DIMTM
 40
0.0
  9
$DIMTXT
 40
3.5
  9
$DIMCEN
 40
0.09
  9
$DIMTSZ
 40
0.0
  9
$DIMTOL
 70
     0
  9
$DIMLIM
 70
     0
  9
$DIMTIH
 70
     1
  9
$DIMTOH
 70
     1
  9
$DIMSE1
 70
     0
  9
$DIMSE2
 70
     0
  9
$DIMTAD
 70
     1
  9
$DIMZIN
 70
     0
  9
$DIMBLK
  1

  9
$DIMASO
 70
     1
  9
$DIMSHO
 70
     1
  9
$DIMPOST
  1

  9
$DIMAPOST
  1

  9
$DIMALT
 70
     0
  9
$DIMALTD
 70
     2
  9
$DIMALTF
 40
25.4
  9
$DIMLFAC
 40
1.0
  9
$DIMTOFL
 70
     0
  9
$DIMTVP
 40
0.0
  9
$DIMTIX
 70
     0
  9
$DIMSOXD
 70
     0
  9
$DIMSAH
 70
     0
  9
$DIMBLK1
  1

  9
$DIMBLK2
  1

  9
$DIMSTYLE
  2
STANDARD
  9
$DIMCLRD
 70
     0
  9
$DIMCLRE
 70
     0
  9
$DIMCLRT
 70
     0
  9
$DIMTFAC
 40
1.0
  9
$DIMGAP
 40
0.09
  9
$LUNITS
 70
     2
  9
$LUPREC
 70
     2
  9
$AXISMODE
 70
     0
  9
$AXISUNIT
 10
0.0
 20
0.0
  9
$SKETCHINC
 40
0.1
  9
$FILLETRAD
 40
0.0
  9
$AUNITS
 70
     0
  9
$AUPREC
 70
     0
  9
$MENU
  1
acad
  9
$ELEVATION
 40
0.0
  9
$PELEVATION
 40
0.0
  9
$THICKNESS
 40
0.0
  9
$LIMCHECK
 70
     0
  9
$BLIPMODE
 70
     1
  9
$CHAMFERA
 40
0.0
  9
$CHAMFERB
 40
0.0
  9
$SKPOLY
 70
     0
  9
$TDCREATE
 40
0.000000000
  9
$TDUPDATE
 40
0.000000000
  9
$TDINDWG
 40
0.0000000000
  9
$TDUSRTIMER
 40
0.0000000000
  9
$USRTIMER
 70
     1
  9
$ANGBASE
 50
0.0
  9
$ANGDIR
 70
     0
  9
$PDMODE
 70
     0
  9
$PDSIZE
 40
0.0
  9
$PLINEWID
 40
0.0
  9
$COORDS
 70
     0
  9
$SPLFRAME
 70
     0
  9
$SPLINETYPE
 70
     6
  9
$SPLINESEGS
 70
     8
  9
$ATTDIA
 70
     0
  9
$ATTREQ
 70
     1
  9
$HANDLING
 70
     1
  9
$HANDSEED
  5
1DC
  9
$SURFTAB1
 70
     6
  9
$SURFTAB2
 70
     6
  9
$SURFTYPE
 70
     6
  9
$SURFU
 70
     6
  9
$SURFV
 70
     6
  9
$UCSNAME
  2

  9
$UCSORG
 10
0.0
 20
0.0
 30
0.0
  9
$UCSXDIR
 10
1.0
 20
0.0
 30
0.0
  9
$UCSYDIR
 10
0.0
 20
1.0
 30
0.0
  9
$PUCSNAME
  2

  9
$PUCSORG
 10
0.0
 20
0.0
 30
0.0
  9
$PUCSXDIR
 10
1.0
 20
0.0
 30
0.0
  9
$PUCSYDIR
 10
0.0
 20
1.0
 30
0.0
  9
$USERI1
 70
     0
  9
$USERI2
 70
     0
  9
$USERI3
 70
     0
  9
$USERI4
 70
     0
  9
$USERI5
 70
     0
  9
$USERR1
 40
0.0
  9
$USERR2
 40
0.0
  9
$USERR3
 40
0.0
  9
$USERR4
 40
0.0
  9
$USERR5
 40
0.0
  9
$WORLDVIEW
 70
     1
  9
$SHADEDGE
 70
     3
  9
$SHADEDIF
 70
    70
  9
$TILEMODE
 70
     1
  9
$MAXACTVP
 70
    16
  9
$PINSBASE
 10
0.0
 20
0.0
 30
0.0
  9
$PLIMCHECK
 70
     0
  9
$PEXTMIN
 10
1.000000E+20
 20
1.000000E+20
 30
1.000000E+20
  9
$PEXTMAX
 10
-1.000000E+20
 20
-1.000000E+20
 30
-1.000000E+20
  9
$PLIMMIN
 10
-123.0
 20
-87.0
  9
$PLIMMAX
 10
717.0
 20
507.0
  9
$UNITMODE
 70
     0
  9
$VISRETAIN
 70
     0
  9
$PLINEGEN
 70
     1
  9
$PSLTSCALE
 70
     0
  9
$TREEDEPTH
 70
  3020
  9
$DWGCODEPAGE
  3
dos850
  0
ENDSEC
  0
SECTION
  2
TABLES
  0
TABLE
  2
VPORT
 70
     1
  0
VPORT
  2
*ACTIVE
 70
     0
 10
0.0
 20
0.0
 11
1.0
 21
1.0
 12
420.0
 22
297.0
 13
0.0
 23
0.0
 14
1.0
 24
1.0
 15
0.0
 25
0.0
 16
0.0
 26
0.0
 36
1.0
 17
-123.0
 27
-87.0
 37
0.0
 40
594.0
 41
1.604229
 42
50.0
 43
0.0
 44
0.0
 50
0.0
 51
0.0
 71
     0
 72
   100
 73
     1
 74
     1
 75
     0
 76
     0
 77
     0
 78
     0
  0
ENDTAB
  0
TABLE
  2
LTYPE
 70
     3
  0
LTYPE
  2
CONTINUOUS
 70
    64
  3
Solid line
 72
    65
 73
     0
 40
0.0
  0
LTYPE
  2
DASHED
 70
    64
  3
__ __ __ __ __
 72
    65
 73
     2
 40
6.25
 49
5.0
 49
-1.25
  0
LTYPE
  2
DASHDOT
 70
    64
  3
__ . __ . __ . __ . __
 72
    65
 73
     4
 40
7.5
 49
5.0
 49
-1.25
 49
0.0
 49
-1.25
  0
ENDTAB
  0
TABLE
  2
LAYER
 70
    13
  0
LAYER
  2
0
 70
     0
 62
     7
  6
CONTINUOUS
  0
LAYER
  2
LC-INFO-1-2-MM-A3-0
 70
     1
 62
    -1
  6
CONTINUOUS
  0
LAYER
  2
LC-003-005-----0
 70
     0
 62
     2
  6
CONTINUOUS
  0
LAYER
  2
LC-004-002-----0
 70
     0
 62
     1
  6
CONTINUOUS
  0
LAYER
  2
LC-008-003-MTH-0
 70
     0
 62
     2
  6
CONTINUOUS
  0
LAYER
  2
LC-009-003-MTG-0
 70
     0
 62
     2
  6
CONTINUOUS
  0
LAYER
  2
LC-007-003-----0
 70
     0
 62
     2
  6
CONTINUOUS
  0
LAYER
  2
LC-002-000-----0
 70
     0
 62
     7
  6
CONTINUOUS
  0
LAYER
  2
LC-010-000-----0
 70
     0
 62
     7
  6
CONTINUOUS
  0
LAYER
  2
LC-001-205-----0
 70
     0
 62
     1
  6
CONTINUOUS
  0
LAYER
  2
LC-005-205-RND-0
 70
     0
 62
     1
  6
CONTINUOUS
  0
LAYER
  2
LC-006-002-RND-0
 70
     0
 62
     1
  6
CONTINUOUS
  0
LAYER
  2
LC-000
 70
     0
 62
     7
  6
CONTINUOUS
  0
ENDTAB
  0
TABLE
  2
STYLE
 70
     4
  0
STYLE
  2
STANDARD
 70
     0
 40
0.0
 41
1.0
 50
0.0
 71
     0
 42
0.0
  3
txt
  4

  0
STYLE
  2
LC-STANDARD
 70
    64
 40
0.0
 41
1.0
 50
0.0
 71
     0
 42
3.5
  3
MONOTXT
  4

  0
STYLE
  2
LC-TXTSTYLE-150-400-0-0-D2
 70
    64
 40
0.0
 41
1.0
 50
15.0
 71
     0
 42
3.5
  3
MONOTXT
  4

  0
STYLE
  2
LC-TXTSTYLE-150-400-0-0-D3
 70
    64
 40
0.0
 41
1.0
 50
15.0
 71
     0
 42
3.5
  3
LC-STANDARD
  4

  0
ENDTAB
  0
TABLE
  2
VIEW
 70
     0
  0
ENDTAB
  0
TABLE
  2
UCS
 70
     0
  0
ENDTAB
  0
TABLE
  2
APPID
 70
     1
  0
APPID
  2
ACAD
 70
     0
  0
ENDTAB
  0
TABLE
  2
DIMSTYLE
 70
     3
  0
DIMSTYLE
  2
STANDARD
 70
     0
  3

  4

  5

  6

  7

 40
1.0
 41
0.18
 42
0.0625
 43
0.38
 44
0.18
 45
0.0
 46
0.0
 47
0.0
 48
0.0
 71
     0
 72
     0
 73
     1
 74
     1
 75
     0
 76
     0
 77
     0
 78
     0
140
0.18
141
0.09
142
0.0
143
25.4
144
1.0
145
0.0
146
1.0
147
0.09
170
     0
171
     2
172
     0
173
     0
174
     0
175
     0
176
     0
177
     0
178
     0
  0
DIMSTYLE
  2
LC-STANDARD
 70
     0
  3

  4

  5

  6

  7

 40
1.0
 41
3.5
 42
0.0
 43
7.5
 44
1.8
 45
0.0
 46
0.0
 47
0.0
 48
0.0
 71
     0
 72
     0
 73
     0
 74
     0
 75
     0
 76
     0
 77
     1
 78
     8
140
3.5
141
0.0
142
0.0
143
25.4
144
1.0
145
0.0
146
0.71
147
1.5
170
     0
171
     2
172
     1
173
     0
174
     0
175
     0
176
     0
177
     0
178
     3
  0
DIMSTYLE
  2
LC-DIM-L-0090-02-02
 70
     0
  3

  4

  5

  6

  7

 40
2.0
 41
3.5
 42
0.0
 43
7.5
 44
1.8
 45
0.0
 46
0.0
 47
0.0
 48
0.0
 71
     0
 72
     0
 73
     0
 74
     0
 75
     0
 76
     0
 77
     1
 78
     8
140
9.0
141
0.0
142
0.0
143
25.4
144
1.0
145
0.0
146
0.71
147
1.5
170
     0
171
     2
172
     0
173
     0
174
     0
175
     0
176
     2
177
     2
178
     6
  0
ENDTAB
  0
ENDSEC
  0
SECTION
  2
BLOCKS
  0
BLOCK
  8
0
  5
23
  2
BLK1
 70
    64
 10
0.0
 20
0.0
 30
0.0
  3
BLK1
  0
ENDBLK
  8
0
  5
24
  0
BLOCK
  8
0
  5
26
  2
*X1
 70
    65
 10
120.445686
 20
189.844114
 30
0.0
  3
*X1
  0
LINE
  8
LC-003-005-----0
  6
CONTINUOUS
  5
28
 10
180.475147
 20
192.877233
 30
0.0
 11
179.70845
 21
193.643931
 31
0.0
  0
LINE
  8
LC-003-005-----0
  6
CONTINUOUS
  5
29
 10
176.465799
 20
192.643941
 30
0.0
 11
175.465806
 21
193.643934
 31
0.0
  0
LINE
  8
LC-003-005-----0
  6
CONTINUOUS
  5
2A
 10
172.223156
 20
192.643944
 30
0.0
 11
171.223163
 21
193.643936
 31
0.0
  0
LINE
  8
LC-003-005-----0
  6
CONTINUOUS
  5
2B
 10
167.980512
 20
192.643946
 30
0.0
 11
166.980519
 21
193.643939
 31
0.0
  0
LINE
  8
LC-003-005-----0
  6
CONTINUOUS
  5
2C
 10
163.737869
 20
192.643949
 30
0.0
 11
162.737875
 21
193.643943
 31
0.0
  0
LINE
  8
LC-003-005-----0
  6
CONTINUOUS
  5
2D
 10
159.495225
 20
192.643952
 30
0.0
 11
158.495231
 21
193.643946
 31
0.0
  0
LINE
  8
LC-003-005-----0
  6
CONTINUOUS
  5
2E
 10
155.252582
 20
192.643955
 30
0.0
 11
154.252586
 21
193.64395
 31
0.0
  0
LINE
  8
LC-003-005-----0
  6
CONTINUOUS
  5
2F
 10
151.009938
 20
192.643957
 30
0.0
 11
150.009942
 21
193.643954
 31
0.0
  0
LINE
  8
LC-003-005-----0
  6
CONTINUOUS
  5
30
 10
146.767295
 20
192.64396
 30
0.0
 11
145.767297
 21
193.643958
 31
0.0
  0
LINE
  8
LC-003-005-----0
  6
CONTINUOUS
  5
31
 10
142.524651
 20
192.643963
 30
0.0
 11
141.524653
 21
193.643961
 31
0.0
  0
LINE
  8
LC-003-005-----0
  6
CONTINUOUS
  5
32
 10
138.282008
 20
192.643966
 30
0.0
 11
137.282009
 21
193.643965
 31
0.0
  0
LINE
  8
LC-003-005-----0
  6
CONTINUOUS
  5
33
 10
134.039364
 20
192.643968
 30
0.0
 11
133.039364
 21
193.643969
 31
0.0
  0
LINE
  8
LC-003-005-----0
  6
CONTINUOUS
  5
34
 10
130.445686
 20
191.995007
 30
0.0
 11
128.898017
 21
193.542676
 31
0.0
  0
LINE
  8
LC-003-005-----0
  6
CONTINUOUS
  5
35
 10
127.578737
 20
194.861955
 30
0.0
 11
125.496564
 21
196.944128
 31
0.0
  0
LINE
  8
LC-003-005-----0
  6
CONTINUOUS
  5
36
 10
123.615227
 20
194.582824
 30
0.0
 11
121.253935
 21
196.944116
 31
0.0
  0
LINE
  8
LC-003-005-----0
  6
CONTINUOUS
  5
37
 10
121.436432
 20
192.518979
 30
0.0
 11
120.445686
 21
193.509725
 31
0.0
  0
ENDBLK
  8
0
  5
38
  0
BLOCK
  8
0
  5
3A
  2
*X2
 70
    65
 10
103.605519
 20
239.473639
 30
0.0
  3
*X2
  0
LINE
  8
LC-003-005-----0
  6
CONTINUOUS
  5
3B
 10
180.475147
 20
239.546281
 30
0.0
 11
178.3076
 21
241.713828
 31
0.0
  0
LINE
  8
LC-003-005-----0
  6
CONTINUOUS
  5
3C
 10
175.81242
 20
239.966368
 30
0.0
 11
173.563647
 21
242.21514
 31
0.0
  0
LINE
  8
LC-003-005-----0
  6
CONTINUOUS
  5
3D
 10
171.068467
 20
240.46768
 30
0.0
 11
168.819694
 21
242.716452
 31
0.0
  0
LINE
  8
LC-003-005-----0
  6
CONTINUOUS
  5
3E
 10
166.324514
 20
240.968992
 30
0.0
 11
164.075741
 21
243.217765
 31
0.0
  0
LINE
  8
LC-003-005-----0
  6
CONTINUOUS
  5
3F
 10
161.580561
 20
241.470304
 30
0.0
 11
159.331789
 21
243.719077
 31
0.0
  0
LINE
  8
LC-003-005-----0
  6
CONTINUOUS
  5
40
 10
156.836608
 20
241.971616
 30
0.0
 11
154.587836
 21
244.220389
 31
0.0
  0
LINE
  8
LC-003-005-----0
  6
CONTINUOUS
  5
41
 10
152.092655
 20
242.472928
 30
0.0
 11
149.843883
 21
244.721701
 31
0.0
  0
LINE
  8
LC-003-005-----0
  6
CONTINUOUS
  5
42
 10
147.348703
 20
242.974241
 30
0.0
 11
145.09993
 21
245.223013
 31
0.0
  0
LINE
  8
LC-003-005-----0
  6
CONTINUOUS
  5
43
 10
142.60475
 20
243.475553
 30
0.0
 11
140.355977
 21
245.724325
 31
0.0
  0
LINE
  8
LC-003-005-----0
  6
CONTINUOUS
  5
44
 10
137.860797
 20
243.976865
 30
0.0
 11
135.612024
 21
246.225638
 31
0.0
  0
LINE
  8
LC-003-005-----0
  6
CONTINUOUS
  5
45
 10
133.116844
 20
244.478177
 30
0.0
 11
128.448743
 21
249.146278
 31
0.0
  0
LINE
  8
LC-003-005-----0
  6
CONTINUOUS
  5
46
 10
128.372891
 20
244.979489
 30
0.0
 11
124.206102
 21
249.146278
 31
0.0
  0
LINE
  8
LC-003-005-----0
  6
CONTINUOUS
  5
47
 10
123.628938
 20
245.480801
 30
0.0
 11
119.963462
 21
249.146278
 31
0.0
  0
LINE
  8
LC-003-005-----0
  6
CONTINUOUS
  5
48
 10
118.884985
 20
245.982114
 30
0.0
 11
115.720821
 21
249.146278
 31
0.0
  0
LINE
  8
LC-003-005-----0
  6
CONTINUOUS
  5
49
 10
114.141033
 20
246.483426
 30
0.0
 11
111.47818
 21
249.146278
 31
0.0
  0
LINE
  8
LC-003-005-----0
  6
CONTINUOUS
  5
4A
 10
105.723737
 20
254.900722
 30
0.0
 11
103.784156
 21
256.840303
 31
0.0
  0
LINE
  8
LC-003-005-----0
  6
CONTINUOUS
  5
4B
 10
109.39708
 20
246.984738
 30
0.0
 11
106.955141
 21
249.426677
 31
0.0
  0
LINE
  8
LC-003-005-----0
  6
CONTINUOUS
  5
4C
 10
105.885918
 20
250.4959
 30
0.0
 11
103.640999
 21
252.740819
 31
0.0
  0
ENDBLK
  8
0
  5
4D
  0
BLOCK
  8
0
  5
4F
  2
*X3
 70
    65
 10
105.014309
 20
291.99726
 30
0.0
  3
*X3
  0
LINE
  8
LC-003-005-----0
  6
CONTINUOUS
  5
50
 10
130.340003
 20
315.137269
 30
0.0
 11
129.577849
 21
315.899423
 31
0.0
  0
LINE
  8
LC-003-005-----0
  6
CONTINUOUS
  5
51
 10
129.921807
 20
311.312824
 30
0.0
 11
128.446655
 21
312.787976
 31
0.0
  0
LINE
  8
LC-003-005-----0
  6
CONTINUOUS
  5
52
 10
126.647959
 20
310.344031
 30
0.0
 11
124.483121
 21
312.50887
 31
0.0
  0
LINE
  8
LC-003-005-----0
  6
CONTINUOUS
  5
53
 10
121.84065
 20
315.151341
 30
0.0
 11
120.446148
 21
316.545843
 31
0.0
  0
LINE
  8
LC-003-005-----0
  6
CONTINUOUS
  5
54
 10
122.405368
 20
310.343982
 30
0.0
 11
119.092596
 21
313.656754
 31
0.0
  0
LINE
  8
LC-003-005-----0
  6
CONTINUOUS
  5
55
 10
118.162727
 20
310.343983
 30
0.0
 11
115.232084
 21
313.274625
 31
0.0
  0
LINE
  8
LC-003-005-----0
  6
CONTINUOUS
  5
56
 10
113.936763
 20
310.327306
 30
0.0
 11
111.57908
 21
312.684988
 31
0.0
  0
LINE
  8
LC-003-005-----0
  6
CONTINUOUS
  5
57
 10
110.729265
 20
309.292163
 30
0.0
 11
108.831587
 21
311.189841
 31
0.0
  0
LINE
  8
LC-003-005-----0
  6
CONTINUOUS
  5
58
 10
108.578008
 20
307.200779
 30
0.0
 11
106.82778
 21
308.951007
 31
0.0
  0
LINE
  8
LC-003-005-----0
  6
CONTINUOUS
  5
59
 10
107.458258
 20
304.077888
 30
0.0
 11
105.61694
 21
305.919207
 31
0.0
  0
LINE
  8
LC-003-005-----0
  6
CONTINUOUS
  5
5A
 10
107.298465
 20
299.995041
 30
0.0
 11
105.358884
 21
301.934622
 31
0.0
  0
LINE
  8
LC-003-005-----0
  6
CONTINUOUS
  5
5B
 10
107.155308
 20
295.895557
 30
0.0
 11
105.215727
 21
297.835138
 31
0.0
  0
LINE
  8
LC-003-005-----0
  6
CONTINUOUS
  5
5C
 10
106.803431
 20
292.004794
 30
0.0
 11
105.07257
 21
293.735655
 31
0.0
  0
ENDBLK
  8
0
  5
5D
  0
BLOCK
  8
0
  5
5F
  2
BLK2
 70
    64
 10
0.0
 20
0.0
 30
0.0
  3
BLK2
  0
ARC
  8
LC-004-002-----0
  6
CONTINUOUS
  5
61
 10
330.537606
 20
274.873777
 30
0.0
 40
21.473466
 50
0.001035
 51
30.018965
  0
ARC
  8
LC-004-002-----0
  6
CONTINUOUS
  5
62
 10
330.521314
 20
274.863916
 30
0.0
 40
21.492506
 50
30.019997
 51
60.01999
  0
ARC
  8
LC-004-002-----0
  6
CONTINUOUS
  5
63
 10
330.51146
 20
274.847613
 30
0.0
 40
21.511552
 50
60.018955
 51
90.001033
  0
ARC
  8
LC-004-002-----0
  6
CONTINUOUS
  5
64
 10
330.510685
 20
274.847613
 30
0.0
 40
21.511552
 50
89.998967
 51
119.981045
  0
ARC
  8
LC-004-002-----0
  6
CONTINUOUS
  5
65
 10
330.500831
 20
274.863916
 30
0.0
 40
21.492506
 50
119.98001
 51
149.980003
  0
ARC
  8
LC-004-002-----0
  6
CONTINUOUS
  5
66
 10
330.484539
 20
274.873777
 30
0.0
 40
21.473466
 50
149.981035
 51
179.998965
  0
ARC
  8
LC-004-002-----0
  6
CONTINUOUS
  5
67
 10
330.484539
 20
274.874553
 30
0.0
 40
21.473466
 50
180.001035
 51
210.018965
  0
ARC
  8
LC-004-002-----0
  6
CONTINUOUS
  5
68
 10
330.500831
 20
274.884414
 30
0.0
 40
21.492506
 50
210.019997
 51
240.01999
  0
ARC
  8
LC-004-002-----0
  6
CONTINUOUS
  5
69
 10
330.510685
 20
274.900717
 30
0.0
 40
21.511552
 50
240.018955
 51
270.001033
  0
ARC
  8
LC-004-002-----0
  6
CONTINUOUS
  5
6A
 10
330.51146
 20
274.900717
 30
0.0
 40
21.511552
 50
269.998967
 51
299.981045
  0
ARC
  8
LC-004-002-----0
  6
CONTINUOUS
  5
6B
 10
330.521314
 20
274.884414
 30
0.0
 40
21.492506
 50
299.98001
 51
329.980003
  0
ARC
  8
LC-004-002-----0
  6
CONTINUOUS
  5
6C
 10
330.537606
 20
274.874553
 30
0.0
 40
21.473466
 50
329.981035
 51
359.998965
  0
ENDBLK
  8
0
  5
6D
  0
BLOCK
  8
0
  5
6F
  2
*D5
 70
    65
 10
0.0
 20
0.0
 30
0.0
  3
*D5
  0
LINE
  8
LC-008-003-MTH-0
  6
CONTINUOUS
  5
71
 10
120.450954
 20
189.844114
 30
0.0
 11
120.450954
 21
97.2
 31
0.0
  0
LINE
  8
LC-008-003-MTH-0
  6
CONTINUOUS
  5
72
 10
180.475147
 20
192.643938
 30
0.0
 11
180.475147
 21
97.2
 31
0.0
  0
LINE
  8
LC-009-003-MTG-0
  6
CONTINUOUS
  5
74
 10
120.450954
 20
108.0
 30
0.0
 11
180.475147
 21
108.0
 31
0.0
  0
LINE
  8
LC-007-003-----0
  6
CONTINUOUS
  5
76
 10
138.296961
 20
110.349471
 30
0.0
 11
120.450954
 21
108.0
 31
0.0
  0
LINE
  8
LC-007-003-----0
  6
CONTINUOUS
  5
77
 10
120.450954
 20
108.0
 30
0.0
 11
138.296961
 21
105.650529
 31
0.0
  0
LINE
  8
LC-007-003-----0
  6
CONTINUOUS
  5
78
 10
138.296961
 20
105.650529
 30
0.0
 11
138.296961
 21
110.349471
 31
0.0
  0
LINE
  8
LC-007-003-----0
  6
CONTINUOUS
  5
79
 10
138.336999
 20
109.738609
 30
0.0
 11
125.130954
 21
108.0
 31
0.0
  0
LINE
  8
LC-007-003-----0
  6
CONTINUOUS
  5
7A
 10
125.130954
 20
108.0
 30
0.0
 11
138.336999
 21
106.261391
 31
0.0
  0
LINE
  8
LC-007-003-----0
  6
CONTINUOUS
  5
7B
 10
138.377037
 20
109.127746
 30
0.0
 11
129.810954
 21
108.0
 31
0.0
  0
LINE
  8
LC-007-003-----0
  6
CONTINUOUS
  5
7C
 10
129.810954
 20
108.0
 30
0.0
 11
138.377037
 21
106.872254
 31
0.0
  0
LINE
  8
LC-007-003-----0
  6
CONTINUOUS
  5
7D
 10
138.417075
 20
108.516884
 30
0.0
 11
134.490954
 21
108.0
 31
0.0
  0
LINE
  8
LC-007-003-----0
  6
CONTINUOUS
  5
7E
 10
134.490954
 20
108.0
 30
0.0
 11
138.417075
 21
107.483116
 31
0.0
  0
LINE
  8
LC-007-003-----0
  6
CONTINUOUS
  5
7F
 10
162.62914
 20
105.650529
 30
0.0
 11
180.475147
 21
108.0
 31
0.0
  0
LINE
  8
LC-007-003-----0
  6
CONTINUOUS
  5
80
 10
180.475147
 20
108.0
 30
0.0
 11
162.62914
 21
110.349471
 31
0.0
  0
LINE
  8
LC-007-003-----0
  6
CONTINUOUS
  5
81
 10
162.62914
 20
110.349471
 30
0.0
 11
162.62914
 21
105.650529
 31
0.0
  0
LINE
  8
LC-007-003-----0
  6
CONTINUOUS
  5
82
 10
162.589102
 20
106.261391
 30
0.0
 11
175.795147
 21
108.0
 31
0.0
  0
LINE
  8
LC-007-003-----0
  6
CONTINUOUS
  5
83
 10
175.795147
 20
108.0
 30
0.0
 11
162.589102
 21
109.738609
 31
0.0
  0
LINE
  8
LC-007-003-----0
  6
CONTINUOUS
  5
84
 10
162.549064
 20
106.872254
 30
0.0
 11
171.115147
 21
108.0
 31
0.0
  0
LINE
  8
LC-007-003-----0
  6
CONTINUOUS
  5
85
 10
171.115147
 20
108.0
 30
0.0
 11
162.549064
 21
109.127746
 31
0.0
  0
LINE
  8
LC-007-003-----0
  6
CONTINUOUS
  5
86
 10
162.509026
 20
107.483116
 30
0.0
 11
166.435147
 21
108.0
 31
0.0
  0
LINE
  8
LC-007-003-----0
  6
CONTINUOUS
  5
87
 10
166.435147
 20
108.0
 30
0.0
 11
162.509026
 21
108.516884
 31
0.0
  0
TEXT
  8
LC-007-003-----0
  6
CONTINUOUS
 62
     6
  5
89
 10
141.395304
 20
118.431999
 30
0.0
 40
18.0
  1
60
 41
0.9
 51
15.0
  7
LC-TXTSTYLE-150-400-0-0-D0
 72
     1
 11
153.258296
 21
118.431999
 31
0.0
  0
ENDBLK
  8
0
  5
8A
  0
BLOCK
  8
0
  5
8C
  2
*D6
 70
    65
 10
0.0
 20
0.0
 30
0.0
  3
*D6
  0
LINE
  8
LC-008-003-MTH-0
  6
CONTINUOUS
  5
8D
 10
103.605519
 20
251.646278
 30
0.0
 11
103.605519
 21
133.2
 31
0.0
  0
LINE
  8
LC-008-003-MTH-0
  6
CONTINUOUS
  5
8E
 10
130.445769
 20
317.543923
 30
0.0
 11
130.445769
 21
133.2
 31
0.0
  0
LINE
  8
LC-007-003-----0
  6
CONTINUOUS
  5
8F
 10
85.759512
 20
141.650529
 30
0.0
 11
103.605519
 21
144.0
 31
0.0
  0
LINE
  8
LC-007-003-----0
  6
CONTINUOUS
  5
90
 10
103.605519
 20
144.0
 30
0.0
 11
85.759512
 21
146.349471
 31
0.0
  0
LINE
  8
LC-007-003-----0
  6
CONTINUOUS
  5
91
 10
85.759512
 20
146.349471
 30
0.0
 11
85.759512
 21
141.650529
 31
0.0
  0
LINE
  8
LC-007-003-----0
  6
CONTINUOUS
  5
92
 10
85.719474
 20
142.261391
 30
0.0
 11
98.925519
 21
144.0
 31
0.0
  0
LINE
  8
LC-007-003-----0
  6
CONTINUOUS
  5
93
 10
98.925519
 20
144.0
 30
0.0
 11
85.719474
 21
145.738609
 31
0.0
  0
LINE
  8
LC-007-003-----0
  6
CONTINUOUS
  5
94
 10
85.679436
 20
142.872254
 30
0.0
 11
94.245519
 21
144.0
 31
0.0
  0
LINE
  8
LC-007-003-----0
  6
CONTINUOUS
  5
95
 10
94.245519
 20
144.0
 30
0.0
 11
85.679436
 21
145.127746
 31
0.0
  0
LINE
  8
LC-007-003-----0
  6
CONTINUOUS
  5
96
 10
85.639398
 20
143.483116
 30
0.0
 11
89.565519
 21
144.0
 31
0.0
  0
LINE
  8
LC-007-003-----0
  6
CONTINUOUS
  5
97
 10
89.565519
 20
144.0
 30
0.0
 11
85.639398
 21
144.516884
 31
0.0
  0
LINE
  8
LC-007-003-----0
  6
CONTINUOUS
  5
98
 10
148.291776
 20
146.349471
 30
0.0
 11
130.445769
 21
144.0
 31
0.0
  0
LINE
  8
LC-007-003-----0
  6
CONTINUOUS
  5
99
 10
130.445769
 20
144.0
 30
0.0
 11
148.291776
 21
141.650529
 31
0.0
  0
LINE
  8
LC-007-003-----0
  6
CONTINUOUS
  5
9A
 10
148.291776
 20
141.650529
 30
0.0
 11
148.291776
 21
146.349471
 31
0.0
  0
LINE
  8
LC-007-003-----0
  6
CONTINUOUS
  5
9B
 10
148.331814
 20
145.738609
 30
0.0
 11
135.125769
 21
144.0
 31
0.0
  0
LINE
  8
LC-007-003-----0
  6
CONTINUOUS
  5
9C
 10
135.125769
 20
144.0
 30
0.0
 11
148.331814
 21
142.261391
 31
0.0
  0
LINE
  8
LC-007-003-----0
  6
CONTINUOUS
  5
9D
 10
148.371853
 20
145.127746
 30
0.0
 11
139.805769
 21
144.0
 31
0.0
  0
LINE
  8
LC-007-003-----0
  6
CONTINUOUS
  5
9E
 10
139.805769
 20
144.0
 30
0.0
 11
148.371853
 21
142.872254
 31
0.0
  0
LINE
  8
LC-007-003-----0
  6
CONTINUOUS
  5
9F
 10
148.411891
 20
144.516884
 30
0.0
 11
144.485769
 21
144.0
 31
0.0
  0
LINE
  8
LC-007-003-----0
  6
CONTINUOUS
  5
A0
 10
144.485769
 20
144.0
 30
0.0
 11
148.411891
 21
143.483116
 31
0.0
  0
LINE
  8
LC-009-003-MTG-0
  6
CONTINUOUS
  5
A1
 10
78.405519
 20
144.0
 30
0.0
 11
220.848289
 21
144.0
 31
0.0
  0
TEXT
  8
LC-007-003-----0
  6
CONTINUOUS
 62
     6
  5
A2
 10
157.721015
 20
154.431999
 30
0.0
 40
18.0
  1
26,8
 51
15.0
  7
LC-TXTSTYLE-150-400-0-0-D0
  0
ENDBLK
  8
0
  5
A3
  0
BLOCK
  8
0
  5
A5
  2
*D7
 70
    65
 10
0.0
 20
0.0
 30
0.0
  3
*D7
  0
LINE
  8
LC-008-003-MTH-0
  6
CONTINUOUS
  5
A6
 10
120.445686
 20
189.844114
 30
0.0
 11
45.2
 21
189.844114
 31
0.0
  0
LINE
  8
LC-008-003-MTH-0
  6
CONTINUOUS
  5
A7
 10
120.44576
 20
317.444284
 30
0.0
 11
45.2
 21
317.444284
 31
0.0
  0
LINE
  8
LC-009-003-MTG-0
  6
CONTINUOUS
  5
A8
 10
56.0
 20
189.844114
 30
0.0
 11
56.0
 21
317.444284
 31
0.0
  0
LINE
  8
LC-007-003-----0
  6
CONTINUOUS
  5
A9
 10
53.650529
 20
207.690121
 30
0.0
 11
56.0
 21
189.844114
 31
0.0
  0
LINE
  8
LC-007-003-----0
  6
CONTINUOUS
  5
AA
 10
56.0
 20
189.844114
 30
0.0
 11
58.349471
 21
207.690121
 31
0.0
  0
LINE
  8
LC-007-003-----0
  6
CONTINUOUS
  5
AB
 10
58.349471
 20
207.690121
 30
0.0
 11
53.650529
 21
207.690121
 31
0.0
  0
LINE
  8
LC-007-003-----0
  6
CONTINUOUS
  5
AC
 10
54.261391
 20
207.73016
 30
0.0
 11
56.0
 21
194.524114
 31
0.0
  0
LINE
  8
LC-007-003-----0
  6
CONTINUOUS
  5
AD
 10
56.0
 20
194.524114
 30
0.0
 11
57.738609
 21
207.73016
 31
0.0
  0
LINE
  8
LC-007-003-----0
  6
CONTINUOUS
  5
AE
 10
54.872254
 20
207.770198
 30
0.0
 11
56.0
 21
199.204114
 31
0.0
  0
LINE
  8
LC-007-003-----0
  6
CONTINUOUS
  5
AF
 10
56.0
 20
199.204114
 30
0.0
 11
57.127746
 21
207.770198
 31
0.0
  0
LINE
  8
LC-007-003-----0
  6
CONTINUOUS
  5
B0
 10
55.483116
 20
207.810236
 30
0.0
 11
56.0
 21
203.884114
 31
0.0
  0
LINE
  8
LC-007-003-----0
  6
CONTINUOUS
  5
B1
 10
56.0
 20
203.884114
 30
0.0
 11
56.516884
 21
207.810236
 31
0.0
  0
LINE
  8
LC-007-003-----0
  6
CONTINUOUS
  5
B2
 10
58.349471
 20
299.598276
 30
0.0
 11
56.0
 21
317.444284
 31
0.0
  0
LINE
  8
LC-007-003-----0
  6
CONTINUOUS
  5
B3
 10
56.0
 20
317.444284
 30
0.0
 11
53.650529
 21
299.598276
 31
0.0
  0
LINE
  8
LC-007-003-----0
  6
CONTINUOUS
  5
B4
 10
53.650529
 20
299.598276
 30
0.0
 11
58.349471
 21
299.598276
 31
0.0
  0
LINE
  8
LC-007-003-----0
  6
CONTINUOUS
  5
B5
 10
57.738609
 20
299.558238
 30
0.0
 11
56.0
 21
312.764284
 31
0.0
  0
LINE
  8
LC-007-003-----0
  6
CONTINUOUS
  5
B6
 10
56.0
 20
312.764284
 30
0.0
 11
54.261391
 21
299.558238
 31
0.0
  0
LINE
  8
LC-007-003-----0
  6
CONTINUOUS
  5
B7
 10
57.127746
 20
299.5182
 30
0.0
 11
56.0
 21
308.084284
 31
0.0
  0
LINE
  8
LC-007-003-----0
  6
CONTINUOUS
  5
B8
 10
56.0
 20
308.084284
 30
0.0
 11
54.872254
 21
299.5182
 31
0.0
  0
LINE
  8
LC-007-003-----0
  6
CONTINUOUS
  5
B9
 10
56.516884
 20
299.478162
 30
0.0
 11
56.0
 21
303.404284
 31
0.0
  0
LINE
  8
LC-007-003-----0
  6
CONTINUOUS
  5
BA
 10
56.0
 20
303.404284
 30
0.0
 11
55.483116
 21
299.478162
 31
0.0
  0
TEXT
  8
LC-007-003-----0
  6
CONTINUOUS
 62
     6
  5
BB
 10
45.568001
 20
221.360704
 30
0.0
 40
18.0
  1
Ø127,6
 50
90.0
 51
15.0
  7
LC-TXTSTYLE-150-400-0-0-D0
 72
     1
 11
45.568001
 21
256.439444
 31
0.0
  0
ENDBLK
  8
0
  5
BC
  0
BLOCK
  8
0
  5
BE
  2
*D8
 70
    65
 10
0.0
 20
0.0
 30
0.0
  3
*D8
  0
LINE
  8
LC-008-003-MTH-0
  6
CONTINUOUS
  5
BF
 10
271.81108
 20
253.644111
 30
0.0
 11
271.81108
 21
346.8
 31
0.0
  0
LINE
  8
LC-008-003-MTH-0
  6
CONTINUOUS
  5
C0
 10
389.211064
 20
253.644077
 30
0.0
 11
389.211064
 21
346.8
 31
0.0
  0
LINE
  8
LC-009-003-MTG-0
  6
CONTINUOUS
  5
C1
 10
271.81108
 20
336.0
 30
0.0
 11
389.211064
 21
336.0
 31
0.0
  0
LINE
  8
LC-007-003-----0
  6
CONTINUOUS
  5
C2
 10
289.657088
 20
338.349471
 30
0.0
 11
271.81108
 21
336.0
 31
0.0
  0
LINE
  8
LC-007-003-----0
  6
CONTINUOUS
  5
C3
 10
271.81108
 20
336.0
 30
0.0
 11
289.657088
 21
333.650529
 31
0.0
  0
LINE
  8
LC-007-003-----0
  6
CONTINUOUS
  5
C4
 10
289.657088
 20
333.650529
 30
0.0
 11
289.657088
 21
338.349471
 31
0.0
  0
LINE
  8
LC-007-003-----0
  6
CONTINUOUS
  5
C5
 10
289.697126
 20
337.738609
 30
0.0
 11
276.49108
 21
336.0
 31
0.0
  0
LINE
  8
LC-007-003-----0
  6
CONTINUOUS
  5
C6
 10
276.49108
 20
336.0
 30
0.0
 11
289.697126
 21
334.261391
 31
0.0
  0
LINE
  8
LC-007-003-----0
  6
CONTINUOUS
  5
C7
 10
289.737164
 20
337.127746
 30
0.0
 11
281.17108
 21
336.0
 31
0.0
  0
LINE
  8
LC-007-003-----0
  6
CONTINUOUS
  5
C8
 10
281.17108
 20
336.0
 30
0.0
 11
289.737164
 21
334.872254
 31
0.0
  0
LINE
  8
LC-007-003-----0
  6
CONTINUOUS
  5
C9
 10
289.777202
 20
336.516884
 30
0.0
 11
285.85108
 21
336.0
 31
0.0
  0
LINE
  8
LC-007-003-----0
  6
CONTINUOUS
  5
CA
 10
285.85108
 20
336.0
 30
0.0
 11
289.777202
 21
335.483116
 31
0.0
  0
LINE
  8
LC-007-003-----0
  6
CONTINUOUS
  5
CB
 10
371.365057
 20
333.650529
 30
0.0
 11
389.211064
 21
336.0
 31
0.0
  0
LINE
  8
LC-007-003-----0
  6
CONTINUOUS
  5
CC
 10
389.211064
 20
336.0
 30
0.0
 11
371.365057
 21
338.349471
 31
0.0
  0
LINE
  8
LC-007-003-----0
  6
CONTINUOUS
  5
CD
 10
371.365057
 20
338.349471
 30
0.0
 11
371.365057
 21
333.650529
 31
0.0
  0
LINE
  8
LC-007-003-----0
  6
CONTINUOUS
  5
CE
 10
371.325019
 20
334.261391
 30
0.0
 11
384.531064
 21
336.0
 31
0.0
  0
LINE
  8
LC-007-003-----0
  6
CONTINUOUS
  5
CF
 10
384.531064
 20
336.0
 30
0.0
 11
371.325019
 21
337.738609
 31
0.0
  0
LINE
  8
LC-007-003-----0
  6
CONTINUOUS
  5
D0
 10
371.284981
 20
334.872254
 30
0.0
 11
379.851064
 21
336.0
 31
0.0
  0
LINE
  8
LC-007-003-----0
  6
CONTINUOUS
  5
D1
 10
379.851064
 20
336.0
 30
0.0
 11
371.284981
 21
337.127746
 31
0.0
  0
LINE
  8
LC-007-003-----0
  6
CONTINUOUS
  5
D2
 10
371.244943
 20
335.483116
 30
0.0
 11
375.171064
 21
336.0
 31
0.0
  0
LINE
  8
LC-007-003-----0
  6
CONTINUOUS
  5
D3
 10
375.171064
 20
336.0
 30
0.0
 11
371.244943
 21
336.516884
 31
0.0
  0
TEXT
  8
LC-007-003-----0
  6
CONTINUOUS
 62
     6
  5
D4
 10
303.585058
 20
346.431999
 30
0.0
 40
18.0
  1
117,4
 51
15.0
  7
LC-TXTSTYLE-150-400-0-0-D0
 72
     1
 11
333.306318
 21
346.431999
 31
0.0
  0
ENDBLK
  8
0
  5
D5
  0
BLOCK
  8
0
  5
D7
  2
*D9
 70
    65
 10
0.0
 20
0.0
 30
0.0
  3
*D9
  0
LINE
  8
LC-008-003-MTH-0
  6
CONTINUOUS
  5
D8
 10
274.353892
 20
245.817154
 30
0.0
 11
241.2
 21
245.817154
 31
0.0
  0
LINE
  8
LC-008-003-MTH-0
  6
CONTINUOUS
  5
D9
 10
264.811072
 20
253.644077
 30
0.0
 11
241.2
 21
253.644077
 31
0.0
  0
LINE
  8
LC-007-003-----0
  6
CONTINUOUS
  5
DA
 10
254.349471
 20
227.971147
 30
0.0
 11
252.0
 21
245.817154
 31
0.0
  0
LINE
  8
LC-007-003-----0
  6
CONTINUOUS
  5
DB
 10
252.0
 20
245.817154
 30
0.0
 11
249.650529
 21
227.971147
 31
0.0
  0
LINE
  8
LC-007-003-----0
  6
CONTINUOUS
  5
DC
 10
249.650529
 20
227.971147
 30
0.0
 11
254.349471
 21
227.971147
 31
0.0
  0
LINE
  8
LC-007-003-----0
  6
CONTINUOUS
  5
DD
 10
253.738609
 20
227.931109
 30
0.0
 11
252.0
 21
241.137154
 31
0.0
  0
LINE
  8
LC-007-003-----0
  6
CONTINUOUS
  5
DE
 10
252.0
 20
241.137154
 30
0.0
 11
250.261391
 21
227.931109
 31
0.0
  0
LINE
  8
LC-007-003-----0
  6
CONTINUOUS
  5
DF
 10
253.127746
 20
227.891071
 30
0.0
 11
252.0
 21
236.457154
 31
0.0
  0
LINE
  8
LC-007-003-----0
  6
CONTINUOUS
  5
E0
 10
252.0
 20
236.457154
 30
0.0
 11
250.872254
 21
227.891071
 31
0.0
  0
LINE
  8
LC-007-003-----0
  6
CONTINUOUS
  5
E1
 10
252.516884
 20
227.851033
 30
0.0
 11
252.0
 21
231.777154
 31
0.0
  0
LINE
  8
LC-007-003-----0
  6
CONTINUOUS
  5
E2
 10
252.0
 20
231.777154
 30
0.0
 11
251.483116
 21
227.851033
 31
0.0
  0
LINE
  8
LC-007-003-----0
  6
CONTINUOUS
  5
E3
 10
249.650529
 20
271.490084
 30
0.0
 11
252.0
 21
253.644077
 31
0.0
  0
LINE
  8
LC-007-003-----0
  6
CONTINUOUS
  5
E4
 10
252.0
 20
253.644077
 30
0.0
 11
254.349471
 21
271.490084
 31
0.0
  0
LINE
  8
LC-007-003-----0
  6
CONTINUOUS
  5
E5
 10
254.349471
 20
271.490084
 30
0.0
 11
249.650529
 21
271.490084
 31
0.0
  0
LINE
  8
LC-007-003-----0
  6
CONTINUOUS
  5
E6
 10
250.261391
 20
271.530122
 30
0.0
 11
252.0
 21
258.324077
 31
0.0
  0
LINE
  8
LC-007-003-----0
  6
CONTINUOUS
  5
E7
 10
252.0
 20
258.324077
 30
0.0
 11
253.738609
 21
271.530122
 31
0.0
  0
LINE
  8
LC-007-003-----0
  6
CONTINUOUS
  5
E8
 10
250.872254
 20
271.57016
 30
0.0
 11
252.0
 21
263.004077
 31
0.0
  0
LINE
  8
LC-007-003-----0
  6
CONTINUOUS
  5
E9
 10
252.0
 20
263.004077
 30
0.0
 11
253.127746
 21
271.57016
 31
0.0
  0
LINE
  8
LC-007-003-----0
  6
CONTINUOUS
  5
EA
 10
251.483116
 20
271.610198
 30
0.0
 11
252.0
 21
267.684077
 31
0.0
  0
LINE
  8
LC-007-003-----0
  6
CONTINUOUS
  5
EB
 10
252.0
 20
267.684077
 30
0.0
 11
252.516884
 21
271.610198
 31
0.0
  0
LINE
  8
LC-009-003-MTG-0
  6
CONTINUOUS
  5
EC
 10
252.0
 20
220.617154
 30
0.0
 11
252.0
 21
327.846596
 31
0.0
  0
TEXT
  8
LC-007-003-----0
  6
CONTINUOUS
 62
     6
  5
ED
 10
241.568001
 20
280.919322
 30
0.0
 40
18.0
  1
7,8
 50
90.0
 51
15.0
  7
LC-TXTSTYLE-150-400-0-0-D0
  0
ENDBLK
  8
0
  5
EE
  0
BLOCK
  8
0
  5
F0
  2
*D10
 70
    65
 10
0.0
 20
0.0
 30
0.0
  3
*D10
  0
LINE
  8
LC-008-003-MTH-0
  6
CONTINUOUS
  5
F1
 10
396.211072
 20
253.644077
 30
0.0
 11
430.8
 21
253.644077
 31
0.0
  0
LINE
  8
LC-008-003-MTH-0
  6
CONTINUOUS
  5
F2
 10
352.011072
 20
274.874165
 30
0.0
 11
430.8
 21
274.874165
 31
0.0
  0
LINE
  8
LC-007-003-----0
  6
CONTINUOUS
  5
F3
 10
422.349471
 20
235.798069
 30
0.0
 11
420.0
 21
253.644077
 31
0.0
  0
LINE
  8
LC-007-003-----0
  6
CONTINUOUS
  5
F4
 10
420.0
 20
253.644077
 30
0.0
 11
417.650529
 21
235.798069
 31
0.0
  0
LINE
  8
LC-007-003-----0
  6
CONTINUOUS
  5
F5
 10
417.650529
 20
235.798069
 30
0.0
 11
422.349471
 21
235.798069
 31
0.0
  0
LINE
  8
LC-007-003-----0
  6
CONTINUOUS
  5
F6
 10
421.738609
 20
235.758031
 30
0.0
 11
420.0
 21
248.964077
 31
0.0
  0
LINE
  8
LC-007-003-----0
  6
CONTINUOUS
  5
F7
 10
420.0
 20
248.964077
 30
0.0
 11
418.261391
 21
235.758031
 31
0.0
  0
LINE
  8
LC-007-003-----0
  6
CONTINUOUS
  5
F8
 10
421.127746
 20
235.717993
 30
0.0
 11
420.0
 21
244.284077
 31
0.0
  0
LINE
  8
LC-007-003-----0
  6
CONTINUOUS
  5
F9
 10
420.0
 20
244.284077
 30
0.0
 11
418.872254
 21
235.717993
 31
0.0
  0
LINE
  8
LC-007-003-----0
  6
CONTINUOUS
  5
FA
 10
420.516884
 20
235.677955
 30
0.0
 11
420.0
 21
239.604077
 31
0.0
  0
LINE
  8
LC-007-003-----0
  6
CONTINUOUS
  5
FB
 10
420.0
 20
239.604077
 30
0.0
 11
419.483116
 21
235.677955
 31
0.0
  0
LINE
  8
LC-007-003-----0
  6
CONTINUOUS
  5
FC
 10
417.650529
 20
292.720173
 30
0.0
 11
420.0
 21
274.874165
 31
0.0
  0
LINE
  8
LC-007-003-----0
  6
CONTINUOUS
  5
FD
 10
420.0
 20
274.874165
 30
0.0
 11
422.349471
 21
292.720173
 31
0.0
  0
LINE
  8
LC-007-003-----0
  6
CONTINUOUS
  5
FE
 10
422.349471
 20
292.720173
 30
0.0
 11
417.650529
 21
292.720173
 31
0.0
  0
LINE
  8
LC-007-003-----0
  6
CONTINUOUS
  5
FF
 10
418.261391
 20
292.760211
 30
0.0
 11
420.0
 21
279.554165
 31
0.0
  0
LINE
  8
LC-007-003-----0
  6
CONTINUOUS
  5
100
 10
420.0
 20
279.554165
 30
0.0
 11
421.738609
 21
292.760211
 31
0.0
  0
LINE
  8
LC-007-003-----0
  6
CONTINUOUS
  5
101
 10
418.872254
 20
292.800249
 30
0.0
 11
420.0
 21
284.234165
 31
0.0
  0
LINE
  8
LC-007-003-----0
  6
CONTINUOUS
  5
102
 10
420.0
 20
284.234165
 30
0.0
 11
421.127746
 21
292.800249
 31
0.0
  0
LINE
  8
LC-007-003-----0
  6
CONTINUOUS
  5
103
 10
419.483116
 20
292.840287
 30
0.0
 11
420.0
 21
288.914165
 31
0.0
  0
LINE
  8
LC-007-003-----0
  6
CONTINUOUS
  5
104
 10
420.0
 20
288.914165
 30
0.0
 11
420.516884
 21
292.840287
 31
0.0
  0
LINE
  8
LC-009-003-MTG-0
  6
CONTINUOUS
  5
105
 10
420.0
 20
228.444077
 30
0.0
 11
420.0
 21
365.276685
 31
0.0
  0
TEXT
  8
LC-007-003-----0
  6
CONTINUOUS
 62
     6
  5
106
 10
409.568001
 20
302.149411
 30
0.0
 40
18.0
  1
21,2
 50
90.0
 51
15.0
  7
LC-TXTSTYLE-150-400-0-0-D0
  0
ENDBLK
  8
0
  5
107
  0
BLOCK
  8
0
  5
109
  2
*X11
 70
    65
 10
121.945758
 20
312.344263
 30
0.0
  3
*X11
  0
LINE
  8
LC-003-005-----0
  6
CONTINUOUS
  5
10A
 10
128.859131
 20
316.618141
 30
0.0
 11
126.219636
 21
319.257636
 31
0.0
  0
LINE
  8
LC-003-005-----0
  6
DASHED
  5
10C
 10
128.50496
 20
314.143885
 30
0.0
 11
123.74538
 21
318.903465
 31
0.0
  0
LINE
  8
LC-003-005-----0
  6
DASHED
  5
10D
 10
127.892782
 20
313.34185
 30
0.0
 11
122.943344
 21
318.291287
 31
0.0
  0
LINE
  8
LC-003-005-----0
  6
CONTINUOUS
  5
10E
 10
126.015292
 20
312.390913
 30
0.0
 11
121.992407
 21
316.413797
 31
0.0
  0
LINE
  8
LC-003-005-----0
  6
CONTINUOUS
  5
10F
 10
124.524233
 20
312.467758
 30
0.0
 11
122.069252
 21
314.922739
 31
0.0
  0
ENDBLK
  8
0
  5
110
  0
BLOCK
  8
0
  5
112
  2
BLK3
 70
    64
 10
0.0
 20
0.0
 30
0.0
  3
BLK3
  0
ENDBLK
  8
0
  5
113
  0
BLOCK
  8
0
  5
115
  2
*X13
 70
    65
 10
121.945686
 20
187.944128
 30
0.0
  3
*X13
  0
LINE
  8
LC-003-005-----0
  6
CONTINUOUS
  5
116
 10
128.873062
 20
192.153416
 30
0.0
 11
126.154974
 21
194.871505
 31
0.0
  0
LINE
  8
LC-003-005-----0
  6
DASHED
  5
117
 10
128.48667
 20
189.711381
 30
0.0
 11
123.712939
 21
194.485113
 31
0.0
  0
LINE
  8
LC-003-005-----0
  6
DASHED
  5
118
 10
127.867004
 20
188.916834
 30
0.0
 11
122.918391
 21
193.865447
 31
0.0
  0
LINE
  8
LC-003-005-----0
  6
CONTINUOUS
  5
119
 10
125.971552
 20
187.983859
 30
0.0
 11
121.985416
 21
191.969994
 31
0.0
  0
LINE
  8
LC-003-005-----0
  6
CONTINUOUS
  5
11A
 10
124.453487
 20
188.08771
 30
0.0
 11
122.089268
 21
190.451929
 31
0.0
  0
ENDBLK
  8
0
  5
11B
  0
BLOCK
  8
0
  5
11D
  2
*X14
 70
    65
 10
102.466448
 20
253.241034
 30
0.0
  3
*X14
  0
LINE
  8
LC-003-005-----0
  6
CONTINUOUS
  5
11E
 10
102.468713
 20
253.347419
 30
0.0
 11
102.535997
 21
253.280135
 31
0.0
  0
LINE
  8
LC-003-005-----0
  6
CONTINUOUS
  5
11F
 10
102.478257
 20
253.620718
 30
0.0
 11
102.829074
 21
253.269901
 31
0.0
  0
LINE
  8
LC-003-005-----0
  6
CONTINUOUS
  5
120
 10
102.487801
 20
253.894017
 30
0.0
 11
103.122151
 21
253.259666
 31
0.0
  0
LINE
  8
LC-003-005-----0
  6
CONTINUOUS
  5
121
 10
102.497345
 20
254.167316
 30
0.0
 11
103.415229
 21
253.249432
 31
0.0
  0
LINE
  8
LC-003-005-----0
  6
CONTINUOUS
  5
122
 10
102.506888
 20
254.440615
 30
0.0
 11
103.657436
 21
253.290067
 31
0.0
  0
LINE
  8
LC-003-005-----0
  6
CONTINUOUS
  5
123
 10
102.516432
 20
254.713914
 30
0.0
 11
103.66698
 21
253.563366
 31
0.0
  0
LINE
  8
LC-003-005-----0
  6
CONTINUOUS
  5
124
 10
102.525976
 20
254.987213
 30
0.0
 11
103.676523
 21
253.836665
 31
0.0
  0
LINE
  8
LC-003-005-----0
  6
CONTINUOUS
  5
125
 10
102.53552
 20
255.260511
 30
0.0
 11
103.686067
 21
254.109964
 31
0.0
  0
LINE
  8
LC-003-005-----0
  6
CONTINUOUS
  5
126
 10
102.545064
 20
255.53381
 30
0.0
 11
103.695611
 21
254.383263
 31
0.0
  0
LINE
  8
LC-003-005-----0
  6
CONTINUOUS
  5
127
 10
102.554607
 20
255.807109
 30
0.0
 11
103.705155
 21
254.656562
 31
0.0
  0
LINE
  8
LC-003-005-----0
  6
CONTINUOUS
  5
128
 10
102.564151
 20
256.080408
 30
0.0
 11
103.714699
 21
254.929861
 31
0.0
  0
LINE
  8
LC-003-005-----0
  6
CONTINUOUS
  5
129
 10
102.573695
 20
256.353707
 30
0.0
 11
103.724242
 21
255.20316
 31
0.0
  0
LINE
  8
LC-003-005-----0
  6
CONTINUOUS
  5
12A
 10
102.583239
 20
256.627006
 30
0.0
 11
103.733786
 21
255.476459
 31
0.0
  0
LINE
  8
LC-003-005-----0
  6
CONTINUOUS
  5
12B
 10
102.592783
 20
256.900305
 30
0.0
 11
103.74333
 21
255.749758
 31
0.0
  0
LINE
  8
LC-003-005-----0
  6
CONTINUOUS
  5
12C
 10
102.602326
 20
257.173604
 30
0.0
 11
103.752874
 21
256.023056
 31
0.0
  0
LINE
  8
LC-003-005-----0
  6
CONTINUOUS
  5
12D
 10
102.629369
 20
257.429404
 30
0.0
 11
103.762418
 21
256.296355
 31
0.0
  0
LINE
  8
LC-003-005-----0
  6
CONTINUOUS
  5
12E
 10
102.922446
 20
257.41917
 30
0.0
 11
103.771961
 21
256.569654
 31
0.0
  0
LINE
  8
LC-003-005-----0
  6
CONTINUOUS
  5
12F
 10
103.215523
 20
257.408935
 30
0.0
 11
103.781505
 21
256.842953
 31
0.0
  0
LINE
  8
LC-003-005-----0
  6
CONTINUOUS
  5
130
 10
103.5086
 20
257.398701
 30
0.0
 11
103.791049
 21
257.116252
 31
0.0
  0
ENDBLK
  8
0
  5
131
  0
BLOCK
  8
0
  5
133
  2
*X15
 70
    65
 10
103.822294
 20
292.067367
 30
0.0
  3
*X15
  0
LINE
  8
LC-003-005-----0
  6
CONTINUOUS
  5
134
 10
103.823934
 20
292.155864
 30
0.0
 11
103.872659
 21
292.107139
 31
0.0
  0
LINE
  8
LC-003-005-----0
  6
CONTINUOUS
  5
135
 10
103.833478
 20
292.429162
 30
0.0
 11
104.165736
 21
292.096904
 31
0.0
  0
LINE
  8
LC-003-005-----0
  6
CONTINUOUS
  5
136
 10
103.843022
 20
292.702461
 30
0.0
 11
104.458813
 21
292.08667
 31
0.0
  0
LINE
  8
LC-003-005-----0
  6
CONTINUOUS
  5
137
 10
103.852565
 20
292.97576
 30
0.0
 11
104.75189
 21
292.076435
 31
0.0
  0
LINE
  8
LC-003-005-----0
  6
CONTINUOUS
  5
138
 10
103.862109
 20
293.249059
 30
0.0
 11
105.012656
 21
292.098512
 31
0.0
  0
LINE
  8
LC-003-005-----0
  6
CONTINUOUS
  5
139
 10
103.871653
 20
293.522358
 30
0.0
 11
105.0222
 21
292.371811
 31
0.0
  0
LINE
  8
LC-003-005-----0
  6
CONTINUOUS
  5
13A
 10
103.881197
 20
293.795657
 30
0.0
 11
105.031744
 21
292.64511
 31
0.0
  0
LINE
  8
LC-003-005-----0
  6
CONTINUOUS
  5
13B
 10
103.890741
 20
294.068956
 30
0.0
 11
105.041288
 21
292.918409
 31
0.0
  0
LINE
  8
LC-003-005-----0
  6
CONTINUOUS
  5
13C
 10
103.900284
 20
294.342255
 30
0.0
 11
105.050832
 21
293.191707
 31
0.0
  0
LINE
  8
LC-003-005-----0
  6
CONTINUOUS
  5
13D
 10
103.909828
 20
294.615554
 30
0.0
 11
105.060376
 21
293.465006
 31
0.0
  0
LINE
  8
LC-003-005-----0
  6
CONTINUOUS
  5
13E
 10
103.919372
 20
294.888853
 30
0.0
 11
105.069919
 21
293.738305
 31
0.0
  0
LINE
  8
LC-003-005-----0
  6
CONTINUOUS
  5
13F
 10
103.928916
 20
295.162152
 30
0.0
 11
105.079463
 21
294.011604
 31
0.0
  0
LINE
  8
LC-003-005-----0
  6
CONTINUOUS
  5
140
 10
103.93846
 20
295.43545
 30
0.0
 11
105.089007
 21
294.284903
 31
0.0
  0
LINE
  8
LC-003-005-----0
  6
CONTINUOUS
  5
141
 10
103.948003
 20
295.708749
 30
0.0
 11
105.098551
 21
294.558202
 31
0.0
  0
LINE
  8
LC-003-005-----0
  6
CONTINUOUS
  5
142
 10
103.957547
 20
295.982048
 30
0.0
 11
105.108095
 21
294.831501
 31
0.0
  0
LINE
  8
LC-003-005-----0
  6
CONTINUOUS
  5
143
 10
103.967091
 20
296.255347
 30
0.0
 11
105.117638
 21
295.1048
 31
0.0
  0
LINE
  8
LC-003-005-----0
  6
CONTINUOUS
  5
144
 10
104.259108
 20
296.246173
 30
0.0
 11
105.127182
 21
295.378099
 31
0.0
  0
LINE
  8
LC-003-005-----0
  6
CONTINUOUS
  5
145
 10
104.552185
 20
296.235939
 30
0.0
 11
105.136726
 21
295.651398
 31
0.0
  0
LINE
  8
LC-003-005-----0
  6
CONTINUOUS
  5
146
 10
104.845262
 20
296.225704
 30
0.0
 11
105.14627
 21
295.924696
 31
0.0
  0
LINE
  8
LC-003-005-----0
  6
CONTINUOUS
  5
147
 10
105.138339
 20
296.21547
 30
0.0
 11
105.155814
 21
296.197995
 31
0.0
  0
ENDBLK
  8
0
  5
148
  0
BLOCK
  8
0
  5
14A
  2
*X16
 70
    65
 10
8.9591
 20
228.426218
 30
0.0
  3
*X16
  0
LINE
  8
LC-003-005-----0
  6
CONTINUOUS
  5
14B
 10
99.587261
 20
256.794557
 30
0.0
 11
102.487801
 21
253.894017
 31
0.0
  0
LINE
  8
LC-003-005-----0
  6
CONTINUOUS
  5
14C
 10
100.440142
 20
261.59853
 30
0.0
 11
102.005142
 21
260.03353
 31
0.0
  0
LINE
  8
LC-003-005-----0
  6
CONTINUOUS
  5
14D
 10
102.607277
 20
259.431395
 30
0.0
 11
104.680909
 21
257.357763
 31
0.0
  0
LINE
  8
LC-003-005-----0
  6
CONTINUOUS
  5
14E
 10
105.768805
 20
256.269867
 30
0.0
 11
107.32479
 21
254.713882
 31
0.0
  0
LINE
  8
LC-003-005-----0
  6
CONTINUOUS
  5
14F
 10
101.695118
 20
266.000408
 30
0.0
 11
103.344483
 21
264.351043
 31
0.0
  0
LINE
  8
LC-003-005-----0
  6
CONTINUOUS
  5
150
 10
108.468821
 20
259.226705
 30
0.0
 11
109.154055
 21
258.541471
 31
0.0
  0
LINE
  8
LC-003-005-----0
  6
CONTINUOUS
  5
151
 10
102.544127
 20
270.808253
 30
0.0
 11
104.313035
 21
269.039345
 31
0.0
  0
LINE
  8
LC-003-005-----0
  6
CONTINUOUS
  5
152
 10
104.276784
 20
274.732451
 30
0.0
 11
104.828369
 21
274.180866
 31
0.0
  0
ENDBLK
  8
0
  5
153
  0
BLOCK
  8
0
  5
155
  2
*X17
 70
    65
 10
8.9591
 20
228.426218
 30
0.0
  3
*X17
  0
LINE
  8
LC-003-005-----0
  6
CONTINUOUS
  5
156
 10
102.883099
 20
276.126136
 30
0.0
 11
104.276784
 21
274.732451
 31
0.0
  0
LINE
  8
LC-003-005-----0
  6
CONTINUOUS
  5
157
 10
102.521739
 20
282.14435
 30
0.0
 11
104.748946
 21
279.917143
 31
0.0
  0
LINE
  8
LC-003-005-----0
  6
CONTINUOUS
  5
158
 10
101.036436
 20
289.286507
 30
0.0
 11
103.794415
 21
286.528528
 31
0.0
  0
LINE
  8
LC-003-005-----0
  6
CONTINUOUS
  5
159
 10
100.923394
 20
295.056403
 30
0.0
 11
103.823934
 21
292.155864
 31
0.0
  0
LINE
  8
LC-003-005-----0
  6
CONTINUOUS
  5
15A
 10
103.872659
 20
292.107139
 30
0.0
 11
105.946291
 21
290.033507
 31
0.0
  0
LINE
  8
LC-003-005-----0
  6
CONTINUOUS
  5
15B
 10
107.104938
 20
294.531713
 30
0.0
 11
110.299312
 21
291.337339
 31
0.0
  0
ENDBLK
  8
0
  5
15C
  0
ENDSEC
  0
SECTION
  2
ENTITIES
  0
VIEWPORT
  8
LC-000
  5
1D6
 67
     1
 68
     1
 10
420.0
 20
297.0
 30
0.0
 40
840.0
 41
594.0
 69
     1
1001
ACAD
1000
MVIEW
1002
{
1070
    16
1010
0.0
1020
0.0
1030
0.0
1010
0.0
1020
0.0
1030
1.0
1040
0.0
1040
594.0
1040
420.0
1040
297.0
1040
50.0
1040
0.0
1040
0.0
1070
     0
1070
   100
1070
     1
1070
     1
1070
     0
1070
     0
1070
     0
1070
     0
1040
0.0
1040
0.0
1040
0.0
1040
1.0
1040
1.0
1040
0.0
1040
0.0
1070
     0
1002
{
1002
}
1002
}
  0
VIEWPORT
  8
0
  5
1D7
 67
     1
 68
     1
 10
0.0
 20
0.0
 30
0.0
 40
0.0
 41
0.0
 69
     1
1001
ACAD
1000
MVIEW
1002
{
1070
    16
1010
0.0
1020
0.0
1030
0.0
1010
0.0
1020
0.0
1030
1.0
1040
0.0
1040
594.0
1040
0.0
1040
0.0
1040
50.0
1040
0.0
1040
0.0
1070
     0
1070
   100
1070
     0
1070
     1
1070
     0
1070
     0
1070
     0
1070
     0
1040
0.0
1040
0.0
1040
0.0
1040
0.5
1040
0.5
1040
0.5
1040
0.5
1070
     0
1002
{
1002
}
1002
}
  0
INSERT
  8
0
  5
15E
  2
BLK1
 10
0.0
 20
0.0
 30
0.0
  0
INSERT
  8
0
  5
15F
  2
*X1
 10
120.445686
 20
189.844114
 30
0.0
  0
INSERT
  8
0
  5
160
  2
*X2
 10
103.605519
 20
239.473639
 30
0.0
  0
INSERT
  8
0
  5
161
  2
*X3
 10
105.014309
 20
291.99726
 30
0.0
  0
INSERT
  8
0
  5
162
  2
BLK2
 10
0.0
 20
0.0
 30
0.0
  0
DIMENSION
  8
0
  5
163
  2
*D5
 10
150.46305
 20
108.0
 30
0.0
 11
150.46305
 21
108.0
 31
0.0
  1
60
 13
120.450954
 23
189.844114
 33
0.0
 14
180.475147
 24
192.643938
 34
0.0
  3
LC-DIM-L-0090-02-02
  0
DIMENSION
  8
0
  5
164
  2
*D6
 10
117.025644
 20
144.0
 30
0.0
 11
117.025644
 21
144.0
 31
0.0
  1
26,8
 13
103.605519
 23
251.646278
 33
0.0
 14
130.445769
 24
317.543923
 34
0.0
  3
LC-DIM-L-0090-02-02
  0
DIMENSION
  8
0
  5
165
  2
*D7
 10
56.0
 20
253.644199
 30
0.0
 11
56.0
 21
253.644199
 31
0.0
  1
%%c<>
 13
120.44576
 23
317.444284
 33
0.0
 14
120.445686
 24
189.844114
 34
0.0
 50
90.0
  3
LC-DIM-L-0090-02-02
  0
DIMENSION
  8
0
  5
166
  2
*D8
 10
330.511072
 20
336.0
 30
0.0
 11
330.511072
 21
336.0
 31
0.0
 13
271.81108
 23
253.644111
 33
0.0
 14
389.211064
 24
253.644077
 34
0.0
  3
LC-DIM-L-0090-02-02
  0
DIMENSION
  8
0
  5
167
  2
*D9
 10
252.0
 20
249.730615
 30
0.0
 11
252.0
 21
249.730615
 31
0.0
  1
7,8
 13
264.811072
 23
253.644077
 33
0.0
 14
274.353892
 24
245.817154
 34
0.0
 50
90.0
  3
LC-DIM-L-0090-02-02
  0
DIMENSION
  8
0
  5
168
  2
*D10
 10
420.0
 20
264.259121
 30
0.0
 11
420.0
 21
264.259121
 31
0.0
  1
21,2
 13
396.211072
 23
253.644077
 33
0.0
 14
352.011072
 24
274.874165
 34
0.0
 50
90.0
  3
LC-DIM-L-0090-02-02
  0
INSERT
  8
0
  5
169
  2
*X11
 10
121.945758
 20
312.344263
 30
0.0
  0
INSERT
  8
0
  5
16B
  2
BLK3
 10
0.0
 20
0.0
 30
0.0
  0
INSERT
  8
0
  5
16C
  2
*X13
 10
121.945686
 20
187.944128
 30
0.0
  0
INSERT
  8
0
  5
16D
  2
*X14
 10
102.466448
 20
253.241034
 30
0.0
  0
INSERT
  8
0
  5
16E
  2
*X15
 10
103.822294
 20
292.067367
 30
0.0
  0
INSERT
  8
0
  5
16F
  2
*X16
 10
8.9591
 20
228.426218
 30
0.0
  0
INSERT
  8
0
  5
170
  2
*X17
 10
8.9591
 20
228.426218
 30
0.0
  0
LINE
  8
LC-001-205-----0
  6
CONTINUOUS
  5
172
 10
120.445686
 20
196.944114
 30
0.0
 11
120.445686
 21
245.817188
 31
0.0
  0
LINE
  8
LC-001-205-----0
  6
CONTINUOUS
  5
173
 10
120.445686
 20
189.844114
 30
0.0
 11
120.445686
 21
196.944114
 31
0.0
  0
LINE
  8
LC-001-205-----0
  6
CONTINUOUS
  5
174
 10
127.945678
 20
196.944135
 30
0.0
 11
120.450954
 21
196.944114
 31
0.0
  0
LINE
  8
LC-004-002-----0
  6
CONTINUOUS
  5
175
 10
130.445686
 20
194.143971
 30
0.0
 11
130.445686
 21
239.473639
 31
0.0
  0
LINE
  8
LC-001-205-----0
  6
CONTINUOUS
  5
176
 10
180.475147
 20
192.643938
 30
0.0
 11
180.475147
 21
241.484775
 31
0.0
  0
LINE
  8
LC-001-205-----0
  6
CONTINUOUS
  5
177
 10
180.475147
 20
193.64393
 30
0.0
 11
166.140075
 21
193.64394
 31
0.0
  0
LINE
  8
LC-001-205-----0
  6
CONTINUOUS
  5
178
 10
166.140075
 20
193.643948
 30
0.0
 11
130.945685
 21
193.643971
 31
0.0
  0
LINE
  8
LC-004-002-----0
  6
CONTINUOUS
  5
179
 10
107.63262
 20
247.171195
 30
0.0
 11
180.475147
 21
239.473639
 31
0.0
  0
LINE
  8
LC-004-002-----0
  6
CONTINUOUS
  5
17A
 10
108.105519
 20
249.146278
 30
0.0
 11
131.285768
 21
249.146278
 31
0.0
  0
ARC
  8
LC-005-205-RND-0
  6
CONTINUOUS
  5
17C
 10
108.105519
 20
251.646278
 30
0.0
 40
2.5
 50
182.0
 51
270.0
  0
ARC
  8
LC-005-205-RND-0
  6
CONTINUOUS
  5
17D
 10
108.105519
 20
251.646278
 30
0.0
 40
4.5
 50
178.0
 51
263.967717
  0
ARC
  8
LC-005-205-RND-0
  6
CONTINUOUS
  5
17E
 10
114.419679
 20
303.343984
 30
0.0
 40
7.0
 50
89.999987
 51
178.0
  0
LINE
  8
LC-004-002-----0
  6
CONTINUOUS
  5
17F
 10
274.111285
 20
245.817154
 30
0.0
 11
386.91086
 21
245.817154
 31
0.0
  0
ARC
  8
LC-005-205-RND-0
  6
CONTINUOUS
  5
180
 10
114.441817
 20
304.152419
 30
0.0
 40
9.0
 50
95.652944
 51
178.0
  0
LINE
  8
LC-004-002-----0
  6
CONTINUOUS
  5
181
 10
103.608261
 20
251.803326
 30
0.0
 11
103.796316
 21
257.188532
 31
0.0
  0
LINE
  8
LC-004-002-----0
  6
CONTINUOUS
 62
     2
  5
182
 10
107.423944
 20
303.58828
 30
0.0
 11
107.423944
 21
296.611401
 31
0.0
  0
LINE
  8
LC-004-002-----0
  6
CONTINUOUS
  5
183
 10
105.021288
 20
292.26715
 30
0.0
 11
105.4473
 21
304.466514
 31
0.0
  0
LINE
  8
LC-004-002-----0
  6
CONTINUOUS
  5
184
 10
107.026156
 20
292.197138
 30
0.0
 11
107.423944
 21
303.58828
 31
0.0
  0
LINE
  8
LC-004-002-----0
  6
CONTINUOUS
  5
185
 10
105.021288
 20
292.26715
 30
0.0
 11
107.026156
 21
292.197138
 31
0.0
  0
LINE
  8
LC-001-205-----0
  6
CONTINUOUS
  5
186
 10
126.351275
 20
310.343981
 30
0.0
 11
114.419681
 21
310.343984
 31
0.0
  0
LINE
  8
LC-001-205-----0
  6
CONTINUOUS
  5
187
 10
113.555295
 20
313.10865
 30
0.0
 11
120.445686
 21
313.790688
 31
0.0
  0
ARC
  8
LC-004-002-----0
  6
CONTINUOUS
  5
188
 10
330.511072
 20
253.644077
 30
0.0
 40
58.699992
 50
354.101436
 51
185.898564
  0
ARC
  8
LC-006-002-RND-0
  6
CONTINUOUS
  5
18A
 10
274.111285
 20
247.817154
 30
0.0
 40
2.0
 50
185.898564
 51
270.0
  0
ARC
  8
LC-001-205-----0
  6
CONTINUOUS
  5
18B
 10
127.945769
 20
312.844252
 30
0.0
 40
2.5
 50
269.999761
 51
0.0
  0
ARC
  8
LC-001-205-----0
  6
CONTINUOUS
  5
18C
 10
129.745768
 20
316.944271
 30
0.0
 40
0.5
 50
89.999925
 51
179.999925
  0
LINE
  8
LC-001-205-----0
  6
CONTINUOUS
  5
18D
 10
127.945759
 20
310.344252
 30
0.0
 11
120.451028
 21
310.344284
 31
0.0
  0
LINE
  8
LC-001-205-----0
  6
CONTINUOUS
  5
18E
 10
128.745761
 20
312.344249
 30
0.0
 11
122.145761
 21
312.344277
 31
0.0
  0
ARC
  8
LC-001-205-----0
  6
CONTINUOUS
  5
18F
 10
128.745763
 20
312.844249
 30
0.0
 40
0.5
 50
269.999761
 51
359.999925
  0
LINE
  8
LC-001-205-----0
  6
CONTINUOUS
  5
190
 10
129.245768
 20
316.944272
 30
0.0
 11
129.245763
 21
312.844248
 31
0.0
  0
ARC
  8
LC-001-205-----0
  6
CONTINUOUS
  5
191
 10
122.145763
 20
312.844277
 30
0.0
 40
0.5
 50
179.999925
 51
269.999761
  0
ARC
  8
LC-001-205-----0
  6
CONTINUOUS
  5
192
 10
121.145768
 20
316.944281
 30
0.0
 40
0.5
 50
359.999925
 51
89.999761
  0
LINE
  8
LC-001-205-----0
  6
CONTINUOUS
  5
193
 10
121.645768
 20
316.94428
 30
0.0
 11
121.645763
 21
312.844277
 31
0.0
  0
LINE
  8
LC-001-205-----0
  6
CONTINUOUS
  5
194
 10
120.44576
 20
313.790688
 30
0.0
 11
120.44576
 21
317.444284
 31
0.0
  0
LINE
  8
LC-001-205-----0
  6
CONTINUOUS
  5
195
 10
130.445769
 20
317.444271
 30
0.0
 11
130.445769
 21
312.844252
 31
0.0
  0
LINE
  8
LC-004-002-----0
  6
CONTINUOUS
  5
196
 10
105.607042
 20
251.559029
 30
0.0
 11
105.801184
 21
257.11852
 31
0.0
  0
LINE
  8
LC-004-002-----0
  6
CONTINUOUS
  5
197
 10
105.808164
 20
257.318398
 30
0.0
 11
105.71917
 21
254.769952
 31
0.0
  0
LINE
  8
LC-004-002-----0
  6
CONTINUOUS
  5
198
 10
103.796316
 20
257.188532
 30
0.0
 11
105.801184
 21
257.11852
 31
0.0
  0
ARC
  8
LC-001-205-----0
  6
CONTINUOUS
  5
199
 10
127.945686
 20
194.444135
 30
0.0
 40
2.5
 50
0.0
 51
90.000164
  0
LINE
  8
LC-001-205-----0
  6
CONTINUOUS
  5
19A
 10
128.745684
 20
194.944138
 30
0.0
 11
122.145684
 21
194.944119
 31
0.0
  0
ARC
  8
LC-001-205-----0
  6
CONTINUOUS
  5
19B
 10
128.745686
 20
194.444138
 30
0.0
 40
0.5
 50
0.0
 51
90.000164
  0
ARC
  8
LC-001-205-----0
  6
CONTINUOUS
  5
19C
 10
130.945686
 20
194.143971
 30
0.0
 40
0.5
 50
180.0
 51
269.999963
  0
LINE
  8
LC-001-205-----0
  6
CONTINUOUS
  5
19D
 10
130.445686
 20
194.143971
 30
0.0
 11
130.445686
 21
194.444135
 31
0.0
  0
LINE
  8
LC-001-205-----0
  6
CONTINUOUS
  5
19E
 10
129.245686
 20
190.344114
 30
0.0
 11
129.245686
 21
194.444138
 31
0.0
  0
ARC
  8
LC-001-205-----0
  6
CONTINUOUS
  5
19F
 10
122.145686
 20
194.444119
 30
0.0
 40
0.5
 50
90.000164
 51
180.0
  0
LINE
  8
LC-001-205-----0
  6
CONTINUOUS
  5
1A0
 10
121.645686
 20
190.344116
 30
0.0
 11
121.645686
 21
194.444119
 31
0.0
  0
LINE
  8
LC-004-002-----0
  6
DASHDOT
 62
     2
  5
1A2
 10
330.511072
 20
189.84408
 30
0.0
 11
330.511072
 21
317.444074
 31
0.0
  0
LINE
  8
LC-004-002-----0
  6
DASHDOT
 62
     2
  5
1A3
 10
266.711075
 20
253.644114
 30
0.0
 11
394.311069
 21
253.64404
 31
0.0
  0
ARC
  8
LC-004-002-----0
  6
CONTINUOUS
  5
1A4
 10
330.511072
 20
253.644077
 30
0.0
 40
56.699997
 50
187.934501
 51
352.065499
  0
ARC
  8
LC-001-205-----0
  6
CONTINUOUS
  5
1A5
 10
129.745686
 20
190.344114
 30
0.0
 40
0.5
 50
180.0
 51
270.0
  0
ARC
  8
LC-001-205-----0
  6
CONTINUOUS
  5
1A6
 10
121.145686
 20
190.344116
 30
0.0
 40
0.5
 50
270.000164
 51
0.0
  0
LINE
  8
LC-001-205-----0
  6
CONTINUOUS
  5
1A7
 10
180.475147
 20
192.643938
 30
0.0
 11
130.945686
 21
192.643971
 31
0.0
  0
ARC
  8
LC-001-205-----0
  6
CONTINUOUS
  5
1A8
 10
130.945686
 20
192.143971
 30
0.0
 40
0.5
 50
89.999963
 51
175.018931
  0
LINE
  8
LC-001-205-----0
  6
CONTINUOUS
  5
1A9
 10
130.445686
 20
189.844114
 30
0.0
 11
130.445686
 21
192.143971
 31
0.0
  0
LINE
  8
LC-001-205-----0
  6
CONTINUOUS
  5
1AA
 10
130.445686
 20
189.844114
 30
0.0
 11
129.745686
 21
189.844114
 31
0.0
  0
LINE
  8
LC-001-205-----0
  6
CONTINUOUS
  5
1AB
 10
121.145687
 20
189.844116
 30
0.0
 11
120.450954
 21
189.844114
 31
0.0
  0
LINE
  8
LC-004-002-----0
  6
CONTINUOUS
  5
1AC
 10
131.285768
 20
246.68281
 30
0.0
 11
180.475147
 21
241.484775
 31
0.0
  0
LINE
  8
LC-001-205-----0
  6
CONTINUOUS
  5
1AD
 10
130.445769
 20
317.444271
 30
0.0
 11
129.745769
 21
317.444271
 31
0.0
  0
LINE
  8
LC-004-002-----0
  6
CONTINUOUS
  5
1AE
 10
131.285768
 20
246.68281
 30
0.0
 11
131.285768
 21
249.146278
 31
0.0
  0
LINE
  8
LC-004-002-----0
  6
CONTINUOUS
  5
1AF
 10
130.445769
 20
312.844252
 30
0.0
 11
130.445769
 21
254.50465
 31
0.0
  0
ARC
  8
LC-004-002-----0
  6
DASHED
 62
     3
  5
1B0
 10
330.511072
 20
253.644077
 30
0.0
 40
58.699992
 50
185.898564
 51
354.101436
  0
CIRCLE
  8
LC-004-002-----0
  6
CONTINUOUS
  5
1B1
 10
330.511072
 20
253.644077
 30
0.0
 40
63.799997
  0
ARC
  8
LC-006-002-RND-0
  6
CONTINUOUS
  5
1B2
 10
386.91086
 20
247.817154
 30
0.0
 40
2.0
 50
270.0
 51
354.101436
  0
LINE
  8
LC-004-002-----0
  6
CONTINUOUS
  5
1B3
 10
275.610368
 20
239.473605
 30
0.0
 11
385.411777
 21
239.473605
 31
0.0
  0
LINE
  8
LC-004-002-----0
  6
DASHDOT
 62
     2
  5
1B4
 10
309.011072
 20
274.874165
 30
0.0
 11
352.011072
 21
274.874165
 31
0.0
  0
LINE
  8
LC-004-002-----0
  6
CONTINUOUS
  5
1B5
 10
332.011072
 20
259.874165
 30
0.0
 11
332.011072
 21
289.874165
 31
0.0
  0
LINE
  8
LC-004-002-----0
  6
CONTINUOUS
  5
1B6
 10
329.011072
 20
259.874199
 30
0.0
 11
329.011072
 21
289.874165
 31
0.0
  0
LINE
  8
LC-004-002-----0
  6
CONTINUOUS
  5
1B7
 10
352.938213
 20
253.387262
 30
0.0
 11
354.288834
 21
253.387262
 31
0.0
  0
LINE
  8
LC-004-002-----0
  6
CONTINUOUS
  5
1B8
 10
130.445769
 20
254.50465
 30
0.0
 11
130.445769
 21
249.146278
 31
0.0
  0
LINE
  8
LC-004-002-----0
  6
CONTINUOUS
  5
1B9
 10
329.011072
 20
289.874165
 30
0.0
 11
332.011072
 21
289.874165
 31
0.0
  0
LINE
  8
LC-004-002-----0
  6
CONTINUOUS
  5
1BA
 10
180.475147
 20
239.473639
 30
0.0
 11
127.945678
 21
239.473639
 31
0.0
  0
LINE
  8
LC-004-002-----0
  6
CONTINUOUS
  5
1BB
 10
127.945678
 20
196.944135
 30
0.0
 11
127.945678
 21
239.473639
 31
0.0
  0
LINE
  8
LC-004-002-----0
  6
CONTINUOUS
  5
1BC
 10
329.011072
 20
259.874165
 30
0.0
 11
332.011072
 21
259.874165
 31
0.0
  0
CIRCLE
  8
LC-004-002-----0
  6
CONTINUOUS
  5
1BD
 10
330.511072
 20
253.644077
 30
0.0
 40
65.7
  0
LINE
  8
LC-004-002-----0
  6
CONTINUOUS
  5
1BE
 10
107.020344
 20
291.997219
 30
0.0
 11
107.109338
 21
294.545666
 31
0.0
  0
CIRCLE
  8
LC-004-002-----0
  6
CONTINUOUS
  5
1BF
 10
125.445758
 20
315.844263
 30
0.0
 40
3.5
  0
LINE
  8
LC-001-205-----0
  6
CONTINUOUS
  5
1C0
 10
121.145761
 20
317.444281
 30
0.0
 11
120.451028
 21
317.444284
 31
0.0
  0
LINE
  8
LC-004-002-----0
  6
DASHDOT
 62
     2
  5
1C1
 10
99.310333
 20
274.905883
 30
0.0
 11
109.712828
 21
274.54262
 31
0.0
  0
LINE
  8
LC-004-002-----0
  6
CONTINUOUS
  5
1C2
 10
103.655723
 20
253.241034
 30
0.0
 11
103.793576
 21
257.188627
 31
0.0
  0
LINE
  8
LC-004-002-----0
  6
CONTINUOUS
  5
1C3
 10
103.793576
 20
257.188627
 30
0.0
 11
103.800556
 21
257.388505
 31
0.0
  0
CIRCLE
  8
LC-004-002-----0
  6
CONTINUOUS
  5
1C4
 10
125.445686
 20
191.444128
 30
0.0
 40
3.5
  0
LINE
  8
LC-004-002-----0
  6
CONTINUOUS
  5
1C5
 10
105.805424
 20
257.318494
 30
0.0
 11
105.71643
 21
254.770047
 31
0.0
  0
LINE
  8
LC-004-002-----0
  6
CONTINUOUS
  5
1C6
 10
99.468276
 20
253.387262
 30
0.0
 11
100.968954
 21
296.361068
 31
0.0
  0
LINE
  8
LC-004-002-----0
  6
CONTINUOUS
  5
1C7
 10
99.468276
 20
253.387262
 30
0.0
 11
103.658463
 21
253.240938
 31
0.0
  0
LINE
  8
LC-004-002-----0
  6
CONTINUOUS
  5
1C8
 10
100.968954
 20
296.361068
 30
0.0
 11
105.156402
 21
296.214839
 31
0.0
  0
LINE
  8
LC-004-002-----0
  6
CONTINUOUS
  5
1C9
 10
103.822294
 20
292.108898
 30
0.0
 11
107.020344
 21
291.997219
 31
0.0
  0
LINE
  8
LC-004-002-----0
  6
CONTINUOUS
  5
1CA
 10
102.611281
 20
257.430036
 30
0.0
 11
105.809332
 21
257.318357
 31
0.0
  0
LINE
  8
LC-004-002-----0
  6
CONTINUOUS
  5
1CB
 10
107.109338
 20
294.545666
 30
0.0
 11
110.407328
 21
294.430497
 31
0.0
  0
LINE
  8
LC-004-002-----0
  6
CONTINUOUS
  5
1CC
 10
110.407328
 20
294.430497
 30
0.0
 11
109.018328
 21
254.654743
 31
0.0
  0
LINE
  8
LC-004-002-----0
  6
CONTINUOUS
  5
1CD
 10
105.720338
 20
254.769911
 30
0.0
 11
109.018328
 21
254.654743
 31
0.0
  0
LINE
  8
LC-004-002-----0
  6
CONTINUOUS
  5
1CE
 10
102.466448
 20
253.282564
 30
0.0
 11
102.611281
 21
257.430036
 31
0.0
  0
LINE
  8
LC-004-002-----0
  6
CONTINUOUS
  5
1CF
 10
103.822294
 20
292.108898
 30
0.0
 11
103.967127
 21
296.25637
 31
0.0
  0
LINE
  8
LC-004-002-----0
  6
CONTINUOUS
  5
1D0
 10
105.011569
 20
292.067367
 30
0.0
 11
105.156402
 21
296.214839
 31
0.0
  0
LINE
  8
LC-004-002-----0
  6
CONTINUOUS
  5
1D1
 10
102.864328
 20
290.141131
 30
0.0
 11
110.248535
 21
289.883269
 31
0.0
  0
LINE
  8
LC-004-002-----0
  6
CONTINUOUS
  5
1D2
 10
101.792913
 20
259.459833
 30
0.0
 11
109.177121
 21
259.201971
 31
0.0
  0
ARC
  8
LC-004-002-----0
  6
CONTINUOUS
  5
1D3
 10
56.9191
 20
276.386218
 30
0.0
 40
45.964734
 50
338.491197
 51
17.440613
  0
ARC
  8
LC-004-002-----0
  6
CONTINUOUS
  5
1D4
 10
56.9191
 20
276.386218
 30
0.0
 40
47.96
 50
339.333544
 51
16.666456
  0
ENDSEC
  0
EOF
