  0
SECTION
  2
HEADER
  9
$ACADVER
  1
AC1009
  9
$INSBASE
 10
0.0
 20
0.0
 30
0.0
  9
$EXTMIN
 10
0.0
 20
0.0
 30
0.0
  9
$EXTMAX
 10
840.0
 20
594.0
 30
0.0
  9
$LIMMIN
 10
0.0
 20
0.0
  9
$LIMMAX
 10
840.0
 20
594.0
  9
$ORTHOMODE
 70
     0
  9
$REGENMODE
 70
     1
  9
$FILLMODE
 70
     1
  9
$QTEXTMODE
 70
     0
  9
$MIRRTEXT
 70
     1
  9
$DRAGMODE
 70
     2
  9
$LTSCALE
 40
2.0
  9
$OSMODE
 70
     0
  9
$ATTMODE
 70
     1
  9
$TEXTSIZE
 40
0.2
  9
$TRACEWID
 40
0.05
  9
$TEXTSTYLE
  7
STANDARD
  9
$CLAYER
  8
0
  9
$CELTYPE
  6
BYLAYER
  9
$CECOLOR
 62
     7
  9
$DIMSCALE
 40
2.0
  9
$DIMASZ
 40
3.5
  9
$DIMEXO
 40
0.0625
  9
$DIMDLI
 40
0.38
  9
$DIMRND
 40
0.0
  9
$DIMDLE
 40
0.0
  9
$DIMEXE
 40
0.18
  9
$DIMTP
 40
0.0
  9
$DIMTM
 40
0.0
  9
$DIMTXT
 40
3.5
  9
$DIMCEN
 40
0.09
  9
$DIMTSZ
 40
0.0
  9
$DIMTOL
 70
     0
  9
$DIMLIM
 70
     0
  9
$DIMTIH
 70
     1
  9
$DIMTOH
 70
     1
  9
$DIMSE1
 70
     0
  9
$DIMSE2
 70
     0
  9
$DIMTAD
 70
     1
  9
$DIMZIN
 70
     0
  9
$DIMBLK
  1

  9
$DIMASO
 70
     1
  9
$DIMSHO
 70
     1
  9
$DIMPOST
  1

  9
$DIMAPOST
  1

  9
$DIMALT
 70
     0
  9
$DIMALTD
 70
     2
  9
$DIMALTF
 40
25.4
  9
$DIMLFAC
 40
1.0
  9
$DIMTOFL
 70
     0
  9
$DIMTVP
 40
0.0
  9
$DIMTIX
 70
     0
  9
$DIMSOXD
 70
     0
  9
$DIMSAH
 70
     0
  9
$DIMBLK1
  1

  9
$DIMBLK2
  1

  9
$DIMSTYLE
  2
STANDARD
  9
$DIMCLRD
 70
     0
  9
$DIMCLRE
 70
     0
  9
$DIMCLRT
 70
     0
  9
$DIMTFAC
 40
1.0
  9
$DIMGAP
 40
0.09
  9
$LUNITS
 70
     2
  9
$LUPREC
 70
     2
  9
$AXISMODE
 70
     0
  9
$AXISUNIT
 10
0.0
 20
0.0
  9
$SKETCHINC
 40
0.1
  9
$FILLETRAD
 40
0.0
  9
$AUNITS
 70
     0
  9
$AUPREC
 70
     0
  9
$MENU
  1
acad
  9
$ELEVATION
 40
0.0
  9
$PELEVATION
 40
0.0
  9
$THICKNESS
 40
0.0
  9
$LIMCHECK
 70
     0
  9
$BLIPMODE
 70
     1
  9
$CHAMFERA
 40
0.0
  9
$CHAMFERB
 40
0.0
  9
$SKPOLY
 70
     0
  9
$TDCREATE
 40
0.000000000
  9
$TDUPDATE
 40
0.000000000
  9
$TDINDWG
 40
0.0000000000
  9
$TDUSRTIMER
 40
0.0000000000
  9
$USRTIMER
 70
     1
  9
$ANGBASE
 50
0.0
  9
$ANGDIR
 70
     0
  9
$PDMODE
 70
     0
  9
$PDSIZE
 40
0.0
  9
$PLINEWID
 40
0.0
  9
$COORDS
 70
     0
  9
$SPLFRAME
 70
     0
  9
$SPLINETYPE
 70
     6
  9
$SPLINESEGS
 70
     8
  9
$ATTDIA
 70
     0
  9
$ATTREQ
 70
     1
  9
$HANDLING
 70
     1
  9
$HANDSEED
  5
213
  9
$SURFTAB1
 70
     6
  9
$SURFTAB2
 70
     6
  9
$SURFTYPE
 70
     6
  9
$SURFU
 70
     6
  9
$SURFV
 70
     6
  9
$UCSNAME
  2

  9
$UCSORG
 10
0.0
 20
0.0
 30
0.0
  9
$UCSXDIR
 10
1.0
 20
0.0
 30
0.0
  9
$UCSYDIR
 10
0.0
 20
1.0
 30
0.0
  9
$PUCSNAME
  2

  9
$PUCSORG
 10
0.0
 20
0.0
 30
0.0
  9
$PUCSXDIR
 10
1.0
 20
0.0
 30
0.0
  9
$PUCSYDIR
 10
0.0
 20
1.0
 30
0.0
  9
$USERI1
 70
     0
  9
$USERI2
 70
     0
  9
$USERI3
 70
     0
  9
$USERI4
 70
     0
  9
$USERI5
 70
     0
  9
$USERR1
 40
0.0
  9
$USERR2
 40
0.0
  9
$USERR3
 40
0.0
  9
$USERR4
 40
0.0
  9
$USERR5
 40
0.0
  9
$WORLDVIEW
 70
     1
  9
$SHADEDGE
 70
     3
  9
$SHADEDIF
 70
    70
  9
$TILEMODE
 70
     1
  9
$MAXACTVP
 70
    16
  9
$PINSBASE
 10
0.0
 20
0.0
 30
0.0
  9
$PLIMCHECK
 70
     0
  9
$PEXTMIN
 10
1.000000E+20
 20
1.000000E+20
 30
1.000000E+20
  9
$PEXTMAX
 10
-1.000000E+20
 20
-1.000000E+20
 30
-1.000000E+20
  9
$PLIMMIN
 10
0.0
 20
0.0
  9
$PLIMMAX
 10
840.0
 20
594.0
  9
$UNITMODE
 70
     0
  9
$VISRETAIN
 70
     0
  9
$PLINEGEN
 70
     1
  9
$PSLTSCALE
 70
     0
  9
$TREEDEPTH
 70
  3020
  9
$DWGCODEPAGE
  3
dos850
  0
ENDSEC
  0
SECTION
  2
TABLES
  0
TABLE
  2
VPORT
 70
     1
  0
VPORT
  2
*ACTIVE
 70
     0
 10
0.0
 20
0.0
 11
1.0
 21
1.0
 12
420.0
 22
297.0
 13
0.0
 23
0.0
 14
1.0
 24
1.0
 15
0.0
 25
0.0
 16
0.0
 26
0.0
 36
1.0
 17
0.0
 27
0.0
 37
0.0
 40
594.0
 41
1.604229
 42
50.0
 43
0.0
 44
0.0
 50
0.0
 51
0.0
 71
     0
 72
   100
 73
     1
 74
     1
 75
     0
 76
     0
 77
     0
 78
     0
  0
ENDTAB
  0
TABLE
  2
LTYPE
 70
     3
  0
LTYPE
  2
CONTINUOUS
 70
    64
  3
Solid line
 72
    65
 73
     0
 40
0.0
  0
LTYPE
  2
DASHED
 70
    64
  3
__ __ __ __ __
 72
    65
 73
     2
 40
6.25
 49
5.0
 49
-1.25
  0
LTYPE
  2
DASHDOT
 70
    64
  3
__ . __ . __ . __ . __
 72
    65
 73
     4
 40
7.5
 49
5.0
 49
-1.25
 49
0.0
 49
-1.25
  0
ENDTAB
  0
TABLE
  2
LAYER
 70
    10
  0
LAYER
  2
0
 70
     0
 62
     7
  6
CONTINUOUS
  0
LAYER
  2
LC-INFO-1-2-MM-A3-0
 70
     1
 62
    -1
  6
CONTINUOUS
  0
LAYER
  2
LC-003-005-----0
 70
     0
 62
     2
  6
CONTINUOUS
  0
LAYER
  2
LC-005-003-MTH-0
 70
     0
 62
     2
  6
CONTINUOUS
  0
LAYER
  2
LC-006-003-MTG-0
 70
     0
 62
     2
  6
CONTINUOUS
  0
LAYER
  2
LC-004-003-----0
 70
     0
 62
     2
  6
CONTINUOUS
  0
LAYER
  2
LC-007-000-----0
 70
     0
 62
     7
  6
CONTINUOUS
  0
LAYER
  2
LC-001-002-----0
 70
     0
 62
     2
  6
DASHDOT
  0
LAYER
  2
LC-002-002-RND-0
 70
     0
 62
     1
  6
CONTINUOUS
  0
LAYER
  2
LC-000
 70
     0
 62
     7
  6
CONTINUOUS
  0
ENDTAB
  0
TABLE
  2
STYLE
 70
     4
  0
STYLE
  2
STANDARD
 70
     0
 40
0.0
 41
1.0
 50
0.0
 71
     0
 42
0.0
  3
txt
  4

  0
STYLE
  2
LC-STANDARD
 70
    64
 40
0.0
 41
1.0
 50
0.0
 71
     0
 42
3.5
  3
MONOTXT
  4

  0
STYLE
  2
LC-TXTSTYLE-150-400-0-0-A2
 70
    64
 40
0.0
 41
1.0
 50
15.0
 71
     0
 42
3.5
  3
MONOTXT
  4

  0
STYLE
  2
LC-TXTSTYLE-150-400-0-0-D3
 70
    64
 40
0.0
 41
1.0
 50
15.0
 71
     0
 42
3.5
  3
LC-STANDARD
  4

  0
ENDTAB
  0
TABLE
  2
VIEW
 70
     0
  0
ENDTAB
  0
TABLE
  2
UCS
 70
     0
  0
ENDTAB
  0
TABLE
  2
APPID
 70
     1
  0
APPID
  2
ACAD
 70
     0
  0
ENDTAB
  0
TABLE
  2
DIMSTYLE
 70
     3
  0
DIMSTYLE
  2
STANDARD
 70
     0
  3

  4

  5

  6

  7

 40
1.0
 41
0.18
 42
0.0625
 43
0.38
 44
0.18
 45
0.0
 46
0.0
 47
0.0
 48
0.0
 71
     0
 72
     0
 73
     1
 74
     1
 75
     0
 76
     0
 77
     0
 78
     0
140
0.18
141
0.09
142
0.0
143
25.4
144
1.0
145
0.0
146
1.0
147
0.09
170
     0
171
     2
172
     0
173
     0
174
     0
175
     0
176
     0
177
     0
178
     0
  0
DIMSTYLE
  2
LC-STANDARD
 70
     0
  3

  4

  5

  6

  7

 40
1.0
 41
3.5
 42
0.0
 43
7.5
 44
1.8
 45
0.0
 46
0.0
 47
0.0
 48
0.0
 71
     0
 72
     0
 73
     0
 74
     0
 75
     0
 76
     0
 77
     1
 78
     8
140
3.5
141
0.0
142
0.0
143
25.4
144
1.0
145
0.0
146
0.71
147
1.5
170
     0
171
     2
172
     1
173
     0
174
     0
175
     0
176
     0
177
     0
178
     3
  0
DIMSTYLE
  2
LC-DIM-L-0140-02-02
 70
     0
  3

  4

  5

  6

  7

 40
2.0
 41
3.5
 42
0.0
 43
7.5
 44
1.8
 45
0.0
 46
0.0
 47
0.0
 48
0.0
 71
     0
 72
     0
 73
     0
 74
     0
 75
     0
 76
     0
 77
     1
 78
     8
140
14.0
141
0.0
142
0.0
143
25.4
144
1.0
145
0.0
146
0.71
147
1.5
170
     0
171
     2
172
     0
173
     0
174
     0
175
     0
176
     2
177
     2
178
     8
  0
ENDTAB
  0
ENDSEC
  0
SECTION
  2
BLOCKS
  0
BLOCK
  8
0
  5
23
  2
*X0
 70
    65
 10
306.955793
 20
395.898946
 30
0.0
  3
*X0
  0
LINE
  8
LC-003-005-----0
  6
CONTINUOUS
  5
25
 10
362.85488
 20
408.109714
 30
0.0
 11
363.652794
 21
408.907628
 31
0.0
  0
LINE
  8
LC-003-005-----0
  6
CONTINUOUS
  5
26
 10
360.026452
 20
408.109714
 30
0.0
 11
362.026452
 21
410.109714
 31
0.0
  0
LINE
  8
LC-003-005-----0
  6
CONTINUOUS
  5
27
 10
358.42541
 20
409.337098
 30
0.0
 11
359.75586
 21
410.667548
 31
0.0
  0
LINE
  8
LC-003-005-----0
  6
CONTINUOUS
  5
28
 10
357.011196
 20
410.751311
 30
0.0
 11
359.301602
 21
413.041717
 31
0.0
  0
LINE
  8
LC-003-005-----0
  6
CONTINUOUS
  5
29
 10
355.541171
 20
412.109714
 30
0.0
 11
357.341171
 21
413.909714
 31
0.0
  0
LINE
  8
LC-003-005-----0
  6
CONTINUOUS
  5
2A
 10
348.012744
 20
407.409714
 30
0.0
 11
349.152794
 21
408.549763
 31
0.0
  0
LINE
  8
LC-003-005-----0
  6
CONTINUOUS
  5
2B
 10
352.712744
 20
412.109714
 30
0.0
 11
354.512744
 21
413.909714
 31
0.0
  0
LINE
  8
LC-003-005-----0
  6
CONTINUOUS
  5
2C
 10
345.184317
 20
407.409714
 30
0.0
 11
346.984317
 21
409.209714
 31
0.0
  0
LINE
  8
LC-003-005-----0
  6
CONTINUOUS
  5
2D
 10
347.352794
 20
409.57819
 30
0.0
 11
349.205919
 21
411.431315
 31
0.0
  0
LINE
  8
LC-003-005-----0
  6
CONTINUOUS
  5
2E
 10
349.831192
 20
412.056589
 30
0.0
 11
351.684317
 21
413.909714
 31
0.0
  0
LINE
  8
LC-003-005-----0
  6
CONTINUOUS
  5
2F
 10
342.35589
 20
407.409714
 30
0.0
 11
344.15589
 21
409.209714
 31
0.0
  0
LINE
  8
LC-003-005-----0
  6
CONTINUOUS
  5
30
 10
347.439987
 20
412.493811
 30
0.0
 11
348.768697
 21
413.822521
 31
0.0
  0
LINE
  8
LC-003-005-----0
  6
CONTINUOUS
  5
31
 10
339.527463
 20
407.409714
 30
0.0
 11
341.327463
 21
409.209714
 31
0.0
  0
LINE
  8
LC-003-005-----0
  6
CONTINUOUS
  5
32
 10
336.699035
 20
407.409714
 30
0.0
 11
338.499035
 21
409.209714
 31
0.0
  0
LINE
  8
LC-003-005-----0
  6
CONTINUOUS
  5
33
 10
333.870608
 20
407.409714
 30
0.0
 11
335.670608
 21
409.209714
 31
0.0
  0
LINE
  8
LC-003-005-----0
  6
CONTINUOUS
  5
34
 10
331.042181
 20
407.409714
 30
0.0
 11
332.842181
 21
409.209714
 31
0.0
  0
LINE
  8
LC-003-005-----0
  6
CONTINUOUS
  5
35
 10
328.213754
 20
407.409714
 30
0.0
 11
330.013754
 21
409.209714
 31
0.0
  0
LINE
  8
LC-003-005-----0
  6
CONTINUOUS
  5
36
 10
325.385327
 20
407.409714
 30
0.0
 11
327.185327
 21
409.209714
 31
0.0
  0
LINE
  8
LC-003-005-----0
  6
CONTINUOUS
  5
37
 10
311.094044
 20
395.946858
 30
0.0
 11
312.610985
 21
397.463798
 31
0.0
  0
LINE
  8
LC-003-005-----0
  6
CONTINUOUS
  5
38
 10
322.5569
 20
407.409714
 30
0.0
 11
324.3569
 21
409.209714
 31
0.0
  0
LINE
  8
LC-003-005-----0
  6
CONTINUOUS
  5
39
 10
308.217705
 20
395.898946
 30
0.0
 11
308.774258
 21
396.455499
 31
0.0
  0
LINE
  8
LC-003-005-----0
  6
CONTINUOUS
  5
3A
 10
310.155487
 20
397.836728
 30
0.0
 11
312.658897
 21
400.340138
 31
0.0
  0
LINE
  8
LC-003-005-----0
  6
CONTINUOUS
  5
3B
 10
319.728473
 20
407.409714
 30
0.0
 11
321.528473
 21
409.209714
 31
0.0
  0
LINE
  8
LC-003-005-----0
  6
CONTINUOUS
  5
3C
 10
310.155487
 20
400.665155
 30
0.0
 11
312.658897
 21
403.168565
 31
0.0
  0
LINE
  8
LC-003-005-----0
  6
CONTINUOUS
  5
3D
 10
316.900046
 20
407.409714
 30
0.0
 11
318.700046
 21
409.209714
 31
0.0
  0
LINE
  8
LC-003-005-----0
  6
CONTINUOUS
  5
3E
 10
310.155487
 20
403.493582
 30
0.0
 11
312.658897
 21
405.996992
 31
0.0
  0
LINE
  8
LC-003-005-----0
  6
CONTINUOUS
  5
3F
 10
314.071618
 20
407.409714
 30
0.0
 11
315.871618
 21
409.209714
 31
0.0
  0
LINE
  8
LC-003-005-----0
  6
CONTINUOUS
  5
40
 10
310.155487
 20
406.322009
 30
0.0
 11
317.743191
 21
413.909714
 31
0.0
  0
LINE
  8
LC-003-005-----0
  6
CONTINUOUS
  5
41
 10
310.155487
 20
409.150436
 30
0.0
 11
312.914611
 21
411.90956
 31
0.0
  0
LINE
  8
LC-003-005-----0
  6
CONTINUOUS
  5
42
 10
313.158897
 20
412.153846
 30
0.0
 11
315.655487
 21
414.650436
 31
0.0
  0
LINE
  8
LC-003-005-----0
  6
CONTINUOUS
  5
43
 10
313.158897
 20
414.982273
 30
0.0
 11
315.586184
 21
417.40956
 31
0.0
  0
ENDBLK
  8
0
  5
44
  0
BLOCK
  8
0
  5
46
  2
*X1
 70
    65
 10
306.955793
 20
262.909714
 30
0.0
  3
*X1
  0
LINE
  8
LC-003-005-----0
  6
CONTINUOUS
  5
47
 10
308.164548
 20
262.909714
 30
0.0
 11
308.3715
 21
263.116666
 31
0.0
  0
LINE
  8
LC-003-005-----0
  6
CONTINUOUS
  5
48
 10
306.955793
 20
264.529387
 30
0.0
 11
309.406776
 21
266.98037
 31
0.0
  0
LINE
  8
LC-003-005-----0
  6
CONTINUOUS
  5
49
 10
306.955793
 20
267.357814
 30
0.0
 11
309.655793
 21
270.057814
 31
0.0
  0
LINE
  8
LC-003-005-----0
  6
CONTINUOUS
  5
4A
 10
306.955793
 20
270.186241
 30
0.0
 11
309.655793
 21
272.886241
 31
0.0
  0
LINE
  8
LC-003-005-----0
  6
CONTINUOUS
  5
4B
 10
306.955793
 20
273.014668
 30
0.0
 11
309.655793
 21
275.714668
 31
0.0
  0
LINE
  8
LC-003-005-----0
  6
CONTINUOUS
  5
4C
 10
306.955793
 20
275.843095
 30
0.0
 11
309.655793
 21
278.543095
 31
0.0
  0
LINE
  8
LC-003-005-----0
  6
CONTINUOUS
  5
4D
 10
306.955793
 20
278.671522
 30
0.0
 11
309.655793
 21
281.371522
 31
0.0
  0
LINE
  8
LC-003-005-----0
  6
CONTINUOUS
  5
4E
 10
306.955793
 20
281.499949
 30
0.0
 11
309.655793
 21
284.199949
 31
0.0
  0
LINE
  8
LC-003-005-----0
  6
CONTINUOUS
  5
4F
 10
306.955793
 20
284.328376
 30
0.0
 11
309.655793
 21
287.028376
 31
0.0
  0
LINE
  8
LC-003-005-----0
  6
CONTINUOUS
  5
50
 10
306.955793
 20
287.156804
 30
0.0
 11
309.655793
 21
289.856804
 31
0.0
  0
LINE
  8
LC-003-005-----0
  6
CONTINUOUS
  5
51
 10
306.955793
 20
289.985231
 30
0.0
 11
309.655793
 21
292.685231
 31
0.0
  0
LINE
  8
LC-003-005-----0
  6
CONTINUOUS
  5
52
 10
306.955793
 20
292.813658
 30
0.0
 11
309.655793
 21
295.513658
 31
0.0
  0
LINE
  8
LC-003-005-----0
  6
CONTINUOUS
  5
53
 10
306.955793
 20
295.642085
 30
0.0
 11
309.655793
 21
298.342085
 31
0.0
  0
LINE
  8
LC-003-005-----0
  6
CONTINUOUS
  5
54
 10
306.955793
 20
298.470512
 30
0.0
 11
309.655793
 21
301.170512
 31
0.0
  0
LINE
  8
LC-003-005-----0
  6
CONTINUOUS
  5
55
 10
306.955793
 20
301.298939
 30
0.0
 11
309.655793
 21
303.998939
 31
0.0
  0
LINE
  8
LC-003-005-----0
  6
CONTINUOUS
  5
56
 10
306.955793
 20
304.127366
 30
0.0
 11
309.655793
 21
306.827366
 31
0.0
  0
LINE
  8
LC-003-005-----0
  6
CONTINUOUS
  5
57
 10
306.955793
 20
306.955793
 30
0.0
 11
309.655793
 21
309.655793
 31
0.0
  0
LINE
  8
LC-003-005-----0
  6
CONTINUOUS
  5
58
 10
306.955793
 20
309.784221
 30
0.0
 11
309.655793
 21
312.484221
 31
0.0
  0
LINE
  8
LC-003-005-----0
  6
CONTINUOUS
  5
59
 10
357.481286
 20
360.309714
 30
0.0
 11
359.652794
 21
362.481221
 31
0.0
  0
LINE
  8
LC-003-005-----0
  6
CONTINUOUS
  5
5A
 10
361.281286
 20
364.109714
 30
0.0
 11
363.281286
 21
366.109714
 31
0.0
  0
LINE
  8
LC-003-005-----0
  6
CONTINUOUS
  5
5B
 10
306.955793
 20
312.612648
 30
0.0
 11
309.655793
 21
315.312648
 31
0.0
  0
LINE
  8
LC-003-005-----0
  6
CONTINUOUS
  5
5C
 10
354.652859
 20
360.309714
 30
0.0
 11
360.452859
 21
366.109714
 31
0.0
  0
LINE
  8
LC-003-005-----0
  6
CONTINUOUS
  5
5D
 10
306.955793
 20
315.441075
 30
0.0
 11
309.655793
 21
318.141075
 31
0.0
  0
LINE
  8
LC-003-005-----0
  6
CONTINUOUS
  5
5E
 10
351.824432
 20
360.309714
 30
0.0
 11
353.624432
 21
362.109714
 31
0.0
  0
LINE
  8
LC-003-005-----0
  6
CONTINUOUS
  5
5F
 10
306.955793
 20
318.269502
 30
0.0
 11
309.655793
 21
320.969502
 31
0.0
  0
LINE
  8
LC-003-005-----0
  6
CONTINUOUS
  5
60
 10
349.023329
 20
360.337037
 30
0.0
 11
350.796005
 21
362.109714
 31
0.0
  0
LINE
  8
LC-003-005-----0
  6
CONTINUOUS
  5
61
 10
306.955793
 20
321.097929
 30
0.0
 11
309.655793
 21
323.797929
 31
0.0
  0
LINE
  8
LC-003-005-----0
  6
CONTINUOUS
  5
62
 10
347.476124
 20
361.618259
 30
0.0
 11
349.152794
 21
363.294929
 31
0.0
  0
LINE
  8
LC-003-005-----0
  6
CONTINUOUS
  5
63
 10
306.955793
 20
323.926356
 30
0.0
 11
309.655793
 21
326.626356
 31
0.0
  0
LINE
  8
LC-003-005-----0
  6
CONTINUOUS
  5
64
 10
347.352794
 20
364.323356
 30
0.0
 11
349.114219
 21
366.084781
 31
0.0
  0
LINE
  8
LC-003-005-----0
  6
CONTINUOUS
  5
65
 10
306.955793
 20
326.754783
 30
0.0
 11
309.655793
 21
329.454783
 31
0.0
  0
LINE
  8
LC-003-005-----0
  6
CONTINUOUS
  5
66
 10
345.210724
 20
365.009714
 30
0.0
 11
347.010724
 21
366.809714
 31
0.0
  0
LINE
  8
LC-003-005-----0
  6
CONTINUOUS
  5
67
 10
306.955793
 20
329.58321
 30
0.0
 11
309.655793
 21
332.28321
 31
0.0
  0
LINE
  8
LC-003-005-----0
  6
CONTINUOUS
  5
68
 10
342.382297
 20
365.009714
 30
0.0
 11
344.182297
 21
366.809714
 31
0.0
  0
LINE
  8
LC-003-005-----0
  6
CONTINUOUS
  5
69
 10
306.955793
 20
332.411638
 30
0.0
 11
309.655793
 21
335.111638
 31
0.0
  0
LINE
  8
LC-003-005-----0
  6
CONTINUOUS
  5
6A
 10
339.553869
 20
365.009714
 30
0.0
 11
341.353869
 21
366.809714
 31
0.0
  0
LINE
  8
LC-003-005-----0
  6
CONTINUOUS
  5
6B
 10
306.955793
 20
335.240065
 30
0.0
 11
309.655793
 21
337.940065
 31
0.0
  0
LINE
  8
LC-003-005-----0
  6
CONTINUOUS
  5
6C
 10
336.725442
 20
365.009714
 30
0.0
 11
338.525442
 21
366.809714
 31
0.0
  0
LINE
  8
LC-003-005-----0
  6
CONTINUOUS
  5
6D
 10
306.955793
 20
338.068492
 30
0.0
 11
309.655793
 21
340.768492
 31
0.0
  0
LINE
  8
LC-003-005-----0
  6
CONTINUOUS
  5
6E
 10
333.897015
 20
365.009714
 30
0.0
 11
335.697015
 21
366.809714
 31
0.0
  0
LINE
  8
LC-003-005-----0
  6
CONTINUOUS
  5
6F
 10
306.955793
 20
340.896919
 30
0.0
 11
309.655793
 21
343.596919
 31
0.0
  0
LINE
  8
LC-003-005-----0
  6
CONTINUOUS
  5
70
 10
331.068588
 20
365.009714
 30
0.0
 11
332.868588
 21
366.809714
 31
0.0
  0
LINE
  8
LC-003-005-----0
  6
CONTINUOUS
  5
71
 10
306.955793
 20
343.725346
 30
0.0
 11
309.655793
 21
346.425346
 31
0.0
  0
LINE
  8
LC-003-005-----0
  6
CONTINUOUS
  5
72
 10
328.240161
 20
365.009714
 30
0.0
 11
330.040161
 21
366.809714
 31
0.0
  0
LINE
  8
LC-003-005-----0
  6
CONTINUOUS
  5
73
 10
306.955793
 20
346.553773
 30
0.0
 11
309.655793
 21
349.253773
 31
0.0
  0
LINE
  8
LC-003-005-----0
  6
CONTINUOUS
  5
74
 10
325.411734
 20
365.009714
 30
0.0
 11
327.211734
 21
366.809714
 31
0.0
  0
LINE
  8
LC-003-005-----0
  6
CONTINUOUS
  5
75
 10
306.955793
 20
349.3822
 30
0.0
 11
309.655793
 21
352.0822
 31
0.0
  0
LINE
  8
LC-003-005-----0
  6
CONTINUOUS
  5
76
 10
322.583307
 20
365.009714
 30
0.0
 11
324.383307
 21
366.809714
 31
0.0
  0
LINE
  8
LC-003-005-----0
  6
CONTINUOUS
  5
77
 10
306.955793
 20
352.210627
 30
0.0
 11
309.655793
 21
354.910627
 31
0.0
  0
LINE
  8
LC-003-005-----0
  6
CONTINUOUS
  5
78
 10
319.75488
 20
365.009714
 30
0.0
 11
321.55488
 21
366.809714
 31
0.0
  0
LINE
  8
LC-003-005-----0
  6
CONTINUOUS
  5
79
 10
306.955793
 20
355.039055
 30
0.0
 11
309.655793
 21
357.739055
 31
0.0
  0
LINE
  8
LC-003-005-----0
  6
CONTINUOUS
  5
7A
 10
316.926452
 20
365.009714
 30
0.0
 11
318.726452
 21
366.809714
 31
0.0
  0
LINE
  8
LC-003-005-----0
  6
CONTINUOUS
  5
7B
 10
306.955793
 20
357.867482
 30
0.0
 11
309.655793
 21
360.567482
 31
0.0
  0
LINE
  8
LC-003-005-----0
  6
CONTINUOUS
  5
7C
 10
314.098025
 20
365.009714
 30
0.0
 11
315.898025
 21
366.809714
 31
0.0
  0
LINE
  8
LC-003-005-----0
  6
CONTINUOUS
  5
7D
 10
306.955793
 20
360.695909
 30
0.0
 11
309.655793
 21
363.395909
 31
0.0
  0
LINE
  8
LC-003-005-----0
  6
CONTINUOUS
  5
7E
 10
311.269598
 20
365.009714
 30
0.0
 11
313.069598
 21
366.809714
 31
0.0
  0
LINE
  8
LC-003-005-----0
  6
CONTINUOUS
  5
7F
 10
306.955793
 20
363.524336
 30
0.0
 11
310.241171
 21
366.809714
 31
0.0
  0
LINE
  8
LC-003-005-----0
  6
CONTINUOUS
  5
80
 10
306.955793
 20
366.352763
 30
0.0
 11
307.412744
 21
366.809714
 31
0.0
  0
ENDBLK
  8
0
  5
81
  0
BLOCK
  8
0
  5
83
  2
*X2
 70
    65
 10
156.555487
 20
262.909714
 30
0.0
  3
*X2
  0
LINE
  8
LC-003-005-----0
  6
CONTINUOUS
  5
84
 10
166.743191
 20
262.909714
 30
0.0
 11
167.355181
 21
263.521703
 31
0.0
  0
LINE
  8
LC-003-005-----0
  6
CONTINUOUS
  5
85
 10
165.555337
 20
264.550286
 30
0.0
 11
167.355181
 21
266.35013
 31
0.0
  0
LINE
  8
LC-003-005-----0
  6
CONTINUOUS
  5
86
 10
164.95762
 20
266.780996
 30
0.0
 11
167.355181
 21
269.178557
 31
0.0
  0
LINE
  8
LC-003-005-----0
  6
CONTINUOUS
  5
87
 10
164.655181
 20
269.306984
 30
0.0
 11
167.355181
 21
272.006984
 31
0.0
  0
LINE
  8
LC-003-005-----0
  6
CONTINUOUS
  5
88
 10
164.655181
 20
272.135411
 30
0.0
 11
167.355181
 21
274.835411
 31
0.0
  0
LINE
  8
LC-003-005-----0
  6
CONTINUOUS
  5
89
 10
164.655181
 20
274.963839
 30
0.0
 11
167.355181
 21
277.663839
 31
0.0
  0
LINE
  8
LC-003-005-----0
  6
CONTINUOUS
  5
8A
 10
164.655181
 20
277.792266
 30
0.0
 11
167.355181
 21
280.492266
 31
0.0
  0
LINE
  8
LC-003-005-----0
  6
CONTINUOUS
  5
8B
 10
164.655181
 20
280.620693
 30
0.0
 11
167.355181
 21
283.320693
 31
0.0
  0
LINE
  8
LC-003-005-----0
  6
CONTINUOUS
  5
8C
 10
164.655181
 20
283.44912
 30
0.0
 11
167.355181
 21
286.14912
 31
0.0
  0
LINE
  8
LC-003-005-----0
  6
CONTINUOUS
  5
8D
 10
164.655181
 20
286.277547
 30
0.0
 11
167.355181
 21
288.977547
 31
0.0
  0
LINE
  8
LC-003-005-----0
  6
CONTINUOUS
  5
8E
 10
164.655181
 20
289.105974
 30
0.0
 11
167.355181
 21
291.805974
 31
0.0
  0
LINE
  8
LC-003-005-----0
  6
CONTINUOUS
  5
8F
 10
164.655181
 20
291.934401
 30
0.0
 11
167.355181
 21
294.634401
 31
0.0
  0
LINE
  8
LC-003-005-----0
  6
CONTINUOUS
  5
90
 10
164.655181
 20
294.762828
 30
0.0
 11
167.355181
 21
297.462828
 31
0.0
  0
LINE
  8
LC-003-005-----0
  6
CONTINUOUS
  5
91
 10
164.655181
 20
297.591256
 30
0.0
 11
167.355181
 21
300.291256
 31
0.0
  0
LINE
  8
LC-003-005-----0
  6
CONTINUOUS
  5
92
 10
164.655181
 20
300.419683
 30
0.0
 11
167.355181
 21
303.119683
 31
0.0
  0
LINE
  8
LC-003-005-----0
  6
CONTINUOUS
  5
93
 10
164.655181
 20
303.24811
 30
0.0
 11
167.355181
 21
305.94811
 31
0.0
  0
LINE
  8
LC-003-005-----0
  6
CONTINUOUS
  5
94
 10
164.655181
 20
306.076537
 30
0.0
 11
167.355181
 21
308.776537
 31
0.0
  0
LINE
  8
LC-003-005-----0
  6
CONTINUOUS
  5
95
 10
164.655181
 20
308.904964
 30
0.0
 11
167.355181
 21
311.604964
 31
0.0
  0
LINE
  8
LC-003-005-----0
  6
CONTINUOUS
  5
96
 10
164.655181
 20
311.733391
 30
0.0
 11
167.355181
 21
314.433391
 31
0.0
  0
LINE
  8
LC-003-005-----0
  6
CONTINUOUS
  5
97
 10
164.655181
 20
314.561818
 30
0.0
 11
167.355181
 21
317.261818
 31
0.0
  0
LINE
  8
LC-003-005-----0
  6
CONTINUOUS
  5
98
 10
164.655181
 20
317.390245
 30
0.0
 11
167.355181
 21
320.090245
 31
0.0
  0
LINE
  8
LC-003-005-----0
  6
CONTINUOUS
  5
99
 10
164.655181
 20
320.218672
 30
0.0
 11
167.355181
 21
322.918672
 31
0.0
  0
LINE
  8
LC-003-005-----0
  6
CONTINUOUS
  5
9A
 10
164.655181
 20
323.0471
 30
0.0
 11
167.355181
 21
325.7471
 31
0.0
  0
LINE
  8
LC-003-005-----0
  6
CONTINUOUS
  5
9B
 10
164.655181
 20
325.875527
 30
0.0
 11
167.355181
 21
328.575527
 31
0.0
  0
LINE
  8
LC-003-005-----0
  6
CONTINUOUS
  5
9C
 10
164.655181
 20
328.703954
 30
0.0
 11
167.355181
 21
331.403954
 31
0.0
  0
LINE
  8
LC-003-005-----0
  6
CONTINUOUS
  5
9D
 10
164.655181
 20
331.532381
 30
0.0
 11
167.355181
 21
334.232381
 31
0.0
  0
LINE
  8
LC-003-005-----0
  6
CONTINUOUS
  5
9E
 10
164.655181
 20
334.360808
 30
0.0
 11
167.355181
 21
337.060808
 31
0.0
  0
LINE
  8
LC-003-005-----0
  6
CONTINUOUS
  5
9F
 10
164.655181
 20
337.189235
 30
0.0
 11
167.355181
 21
339.889235
 31
0.0
  0
LINE
  8
LC-003-005-----0
  6
CONTINUOUS
  5
A0
 10
164.655181
 20
340.017662
 30
0.0
 11
167.355181
 21
342.717662
 31
0.0
  0
LINE
  8
LC-003-005-----0
  6
CONTINUOUS
  5
A1
 10
164.655181
 20
342.846089
 30
0.0
 11
167.355181
 21
345.546089
 31
0.0
  0
LINE
  8
LC-003-005-----0
  6
CONTINUOUS
  5
A2
 10
164.655181
 20
345.674517
 30
0.0
 11
167.355181
 21
348.374517
 31
0.0
  0
LINE
  8
LC-003-005-----0
  6
CONTINUOUS
  5
A3
 10
164.655181
 20
348.502944
 30
0.0
 11
167.355181
 21
351.202944
 31
0.0
  0
LINE
  8
LC-003-005-----0
  6
CONTINUOUS
  5
A4
 10
164.655181
 20
351.331371
 30
0.0
 11
167.355181
 21
354.031371
 31
0.0
  0
LINE
  8
LC-003-005-----0
  6
CONTINUOUS
  5
A5
 10
164.655181
 20
354.159798
 30
0.0
 11
167.355181
 21
356.859798
 31
0.0
  0
LINE
  8
LC-003-005-----0
  6
CONTINUOUS
  5
A6
 10
164.655181
 20
356.988225
 30
0.0
 11
167.355181
 21
359.688225
 31
0.0
  0
LINE
  8
LC-003-005-----0
  6
CONTINUOUS
  5
A7
 10
164.655181
 20
359.816652
 30
0.0
 11
167.355181
 21
362.516652
 31
0.0
  0
LINE
  8
LC-003-005-----0
  6
CONTINUOUS
  5
A8
 10
164.655181
 20
362.645079
 30
0.0
 11
167.355181
 21
365.345079
 31
0.0
  0
LINE
  8
LC-003-005-----0
  6
CONTINUOUS
  5
A9
 10
164.655181
 20
365.473506
 30
0.0
 11
167.355181
 21
368.173506
 31
0.0
  0
LINE
  8
LC-003-005-----0
  6
CONTINUOUS
  5
AA
 10
164.655181
 20
368.301934
 30
0.0
 11
167.355181
 21
371.001934
 31
0.0
  0
LINE
  8
LC-003-005-----0
  6
CONTINUOUS
  5
AB
 10
164.655181
 20
371.130361
 30
0.0
 11
167.355181
 21
373.830361
 31
0.0
  0
LINE
  8
LC-003-005-----0
  6
CONTINUOUS
  5
AC
 10
164.655181
 20
373.958788
 30
0.0
 11
167.355181
 21
376.658788
 31
0.0
  0
LINE
  8
LC-003-005-----0
  6
CONTINUOUS
  5
AD
 10
164.655181
 20
376.787215
 30
0.0
 11
167.355181
 21
379.487215
 31
0.0
  0
LINE
  8
LC-003-005-----0
  6
CONTINUOUS
  5
AE
 10
164.655181
 20
379.615642
 30
0.0
 11
167.355181
 21
382.315642
 31
0.0
  0
LINE
  8
LC-003-005-----0
  6
CONTINUOUS
  5
AF
 10
164.655181
 20
382.444069
 30
0.0
 11
167.355181
 21
385.144069
 31
0.0
  0
LINE
  8
LC-003-005-----0
  6
CONTINUOUS
  5
B0
 10
164.655181
 20
385.272496
 30
0.0
 11
167.355181
 21
387.972496
 31
0.0
  0
LINE
  8
LC-003-005-----0
  6
CONTINUOUS
  5
B1
 10
164.655181
 20
388.100923
 30
0.0
 11
167.355181
 21
390.800923
 31
0.0
  0
LINE
  8
LC-003-005-----0
  6
CONTINUOUS
  5
B2
 10
164.655181
 20
390.929351
 30
0.0
 11
167.355181
 21
393.629351
 31
0.0
  0
LINE
  8
LC-003-005-----0
  6
CONTINUOUS
  5
B3
 10
164.33952
 20
393.442117
 30
0.0
 11
166.927303
 21
396.0299
 31
0.0
  0
LINE
  8
LC-003-005-----0
  6
CONTINUOUS
  5
B4
 10
162.925307
 20
394.856331
 30
0.0
 11
164.76168
 21
396.692704
 31
0.0
  0
LINE
  8
LC-003-005-----0
  6
CONTINUOUS
  5
B5
 10
161.652077
 20
396.411529
 30
0.0
 11
164.155487
 21
398.914938
 31
0.0
  0
LINE
  8
LC-003-005-----0
  6
CONTINUOUS
  5
B6
 10
161.652077
 20
399.239956
 30
0.0
 11
164.155487
 21
401.743365
 31
0.0
  0
LINE
  8
LC-003-005-----0
  6
CONTINUOUS
  5
B7
 10
161.652077
 20
402.068383
 30
0.0
 11
164.155487
 21
404.571793
 31
0.0
  0
LINE
  8
LC-003-005-----0
  6
CONTINUOUS
  5
B8
 10
161.652077
 20
404.89681
 30
0.0
 11
164.155487
 21
407.40022
 31
0.0
  0
LINE
  8
LC-003-005-----0
  6
CONTINUOUS
  5
B9
 10
161.652077
 20
407.725237
 30
0.0
 11
164.155487
 21
410.228647
 31
0.0
  0
LINE
  8
LC-003-005-----0
  6
CONTINUOUS
  5
BA
 10
160.556807
 20
409.458394
 30
0.0
 11
163.007973
 21
411.90956
 31
0.0
  0
LINE
  8
LC-003-005-----0
  6
CONTINUOUS
  5
BB
 10
159.142593
 20
410.872607
 30
0.0
 11
161.152077
 21
412.882091
 31
0.0
  0
LINE
  8
LC-003-005-----0
  6
CONTINUOUS
  5
BC
 10
156.801272
 20
411.359714
 30
0.0
 11
161.152077
 21
415.710518
 31
0.0
  0
LINE
  8
LC-003-005-----0
  6
CONTINUOUS
  5
BD
 10
158.655487
 20
416.042355
 30
0.0
 11
160.022692
 21
417.40956
 31
0.0
  0
ENDBLK
  8
0
  5
BE
  0
BLOCK
  8
0
  5
C0
  2
*X3
 70
    65
 10
309.055487
 20
411.90956
 30
0.0
  3
*X3
  0
LINE
  8
LC-003-005-----0
  6
DASHED
  5
C2
 10
317.755487
 20
414.807138
 30
0.0
 11
315.655487
 21
416.907138
 31
0.0
  0
LINE
  8
LC-003-005-----0
  6
DASHED
  5
C3
 10
315.153065
 20
417.40956
 30
0.0
 11
312.652912
 21
419.909714
 31
0.0
  0
LINE
  8
LC-003-005-----0
  6
DASHED
  5
C4
 10
315.824485
 20
413.909714
 30
0.0
 11
315.655487
 21
414.078711
 31
0.0
  0
LINE
  8
LC-003-005-----0
  6
DASHED
  5
C5
 10
313.158897
 20
416.575301
 30
0.0
 11
310.353803
 21
419.380396
 31
0.0
  0
LINE
  8
LC-003-005-----0
  6
CONTINUOUS
  5
C6
 10
312.167784
 20
411.90956
 30
0.0
 11
309.852722
 21
414.224622
 31
0.0
  0
ENDBLK
  8
0
  5
C7
  0
BLOCK
  8
0
  5
C9
  2
*X4
 70
    65
 10
156.555487
 20
411.90956
 30
0.0
  3
*X4
  0
LINE
  8
LC-003-005-----0
  6
CONTINUOUS
  5
CA
 10
165.206534
 20
417.449453
 30
0.0
 11
162.795227
 21
419.860761
 31
0.0
  0
LINE
  8
LC-003-005-----0
  6
DASHED
  5
CB
 10
164.155487
 20
412.843646
 30
0.0
 11
161.152077
 21
415.847056
 31
0.0
  0
LINE
  8
LC-003-005-----0
  6
DASHED
  5
CC
 10
159.589573
 20
417.40956
 30
0.0
 11
157.29594
 21
419.703193
 31
0.0
  0
LINE
  8
LC-003-005-----0
  6
DASHED
  5
CD
 10
162.261146
 20
411.90956
 30
0.0
 11
161.152077
 21
413.018629
 31
0.0
  0
LINE
  8
LC-003-005-----0
  6
DASHED
  5
CE
 10
158.655487
 20
415.515219
 30
0.0
 11
156.555487
 21
417.615219
 31
0.0
  0
ENDBLK
  8
0
  5
CF
  0
BLOCK
  8
0
  5
D1
  2
*D5
 70
    65
 10
0.0
 20
0.0
 30
0.0
  3
*D5
  0
LINE
  8
LC-005-003-MTH-0
  6
CONTINUOUS
  5
D3
 10
164.655181
 20
267.909714
 30
0.0
 11
164.655181
 21
179.2
 31
0.0
  0
LINE
  8
LC-005-003-MTH-0
  6
CONTINUOUS
  5
D4
 10
309.655793
 20
267.909714
 30
0.0
 11
309.655793
 21
179.2
 31
0.0
  0
LINE
  8
LC-006-003-MTG-0
  6
CONTINUOUS
  5
D6
 10
164.655181
 20
196.0
 30
0.0
 11
309.655793
 21
196.0
 31
0.0
  0
LINE
  8
LC-004-003-----0
  6
CONTINUOUS
  5
D8
 10
192.415637
 20
199.654733
 30
0.0
 11
164.655181
 21
196.0
 31
0.0
  0
LINE
  8
LC-004-003-----0
  6
CONTINUOUS
  5
D9
 10
164.655181
 20
196.0
 30
0.0
 11
192.415637
 21
192.345267
 31
0.0
  0
LINE
  8
LC-004-003-----0
  6
CONTINUOUS
  5
DA
 10
192.415637
 20
192.345267
 30
0.0
 11
192.415637
 21
199.654733
 31
0.0
  0
LINE
  8
LC-004-003-----0
  6
CONTINUOUS
  5
DB
 10
192.477918
 20
198.704503
 30
0.0
 11
171.935181
 21
196.0
 31
0.0
  0
LINE
  8
LC-004-003-----0
  6
CONTINUOUS
  5
DC
 10
171.935181
 20
196.0
 30
0.0
 11
192.477918
 21
193.295497
 31
0.0
  0
LINE
  8
LC-004-003-----0
  6
CONTINUOUS
  5
DD
 10
192.5402
 20
197.754272
 30
0.0
 11
179.215181
 21
196.0
 31
0.0
  0
LINE
  8
LC-004-003-----0
  6
CONTINUOUS
  5
DE
 10
179.215181
 20
196.0
 30
0.0
 11
192.5402
 21
194.245728
 31
0.0
  0
LINE
  8
LC-004-003-----0
  6
CONTINUOUS
  5
DF
 10
192.602481
 20
196.804041
 30
0.0
 11
186.495181
 21
196.0
 31
0.0
  0
LINE
  8
LC-004-003-----0
  6
CONTINUOUS
  5
E0
 10
186.495181
 20
196.0
 30
0.0
 11
192.602481
 21
195.195959
 31
0.0
  0
LINE
  8
LC-004-003-----0
  6
CONTINUOUS
  5
E1
 10
281.895337
 20
192.345267
 30
0.0
 11
309.655793
 21
196.0
 31
0.0
  0
LINE
  8
LC-004-003-----0
  6
CONTINUOUS
  5
E2
 10
309.655793
 20
196.0
 30
0.0
 11
281.895337
 21
199.654733
 31
0.0
  0
LINE
  8
LC-004-003-----0
  6
CONTINUOUS
  5
E3
 10
281.895337
 20
199.654733
 30
0.0
 11
281.895337
 21
192.345267
 31
0.0
  0
LINE
  8
LC-004-003-----0
  6
CONTINUOUS
  5
E4
 10
281.833056
 20
193.295497
 30
0.0
 11
302.375793
 21
196.0
 31
0.0
  0
LINE
  8
LC-004-003-----0
  6
CONTINUOUS
  5
E5
 10
302.375793
 20
196.0
 30
0.0
 11
281.833056
 21
198.704503
 31
0.0
  0
LINE
  8
LC-004-003-----0
  6
CONTINUOUS
  5
E6
 10
281.770774
 20
194.245728
 30
0.0
 11
295.095793
 21
196.0
 31
0.0
  0
LINE
  8
LC-004-003-----0
  6
CONTINUOUS
  5
E7
 10
295.095793
 20
196.0
 30
0.0
 11
281.770774
 21
197.754272
 31
0.0
  0
LINE
  8
LC-004-003-----0
  6
CONTINUOUS
  5
E8
 10
281.708493
 20
195.195959
 30
0.0
 11
287.815793
 21
196.0
 31
0.0
  0
LINE
  8
LC-004-003-----0
  6
CONTINUOUS
  5
E9
 10
287.815793
 20
196.0
 30
0.0
 11
281.708493
 21
196.804041
 31
0.0
  0
TEXT
  8
LC-004-003-----0
  6
CONTINUOUS
 62
     8
  5
EB
 10
203.406009
 20
203.827554
 30
0.0
 40
28.0
  1
Ø145
 41
0.9
 51
15.0
  7
LC-TXTSTYLE-150-400-0-0-D0
 72
     1
 11
241.503647
 21
203.827554
 31
0.0
  0
ENDBLK
  8
0
  5
EC
  0
BLOCK
  8
0
  5
EE
  2
*D6
 70
    65
 10
0.0
 20
0.0
 30
0.0
  3
*D6
  0
LINE
  8
LC-005-003-MTH-0
  6
CONTINUOUS
  5
EF
 10
165.994927
 20
262.909714
 30
0.0
 11
100.8
 21
262.909714
 31
0.0
  0
LINE
  8
LC-005-003-MTH-0
  6
CONTINUOUS
  5
F0
 10
158.655487
 20
417.40956
 30
0.0
 11
100.8
 21
417.40956
 31
0.0
  0
LINE
  8
LC-006-003-MTG-0
  6
CONTINUOUS
  5
F1
 10
117.6
 20
262.909714
 30
0.0
 11
117.6
 21
417.40956
 31
0.0
  0
LINE
  8
LC-004-003-----0
  6
CONTINUOUS
  5
F2
 10
113.945267
 20
290.67017
 30
0.0
 11
117.6
 21
262.909714
 31
0.0
  0
LINE
  8
LC-004-003-----0
  6
CONTINUOUS
  5
F3
 10
117.6
 20
262.909714
 30
0.0
 11
121.254733
 21
290.67017
 31
0.0
  0
LINE
  8
LC-004-003-----0
  6
CONTINUOUS
  5
F4
 10
121.254733
 20
290.67017
 30
0.0
 11
113.945267
 21
290.67017
 31
0.0
  0
LINE
  8
LC-004-003-----0
  6
CONTINUOUS
  5
F5
 10
114.895497
 20
290.732451
 30
0.0
 11
117.6
 21
270.189714
 31
0.0
  0
LINE
  8
LC-004-003-----0
  6
CONTINUOUS
  5
F6
 10
117.6
 20
270.189714
 30
0.0
 11
120.304503
 21
290.732451
 31
0.0
  0
LINE
  8
LC-004-003-----0
  6
CONTINUOUS
  5
F7
 10
115.845728
 20
290.794733
 30
0.0
 11
117.6
 21
277.469714
 31
0.0
  0
LINE
  8
LC-004-003-----0
  6
CONTINUOUS
  5
F8
 10
117.6
 20
277.469714
 30
0.0
 11
119.354272
 21
290.794733
 31
0.0
  0
LINE
  8
LC-004-003-----0
  6
CONTINUOUS
  5
F9
 10
116.795959
 20
290.857014
 30
0.0
 11
117.6
 21
284.749714
 31
0.0
  0
LINE
  8
LC-004-003-----0
  6
CONTINUOUS
  5
FA
 10
117.6
 20
284.749714
 30
0.0
 11
118.404041
 21
290.857014
 31
0.0
  0
LINE
  8
LC-004-003-----0
  6
CONTINUOUS
  5
FB
 10
121.254733
 20
389.649104
 30
0.0
 11
117.6
 21
417.40956
 31
0.0
  0
LINE
  8
LC-004-003-----0
  6
CONTINUOUS
  5
FC
 10
117.6
 20
417.40956
 30
0.0
 11
113.945267
 21
389.649104
 31
0.0
  0
LINE
  8
LC-004-003-----0
  6
CONTINUOUS
  5
FD
 10
113.945267
 20
389.649104
 30
0.0
 11
121.254733
 21
389.649104
 31
0.0
  0
LINE
  8
LC-004-003-----0
  6
CONTINUOUS
  5
FE
 10
120.304503
 20
389.586823
 30
0.0
 11
117.6
 21
410.12956
 31
0.0
  0
LINE
  8
LC-004-003-----0
  6
CONTINUOUS
  5
FF
 10
117.6
 20
410.12956
 30
0.0
 11
114.895497
 21
389.586823
 31
0.0
  0
LINE
  8
LC-004-003-----0
  6
CONTINUOUS
  5
100
 10
119.354272
 20
389.524541
 30
0.0
 11
117.6
 21
402.84956
 31
0.0
  0
LINE
  8
LC-004-003-----0
  6
CONTINUOUS
  5
101
 10
117.6
 20
402.84956
 30
0.0
 11
115.845728
 21
389.524541
 31
0.0
  0
LINE
  8
LC-004-003-----0
  6
CONTINUOUS
  5
102
 10
118.404041
 20
389.46226
 30
0.0
 11
117.6
 21
395.56956
 31
0.0
  0
LINE
  8
LC-004-003-----0
  6
CONTINUOUS
  5
103
 10
117.6
 20
395.56956
 30
0.0
 11
116.795959
 21
389.46226
 31
0.0
  0
TEXT
  8
LC-004-003-----0
  6
CONTINUOUS
 62
     8
  5
104
 10
109.772446
 20
314.744017
 30
0.0
 40
28.0
  1
155
 50
90.0
 51
15.0
  7
LC-TXTSTYLE-150-400-0-0-D0
 72
     1
 11
109.772446
 21
344.507797
 31
0.0
  0
ENDBLK
  8
0
  5
105
  0
BLOCK
  8
0
  5
107
  2
*D7
 70
    65
 10
0.0
 20
0.0
 30
0.0
  3
*D7
  0
LINE
  8
LC-005-003-MTH-0
  6
CONTINUOUS
  5
108
 10
363.652794
 20
366.109714
 30
0.0
 11
448.0
 21
366.109714
 31
0.0
  0
LINE
  8
LC-005-003-MTH-0
  6
CONTINUOUS
  5
109
 10
363.652794
 20
408.109714
 30
0.0
 11
448.0
 21
408.109714
 31
0.0
  0
LINE
  8
LC-004-003-----0
  6
CONTINUOUS
  5
10A
 10
434.854733
 20
338.349257
 30
0.0
 11
431.2
 21
366.109714
 31
0.0
  0
LINE
  8
LC-004-003-----0
  6
CONTINUOUS
  5
10B
 10
431.2
 20
366.109714
 30
0.0
 11
427.545267
 21
338.349257
 31
0.0
  0
LINE
  8
LC-004-003-----0
  6
CONTINUOUS
  5
10C
 10
427.545267
 20
338.349257
 30
0.0
 11
434.854733
 21
338.349257
 31
0.0
  0
LINE
  8
LC-004-003-----0
  6
CONTINUOUS
  5
10D
 10
433.904503
 20
338.286976
 30
0.0
 11
431.2
 21
358.829714
 31
0.0
  0
LINE
  8
LC-004-003-----0
  6
CONTINUOUS
  5
10E
 10
431.2
 20
358.829714
 30
0.0
 11
428.495497
 21
338.286976
 31
0.0
  0
LINE
  8
LC-004-003-----0
  6
CONTINUOUS
  5
10F
 10
432.954272
 20
338.224695
 30
0.0
 11
431.2
 21
351.549714
 31
0.0
  0
LINE
  8
LC-004-003-----0
  6
CONTINUOUS
  5
110
 10
431.2
 20
351.549714
 30
0.0
 11
429.445728
 21
338.224695
 31
0.0
  0
LINE
  8
LC-004-003-----0
  6
CONTINUOUS
  5
111
 10
432.004041
 20
338.162413
 30
0.0
 11
431.2
 21
344.269714
 31
0.0
  0
LINE
  8
LC-004-003-----0
  6
CONTINUOUS
  5
112
 10
431.2
 20
344.269714
 30
0.0
 11
430.395959
 21
338.162413
 31
0.0
  0
LINE
  8
LC-004-003-----0
  6
CONTINUOUS
  5
113
 10
427.545267
 20
435.87017
 30
0.0
 11
431.2
 21
408.109714
 31
0.0
  0
LINE
  8
LC-004-003-----0
  6
CONTINUOUS
  5
114
 10
431.2
 20
408.109714
 30
0.0
 11
434.854733
 21
435.87017
 31
0.0
  0
LINE
  8
LC-004-003-----0
  6
CONTINUOUS
  5
115
 10
434.854733
 20
435.87017
 30
0.0
 11
427.545267
 21
435.87017
 31
0.0
  0
LINE
  8
LC-004-003-----0
  6
CONTINUOUS
  5
116
 10
428.495497
 20
435.932451
 30
0.0
 11
431.2
 21
415.389714
 31
0.0
  0
LINE
  8
LC-004-003-----0
  6
CONTINUOUS
  5
117
 10
431.2
 20
415.389714
 30
0.0
 11
433.904503
 21
435.932451
 31
0.0
  0
LINE
  8
LC-004-003-----0
  6
CONTINUOUS
  5
118
 10
429.445728
 20
435.994733
 30
0.0
 11
431.2
 21
422.669714
 31
0.0
  0
LINE
  8
LC-004-003-----0
  6
CONTINUOUS
  5
119
 10
431.2
 20
422.669714
 30
0.0
 11
432.954272
 21
435.994733
 31
0.0
  0
LINE
  8
LC-004-003-----0
  6
CONTINUOUS
  5
11A
 10
430.395959
 20
436.057014
 30
0.0
 11
431.2
 21
429.949714
 31
0.0
  0
LINE
  8
LC-004-003-----0
  6
CONTINUOUS
  5
11B
 10
431.2
 20
429.949714
 30
0.0
 11
432.004041
 21
436.057014
 31
0.0
  0
LINE
  8
LC-006-003-MTG-0
  6
CONTINUOUS
  5
11C
 10
431.2
 20
237.139614
 30
0.0
 11
431.2
 21
447.309714
 31
0.0
  0
TEXT
  8
LC-004-003-----0
  6
CONTINUOUS
 62
     8
  5
11D
 10
423.372446
 20
250.229842
 30
0.0
 40
28.0
  1
DN40
 50
90.0
 51
15.0
  7
LC-TXTSTYLE-150-400-0-0-D0
 72
     2
 11
423.372446
 21
332.377874
 31
0.0
  0
ENDBLK
  8
0
  5
11E
  0
BLOCK
  8
0
  5
120
  2
BLK1
 70
    64
 10
0.0
 20
0.0
 30
0.0
  3
BLK1
  0
ENDBLK
  8
0
  5
121
  0
BLOCK
  8
0
  5
123
  2
*D9
 70
    65
 10
0.0
 20
0.0
 30
0.0
  3
*D9
  0
LINE
  8
LC-005-003-MTH-0
  6
CONTINUOUS
  5
124
 10
363.652794
 20
387.109714
 30
0.0
 11
408.8
 21
387.109714
 31
0.0
  0
LINE
  8
LC-005-003-MTH-0
  6
CONTINUOUS
  5
125
 10
315.655487
 20
417.40956
 30
0.0
 11
408.8
 21
417.40956
 31
0.0
  0
LINE
  8
LC-004-003-----0
  6
CONTINUOUS
  5
126
 10
395.654733
 20
359.349257
 30
0.0
 11
392.0
 21
387.109714
 31
0.0
  0
LINE
  8
LC-004-003-----0
  6
CONTINUOUS
  5
127
 10
392.0
 20
387.109714
 30
0.0
 11
388.345267
 21
359.349257
 31
0.0
  0
LINE
  8
LC-004-003-----0
  6
CONTINUOUS
  5
128
 10
388.345267
 20
359.349257
 30
0.0
 11
395.654733
 21
359.349257
 31
0.0
  0
LINE
  8
LC-004-003-----0
  6
CONTINUOUS
  5
129
 10
394.704503
 20
359.286976
 30
0.0
 11
392.0
 21
379.829714
 31
0.0
  0
LINE
  8
LC-004-003-----0
  6
CONTINUOUS
  5
12A
 10
392.0
 20
379.829714
 30
0.0
 11
389.295497
 21
359.286976
 31
0.0
  0
LINE
  8
LC-004-003-----0
  6
CONTINUOUS
  5
12B
 10
393.754272
 20
359.224695
 30
0.0
 11
392.0
 21
372.549714
 31
0.0
  0
LINE
  8
LC-004-003-----0
  6
CONTINUOUS
  5
12C
 10
392.0
 20
372.549714
 30
0.0
 11
390.245728
 21
359.224695
 31
0.0
  0
LINE
  8
LC-004-003-----0
  6
CONTINUOUS
  5
12D
 10
392.804041
 20
359.162413
 30
0.0
 11
392.0
 21
365.269714
 31
0.0
  0
LINE
  8
LC-004-003-----0
  6
CONTINUOUS
  5
12E
 10
392.0
 20
365.269714
 30
0.0
 11
391.195959
 21
359.162413
 31
0.0
  0
LINE
  8
LC-004-003-----0
  6
CONTINUOUS
  5
12F
 10
388.345267
 20
445.170016
 30
0.0
 11
392.0
 21
417.40956
 31
0.0
  0
LINE
  8
LC-004-003-----0
  6
CONTINUOUS
  5
130
 10
392.0
 20
417.40956
 30
0.0
 11
395.654733
 21
445.170016
 31
0.0
  0
LINE
  8
LC-004-003-----0
  6
CONTINUOUS
  5
131
 10
395.654733
 20
445.170016
 30
0.0
 11
388.345267
 21
445.170016
 31
0.0
  0
LINE
  8
LC-004-003-----0
  6
CONTINUOUS
  5
132
 10
389.295497
 20
445.232298
 30
0.0
 11
392.0
 21
424.68956
 31
0.0
  0
LINE
  8
LC-004-003-----0
  6
CONTINUOUS
  5
133
 10
392.0
 20
424.68956
 30
0.0
 11
394.704503
 21
445.232298
 31
0.0
  0
LINE
  8
LC-004-003-----0
  6
CONTINUOUS
  5
134
 10
390.245728
 20
445.294579
 30
0.0
 11
392.0
 21
431.96956
 31
0.0
  0
LINE
  8
LC-004-003-----0
  6
CONTINUOUS
  5
135
 10
392.0
 20
431.96956
 30
0.0
 11
393.754272
 21
445.294579
 31
0.0
  0
LINE
  8
LC-004-003-----0
  6
CONTINUOUS
  5
136
 10
391.195959
 20
445.35686
 30
0.0
 11
392.0
 21
439.24956
 31
0.0
  0
LINE
  8
LC-004-003-----0
  6
CONTINUOUS
  5
137
 10
392.0
 20
439.24956
 30
0.0
 11
392.804041
 21
445.35686
 31
0.0
  0
LINE
  8
LC-006-003-MTG-0
  6
CONTINUOUS
  5
138
 10
392.0
 20
303.745314
 30
0.0
 11
392.0
 21
456.60956
 31
0.0
  0
TEXT
  8
LC-004-003-----0
  6
CONTINUOUS
 62
     8
  5
139
 10
384.172446
 20
316.470787
 30
0.0
 40
28.0
  1
30
 50
90.0
 51
15.0
  7
LC-TXTSTYLE-150-400-0-0-D0
 72
     2
 11
384.172446
 21
353.377874
 31
0.0
  0
ENDBLK
  8
0
  5
13A
  0
BLOCK
  8
0
  5
13C
  2
BLK2
 70
    64
 10
0.0
 20
0.0
 30
0.0
  3
BLK2
  0
ENDBLK
  8
0
  5
13D
  0
BLOCK
  8
0
  5
13F
  2
*X11
 70
    65
 10
349.461469
 20
363.097739
 30
0.0
  3
*X11
  0
LINE
  8
LC-003-005-----0
  6
CONTINUOUS
  5
140
 10
355.143036
 20
363.345475
 30
0.0
 11
356.527703
 21
364.730141
 31
0.0
  0
LINE
  8
LC-003-005-----0
  6
CONTINUOUS
  5
141
 10
354.695667
 20
363.180949
 30
0.0
 11
356.692229
 21
365.17751
 31
0.0
  0
LINE
  8
LC-003-005-----0
  6
CONTINUOUS
  5
142
 10
354.346741
 20
363.114865
 30
0.0
 11
356.758312
 21
365.526436
 31
0.0
  0
LINE
  8
LC-003-005-----0
  6
CONTINUOUS
  5
143
 10
354.046772
 20
363.097739
 30
0.0
 11
356.775439
 21
365.826406
 31
0.0
  0
LINE
  8
LC-003-005-----0
  6
CONTINUOUS
  5
144
 10
353.763929
 20
363.097739
 30
0.0
 11
356.775439
 21
366.109248
 31
0.0
  0
LINE
  8
LC-003-005-----0
  6
CONTINUOUS
  5
145
 10
353.481087
 20
363.097739
 30
0.0
 11
356.775439
 21
366.392091
 31
0.0
  0
LINE
  8
LC-003-005-----0
  6
CONTINUOUS
  5
146
 10
353.198244
 20
363.097739
 30
0.0
 11
356.654337
 21
366.553832
 31
0.0
  0
LINE
  8
LC-003-005-----0
  6
CONTINUOUS
  5
147
 10
352.915401
 20
363.097739
 30
0.0
 11
356.426332
 21
366.60867
 31
0.0
  0
LINE
  8
LC-003-005-----0
  6
CONTINUOUS
  5
148
 10
352.632558
 20
363.097739
 30
0.0
 11
356.198327
 21
366.663507
 31
0.0
  0
LINE
  8
LC-003-005-----0
  6
CONTINUOUS
  5
149
 10
352.349716
 20
363.097739
 30
0.0
 11
355.970322
 21
366.718345
 31
0.0
  0
LINE
  8
LC-003-005-----0
  6
CONTINUOUS
  5
14A
 10
352.066873
 20
363.097739
 30
0.0
 11
355.742317
 21
366.773183
 31
0.0
  0
LINE
  8
LC-003-005-----0
  6
CONTINUOUS
  5
14B
 10
351.78403
 20
363.097739
 30
0.0
 11
355.514313
 21
366.828021
 31
0.0
  0
LINE
  8
LC-003-005-----0
  6
CONTINUOUS
  5
14C
 10
351.501188
 20
363.097739
 30
0.0
 11
355.286308
 21
366.882859
 31
0.0
  0
LINE
  8
LC-003-005-----0
  6
CONTINUOUS
  5
14D
 10
351.218345
 20
363.097739
 30
0.0
 11
355.058303
 21
366.937697
 31
0.0
  0
LINE
  8
LC-003-005-----0
  6
CONTINUOUS
  5
14E
 10
350.935502
 20
363.097739
 30
0.0
 11
354.830298
 21
366.992535
 31
0.0
  0
LINE
  8
LC-003-005-----0
  6
CONTINUOUS
  5
14F
 10
350.652659
 20
363.097739
 30
0.0
 11
354.602293
 21
367.047373
 31
0.0
  0
LINE
  8
LC-003-005-----0
  6
CONTINUOUS
  5
150
 10
350.369817
 20
363.097739
 30
0.0
 11
354.374289
 21
367.102211
 31
0.0
  0
LINE
  8
LC-003-005-----0
  6
CONTINUOUS
  5
151
 10
350.086974
 20
363.097739
 30
0.0
 11
351.766974
 21
364.777739
 31
0.0
  0
LINE
  8
LC-003-005-----0
  6
CONTINUOUS
  5
152
 10
351.891771
 20
364.902536
 30
0.0
 11
354.146284
 21
367.157048
 31
0.0
  0
LINE
  8
LC-003-005-----0
  6
CONTINUOUS
  5
153
 10
349.804131
 20
363.097739
 30
0.0
 11
351.484131
 21
364.777739
 31
0.0
  0
LINE
  8
LC-003-005-----0
  6
CONTINUOUS
  5
154
 10
351.773491
 20
365.067098
 30
0.0
 11
353.918279
 21
367.211886
 31
0.0
  0
LINE
  8
LC-003-005-----0
  6
CONTINUOUS
  5
155
 10
349.521289
 20
363.097739
 30
0.0
 11
351.201289
 21
364.777739
 31
0.0
  0
LINE
  8
LC-003-005-----0
  6
CONTINUOUS
  5
156
 10
351.655211
 20
365.231661
 30
0.0
 11
353.690274
 21
367.266724
 31
0.0
  0
LINE
  8
LC-003-005-----0
  6
CONTINUOUS
  5
157
 10
349.461469
 20
363.320762
 30
0.0
 11
350.918446
 21
364.777739
 31
0.0
  0
LINE
  8
LC-003-005-----0
  6
CONTINUOUS
  5
158
 10
351.53693
 20
365.396223
 30
0.0
 11
353.462269
 21
367.321562
 31
0.0
  0
LINE
  8
LC-003-005-----0
  6
CONTINUOUS
  5
159
 10
349.461469
 20
363.603605
 30
0.0
 11
350.635603
 21
364.777739
 31
0.0
  0
LINE
  8
LC-003-005-----0
  6
CONTINUOUS
  5
15A
 10
351.41865
 20
365.560786
 30
0.0
 11
353.234264
 21
367.3764
 31
0.0
  0
LINE
  8
LC-003-005-----0
  6
CONTINUOUS
  5
15B
 10
349.461469
 20
363.886448
 30
0.0
 11
350.35276
 21
364.777739
 31
0.0
  0
LINE
  8
LC-003-005-----0
  6
CONTINUOUS
  5
15C
 10
351.30037
 20
365.725349
 30
0.0
 11
353.00626
 21
367.431238
 31
0.0
  0
LINE
  8
LC-003-005-----0
  6
CONTINUOUS
  5
15D
 10
349.461469
 20
364.16929
 30
0.0
 11
350.069918
 21
364.777739
 31
0.0
  0
LINE
  8
LC-003-005-----0
  6
CONTINUOUS
  5
15E
 10
351.18209
 20
365.889911
 30
0.0
 11
352.778255
 21
367.486076
 31
0.0
  0
LINE
  8
LC-003-005-----0
  6
CONTINUOUS
  5
15F
 10
349.461469
 20
364.452133
 30
0.0
 11
349.787075
 21
364.777739
 31
0.0
  0
LINE
  8
LC-003-005-----0
  6
CONTINUOUS
  5
160
 10
351.06381
 20
366.054474
 30
0.0
 11
352.55025
 21
367.540914
 31
0.0
  0
LINE
  8
LC-003-005-----0
  6
CONTINUOUS
  5
161
 10
349.461469
 20
364.734976
 30
0.0
 11
349.504232
 21
364.777739
 31
0.0
  0
LINE
  8
LC-003-005-----0
  6
CONTINUOUS
  5
162
 10
350.94553
 20
366.219036
 30
0.0
 11
352.322245
 21
367.595752
 31
0.0
  0
LINE
  8
LC-003-005-----0
  6
CONTINUOUS
  5
163
 10
350.82725
 20
366.383599
 30
0.0
 11
352.09424
 21
367.65059
 31
0.0
  0
LINE
  8
LC-003-005-----0
  6
CONTINUOUS
  5
164
 10
350.70897
 20
366.548161
 30
0.0
 11
351.866236
 21
367.705427
 31
0.0
  0
LINE
  8
LC-003-005-----0
  6
CONTINUOUS
  5
165
 10
350.590689
 20
366.712724
 30
0.0
 11
351.638231
 21
367.760265
 31
0.0
  0
LINE
  8
LC-003-005-----0
  6
CONTINUOUS
  5
166
 10
350.472409
 20
366.877287
 30
0.0
 11
351.410226
 21
367.815103
 31
0.0
  0
LINE
  8
LC-003-005-----0
  6
CONTINUOUS
  5
167
 10
350.354129
 20
367.041849
 30
0.0
 11
351.182221
 21
367.869941
 31
0.0
  0
LINE
  8
LC-003-005-----0
  6
CONTINUOUS
  5
168
 10
350.235849
 20
367.206412
 30
0.0
 11
350.954216
 21
367.924779
 31
0.0
  0
LINE
  8
LC-003-005-----0
  6
CONTINUOUS
  5
169
 10
350.117601
 20
367.371006
 30
0.0
 11
350.726211
 21
367.979617
 31
0.0
  0
LINE
  8
LC-003-005-----0
  6
CONTINUOUS
  5
16A
 10
350.043364
 20
367.579613
 30
0.0
 11
350.49371
 21
368.029958
 31
0.0
  0
ENDBLK
  8
0
  5
16B
  0
BLOCK
  8
0
  5
16D
  2
*X12
 70
    65
 10
349.461469
 20
405.879691
 30
0.0
  3
*X12
  0
LINE
  8
LC-003-005-----0
  6
CONTINUOUS
  5
16E
 10
356.413027
 20
407.607558
 30
0.0
 11
356.775439
 21
407.96997
 31
0.0
  0
LINE
  8
LC-003-005-----0
  6
CONTINUOUS
  5
16F
 10
356.040614
 20
407.517988
 30
0.0
 11
356.775439
 21
408.252813
 31
0.0
  0
LINE
  8
LC-003-005-----0
  6
CONTINUOUS
  5
170
 10
355.668202
 20
407.428418
 30
0.0
 11
356.771954
 21
408.532171
 31
0.0
  0
LINE
  8
LC-003-005-----0
  6
CONTINUOUS
  5
171
 10
355.29579
 20
407.338849
 30
0.0
 11
356.745288
 21
408.788347
 31
0.0
  0
LINE
  8
LC-003-005-----0
  6
CONTINUOUS
  5
172
 10
354.923377
 20
407.249279
 30
0.0
 11
356.697128
 21
409.02303
 31
0.0
  0
LINE
  8
LC-003-005-----0
  6
CONTINUOUS
  5
173
 10
354.550965
 20
407.159709
 30
0.0
 11
356.631221
 21
409.239965
 31
0.0
  0
LINE
  8
LC-003-005-----0
  6
CONTINUOUS
  5
174
 10
354.178552
 20
407.07014
 30
0.0
 11
356.549976
 21
409.441563
 31
0.0
  0
LINE
  8
LC-003-005-----0
  6
CONTINUOUS
  5
175
 10
353.80614
 20
406.98057
 30
0.0
 11
356.455011
 21
409.629441
 31
0.0
  0
LINE
  8
LC-003-005-----0
  6
CONTINUOUS
  5
176
 10
353.433728
 20
406.891
 30
0.0
 11
356.347418
 21
409.804691
 31
0.0
  0
LINE
  8
LC-003-005-----0
  6
CONTINUOUS
  5
177
 10
353.061315
 20
406.801431
 30
0.0
 11
356.227922
 21
409.968037
 31
0.0
  0
LINE
  8
LC-003-005-----0
  6
CONTINUOUS
  5
178
 10
352.688903
 20
406.711861
 30
0.0
 11
356.096963
 21
410.119921
 31
0.0
  0
LINE
  8
LC-003-005-----0
  6
CONTINUOUS
  5
179
 10
351.944078
 20
406.532722
 30
0.0
 11
355.815038
 21
410.403681
 31
0.0
  0
LINE
  8
LC-003-005-----0
  6
CONTINUOUS
  5
17A
 10
351.571666
 20
406.443152
 30
0.0
 11
355.666386
 21
410.537873
 31
0.0
  0
LINE
  8
LC-003-005-----0
  6
CONTINUOUS
  5
17B
 10
351.199254
 20
406.353583
 30
0.0
 11
355.506352
 21
410.660681
 31
0.0
  0
LINE
  8
LC-003-005-----0
  6
CONTINUOUS
  5
17C
 10
350.826841
 20
406.264013
 30
0.0
 11
355.334567
 21
410.771739
 31
0.0
  0
LINE
  8
LC-003-005-----0
  6
CONTINUOUS
  5
17D
 10
350.468315
 20
406.188329
 30
0.0
 11
355.150395
 21
410.870409
 31
0.0
  0
LINE
  8
LC-003-005-----0
  6
CONTINUOUS
  5
17E
 10
350.245585
 20
406.248442
 30
0.0
 11
354.952859
 21
410.955716
 31
0.0
  0
LINE
  8
LC-003-005-----0
  6
CONTINUOUS
  5
17F
 10
350.103715
 20
406.389415
 30
0.0
 11
354.740515
 21
411.026215
 31
0.0
  0
LINE
  8
LC-003-005-----0
  6
CONTINUOUS
  5
180
 10
350.042186
 20
406.610729
 30
0.0
 11
354.511218
 21
411.07976
 31
0.0
  0
LINE
  8
LC-003-005-----0
  6
CONTINUOUS
  5
181
 10
350.425524
 20
407.276909
 30
0.0
 11
354.261684
 21
411.113069
 31
0.0
  0
LINE
  8
LC-003-005-----0
  6
CONTINUOUS
  5
182
 10
351.148361
 20
408.282589
 30
0.0
 11
353.98746
 21
411.121688
 31
0.0
  0
LINE
  8
LC-003-005-----0
  6
CONTINUOUS
  5
183
 10
351.871198
 20
409.288269
 30
0.0
 11
353.704618
 21
411.121688
 31
0.0
  0
LINE
  8
LC-003-005-----0
  6
CONTINUOUS
  5
184
 10
351.741775
 20
409.441688
 30
0.0
 11
353.421775
 21
411.121688
 31
0.0
  0
LINE
  8
LC-003-005-----0
  6
CONTINUOUS
  5
185
 10
351.458932
 20
409.441688
 30
0.0
 11
353.138932
 21
411.121688
 31
0.0
  0
LINE
  8
LC-003-005-----0
  6
CONTINUOUS
  5
186
 10
351.17609
 20
409.441688
 30
0.0
 11
352.85609
 21
411.121688
 31
0.0
  0
LINE
  8
LC-003-005-----0
  6
CONTINUOUS
  5
187
 10
350.893247
 20
409.441688
 30
0.0
 11
352.573247
 21
411.121688
 31
0.0
  0
LINE
  8
LC-003-005-----0
  6
CONTINUOUS
  5
188
 10
350.610404
 20
409.441688
 30
0.0
 11
352.290404
 21
411.121688
 31
0.0
  0
LINE
  8
LC-003-005-----0
  6
CONTINUOUS
  5
189
 10
350.327561
 20
409.441688
 30
0.0
 11
352.007561
 21
411.121688
 31
0.0
  0
LINE
  8
LC-003-005-----0
  6
CONTINUOUS
  5
18A
 10
350.044719
 20
409.441688
 30
0.0
 11
351.724719
 21
411.121688
 31
0.0
  0
LINE
  8
LC-003-005-----0
  6
CONTINUOUS
  5
18B
 10
349.761876
 20
409.441688
 30
0.0
 11
351.441876
 21
411.121688
 31
0.0
  0
LINE
  8
LC-003-005-----0
  6
CONTINUOUS
  5
18C
 10
349.479033
 20
409.441688
 30
0.0
 11
351.159033
 21
411.121688
 31
0.0
  0
LINE
  8
LC-003-005-----0
  6
CONTINUOUS
  5
18D
 10
349.461469
 20
409.706967
 30
0.0
 11
350.876191
 21
411.121688
 31
0.0
  0
LINE
  8
LC-003-005-----0
  6
CONTINUOUS
  5
18E
 10
349.461469
 20
409.98981
 30
0.0
 11
350.593348
 21
411.121688
 31
0.0
  0
LINE
  8
LC-003-005-----0
  6
CONTINUOUS
  5
18F
 10
349.461469
 20
410.272652
 30
0.0
 11
350.310505
 21
411.121688
 31
0.0
  0
LINE
  8
LC-003-005-----0
  6
CONTINUOUS
  5
190
 10
349.461469
 20
410.555495
 30
0.0
 11
350.027662
 21
411.121688
 31
0.0
  0
LINE
  8
LC-003-005-----0
  6
CONTINUOUS
  5
191
 10
349.461469
 20
410.838338
 30
0.0
 11
349.74482
 21
411.121688
 31
0.0
  0
LINE
  8
LC-003-005-----0
  6
CONTINUOUS
  5
192
 10
349.461469
 20
411.121181
 30
0.0
 11
349.461977
 21
411.121688
 31
0.0
  0
ENDBLK
  8
0
  5
193
  0
ENDSEC
  0
SECTION
  2
ENTITIES
  0
VIEWPORT
  8
LC-000
  5
20D
 67
     1
 68
     1
 10
420.0
 20
297.0
 30
0.0
 40
840.0
 41
594.0
 69
     1
1001
ACAD
1000
MVIEW
1002
{
1070
    16
1010
0.0
1020
0.0
1030
0.0
1010
0.0
1020
0.0
1030
1.0
1040
0.0
1040
594.0
1040
420.0
1040
297.0
1040
50.0
1040
0.0
1040
0.0
1070
     0
1070
   100
1070
     1
1070
     1
1070
     0
1070
     0
1070
     0
1070
     0
1040
0.0
1040
0.0
1040
0.0
1040
1.0
1040
1.0
1040
0.0
1040
0.0
1070
     0
1002
{
1002
}
1002
}
  0
VIEWPORT
  8
0
  5
20E
 67
     1
 68
     1
 10
0.0
 20
0.0
 30
0.0
 40
0.0
 41
0.0
 69
     1
1001
ACAD
1000
MVIEW
1002
{
1070
    16
1010
0.0
1020
0.0
1030
0.0
1010
0.0
1020
0.0
1030
1.0
1040
0.0
1040
594.0
1040
0.0
1040
0.0
1040
50.0
1040
0.0
1040
0.0
1070
     0
1070
   100
1070
     0
1070
     1
1070
     0
1070
     0
1070
     0
1070
     0
1040
0.0
1040
0.0
1040
0.0
1040
0.5
1040
0.5
1040
0.5
1040
0.5
1070
     0
1002
{
1002
}
1002
}
  0
INSERT
  8
0
  5
194
  2
*X0
 10
306.955793
 20
395.898946
 30
0.0
  0
INSERT
  8
0
  5
195
  2
*X1
 10
306.955793
 20
262.909714
 30
0.0
  0
INSERT
  8
0
  5
196
  2
*X2
 10
156.555487
 20
262.909714
 30
0.0
  0
INSERT
  8
0
  5
197
  2
*X3
 10
309.055487
 20
411.90956
 30
0.0
  0
INSERT
  8
0
  5
198
  2
*X4
 10
156.555487
 20
411.90956
 30
0.0
  0
DIMENSION
  8
0
  5
199
  2
*D5
 10
237.155487
 20
196.0
 30
0.0
 11
237.155487
 21
196.0
 31
0.0
  1
%%c<>
 13
309.655793
 23
267.909714
 33
0.0
 14
164.655181
 24
267.909714
 34
0.0
  3
LC-DIM-L-0140-02-02
  0
DIMENSION
  8
0
  5
19A
  2
*D6
 10
117.6
 20
340.159637
 30
0.0
 11
117.6
 21
340.159637
 31
0.0
  1
155
 13
158.655487
 23
417.40956
 33
0.0
 14
165.994927
 24
262.909714
 34
0.0
 50
90.0
  3
LC-DIM-L-0140-02-02
  0
DIMENSION
  8
0
  5
19B
  2
*D7
 10
431.2
 20
337.392
 30
0.0
 11
431.2
 21
337.392
 31
0.0
  1
DN40
 13
363.652794
 23
408.109714
 33
0.0
 14
363.652794
 24
366.109714
 34
0.0
 50
90.0
  3
LC-DIM-L-0140-02-02
  0
INSERT
  8
0
  5
19D
  2
BLK1
 10
0.0
 20
0.0
 30
0.0
  0
DIMENSION
  8
0
  5
19E
  2
*D9
 10
392.0
 20
336.204
 30
0.0
 11
392.0
 21
336.204
 31
0.0
  1
30
 13
315.655487
 23
417.40956
 33
0.0
 14
363.652794
 24
387.109714
 34
0.0
 50
90.0
  3
LC-DIM-L-0140-02-02
  0
INSERT
  8
0
  5
19F
  2
BLK2
 10
0.0
 20
0.0
 30
0.0
  0
INSERT
  8
0
  5
1A0
  2
*X11
 10
349.461469
 20
363.097739
 30
0.0
  0
INSERT
  8
0
  5
1A1
  2
*X12
 10
349.461469
 20
405.879691
 30
0.0
  0
LINE
  8
LC-001-002-----0
  5
1A4
 10
237.155487
 20
419.909714
 30
0.0
 11
237.155487
 21
262.909714
 31
0.0
  0
LINE
  8
LC-001-002-----0
  6
CONTINUOUS
 62
     1
  5
1A5
 10
167.355181
 20
395.898946
 30
0.0
 11
167.355181
 21
262.909714
 31
0.0
  0
LINE
  8
LC-001-002-----0
  6
CONTINUOUS
 62
     1
  5
1A6
 10
158.655487
 20
411.359714
 30
0.0
 11
161.652077
 21
408.363123
 31
0.0
  0
LINE
  8
LC-001-002-----0
  6
CONTINUOUS
 62
     1
  5
1A7
 10
161.652077
 20
396.12956
 30
0.0
 11
164.655181
 21
393.126457
 31
0.0
  0
LINE
  8
LC-001-002-----0
  6
CONTINUOUS
 62
     1
  5
1A8
 10
306.955793
 20
366.809714
 30
0.0
 11
306.955793
 21
262.909714
 31
0.0
  0
LINE
  8
LC-001-002-----0
  6
CONTINUOUS
 62
     1
  5
1A9
 10
158.655487
 20
417.40956
 30
0.0
 11
161.152077
 21
417.40956
 31
0.0
  0
LINE
  8
LC-001-002-----0
  6
CONTINUOUS
 62
     1
  5
1AA
 10
164.155487
 20
413.409714
 30
0.0
 11
164.155487
 21
396.878233
 31
0.0
  0
LINE
  8
LC-001-002-----0
  6
CONTINUOUS
 62
     1
  5
1AB
 10
161.152077
 20
417.40956
 30
0.0
 11
161.152077
 21
411.90956
 31
0.0
  0
LINE
  8
LC-001-002-----0
  6
CONTINUOUS
 62
     1
  5
1AC
 10
167.355181
 20
395.898946
 30
0.0
 11
164.155487
 21
396.878233
 31
0.0
  0
LINE
  8
LC-001-002-----0
  6
CONTINUOUS
 62
     1
  5
1AD
 10
156.555487
 20
413.909714
 30
0.0
 11
158.655487
 21
413.909714
 31
0.0
  0
LINE
  8
LC-001-002-----0
  6
CONTINUOUS
 62
     1
  5
1AE
 10
156.555487
 20
411.359714
 30
0.0
 11
158.655487
 21
411.359714
 31
0.0
  0
LINE
  8
LC-001-002-----0
  6
CONTINUOUS
 62
     1
  5
1AF
 10
156.555487
 20
418.409714
 30
0.0
 11
156.555487
 21
411.359714
 31
0.0
  0
ARC
  8
LC-002-002-RND-0
  6
CONTINUOUS
  5
1B1
 10
158.055487
 20
418.409714
 30
0.0
 40
1.5
 50
90.0
 51
180.0
  0
LINE
  8
LC-001-002-----0
  6
CONTINUOUS
 62
     1
  5
1B2
 10
158.655487
 20
417.40956
 30
0.0
 11
158.655487
 21
413.909714
 31
0.0
  0
ARC
  8
LC-002-002-RND-0
  6
CONTINUOUS
  5
1B3
 10
162.255487
 20
416.909714
 30
0.0
 40
3.0
 50
339.618334
 51
90.0
  0
LINE
  8
LC-001-002-----0
  6
CONTINUOUS
 62
     1
  5
1B4
 10
161.652077
 20
408.363123
 30
0.0
 11
161.652077
 21
396.12956
 31
0.0
  0
LINE
  8
LC-001-002-----0
  6
CONTINUOUS
 62
     1
  5
1B5
 10
315.655487
 20
411.359714
 30
0.0
 11
313.505487
 21
409.209714
 31
0.0
  0
LINE
  8
LC-001-002-----0
  6
CONTINUOUS
 62
     1
  5
1B6
 10
158.055487
 20
419.909714
 30
0.0
 11
162.255487
 21
419.909714
 31
0.0
  0
LINE
  8
LC-001-002-----0
  6
CONTINUOUS
 62
     1
  5
1B7
 10
165.067667
 20
415.864897
 30
0.0
 11
164.155487
 21
413.409714
 31
0.0
  0
LINE
  8
LC-001-002-----0
  6
CONTINUOUS
 62
     1
  5
1B8
 10
306.955793
 20
395.898946
 30
0.0
 11
310.155487
 21
396.878233
 31
0.0
  0
LINE
  8
LC-001-002-----0
  6
CONTINUOUS
 62
     1
  5
1B9
 10
315.655487
 20
417.40956
 30
0.0
 11
313.158897
 21
417.40956
 31
0.0
  0
LINE
  8
LC-001-002-----0
  6
CONTINUOUS
 62
     1
  5
1BA
 10
161.152077
 20
411.90956
 30
0.0
 11
164.155487
 21
411.90956
 31
0.0
  0
LINE
  8
LC-001-002-----0
  6
CONTINUOUS
 62
     1
  5
1BB
 10
310.155487
 20
413.409714
 30
0.0
 11
310.155487
 21
396.878233
 31
0.0
  0
LINE
  8
LC-001-002-----0
  6
CONTINUOUS
 62
     1
  5
1BC
 10
313.158897
 20
417.40956
 30
0.0
 11
313.158897
 21
411.90956
 31
0.0
  0
LINE
  8
LC-001-002-----0
  6
CONTINUOUS
 62
     1
  5
1BD
 10
317.755487
 20
413.909714
 30
0.0
 11
315.655487
 21
413.909714
 31
0.0
  0
LINE
  8
LC-001-002-----0
  6
CONTINUOUS
 62
     1
  5
1BE
 10
317.755487
 20
411.359714
 30
0.0
 11
315.655487
 21
411.359714
 31
0.0
  0
LINE
  8
LC-001-002-----0
  6
CONTINUOUS
 62
     1
  5
1BF
 10
317.755487
 20
418.409714
 30
0.0
 11
317.755487
 21
411.359714
 31
0.0
  0
ARC
  8
LC-002-002-RND-0
  6
CONTINUOUS
  5
1C0
 10
310.658897
 20
397.898946
 30
0.0
 40
2.0
 50
270.0
 51
0.0
  0
ARC
  8
LC-002-002-RND-0
  6
CONTINUOUS
  5
1C1
 10
316.255487
 20
418.409714
 30
0.0
 40
1.5
 50
0.0
 51
90.0
  0
LINE
  8
LC-001-002-----0
  6
CONTINUOUS
 62
     1
  5
1C2
 10
315.655487
 20
417.40956
 30
0.0
 11
315.655487
 21
413.909714
 31
0.0
  0
LINE
  8
LC-001-002-----0
  6
CONTINUOUS
 62
     1
  5
1C3
 10
312.055487
 20
419.909714
 30
0.0
 11
162.255487
 21
419.909714
 31
0.0
  0
ARC
  8
LC-002-002-RND-0
  6
CONTINUOUS
  5
1C4
 10
312.055487
 20
416.909714
 30
0.0
 40
3.0
 50
90.0
 51
200.381666
  0
LINE
  8
LC-001-002-----0
  6
CONTINUOUS
 62
     1
  5
1C5
 10
312.658897
 20
407.409714
 30
0.0
 11
312.658897
 21
397.898946
 31
0.0
  0
LINE
  8
LC-001-002-----0
  6
CONTINUOUS
 62
     1
  5
1C6
 10
316.255487
 20
419.909714
 30
0.0
 11
312.055487
 21
419.909714
 31
0.0
  0
LINE
  8
LC-001-002-----0
  6
CONTINUOUS
 62
     1
  5
1C7
 10
309.243307
 20
415.864897
 30
0.0
 11
310.155487
 21
413.409714
 31
0.0
  0
LINE
  8
LC-001-002-----0
  6
CONTINUOUS
 62
     1
  5
1C8
 10
167.355181
 20
395.898946
 30
0.0
 11
310.658897
 21
395.898946
 31
0.0
  0
LINE
  8
LC-001-002-----0
  6
CONTINUOUS
 62
     1
  5
1C9
 10
164.655181
 20
267.909714
 30
0.0
 11
165.994907
 21
262.909785
 31
0.0
  0
LINE
  8
LC-001-002-----0
  6
CONTINUOUS
 62
     1
  5
1CA
 10
165.994907
 20
262.909714
 30
0.0
 11
167.155181
 21
262.909714
 31
0.0
  0
LINE
  8
LC-001-002-----0
  6
CONTINUOUS
 62
     1
  5
1CB
 10
164.655181
 20
393.126457
 30
0.0
 11
164.655181
 21
267.909714
 31
0.0
  0
LINE
  8
LC-001-002-----0
  6
CONTINUOUS
 62
     1
  5
1CC
 10
310.155487
 20
411.90956
 30
0.0
 11
164.155487
 21
411.90956
 31
0.0
  0
LINE
  8
LC-001-002-----0
  6
CONTINUOUS
 62
     1
  5
1CD
 10
357.652794
 20
413.909714
 30
0.0
 11
349.352794
 21
413.909714
 31
0.0
  0
LINE
  8
LC-001-002-----0
  6
CONTINUOUS
 62
     1
  5
1CE
 10
306.955793
 20
262.909714
 30
0.0
 11
167.155181
 21
262.909714
 31
0.0
  0
LINE
  8
LC-001-002-----0
  6
CONTINUOUS
 62
     1
  5
1CF
 10
363.652794
 20
408.109714
 30
0.0
 11
363.652794
 21
366.109714
 31
0.0
  0
LINE
  8
LC-001-002-----0
  5
1D0
 10
363.652794
 20
387.109714
 30
0.0
 11
304.224036
 21
387.109714
 31
0.0
  0
LINE
  8
LC-001-002-----0
  6
CONTINUOUS
 62
     1
  5
1D1
 10
309.655793
 20
365.009714
 30
0.0
 11
309.655793
 21
267.909714
 31
0.0
  0
ARC
  8
LC-001-002-----0
  6
CONTINUOUS
 62
     1
  5
1D2
 10
338.246805
 20
381.35433
 30
0.0
 40
34.506134
 50
155.070161
 51
204.929839
  0
LINE
  8
LC-001-002-----0
  6
CONTINUOUS
 62
     1
  5
1D3
 10
363.652794
 20
408.109714
 30
0.0
 11
359.652794
 21
408.109714
 31
0.0
  0
ARC
  8
LC-002-002-RND-0
  6
CONTINUOUS
  5
1D4
 10
360.652794
 20
411.109714
 30
0.0
 40
1.0
 50
180.0
 51
270.0
  0
LINE
  8
LC-001-002-----0
  6
CONTINUOUS
 62
     1
  5
1D5
 10
349.152794
 20
408.409714
 30
0.0
 11
349.152794
 21
411.109714
 31
0.0
  0
LINE
  8
LC-001-002-----0
  6
CONTINUOUS
 62
     1
  5
1D6
 10
347.352794
 20
409.209714
 30
0.0
 11
347.352794
 21
411.909714
 31
0.0
  0
LINE
  8
LC-001-002-----0
  6
CONTINUOUS
 62
     1
  5
1D7
 10
355.652794
 20
412.109714
 30
0.0
 11
350.152794
 21
412.109714
 31
0.0
  0
ARC
  8
LC-002-002-RND-0
  6
CONTINUOUS
  5
1D8
 10
357.652794
 20
411.909714
 30
0.0
 40
2.0
 50
0.0
 51
90.0
  0
LINE
  8
LC-001-002-----0
  6
CONTINUOUS
 62
     1
  5
1D9
 10
363.652794
 20
408.109714
 30
0.0
 11
363.652794
 21
410.109714
 31
0.0
  0
LINE
  8
LC-001-002-----0
  6
CONTINUOUS
 62
     1
  5
1DA
 10
359.652794
 20
411.109714
 30
0.0
 11
359.652794
 21
411.909714
 31
0.0
  0
LINE
  8
LC-001-002-----0
  6
CONTINUOUS
 62
     1
  5
1DB
 10
348.152794
 20
407.409714
 30
0.0
 11
312.658897
 21
407.409714
 31
0.0
  0
LINE
  8
LC-001-002-----0
  6
CONTINUOUS
 62
     1
  5
1DC
 10
347.352794
 20
409.209714
 30
0.0
 11
313.505487
 21
409.209714
 31
0.0
  0
LINE
  8
LC-001-002-----0
  6
CONTINUOUS
 62
     1
  5
1DD
 10
359.652794
 20
408.109714
 30
0.0
 11
355.652794
 21
412.109714
 31
0.0
  0
ARC
  8
LC-002-002-RND-0
  6
CONTINUOUS
  5
1DE
 10
349.352794
 20
411.909714
 30
0.0
 40
2.0
 50
90.0
 51
180.0
  0
LINE
  8
LC-001-002-----0
  6
CONTINUOUS
 62
     1
  5
1DF
 10
363.652794
 20
366.109714
 30
0.0
 11
359.652794
 21
366.109714
 31
0.0
  0
ARC
  8
LC-002-002-RND-0
  6
CONTINUOUS
  5
1E0
 10
348.152794
 20
408.409714
 30
0.0
 40
1.0
 50
270.0
 51
0.0
  0
ARC
  8
LC-002-002-RND-0
  6
CONTINUOUS
  5
1E1
 10
350.152794
 20
411.109714
 30
0.0
 40
1.0
 50
90.0
 51
180.0
  0
LINE
  8
LC-001-002-----0
  6
CONTINUOUS
 62
     1
  5
1E2
 10
363.652794
 20
410.109714
 30
0.0
 11
360.652794
 21
410.109714
 31
0.0
  0
ARC
  8
LC-002-002-RND-0
  6
CONTINUOUS
  5
1E3
 10
360.652794
 20
363.109714
 30
0.0
 40
1.0
 50
90.0
 51
180.0
  0
LINE
  8
LC-001-002-----0
  6
CONTINUOUS
 62
     1
  5
1E4
 10
359.652794
 20
408.109714
 30
0.0
 11
359.652794
 21
366.109714
 31
0.0
  0
LINE
  8
LC-001-002-----0
  6
CONTINUOUS
 62
     1
  5
1E5
 10
349.152794
 20
365.809714
 30
0.0
 11
349.152794
 21
363.109714
 31
0.0
  0
LINE
  8
LC-001-002-----0
  6
CONTINUOUS
 62
     1
  5
1E6
 10
347.352794
 20
365.009714
 30
0.0
 11
347.352794
 21
362.309714
 31
0.0
  0
LINE
  8
LC-001-002-----0
  6
CONTINUOUS
 62
     1
  5
1E7
 10
355.652794
 20
362.109714
 30
0.0
 11
350.152794
 21
362.109714
 31
0.0
  0
LINE
  8
LC-001-002-----0
  6
CONTINUOUS
 62
     1
  5
1E8
 10
357.652794
 20
360.309714
 30
0.0
 11
349.352794
 21
360.309714
 31
0.0
  0
ARC
  8
LC-002-002-RND-0
  6
CONTINUOUS
  5
1E9
 10
357.652794
 20
362.309714
 30
0.0
 40
2.0
 50
270.0
 51
0.0
  0
LINE
  8
LC-001-002-----0
  6
CONTINUOUS
 62
     1
  5
1EA
 10
363.652794
 20
366.109714
 30
0.0
 11
363.652794
 21
364.109714
 31
0.0
  0
LINE
  8
LC-001-002-----0
  6
CONTINUOUS
 62
     1
  5
1EB
 10
359.652794
 20
363.109714
 30
0.0
 11
359.652794
 21
362.309714
 31
0.0
  0
LINE
  8
LC-001-002-----0
  6
CONTINUOUS
 62
     1
  5
1EC
 10
348.152794
 20
366.809714
 30
0.0
 11
306.955793
 21
366.809714
 31
0.0
  0
LINE
  8
LC-001-002-----0
  6
CONTINUOUS
 62
     1
  5
1ED
 10
347.352794
 20
365.009714
 30
0.0
 11
309.655793
 21
365.009714
 31
0.0
  0
LINE
  8
LC-001-002-----0
  6
CONTINUOUS
 62
     1
  5
1EE
 10
359.652794
 20
366.109714
 30
0.0
 11
355.652794
 21
362.109714
 31
0.0
  0
ARC
  8
LC-002-002-RND-0
  6
CONTINUOUS
  5
1EF
 10
349.352794
 20
362.309714
 30
0.0
 40
2.0
 50
180.0
 51
270.0
  0
ARC
  8
LC-002-002-RND-0
  6
CONTINUOUS
  5
1F0
 10
348.152794
 20
365.809714
 30
0.0
 40
1.0
 50
0.0
 51
90.0
  0
ARC
  8
LC-002-002-RND-0
  6
CONTINUOUS
  5
1F1
 10
350.152794
 20
363.109714
 30
0.0
 40
1.0
 50
180.0
 51
270.0
  0
LINE
  8
LC-001-002-----0
  6
CONTINUOUS
 62
     1
  5
1F2
 10
363.652794
 20
364.109714
 30
0.0
 11
360.652794
 21
364.109714
 31
0.0
  0
LINE
  8
LC-001-002-----0
  6
CONTINUOUS
 62
     1
  5
1F3
 10
359.652794
 20
366.109714
 30
0.0
 11
359.652794
 21
378.185245
 31
0.0
  0
LINE
  8
LC-001-002-----0
  6
CONTINUOUS
 62
     1
  5
1F4
 10
349.152794
 20
408.409714
 30
0.0
 11
349.152794
 21
365.809714
 31
0.0
  0
LINE
  8
LC-001-002-----0
  6
CONTINUOUS
 62
     1
  5
1F5
 10
309.655793
 20
267.909714
 30
0.0
 11
308.316067
 21
262.909785
 31
0.0
  0
LINE
  8
LC-001-002-----0
  6
CONTINUOUS
 62
     1
  5
1F6
 10
308.316067
 20
262.909714
 30
0.0
 11
306.955793
 21
262.909714
 31
0.0
  0
LINE
  8
LC-001-002-----0
  6
CONTINUOUS
 62
     1
  5
1F7
 10
313.158897
 20
411.90956
 30
0.0
 11
310.155487
 21
411.90956
 31
0.0
  0
LINE
  8
LC-001-002-----0
  6
CONTINUOUS
 62
     1
  5
1F8
 10
349.461469
 20
411.121688
 30
0.0
 11
349.461469
 21
409.441688
 31
0.0
  0
LINE
  8
LC-001-002-----0
  6
CONTINUOUS
 62
     1
  5
1F9
 10
351.981469
 20
409.441688
 30
0.0
 11
349.461469
 21
409.441688
 31
0.0
  0
LINE
  8
LC-001-002-----0
  6
CONTINUOUS
 62
     1
  5
1FA
 10
356.775439
 20
408.399691
 30
0.0
 11
356.775439
 21
407.694722
 31
0.0
  0
ARC
  8
LC-002-002-RND-0
  6
CONTINUOUS
  5
1FB
 10
354.255439
 20
408.399691
 30
0.0
 40
2.52
 50
0.0
 51
45.0
  0
LINE
  8
LC-001-002-----0
  6
CONTINUOUS
 62
     1
  5
1FC
 10
354.053441
 20
411.121688
 30
0.0
 11
349.461469
 21
411.121688
 31
0.0
  0
ARC
  8
LC-002-002-RND-0
  6
CONTINUOUS
  5
1FD
 10
354.053441
 20
408.601688
 30
0.0
 40
2.52
 50
45.0
 51
90.0
  0
LINE
  8
LC-001-002-----0
  6
CONTINUOUS
 62
     1
  5
1FE
 10
356.037348
 20
410.1816
 30
0.0
 11
355.835351
 21
410.383597
 31
0.0
  0
LINE
  8
LC-001-002-----0
  6
CONTINUOUS
 62
     1
  5
1FF
 10
356.775439
 20
407.694722
 30
0.0
 11
350.560394
 21
406.199929
 31
0.0
  0
ARC
  8
LC-002-002-RND-0
  6
CONTINUOUS
  5
200
 10
350.462179
 20
406.608284
 30
0.0
 40
0.42
 50
144.293129
 51
283.523468
  0
LINE
  8
LC-001-002-----0
  6
CONTINUOUS
 62
     1
  5
201
 10
349.461469
 20
363.097739
 30
0.0
 11
349.461469
 21
364.777739
 31
0.0
  0
LINE
  8
LC-001-002-----0
  6
CONTINUOUS
 62
     1
  5
202
 10
351.981469
 20
364.777739
 30
0.0
 11
349.461469
 21
364.777739
 31
0.0
  0
ARC
  8
LC-002-002-RND-0
  6
CONTINUOUS
  5
203
 10
354.255439
 20
365.819736
 30
0.0
 40
2.52
 50
315.0
 51
360.0
  0
LINE
  8
LC-001-002-----0
  6
CONTINUOUS
 62
     1
  5
204
 10
354.053441
 20
363.097739
 30
0.0
 11
349.461469
 21
363.097739
 31
0.0
  0
ARC
  8
LC-002-002-RND-0
  6
CONTINUOUS
  5
205
 10
354.053441
 20
365.617739
 30
0.0
 40
2.52
 50
270.0
 51
315.0
  0
LINE
  8
LC-001-002-----0
  6
CONTINUOUS
 62
     1
  5
206
 10
356.037348
 20
364.037827
 30
0.0
 11
355.835351
 21
363.83583
 31
0.0
  0
LINE
  8
LC-001-002-----0
  6
CONTINUOUS
 62
     1
  5
207
 10
356.775439
 20
366.524705
 30
0.0
 11
350.560394
 21
368.019498
 31
0.0
  0
ARC
  8
LC-002-002-RND-0
  6
CONTINUOUS
  5
208
 10
350.462179
 20
367.611143
 30
0.0
 40
0.42
 50
76.476532
 51
215.706871
  0
LINE
  8
LC-001-002-----0
  6
CONTINUOUS
 62
     1
  5
209
 10
351.981469
 20
364.777739
 30
0.0
 11
350.121134
 21
367.366015
 31
0.0
  0
LINE
  8
LC-001-002-----0
  6
CONTINUOUS
 62
     1
  5
20A
 10
356.775439
 20
365.819736
 30
0.0
 11
356.775439
 21
366.524705
 31
0.0
  0
LINE
  8
LC-001-002-----0
  6
CONTINUOUS
 62
     1
  5
20B
 10
351.981469
 20
409.441688
 30
0.0
 11
350.121134
 21
406.853412
 31
0.0
  0
ENDSEC
  0
EOF
