  0
SECTION
  2
HEADER
  9
$ACADVER
  1
AC1015
  9
$ACADMAINTVER
 70
     6
  9
$DWGCODEPAGE
  3
ANSI_1252
  9
$INSBASE
 10
19.512808
 20
11.753976
 30
0.0
  9
$EXTMIN
 10
19.512808
 20
11.753976
 30
0.0
  9
$EXTMAX
 10
859.512808
 20
605.753976
 30
0.0
  9
$LIMMIN
 10
19.512808
 20
11.753976
  9
$LIMMAX
 10
859.512808
 20
605.753976
  9
$ORTHOMODE
 70
     0
  9
$REGENMODE
 70
     1
  9
$FILLMODE
 70
     1
  9
$QTEXTMODE
 70
     0
  9
$MIRRTEXT
 70
     1
  9
$LTSCALE
 40
2.0
  9
$ATTMODE
 70
     1
  9
$TEXTSIZE
 40
2.5
  9
$TRACEWID
 40
1.0
  9
$TEXTSTYLE
  7
Standard
  9
$CLAYER
  8
0
  9
$CELTYPE
  6
ByLayer
  9
$CECOLOR
 62
     7
  9
$CELTSCALE
 40
1.0
  9
$DISPSILH
 70
     0
  9
$DIMSCALE
 40
2.0
  9
$DIMASZ
 40
3.5
  9
$DIMEXO
 40
0.625
  9
$DIMDLI
 40
3.75
  9
$DIMRND
 40
0.0
  9
$DIMDLE
 40
0.0
  9
$DIMEXE
 40
1.25
  9
$DIMTP
 40
0.0
  9
$DIMTM
 40
0.0
  9
$DIMTXT
 40
3.5
  9
$DIMCEN
 40
2.5
  9
$DIMTSZ
 40
0.0
  9
$DIMTOL
 70
     0
  9
$DIMLIM
 70
     0
  9
$DIMTIH
 70
     0
  9
$DIMTOH
 70
     0
  9
$DIMSE1
 70
     0
  9
$DIMSE2
 70
     0
  9
$DIMTAD
 70
     1
  9
$DIMZIN
 70
     8
  9
$DIMBLK
  1

  9
$DIMASO
 70
     1
  9
$DIMSHO
 70
     1
  9
$DIMPOST
  1

  9
$DIMAPOST
  1

  9
$DIMALT
 70
     0
  9
$DIMALTD
 70
     3
  9
$DIMALTF
 40
0.03937
  9
$DIMLFAC
 40
1.0
  9
$DIMTOFL
 70
     1
  9
$DIMTVP
 40
0.0
  9
$DIMTIX
 70
     0
  9
$DIMSOXD
 70
     0
  9
$DIMSAH
 70
     0
  9
$DIMBLK1
  1

  9
$DIMBLK2
  1

  9
$DIMSTYLE
  2
ISO-25
  9
$DIMCLRD
 70
     0
  9
$DIMCLRE
 70
     0
  9
$DIMCLRT
 70
     0
  9
$DIMTFAC
 40
1.0
  9
$DIMGAP
 40
0.625
  9
$DIMJUST
 70
     0
  9
$DIMSD1
 70
     0
  9
$DIMSD2
 70
     0
  9
$DIMTOLJ
 70
     0
  9
$DIMTZIN
 70
     8
  9
$DIMALTZ
 70
     0
  9
$DIMALTTZ
 70
     0
  9
$DIMUPT
 70
     0
  9
$DIMDEC
 70
     2
  9
$DIMTDEC
 70
     2
  9
$DIMALTU
 70
     2
  9
$DIMALTTD
 70
     3
  9
$DIMTXSTY
  7
Standard
  9
$DIMAUNIT
 70
     0
  9
$DIMADEC
 70
     0
  9
$DIMALTRND
 40
0.0
  9
$DIMAZIN
 70
     0
  9
$DIMDSEP
 70
    44
  9
$DIMATFIT
 70
     3
  9
$DIMFRAC
 70
     0
  9
$DIMLDRBLK
  1

  9
$DIMLUNIT
 70
     2
  9
$DIMLWD
 70
    -2
  9
$DIMLWE
 70
    -2
  9
$DIMTMOVE
 70
     0
  9
$LUNITS
 70
     2
  9
$LUPREC
 70
     4
  9
$SKETCHINC
 40
1.0
  9
$FILLETRAD
 40
10.0
  9
$AUNITS
 70
     0
  9
$AUPREC
 70
     0
  9
$MENU
  1
.
  9
$ELEVATION
 40
0.0
  9
$PELEVATION
 40
0.0
  9
$THICKNESS
 40
0.0
  9
$LIMCHECK
 70
     0
  9
$CHAMFERA
 40
10.0
  9
$CHAMFERB
 40
10.0
  9
$CHAMFERC
 40
20.0
  9
$CHAMFERD
 40
0.0
  9
$SKPOLY
 70
     0
  9
$TDCREATE
 40
2455565.332231007
  9
$TDUCREATE
 40
2455565.29056434
  9
$TDUPDATE
 40
2455565.332231019
  9
$TDUUPDATE
 40
2455565.290564352
  9
$TDINDWG
 40
0.0000000116
  9
$TDUSRTIMER
 40
0.0000000116
  9
$USRTIMER
 70
     1
  9
$ANGBASE
 50
0.0
  9
$ANGDIR
 70
     0
  9
$PDMODE
 70
     0
  9
$PDSIZE
 40
0.0
  9
$PLINEWID
 40
0.0
  9
$SPLFRAME
 70
     0
  9
$SPLINETYPE
 70
     6
  9
$SPLINESEGS
 70
     8
  9
$HANDSEED
  5
744
  9
$SURFTAB1
 70
     6
  9
$SURFTAB2
 70
     6
  9
$SURFTYPE
 70
     6
  9
$SURFU
 70
     6
  9
$SURFV
 70
     6
  9
$UCSBASE
  2

  9
$UCSNAME
  2

  9
$UCSORG
 10
0.0
 20
0.0
 30
0.0
  9
$UCSXDIR
 10
1.0
 20
0.0
 30
0.0
  9
$UCSYDIR
 10
0.0
 20
1.0
 30
0.0
  9
$UCSORTHOREF
  2

  9
$UCSORTHOVIEW
 70
     0
  9
$UCSORGTOP
 10
0.0
 20
0.0
 30
0.0
  9
$UCSORGBOTTOM
 10
0.0
 20
0.0
 30
0.0
  9
$UCSORGLEFT
 10
0.0
 20
0.0
 30
0.0
  9
$UCSORGRIGHT
 10
0.0
 20
0.0
 30
0.0
  9
$UCSORGFRONT
 10
0.0
 20
0.0
 30
0.0
  9
$UCSORGBACK
 10
0.0
 20
0.0
 30
0.0
  9
$PUCSBASE
  2

  9
$PUCSNAME
  2

  9
$PUCSORG
 10
0.0
 20
0.0
 30
0.0
  9
$PUCSXDIR
 10
1.0
 20
0.0
 30
0.0
  9
$PUCSYDIR
 10
0.0
 20
1.0
 30
0.0
  9
$PUCSORTHOREF
  2

  9
$PUCSORTHOVIEW
 70
     0
  9
$PUCSORGTOP
 10
0.0
 20
0.0
 30
0.0
  9
$PUCSORGBOTTOM
 10
0.0
 20
0.0
 30
0.0
  9
$PUCSORGLEFT
 10
0.0
 20
0.0
 30
0.0
  9
$PUCSORGRIGHT
 10
0.0
 20
0.0
 30
0.0
  9
$PUCSORGFRONT
 10
0.0
 20
0.0
 30
0.0
  9
$PUCSORGBACK
 10
0.0
 20
0.0
 30
0.0
  9
$USERI1
 70
     0
  9
$USERI2
 70
     0
  9
$USERI3
 70
     0
  9
$USERI4
 70
     0
  9
$USERI5
 70
     0
  9
$USERR1
 40
0.0
  9
$USERR2
 40
0.0
  9
$USERR3
 40
0.0
  9
$USERR4
 40
0.0
  9
$USERR5
 40
0.0
  9
$WORLDVIEW
 70
     1
  9
$SHADEDGE
 70
     3
  9
$SHADEDIF
 70
    70
  9
$TILEMODE
 70
     1
  9
$MAXACTVP
 70
    64
  9
$PINSBASE
 10
0.0
 20
0.0
 30
0.0
  9
$PLIMCHECK
 70
     0
  9
$PEXTMIN
 10
19.512808
 20
11.753976
 30
0.0
  9
$PEXTMAX
 10
859.512808
 20
605.753976
 30
0.0
  9
$PLIMMIN
 10
19.512808
 20
11.753976
  9
$PLIMMAX
 10
859.512808
 20
605.753976
  9
$UNITMODE
 70
     0
  9
$VISRETAIN
 70
     1
  9
$PLINEGEN
 70
     0
  9
$PSLTSCALE
 70
     1
  9
$TREEDEPTH
 70
  3020
  9
$CMLSTYLE
  2
Standard
  9
$CMLJUST
 70
     0
  9
$CMLSCALE
 40
20.0
  9
$PROXYGRAPHICS
 70
     1
  9
$MEASUREMENT
 70
     1
  9
$CELWEIGHT
370
    -1
  9
$ENDCAPS
280
     0
  9
$JOINSTYLE
280
     0
  9
$LWDISPLAY
290
     0
  9
$INSUNITS
 70
     4
  9
$HYPERLINKBASE
  1

  9
$STYLESHEET
  1

  9
$XEDIT
290
     1
  9
$CEPSNTYPE
380
     0
  9
$PSTYLEMODE
290
     1
  9
$FINGERPRINTGUID
  2
{FAEB1C30-E019-11D5-929B-00C0DF256EC4}
  9
$VERSIONGUID
  2
{FAEB1C32-E019-11D5-929B-00C0DF256EC4}
  9
$EXTNAMES
290
     1
  9
$PSVPSCALE
 40
0.0
  9
$OLESTARTUP
290
     0
  0
ENDSEC
  0
SECTION
  2
CLASSES
  0
CLASS
  1
ACDBDICTIONARYWDFLT
  2
AcDbDictionaryWithDefault
  3
ObjectDBX Classes
 90
        0
280
     0
281
     0
  0
CLASS
  1
ACDBPLACEHOLDER
  2
AcDbPlaceHolder
  3
ObjectDBX Classes
 90
        0
280
     0
281
     0
  0
CLASS
  1
LAYOUT
  2
AcDbLayout
  3
ObjectDBX Classes
 90
        0
280
     0
281
     0
  0
ENDSEC
  0
SECTION
  2
TABLES
  0
TABLE
  2
VPORT
  5
8
330
0
100
AcDbSymbolTable
 70
     2
  0
VPORT
  5
29
330
8
100
AcDbSymbolTableRecord
100
AcDbViewportTableRecord
  2
*ACTIVE
 70
     0
 10
0.0
 20
0.0
 11
1.0
 21
1.0
 12
439.512808
 22
308.753976
 13
0.0
 23
0.0
 14
1.0
 24
1.0
 15
0.0
 25
0.0
 16
0.0
 26
0.0
 36
1.0
 17
0.0
 27
0.0
 37
0.0
 40
594.0
 41
1.414141
 42
50.0
 43
0.0
 44
0.0
 50
0.0
 51
0.0
 71
    16
 72
   100
 73
     1
 74
     0
 75
     0
 76
     0
 77
     0
 78
     0
281
     0
 65
     0
110
0.0
120
0.0
130
0.0
111
1.0
121
0.0
131
0.0
112
0.0
122
1.0
132
0.0
 79
     0
146
0.0
  0
ENDTAB
  0
TABLE
  2
LTYPE
  5
5
330
0
100
AcDbSymbolTable
 70
     3
  0
LTYPE
  5
14
330
5
100
AcDbSymbolTableRecord
100
AcDbLinetypeTableRecord
  2
ByBlock
 70
     0
  3

 72
    65
 73
     0
 40
0.0
  0
LTYPE
  5
15
330
5
100
AcDbSymbolTableRecord
100
AcDbLinetypeTableRecord
  2
ByLayer
 70
     0
  3

 72
    65
 73
     0
 40
0.0
  0
LTYPE
  5
16
330
5
100
AcDbSymbolTableRecord
100
AcDbLinetypeTableRecord
  2
Continuous
 70
     0
  3
Solid line
 72
    65
 73
     0
 40
0.0
  0
LTYPE
  5
2A
330
5
100
AcDbSymbolTableRecord
100
AcDbLinetypeTableRecord
  2
DASHED
 70
     0
  3
__ __ __ __ __
 72
    65
 73
     2
 40
6.25
 49
5.0
 74
     4
 75
     0
340
0
 46
1.0
 50
0.0
 44
0.0
 45
0.0
 49
-1.25
 74
     4
 75
     0
340
0
 46
1.0
 50
0.0
 44
0.0
 45
0.0
  0
LTYPE
  5
4F0
330
5
100
AcDbSymbolTableRecord
100
AcDbLinetypeTableRecord
  2
DASHDOT
 70
     0
  3
__ . __ . __ . __ . __
 72
    65
 73
     4
 40
7.5
 49
5.0
 74
     4
 75
     0
340
0
 46
1.0
 50
0.0
 44
0.0
 45
0.0
 49
-1.25
 74
     4
 75
     0
340
0
 46
1.0
 50
0.0
 44
0.0
 45
0.0
 49
0.0
 74
     4
 75
     0
340
0
 46
1.0
 50
0.0
 44
0.0
 45
0.0
 49
-1.25
 74
     4
 75
     0
340
0
 46
1.0
 50
0.0
 44
0.0
 45
0.0
  0
ENDTAB
  0
TABLE
  2
LAYER
  5
2
330
0
100
AcDbSymbolTable
 70
    10
  0
LAYER
  5
10
330
2
100
AcDbSymbolTableRecord
100
AcDbLayerTableRecord
  2
0
 70
     0
 62
     7
  6
Continuous
370
    -3
390
F
  0
LAYER
  5
2B
330
2
100
AcDbSymbolTableRecord
100
AcDbLayerTableRecord
  2
LC-INFO-1-2-mm-A3-0
 70
     1
 62
     7
  6
ByBlock
370
    -3
390
F
  0
LAYER
  5
2C
330
2
100
AcDbSymbolTableRecord
100
AcDbLayerTableRecord
  2
LC-CUT-HIDDEN
 70
     0
 62
     7
  6
DASHED
370
    -3
390
F
  0
LAYER
  5
2D
330
2
100
AcDbSymbolTableRecord
100
AcDbLayerTableRecord
  2
LC-VIEWPORT
 70
     0
 62
     7
  6
ByBlock
370
    -3
390
F
  0
LAYER
  5
2E
330
2
100
AcDbSymbolTableRecord
100
AcDbLayerTableRecord
  2
LC-3D-HIDDEN
 70
     0
 62
     9
  6
DASHED
370
    -3
390
F
  0
LAYER
  5
34
330
2
100
AcDbSymbolTableRecord
100
AcDbLayerTableRecord
  2
LC-001-100-D00-0
 70
     0
 62
     1
  6
ByBlock
370
    -3
390
F
  0
LAYER
  5
4F4
330
2
100
AcDbSymbolTableRecord
100
AcDbLayerTableRecord
  2
LC-002-002-----0
 70
     0
 62
     1
  6
ByBlock
370
    -3
390
F
  0
LAYER
  5
501
330
2
100
AcDbSymbolTableRecord
100
AcDbLayerTableRecord
  2
LC-003-005-----0
 70
     0
 62
     2
  6
ByBlock
370
    -3
390
F
  0
LAYER
  5
6F4
330
2
100
AcDbSymbolTableRecord
100
AcDbLayerTableRecord
  2
LC-004-003-----0
 70
     0
 62
     2
  6
ByBlock
370
    -3
390
F
  0
LAYER
  5
6F6
330
2
100
AcDbSymbolTableRecord
100
AcDbLayerTableRecord
  2
Defpoints
 70
     0
 62
     7
  6
Continuous
290
     0
370
    -3
390
F
  0
ENDTAB
  0
TABLE
  2
STYLE
  5
3
330
0
100
AcDbSymbolTable
 70
     4
  0
STYLE
  5
11
330
3
100
AcDbSymbolTableRecord
100
AcDbTextStyleTableRecord
  2
Standard
 70
     0
 40
0.0
 41
1.0
 50
0.0
 71
     0
 42
2.5
  3
txt
  4

  0
STYLE
  5
2F
330
3
100
AcDbSymbolTableRecord
100
AcDbTextStyleTableRecord
  2
LCTX0-400-0-0pDIN-Schrift
 70
     0
 40
0.0
 41
0.75
 50
0.0
 71
     0
 42
3.5
  3
TXT
  4

  0
STYLE
  5
30
330
3
100
AcDbSymbolTableRecord
100
AcDbTextStyleTableRecord
  2
LCTX15-400-0-0-Arial
 70
     0
 40
0.0
 41
0.8
 50
0.0
 71
     0
 42
3.5
  3

  4

1001
ACAD
1000
Arial
1071
 16777218
  0
STYLE
  5
6F2
330
3
100
AcDbSymbolTableRecord
100
AcDbTextStyleTableRecord
  2
LCTX15-400-0-0pDIN-Schrift
 70
     0
 40
2.5
 41
0.8
 50
15.0
 71
     0
 42
3.5
  3
STANDARD
  4

  0
ENDTAB
  0
TABLE
  2
VIEW
  5
6
330
0
100
AcDbSymbolTable
 70
     0
  0
ENDTAB
  0
TABLE
  2
UCS
  5
7
330
0
100
AcDbSymbolTable
 70
     0
  0
ENDTAB
  0
TABLE
  2
APPID
  5
9
330
0
100
AcDbSymbolTable
 70
     1
  0
APPID
  5
12
330
9
100
AcDbSymbolTableRecord
100
AcDbRegAppTableRecord
  2
ACAD
 70
     0
  0
ENDTAB
  0
TABLE
  2
DIMSTYLE
  5
A
330
0
100
AcDbSymbolTable
 70
     2
100
AcDbDimStyleTable
  0
DIMSTYLE
105
27
330
A
100
AcDbSymbolTableRecord
100
AcDbDimStyleTableRecord
  2
ISO-25
 70
     0
 41
2.5
 42
0.625
 43
3.75
 44
1.25
 73
     0
 74
     0
 77
     1
 78
     8
140
2.5
141
2.5
143
0.03937
147
0.625
171
     3
172
     1
271
     2
272
     2
274
     3
278
    44
283
     0
284
     8
340
11
  0
DIMSTYLE
105
6F3
102
{ACAD_REACTORS
330
6F5
330
703
330
710
330
71D
330
72A
330
737
102
}
330
A
100
AcDbSymbolTableRecord
100
AcDbDimStyleTableRecord
  2
LC-DIM-L-0140-02-02
 70
     0
 40
2.0
 41
14.0
 42
0.0
 43
7.5
 44
1.8
 73
     0
 74
     0
 77
     1
 78
     8
 79
     2
140
14.0
141
0.0
146
0.71
147
1.5
176
     2
177
     2
178
     2
179
     2
271
     2
278
    44
289
     1
340
6F2
  0
ENDTAB
  0
TABLE
  2
BLOCK_RECORD
  5
1
330
0
100
AcDbSymbolTable
 70
    78
  0
BLOCK_RECORD
  5
1F
330
1
100
AcDbSymbolTableRecord
100
AcDbBlockTableRecord
  2
*Model_Space
340
22
  0
BLOCK_RECORD
  5
1B
330
1
100
AcDbSymbolTableRecord
100
AcDbBlockTableRecord
  2
*Paper_Space
340
1E
  0
BLOCK_RECORD
  5
23
330
1
100
AcDbSymbolTableRecord
100
AcDbBlockTableRecord
  2
*Paper_Space0
340
26
  0
BLOCK_RECORD
  5
31
330
1
100
AcDbSymbolTableRecord
100
AcDbBlockTableRecord
  2
POLY1
340
0
102
{BLKREFS
331
3D
102
}
  0
BLOCK_RECORD
  5
3E
330
1
100
AcDbSymbolTableRecord
100
AcDbBlockTableRecord
  2
POLY2
340
0
102
{BLKREFS
331
49
102
}
  0
BLOCK_RECORD
  5
4A
330
1
100
AcDbSymbolTableRecord
100
AcDbBlockTableRecord
  2
POLY3
340
0
102
{BLKREFS
331
55
102
}
  0
BLOCK_RECORD
  5
56
330
1
100
AcDbSymbolTableRecord
100
AcDbBlockTableRecord
  2
POLY4
340
0
102
{BLKREFS
331
61
102
}
  0
BLOCK_RECORD
  5
62
330
1
100
AcDbSymbolTableRecord
100
AcDbBlockTableRecord
  2
POLY5
340
0
102
{BLKREFS
331
6D
102
}
  0
BLOCK_RECORD
  5
6E
330
1
100
AcDbSymbolTableRecord
100
AcDbBlockTableRecord
  2
POLY6
340
0
102
{BLKREFS
331
79
102
}
  0
BLOCK_RECORD
  5
7A
330
1
100
AcDbSymbolTableRecord
100
AcDbBlockTableRecord
  2
POLY7
340
0
102
{BLKREFS
331
85
102
}
  0
BLOCK_RECORD
  5
86
330
1
100
AcDbSymbolTableRecord
100
AcDbBlockTableRecord
  2
POLY8
340
0
102
{BLKREFS
331
91
102
}
  0
BLOCK_RECORD
  5
92
330
1
100
AcDbSymbolTableRecord
100
AcDbBlockTableRecord
  2
POLY9
340
0
102
{BLKREFS
331
9D
102
}
  0
BLOCK_RECORD
  5
9E
330
1
100
AcDbSymbolTableRecord
100
AcDbBlockTableRecord
  2
POLY10
340
0
102
{BLKREFS
331
A9
102
}
  0
BLOCK_RECORD
  5
AD
330
1
100
AcDbSymbolTableRecord
100
AcDbBlockTableRecord
  2
KLON1
340
0
102
{BLKREFS
331
B3
102
}
  0
BLOCK_RECORD
  5
B4
330
1
100
AcDbSymbolTableRecord
100
AcDbBlockTableRecord
  2
KLON2
340
0
102
{BLKREFS
331
BA
102
}
  0
BLOCK_RECORD
  5
BB
330
1
100
AcDbSymbolTableRecord
100
AcDbBlockTableRecord
  2
POLY11
340
0
102
{BLKREFS
331
C6
102
}
  0
BLOCK_RECORD
  5
C8
330
1
100
AcDbSymbolTableRecord
100
AcDbBlockTableRecord
  2
KLON3
340
0
102
{BLKREFS
331
CE
102
}
  0
BLOCK_RECORD
  5
CF
330
1
100
AcDbSymbolTableRecord
100
AcDbBlockTableRecord
  2
KLON4
340
0
102
{BLKREFS
331
D5
102
}
  0
BLOCK_RECORD
  5
D6
330
1
100
AcDbSymbolTableRecord
100
AcDbBlockTableRecord
  2
POLY12
340
0
102
{BLKREFS
331
E1
102
}
  0
BLOCK_RECORD
  5
E3
330
1
100
AcDbSymbolTableRecord
100
AcDbBlockTableRecord
  2
KLON5
340
0
102
{BLKREFS
331
E9
102
}
  0
BLOCK_RECORD
  5
EA
330
1
100
AcDbSymbolTableRecord
100
AcDbBlockTableRecord
  2
KLON6
340
0
102
{BLKREFS
331
F0
102
}
  0
BLOCK_RECORD
  5
F1
330
1
100
AcDbSymbolTableRecord
100
AcDbBlockTableRecord
  2
KLON7
340
0
102
{BLKREFS
331
F7
102
}
  0
BLOCK_RECORD
  5
F8
330
1
100
AcDbSymbolTableRecord
100
AcDbBlockTableRecord
  2
KLON8
340
0
102
{BLKREFS
331
FE
102
}
  0
BLOCK_RECORD
  5
FF
330
1
100
AcDbSymbolTableRecord
100
AcDbBlockTableRecord
  2
POLY13
340
0
102
{BLKREFS
331
10A
102
}
  0
BLOCK_RECORD
  5
10C
330
1
100
AcDbSymbolTableRecord
100
AcDbBlockTableRecord
  2
KLON9
340
0
102
{BLKREFS
331
112
102
}
  0
BLOCK_RECORD
  5
113
330
1
100
AcDbSymbolTableRecord
100
AcDbBlockTableRecord
  2
KLON10
340
0
102
{BLKREFS
331
119
102
}
  0
BLOCK_RECORD
  5
11A
330
1
100
AcDbSymbolTableRecord
100
AcDbBlockTableRecord
  2
POLY14
340
0
102
{BLKREFS
331
125
102
}
  0
BLOCK_RECORD
  5
131
330
1
100
AcDbSymbolTableRecord
100
AcDbBlockTableRecord
  2
KLON11
340
0
102
{BLKREFS
331
137
102
}
  0
BLOCK_RECORD
  5
139
330
1
100
AcDbSymbolTableRecord
100
AcDbBlockTableRecord
  2
KLON12
340
0
102
{BLKREFS
331
13F
102
}
  0
BLOCK_RECORD
  5
141
330
1
100
AcDbSymbolTableRecord
100
AcDbBlockTableRecord
  2
KLON13
340
0
102
{BLKREFS
331
147
102
}
  0
BLOCK_RECORD
  5
149
330
1
100
AcDbSymbolTableRecord
100
AcDbBlockTableRecord
  2
KLON14
340
0
102
{BLKREFS
331
14F
102
}
  0
BLOCK_RECORD
  5
150
330
1
100
AcDbSymbolTableRecord
100
AcDbBlockTableRecord
  2
KLON15
340
0
102
{BLKREFS
331
156
102
}
  0
BLOCK_RECORD
  5
15B
330
1
100
AcDbSymbolTableRecord
100
AcDbBlockTableRecord
  2
KLON16
340
0
102
{BLKREFS
331
161
102
}
  0
BLOCK_RECORD
  5
162
330
1
100
AcDbSymbolTableRecord
100
AcDbBlockTableRecord
  2
KLON17
340
0
102
{BLKREFS
331
168
102
}
  0
BLOCK_RECORD
  5
16A
330
1
100
AcDbSymbolTableRecord
100
AcDbBlockTableRecord
  2
KLON18
340
0
102
{BLKREFS
331
170
102
}
  0
BLOCK_RECORD
  5
172
330
1
100
AcDbSymbolTableRecord
100
AcDbBlockTableRecord
  2
KLON19
340
0
102
{BLKREFS
331
178
102
}
  0
BLOCK_RECORD
  5
17A
330
1
100
AcDbSymbolTableRecord
100
AcDbBlockTableRecord
  2
KLON20
340
0
102
{BLKREFS
331
180
102
}
  0
BLOCK_RECORD
  5
18E
330
1
100
AcDbSymbolTableRecord
100
AcDbBlockTableRecord
  2
POLY15
340
0
102
{BLKREFS
331
199
102
}
  0
BLOCK_RECORD
  5
19B
330
1
100
AcDbSymbolTableRecord
100
AcDbBlockTableRecord
  2
POLY16
340
0
102
{BLKREFS
331
1A6
102
}
  0
BLOCK_RECORD
  5
31F
330
1
100
AcDbSymbolTableRecord
100
AcDbBlockTableRecord
  2
POLY17
340
0
102
{BLKREFS
331
330
102
}
  0
BLOCK_RECORD
  5
334
330
1
100
AcDbSymbolTableRecord
100
AcDbBlockTableRecord
  2
POLY18
340
0
102
{BLKREFS
331
345
102
}
  0
BLOCK_RECORD
  5
392
330
1
100
AcDbSymbolTableRecord
100
AcDbBlockTableRecord
  2
POLY19
340
0
102
{BLKREFS
331
3A3
102
}
  0
BLOCK_RECORD
  5
3A4
330
1
100
AcDbSymbolTableRecord
100
AcDbBlockTableRecord
  2
POLY20
340
0
102
{BLKREFS
331
3B5
102
}
  0
BLOCK_RECORD
  5
3B9
330
1
100
AcDbSymbolTableRecord
100
AcDbBlockTableRecord
  2
POLY21
340
0
102
{BLKREFS
331
3CA
102
}
  0
BLOCK_RECORD
  5
3CB
330
1
100
AcDbSymbolTableRecord
100
AcDbBlockTableRecord
  2
POLY22
340
0
102
{BLKREFS
331
3DC
102
}
  0
BLOCK_RECORD
  5
41B
330
1
100
AcDbSymbolTableRecord
100
AcDbBlockTableRecord
  2
POLY23
340
0
102
{BLKREFS
331
42C
102
}
  0
BLOCK_RECORD
  5
430
330
1
100
AcDbSymbolTableRecord
100
AcDbBlockTableRecord
  2
POLY24
340
0
102
{BLKREFS
331
441
102
}
  0
BLOCK_RECORD
  5
447
330
1
100
AcDbSymbolTableRecord
100
AcDbBlockTableRecord
  2
POLY25
340
0
102
{BLKREFS
331
452
102
}
  0
BLOCK_RECORD
  5
454
330
1
100
AcDbSymbolTableRecord
100
AcDbBlockTableRecord
  2
POLY26
340
0
102
{BLKREFS
331
45F
102
}
  0
BLOCK_RECORD
  5
463
330
1
100
AcDbSymbolTableRecord
100
AcDbBlockTableRecord
  2
KLON21
340
0
102
{BLKREFS
331
46A
102
}
  0
BLOCK_RECORD
  5
46B
330
1
100
AcDbSymbolTableRecord
100
AcDbBlockTableRecord
  2
KLON22
340
0
102
{BLKREFS
331
472
102
}
  0
BLOCK_RECORD
  5
473
330
1
100
AcDbSymbolTableRecord
100
AcDbBlockTableRecord
  2
KLON23
340
0
102
{BLKREFS
331
49E
102
}
  0
BLOCK_RECORD
  5
49F
330
1
100
AcDbSymbolTableRecord
100
AcDbBlockTableRecord
  2
KLON24
340
0
102
{BLKREFS
331
4C9
102
}
  0
BLOCK_RECORD
  5
4CA
330
1
100
AcDbSymbolTableRecord
100
AcDbBlockTableRecord
  2
KLON25
340
0
102
{BLKREFS
331
4CF
102
}
  0
BLOCK_RECORD
  5
4D0
330
1
100
AcDbSymbolTableRecord
100
AcDbBlockTableRecord
  2
KLON26
340
0
102
{BLKREFS
331
4D5
102
}
  0
BLOCK_RECORD
  5
4D6
330
1
100
AcDbSymbolTableRecord
100
AcDbBlockTableRecord
  2
KLON27
340
0
102
{BLKREFS
331
4E2
102
}
  0
BLOCK_RECORD
  5
4E3
330
1
100
AcDbSymbolTableRecord
100
AcDbBlockTableRecord
  2
KLON28
340
0
102
{BLKREFS
331
4E9
102
}
  0
BLOCK_RECORD
  5
4EA
330
1
100
AcDbSymbolTableRecord
100
AcDbBlockTableRecord
  2
KLON29
340
0
102
{BLKREFS
331
4EF
102
}
  0
BLOCK_RECORD
  5
4FE
330
1
100
AcDbSymbolTableRecord
100
AcDbBlockTableRecord
  2
*X156
340
0
102
{BLKREFS
331
51C
102
}
  0
BLOCK_RECORD
  5
51D
330
1
100
AcDbSymbolTableRecord
100
AcDbBlockTableRecord
  2
*X257
340
0
102
{BLKREFS
331
53A
102
}
  0
BLOCK_RECORD
  5
53B
330
1
100
AcDbSymbolTableRecord
100
AcDbBlockTableRecord
  2
*X358
340
0
102
{BLKREFS
331
558
102
}
  0
BLOCK_RECORD
  5
559
330
1
100
AcDbSymbolTableRecord
100
AcDbBlockTableRecord
  2
*X459
340
0
102
{BLKREFS
331
576
102
}
  0
BLOCK_RECORD
  5
577
330
1
100
AcDbSymbolTableRecord
100
AcDbBlockTableRecord
  2
*X560
340
0
102
{BLKREFS
331
594
102
}
  0
BLOCK_RECORD
  5
597
330
1
100
AcDbSymbolTableRecord
100
AcDbBlockTableRecord
  2
*X661
340
0
102
{BLKREFS
331
5B4
102
}
  0
BLOCK_RECORD
  5
5B6
330
1
100
AcDbSymbolTableRecord
100
AcDbBlockTableRecord
  2
*X762
340
0
102
{BLKREFS
331
5D7
102
}
  0
BLOCK_RECORD
  5
5DB
330
1
100
AcDbSymbolTableRecord
100
AcDbBlockTableRecord
  2
*X863
340
0
102
{BLKREFS
331
5FC
102
}
  0
BLOCK_RECORD
  5
606
330
1
100
AcDbSymbolTableRecord
100
AcDbBlockTableRecord
  2
*X964
340
0
102
{BLKREFS
331
623
102
}
  0
BLOCK_RECORD
  5
624
330
1
100
AcDbSymbolTableRecord
100
AcDbBlockTableRecord
  2
*X1065
340
0
102
{BLKREFS
331
641
102
}
  0
BLOCK_RECORD
  5
642
330
1
100
AcDbSymbolTableRecord
100
AcDbBlockTableRecord
  2
*X1166
340
0
102
{BLKREFS
331
65F
102
}
  0
BLOCK_RECORD
  5
660
330
1
100
AcDbSymbolTableRecord
100
AcDbBlockTableRecord
  2
*X1267
340
0
102
{BLKREFS
331
67D
102
}
  0
BLOCK_RECORD
  5
67E
330
1
100
AcDbSymbolTableRecord
100
AcDbBlockTableRecord
  2
*X1368
340
0
102
{BLKREFS
331
69B
102
}
  0
BLOCK_RECORD
  5
69E
330
1
100
AcDbSymbolTableRecord
100
AcDbBlockTableRecord
  2
*X1469
340
0
102
{BLKREFS
331
6BB
102
}
  0
BLOCK_RECORD
  5
6BD
330
1
100
AcDbSymbolTableRecord
100
AcDbBlockTableRecord
  2
*X1570
340
0
102
{BLKREFS
331
6D5
102
}
  0
BLOCK_RECORD
  5
6D8
330
1
100
AcDbSymbolTableRecord
100
AcDbBlockTableRecord
  2
*X1671
340
0
102
{BLKREFS
331
6F0
102
}
  0
BLOCK_RECORD
  5
6F7
330
1
100
AcDbSymbolTableRecord
100
AcDbBlockTableRecord
  2
*D72
340
0
  0
BLOCK_RECORD
  5
704
330
1
100
AcDbSymbolTableRecord
100
AcDbBlockTableRecord
  2
*D73
340
0
  0
BLOCK_RECORD
  5
711
330
1
100
AcDbSymbolTableRecord
100
AcDbBlockTableRecord
  2
*D74
340
0
  0
BLOCK_RECORD
  5
71E
330
1
100
AcDbSymbolTableRecord
100
AcDbBlockTableRecord
  2
*D75
340
0
  0
BLOCK_RECORD
  5
72B
330
1
100
AcDbSymbolTableRecord
100
AcDbBlockTableRecord
  2
*D76
340
0
  0
BLOCK_RECORD
  5
738
330
1
100
AcDbSymbolTableRecord
100
AcDbBlockTableRecord
  2
*D77
340
0
  0
ENDTAB
  0
ENDSEC
  0
SECTION
  2
BLOCKS
  0
BLOCK
  5
20
330
1F
100
AcDbEntity
  8
0
100
AcDbBlockBegin
  2
*Model_Space
 70
     0
 71
     0
 10
0.0
 20
0.0
 30
0.0
  3
*Model_Space
  1

  0
ENDBLK
  5
21
330
1F
100
AcDbEntity
  8
0
100
AcDbBlockEnd
  0
BLOCK
  5
1C
330
1B
100
AcDbEntity
 67
     1
  8
0
100
AcDbBlockBegin
  2
*Paper_Space
 70
     0
 71
     0
 10
0.0
 20
0.0
 30
0.0
  3
*Paper_Space
  1

  0
ENDBLK
  5
1D
330
1B
100
AcDbEntity
 67
     1
  8
0
100
AcDbBlockEnd
  0
BLOCK
  5
24
330
23
100
AcDbEntity
  8
0
100
AcDbBlockBegin
  2
*Paper_Space0
 70
     0
 71
     0
 10
0.0
 20
0.0
 30
0.0
  3
*Paper_Space0
  1

  0
ENDBLK
  5
25
330
23
100
AcDbEntity
  8
0
100
AcDbBlockEnd
  0
BLOCK
  5
32
330
31
100
AcDbEntity
  8
0
100
AcDbBlockBegin
  2
POLY1
 70
     0
 71
     0
 10
0.0
 20
0.0
 30
0.0
  3
POLY1
  1

  4
POLY1
  0
LINE
  5
35
330
31
100
AcDbEntity
  8
LC-001-100-D00-0
 62
     7
370
    50
100
AcDbLine
 10
339.822152
 20
323.926069
 30
0.0
 11
339.822152
 21
323.926069
 31
0.0
  0
LINE
  5
36
330
31
100
AcDbEntity
  8
LC-001-100-D00-0
 62
     7
370
    50
100
AcDbLine
 10
339.822152
 20
323.926069
 30
0.0
 11
339.608355
 21
324.042703
 31
0.0
  0
LINE
  5
37
330
31
100
AcDbEntity
  8
LC-001-100-D00-0
 62
     7
370
    50
100
AcDbLine
 10
339.608355
 20
324.042703
 30
0.0
 11
339.608355
 21
324.042703
 31
0.0
  0
LINE
  5
38
330
31
100
AcDbEntity
  8
LC-001-100-D00-0
 62
     7
370
    50
100
AcDbLine
 10
339.608355
 20
324.042703
 30
0.0
 11
339.24512
 21
324.240862
 31
0.0
  0
LINE
  5
39
330
31
100
AcDbEntity
  8
LC-001-100-D00-0
 62
     7
370
    50
100
AcDbLine
 10
339.24512
 20
324.240862
 30
0.0
 11
339.24512
 21
324.240862
 31
0.0
  0
LINE
  5
3A
330
31
100
AcDbEntity
  8
LC-001-100-D00-0
 62
     7
370
    50
100
AcDbLine
 10
339.24512
 20
324.240862
 30
0.0
 11
338.892341
 21
324.441274
 31
0.0
  0
LINE
  5
3B
330
31
100
AcDbEntity
  8
LC-001-100-D00-0
 62
     7
370
    50
100
AcDbLine
 10
338.892341
 20
324.441274
 30
0.0
 11
338.892341
 21
324.441274
 31
0.0
  0
LINE
  5
3C
330
31
100
AcDbEntity
  8
LC-001-100-D00-0
 62
     7
370
    50
100
AcDbLine
 10
338.892341
 20
324.441274
 30
0.0
 11
338.747205
 21
324.523725
 31
0.0
  0
ENDBLK
  5
33
330
31
100
AcDbEntity
  8
0
100
AcDbBlockEnd
  0
BLOCK
  5
3F
330
3E
100
AcDbEntity
  8
0
100
AcDbBlockBegin
  2
POLY2
 70
     0
 71
     0
 10
0.0
 20
0.0
 30
0.0
  3
POLY2
  1

  4
POLY2
  0
LINE
  5
41
330
3E
100
AcDbEntity
  8
LC-001-100-D00-0
 62
     7
370
    50
100
AcDbLine
 10
339.822152
 20
320.92607
 30
0.0
 11
339.822152
 21
320.92607
 31
0.0
  0
LINE
  5
42
330
3E
100
AcDbEntity
  8
LC-001-100-D00-0
 62
     7
370
    50
100
AcDbLine
 10
339.822152
 20
320.92607
 30
0.0
 11
339.608355
 21
321.042705
 31
0.0
  0
LINE
  5
43
330
3E
100
AcDbEntity
  8
LC-001-100-D00-0
 62
     7
370
    50
100
AcDbLine
 10
339.608355
 20
321.042705
 30
0.0
 11
339.608355
 21
321.042705
 31
0.0
  0
LINE
  5
44
330
3E
100
AcDbEntity
  8
LC-001-100-D00-0
 62
     7
370
    50
100
AcDbLine
 10
339.608355
 20
321.042705
 30
0.0
 11
339.24512
 21
321.240863
 31
0.0
  0
LINE
  5
45
330
3E
100
AcDbEntity
  8
LC-001-100-D00-0
 62
     7
370
    50
100
AcDbLine
 10
339.24512
 20
321.240863
 30
0.0
 11
339.24512
 21
321.240863
 31
0.0
  0
LINE
  5
46
330
3E
100
AcDbEntity
  8
LC-001-100-D00-0
 62
     7
370
    50
100
AcDbLine
 10
339.24512
 20
321.240863
 30
0.0
 11
338.892341
 21
321.441275
 31
0.0
  0
LINE
  5
47
330
3E
100
AcDbEntity
  8
LC-001-100-D00-0
 62
     7
370
    50
100
AcDbLine
 10
338.892341
 20
321.441275
 30
0.0
 11
338.892341
 21
321.441275
 31
0.0
  0
LINE
  5
48
330
3E
100
AcDbEntity
  8
LC-001-100-D00-0
 62
     7
370
    50
100
AcDbLine
 10
338.892341
 20
321.441275
 30
0.0
 11
338.747205
 21
321.523726
 31
0.0
  0
ENDBLK
  5
40
330
3E
100
AcDbEntity
  8
0
100
AcDbBlockEnd
  0
BLOCK
  5
4B
330
4A
100
AcDbEntity
  8
0
100
AcDbBlockBegin
  2
POLY3
 70
     0
 71
     0
 10
0.0
 20
0.0
 30
0.0
  3
POLY3
  1

  4
POLY3
  0
LINE
  5
4D
330
4A
100
AcDbEntity
  8
LC-001-100-D00-0
 62
     7
370
    50
100
AcDbLine
 10
339.311937
 20
315.206617
 30
0.0
 11
339.311937
 21
315.206617
 31
0.0
  0
LINE
  5
4E
330
4A
100
AcDbEntity
  8
LC-001-100-D00-0
 62
     7
370
    50
100
AcDbLine
 10
339.311937
 20
315.206617
 30
0.0
 11
339.269327
 21
315.229975
 31
0.0
  0
LINE
  5
4F
330
4A
100
AcDbEntity
  8
LC-001-100-D00-0
 62
     7
370
    50
100
AcDbLine
 10
339.269327
 20
315.229975
 30
0.0
 11
339.269327
 21
315.229975
 31
0.0
  0
LINE
  5
50
330
4A
100
AcDbEntity
  8
LC-001-100-D00-0
 62
     7
370
    50
100
AcDbLine
 10
339.269327
 20
315.229975
 30
0.0
 11
339.077801
 21
315.334965
 31
0.0
  0
LINE
  5
51
330
4A
100
AcDbEntity
  8
LC-001-100-D00-0
 62
     7
370
    50
100
AcDbLine
 10
339.077801
 20
315.334965
 30
0.0
 11
339.077801
 21
315.334965
 31
0.0
  0
LINE
  5
52
330
4A
100
AcDbEntity
  8
LC-001-100-D00-0
 62
     7
370
    50
100
AcDbLine
 10
339.077801
 20
315.334965
 30
0.0
 11
338.891815
 21
315.44116
 31
0.0
  0
LINE
  5
53
330
4A
100
AcDbEntity
  8
LC-001-100-D00-0
 62
     7
370
    50
100
AcDbLine
 10
338.891815
 20
315.44116
 30
0.0
 11
338.891815
 21
315.44116
 31
0.0
  0
LINE
  5
54
330
4A
100
AcDbEntity
  8
LC-001-100-D00-0
 62
     7
370
    50
100
AcDbLine
 10
338.891815
 20
315.44116
 30
0.0
 11
338.747205
 21
315.523729
 31
0.0
  0
ENDBLK
  5
4C
330
4A
100
AcDbEntity
  8
0
100
AcDbBlockEnd
  0
BLOCK
  5
57
330
56
100
AcDbEntity
  8
0
100
AcDbBlockBegin
  2
POLY4
 70
     0
 71
     0
 10
0.0
 20
0.0
 30
0.0
  3
POLY4
  1

  4
POLY4
  0
LINE
  5
59
330
56
100
AcDbEntity
  8
LC-001-100-D00-0
 62
     7
370
    50
100
AcDbLine
 10
339.822152
 20
326.926075
 30
0.0
 11
339.822152
 21
326.926075
 31
0.0
  0
LINE
  5
5A
330
56
100
AcDbEntity
  8
LC-001-100-D00-0
 62
     7
370
    50
100
AcDbLine
 10
339.822152
 20
326.926075
 30
0.0
 11
339.608354
 21
327.042706
 31
0.0
  0
LINE
  5
5B
330
56
100
AcDbEntity
  8
LC-001-100-D00-0
 62
     7
370
    50
100
AcDbLine
 10
339.608354
 20
327.042706
 30
0.0
 11
339.608354
 21
327.042706
 31
0.0
  0
LINE
  5
5C
330
56
100
AcDbEntity
  8
LC-001-100-D00-0
 62
     7
370
    50
100
AcDbLine
 10
339.608354
 20
327.042706
 30
0.0
 11
339.245116
 21
327.240858
 31
0.0
  0
LINE
  5
5D
330
56
100
AcDbEntity
  8
LC-001-100-D00-0
 62
     7
370
    50
100
AcDbLine
 10
339.245116
 20
327.240858
 30
0.0
 11
339.245116
 21
327.240858
 31
0.0
  0
LINE
  5
5E
330
56
100
AcDbEntity
  8
LC-001-100-D00-0
 62
     7
370
    50
100
AcDbLine
 10
339.245116
 20
327.240858
 30
0.0
 11
338.89234
 21
327.441277
 31
0.0
  0
LINE
  5
5F
330
56
100
AcDbEntity
  8
LC-001-100-D00-0
 62
     7
370
    50
100
AcDbLine
 10
338.89234
 20
327.441277
 30
0.0
 11
338.89234
 21
327.441277
 31
0.0
  0
LINE
  5
60
330
56
100
AcDbEntity
  8
LC-001-100-D00-0
 62
     7
370
    50
100
AcDbLine
 10
338.89234
 20
327.441277
 30
0.0
 11
338.747205
 21
327.523731
 31
0.0
  0
ENDBLK
  5
58
330
56
100
AcDbEntity
  8
0
100
AcDbBlockEnd
  0
BLOCK
  5
63
330
62
100
AcDbEntity
  8
0
100
AcDbBlockBegin
  2
POLY5
 70
     0
 71
     0
 10
0.0
 20
0.0
 30
0.0
  3
POLY5
  1

  4
POLY5
  0
LINE
  5
65
330
62
100
AcDbEntity
  8
LC-001-100-D00-0
 62
     7
370
    50
100
AcDbLine
 10
339.822152
 20
317.926072
 30
0.0
 11
339.822152
 21
317.926072
 31
0.0
  0
LINE
  5
66
330
62
100
AcDbEntity
  8
LC-001-100-D00-0
 62
     7
370
    50
100
AcDbLine
 10
339.822152
 20
317.926072
 30
0.0
 11
339.608354
 21
318.042702
 31
0.0
  0
LINE
  5
67
330
62
100
AcDbEntity
  8
LC-001-100-D00-0
 62
     7
370
    50
100
AcDbLine
 10
339.608354
 20
318.042702
 30
0.0
 11
339.608354
 21
318.042702
 31
0.0
  0
LINE
  5
68
330
62
100
AcDbEntity
  8
LC-001-100-D00-0
 62
     7
370
    50
100
AcDbLine
 10
339.608354
 20
318.042702
 30
0.0
 11
339.245116
 21
318.240855
 31
0.0
  0
LINE
  5
69
330
62
100
AcDbEntity
  8
LC-001-100-D00-0
 62
     7
370
    50
100
AcDbLine
 10
339.245116
 20
318.240855
 30
0.0
 11
339.245116
 21
318.240855
 31
0.0
  0
LINE
  5
6A
330
62
100
AcDbEntity
  8
LC-001-100-D00-0
 62
     7
370
    50
100
AcDbLine
 10
339.245116
 20
318.240855
 30
0.0
 11
338.89234
 21
318.441273
 31
0.0
  0
LINE
  5
6B
330
62
100
AcDbEntity
  8
LC-001-100-D00-0
 62
     7
370
    50
100
AcDbLine
 10
338.89234
 20
318.441273
 30
0.0
 11
338.89234
 21
318.441273
 31
0.0
  0
LINE
  5
6C
330
62
100
AcDbEntity
  8
LC-001-100-D00-0
 62
     7
370
    50
100
AcDbLine
 10
338.89234
 20
318.441273
 30
0.0
 11
338.747205
 21
318.523728
 31
0.0
  0
ENDBLK
  5
64
330
62
100
AcDbEntity
  8
0
100
AcDbBlockEnd
  0
BLOCK
  5
6F
330
6E
100
AcDbEntity
  8
0
100
AcDbBlockBegin
  2
POLY6
 70
     0
 71
     0
 10
0.0
 20
0.0
 30
0.0
  3
POLY6
  1

  4
POLY6
  0
LINE
  5
71
330
6E
100
AcDbEntity
  8
LC-001-100-D00-0
 62
     7
370
    50
100
AcDbLine
 10
333.656782
 20
325.118914
 30
0.0
 11
333.656782
 21
325.118914
 31
0.0
  0
LINE
  5
72
330
6E
100
AcDbEntity
  8
LC-001-100-D00-0
 62
     7
370
    50
100
AcDbLine
 10
333.656782
 20
325.118914
 30
0.0
 11
333.89668
 21
324.992784
 31
0.0
  0
LINE
  5
73
330
6E
100
AcDbEntity
  8
LC-001-100-D00-0
 62
     7
370
    50
100
AcDbLine
 10
333.89668
 20
324.992784
 30
0.0
 11
333.89668
 21
324.992784
 31
0.0
  0
LINE
  5
74
330
6E
100
AcDbEntity
  8
LC-001-100-D00-0
 62
     7
370
    50
100
AcDbLine
 10
333.89668
 20
324.992784
 30
0.0
 11
334.260526
 21
324.801486
 31
0.0
  0
LINE
  5
75
330
6E
100
AcDbEntity
  8
LC-001-100-D00-0
 62
     7
370
    50
100
AcDbLine
 10
334.260526
 20
324.801486
 30
0.0
 11
334.260526
 21
324.801486
 31
0.0
  0
LINE
  5
76
330
6E
100
AcDbEntity
  8
LC-001-100-D00-0
 62
     7
370
    50
100
AcDbLine
 10
334.260526
 20
324.801486
 30
0.0
 11
334.623539
 21
324.596216
 31
0.0
  0
LINE
  5
77
330
6E
100
AcDbEntity
  8
LC-001-100-D00-0
 62
     7
370
    50
100
AcDbLine
 10
334.623539
 20
324.596216
 30
0.0
 11
334.623539
 21
324.596216
 31
0.0
  0
LINE
  5
78
330
6E
100
AcDbEntity
  8
LC-001-100-D00-0
 62
     7
370
    50
100
AcDbLine
 10
334.623539
 20
324.596216
 30
0.0
 11
334.747204
 21
324.526288
 31
0.0
  0
ENDBLK
  5
70
330
6E
100
AcDbEntity
  8
0
100
AcDbBlockEnd
  0
BLOCK
  5
7B
330
7A
100
AcDbEntity
  8
0
100
AcDbBlockBegin
  2
POLY7
 70
     0
 71
     0
 10
0.0
 20
0.0
 30
0.0
  3
POLY7
  1

  4
POLY7
  0
LINE
  5
7D
330
7A
100
AcDbEntity
  8
LC-001-100-D00-0
 62
     7
370
    50
100
AcDbLine
 10
333.656782
 20
319.118917
 30
0.0
 11
333.656782
 21
319.118917
 31
0.0
  0
LINE
  5
7E
330
7A
100
AcDbEntity
  8
LC-001-100-D00-0
 62
     7
370
    50
100
AcDbLine
 10
333.656782
 20
319.118917
 30
0.0
 11
333.896679
 21
318.992783
 31
0.0
  0
LINE
  5
7F
330
7A
100
AcDbEntity
  8
LC-001-100-D00-0
 62
     7
370
    50
100
AcDbLine
 10
333.896679
 20
318.992783
 30
0.0
 11
333.896679
 21
318.992783
 31
0.0
  0
LINE
  5
80
330
7A
100
AcDbEntity
  8
LC-001-100-D00-0
 62
     7
370
    50
100
AcDbLine
 10
333.896679
 20
318.992783
 30
0.0
 11
334.260522
 21
318.801479
 31
0.0
  0
LINE
  5
81
330
7A
100
AcDbEntity
  8
LC-001-100-D00-0
 62
     7
370
    50
100
AcDbLine
 10
334.260522
 20
318.801479
 30
0.0
 11
334.260522
 21
318.801479
 31
0.0
  0
LINE
  5
82
330
7A
100
AcDbEntity
  8
LC-001-100-D00-0
 62
     7
370
    50
100
AcDbLine
 10
334.260522
 20
318.801479
 30
0.0
 11
334.623539
 21
318.596215
 31
0.0
  0
LINE
  5
83
330
7A
100
AcDbEntity
  8
LC-001-100-D00-0
 62
     7
370
    50
100
AcDbLine
 10
334.623539
 20
318.596215
 30
0.0
 11
334.623539
 21
318.596215
 31
0.0
  0
LINE
  5
84
330
7A
100
AcDbEntity
  8
LC-001-100-D00-0
 62
     7
370
    50
100
AcDbLine
 10
334.623539
 20
318.596215
 30
0.0
 11
334.747204
 21
318.526291
 31
0.0
  0
ENDBLK
  5
7C
330
7A
100
AcDbEntity
  8
0
100
AcDbBlockEnd
  0
BLOCK
  5
87
330
86
100
AcDbEntity
  8
0
100
AcDbBlockBegin
  2
POLY8
 70
     0
 71
     0
 10
0.0
 20
0.0
 30
0.0
  3
POLY8
  1

  4
POLY8
  0
LINE
  5
89
330
86
100
AcDbEntity
  8
LC-001-100-D00-0
 62
     7
370
    50
100
AcDbLine
 10
334.23225
 20
315.811336
 30
0.0
 11
334.23225
 21
315.811336
 31
0.0
  0
LINE
  5
8A
330
86
100
AcDbEntity
  8
LC-001-100-D00-0
 62
     7
370
    50
100
AcDbLine
 10
334.23225
 20
315.811336
 30
0.0
 11
334.280215
 21
315.785878
 31
0.0
  0
LINE
  5
8B
330
86
100
AcDbEntity
  8
LC-001-100-D00-0
 62
     7
370
    50
100
AcDbLine
 10
334.280215
 20
315.785878
 30
0.0
 11
334.280215
 21
315.785878
 31
0.0
  0
LINE
  5
8C
330
86
100
AcDbEntity
  8
LC-001-100-D00-0
 62
     7
370
    50
100
AcDbLine
 10
334.280215
 20
315.785878
 30
0.0
 11
334.452091
 21
315.694649
 31
0.0
  0
LINE
  5
8D
330
86
100
AcDbEntity
  8
LC-001-100-D00-0
 62
     7
370
    50
100
AcDbLine
 10
334.452091
 20
315.694649
 30
0.0
 11
334.452091
 21
315.694649
 31
0.0
  0
LINE
  5
8E
330
86
100
AcDbEntity
  8
LC-001-100-D00-0
 62
     7
370
    50
100
AcDbLine
 10
334.452091
 20
315.694649
 30
0.0
 11
334.623575
 21
315.59682
 31
0.0
  0
LINE
  5
8F
330
86
100
AcDbEntity
  8
LC-001-100-D00-0
 62
     7
370
    50
100
AcDbLine
 10
334.623575
 20
315.59682
 30
0.0
 11
334.623575
 21
315.59682
 31
0.0
  0
LINE
  5
90
330
86
100
AcDbEntity
  8
LC-001-100-D00-0
 62
     7
370
    50
100
AcDbLine
 10
334.623575
 20
315.59682
 30
0.0
 11
334.747204
 21
315.526292
 31
0.0
  0
ENDBLK
  5
88
330
86
100
AcDbEntity
  8
0
100
AcDbBlockEnd
  0
BLOCK
  5
93
330
92
100
AcDbEntity
  8
0
100
AcDbBlockBegin
  2
POLY9
 70
     0
 71
     0
 10
0.0
 20
0.0
 30
0.0
  3
POLY9
  1

  4
POLY9
  0
LINE
  5
95
330
92
100
AcDbEntity
  8
LC-001-100-D00-0
 62
     7
370
    50
100
AcDbLine
 10
333.656782
 20
328.118913
 30
0.0
 11
333.656782
 21
328.118913
 31
0.0
  0
LINE
  5
96
330
92
100
AcDbEntity
  8
LC-001-100-D00-0
 62
     7
370
    50
100
AcDbLine
 10
333.656782
 20
328.118913
 30
0.0
 11
333.89668
 21
327.992783
 31
0.0
  0
LINE
  5
97
330
92
100
AcDbEntity
  8
LC-001-100-D00-0
 62
     7
370
    50
100
AcDbLine
 10
333.89668
 20
327.992783
 30
0.0
 11
333.89668
 21
327.992783
 31
0.0
  0
LINE
  5
98
330
92
100
AcDbEntity
  8
LC-001-100-D00-0
 62
     7
370
    50
100
AcDbLine
 10
333.89668
 20
327.992783
 30
0.0
 11
334.260526
 21
327.801484
 31
0.0
  0
LINE
  5
99
330
92
100
AcDbEntity
  8
LC-001-100-D00-0
 62
     7
370
    50
100
AcDbLine
 10
334.260526
 20
327.801484
 30
0.0
 11
334.260526
 21
327.801484
 31
0.0
  0
LINE
  5
9A
330
92
100
AcDbEntity
  8
LC-001-100-D00-0
 62
     7
370
    50
100
AcDbLine
 10
334.260526
 20
327.801484
 30
0.0
 11
334.623539
 21
327.596214
 31
0.0
  0
LINE
  5
9B
330
92
100
AcDbEntity
  8
LC-001-100-D00-0
 62
     7
370
    50
100
AcDbLine
 10
334.623539
 20
327.596214
 30
0.0
 11
334.623539
 21
327.596214
 31
0.0
  0
LINE
  5
9C
330
92
100
AcDbEntity
  8
LC-001-100-D00-0
 62
     7
370
    50
100
AcDbLine
 10
334.623539
 20
327.596214
 30
0.0
 11
334.747204
 21
327.526286
 31
0.0
  0
ENDBLK
  5
94
330
92
100
AcDbEntity
  8
0
100
AcDbBlockEnd
  0
BLOCK
  5
9F
330
9E
100
AcDbEntity
  8
0
100
AcDbBlockBegin
  2
POLY10
 70
     0
 71
     0
 10
0.0
 20
0.0
 30
0.0
  3
POLY10
  1

  4
POLY10
  0
LINE
  5
A1
330
9E
100
AcDbEntity
  8
LC-001-100-D00-0
 62
     7
370
    50
100
AcDbLine
 10
333.656782
 20
322.118916
 30
0.0
 11
333.656782
 21
322.118916
 31
0.0
  0
LINE
  5
A2
330
9E
100
AcDbEntity
  8
LC-001-100-D00-0
 62
     7
370
    50
100
AcDbLine
 10
333.656782
 20
322.118916
 30
0.0
 11
333.896679
 21
321.992781
 31
0.0
  0
LINE
  5
A3
330
9E
100
AcDbEntity
  8
LC-001-100-D00-0
 62
     7
370
    50
100
AcDbLine
 10
333.896679
 20
321.992781
 30
0.0
 11
333.896679
 21
321.992781
 31
0.0
  0
LINE
  5
A4
330
9E
100
AcDbEntity
  8
LC-001-100-D00-0
 62
     7
370
    50
100
AcDbLine
 10
333.896679
 20
321.992781
 30
0.0
 11
334.260522
 21
321.801477
 31
0.0
  0
LINE
  5
A5
330
9E
100
AcDbEntity
  8
LC-001-100-D00-0
 62
     7
370
    50
100
AcDbLine
 10
334.260522
 20
321.801477
 30
0.0
 11
334.260522
 21
321.801477
 31
0.0
  0
LINE
  5
A6
330
9E
100
AcDbEntity
  8
LC-001-100-D00-0
 62
     7
370
    50
100
AcDbLine
 10
334.260522
 20
321.801477
 30
0.0
 11
334.623539
 21
321.596214
 31
0.0
  0
LINE
  5
A7
330
9E
100
AcDbEntity
  8
LC-001-100-D00-0
 62
     7
370
    50
100
AcDbLine
 10
334.623539
 20
321.596214
 30
0.0
 11
334.623539
 21
321.596214
 31
0.0
  0
LINE
  5
A8
330
9E
100
AcDbEntity
  8
LC-001-100-D00-0
 62
     7
370
    50
100
AcDbLine
 10
334.623539
 20
321.596214
 30
0.0
 11
334.747204
 21
321.526289
 31
0.0
  0
ENDBLK
  5
A0
330
9E
100
AcDbEntity
  8
0
100
AcDbBlockEnd
  0
BLOCK
  5
AE
330
AD
100
AcDbEntity
  8
0
100
AcDbBlockBegin
  2
KLON1
 70
     0
 71
     0
 10
0.0
 20
0.0
 30
0.0
  3
KLON1
  1

  4
KLON1
  0
LINE
  5
B0
330
AD
100
AcDbEntity
  8
LC-001-100-D00-0
 62
     7
370
    15
100
AcDbLine
 10
338.747205
 20
324.413441
 30
0.0
 11
339.098299
 21
324.230679
 31
0.0
  0
LINE
  5
B1
330
AD
100
AcDbEntity
  8
LC-001-100-D00-0
 62
     7
370
    15
100
AcDbLine
 10
339.098299
 20
324.230679
 30
0.0
 11
339.449392
 21
324.047908
 31
0.0
  0
LINE
  5
B2
330
AD
100
AcDbEntity
  8
LC-001-100-D00-0
 62
     7
370
    15
100
AcDbLine
 10
339.449392
 20
324.047908
 30
0.0
 11
339.997204
 21
323.762737
 31
0.0
  0
ENDBLK
  5
AF
330
AD
100
AcDbEntity
  8
0
100
AcDbBlockEnd
  0
BLOCK
  5
B5
330
B4
100
AcDbEntity
  8
0
100
AcDbBlockBegin
  2
KLON2
 70
     0
 71
     0
 10
0.0
 20
0.0
 30
0.0
  3
KLON2
  1

  4
KLON2
  0
LINE
  5
B7
330
B4
100
AcDbEntity
  8
LC-001-100-D00-0
 62
     7
370
    15
100
AcDbLine
 10
333.497205
 20
325.262733
 30
0.0
 11
333.848299
 21
325.445503
 31
0.0
  0
LINE
  5
B8
330
B4
100
AcDbEntity
  8
LC-001-100-D00-0
 62
     7
370
    15
100
AcDbLine
 10
333.848299
 20
325.445503
 30
0.0
 11
334.199393
 21
325.628273
 31
0.0
  0
LINE
  5
B9
330
B4
100
AcDbEntity
  8
LC-001-100-D00-0
 62
     7
370
    15
100
AcDbLine
 10
334.199393
 20
325.628273
 30
0.0
 11
334.747204
 21
325.913444
 31
0.0
  0
ENDBLK
  5
B6
330
B4
100
AcDbEntity
  8
0
100
AcDbBlockEnd
  0
BLOCK
  5
BC
330
BB
100
AcDbEntity
  8
0
100
AcDbBlockBegin
  2
POLY11
 70
     0
 71
     0
 10
0.0
 20
0.0
 30
0.0
  3
POLY11
  1

  4
POLY11
  0
LINE
  5
BE
330
BB
100
AcDbEntity
  8
LC-001-100-D00-0
 62
     7
370
    50
100
AcDbLine
 10
333.497205
 20
325.262733
 30
0.0
 11
333.497205
 21
325.262733
 31
0.0
  0
LINE
  5
BF
330
BB
100
AcDbEntity
  8
LC-001-100-D00-0
 62
     7
370
    50
100
AcDbLine
 10
333.497205
 20
325.262733
 30
0.0
 11
333.497211
 21
325.262
 31
0.0
  0
LINE
  5
C0
330
BB
100
AcDbEntity
  8
LC-001-100-D00-0
 62
     7
370
    50
100
AcDbLine
 10
333.497211
 20
325.262
 30
0.0
 11
333.497211
 21
325.262
 31
0.0
  0
LINE
  5
C1
330
BB
100
AcDbEntity
  8
LC-001-100-D00-0
 62
     7
370
    50
100
AcDbLine
 10
333.497211
 20
325.262
 30
0.0
 11
333.497596
 21
325.211093
 31
0.0
  0
LINE
  5
C2
330
BB
100
AcDbEntity
  8
LC-001-100-D00-0
 62
     7
370
    50
100
AcDbLine
 10
333.497596
 20
325.211093
 30
0.0
 11
333.497596
 21
325.211093
 31
0.0
  0
LINE
  5
C3
330
BB
100
AcDbEntity
  8
LC-001-100-D00-0
 62
     7
370
    50
100
AcDbLine
 10
333.497596
 20
325.211093
 30
0.0
 11
333.597439
 21
325.163709
 31
0.0
  0
LINE
  5
C4
330
BB
100
AcDbEntity
  8
LC-001-100-D00-0
 62
     7
370
    50
100
AcDbLine
 10
333.597439
 20
325.163709
 30
0.0
 11
333.597439
 21
325.163709
 31
0.0
  0
LINE
  5
C5
330
BB
100
AcDbEntity
  8
LC-001-100-D00-0
 62
     7
370
    50
100
AcDbLine
 10
333.597439
 20
325.163709
 30
0.0
 11
333.695845
 21
325.117007
 31
0.0
  0
ENDBLK
  5
BD
330
BB
100
AcDbEntity
  8
0
100
AcDbBlockEnd
  0
BLOCK
  5
C9
330
C8
100
AcDbEntity
  8
0
100
AcDbBlockBegin
  2
KLON3
 70
     0
 71
     0
 10
0.0
 20
0.0
 30
0.0
  3
KLON3
  1

  4
KLON3
  0
LINE
  5
CB
330
C8
100
AcDbEntity
  8
LC-001-100-D00-0
 62
     7
370
    15
100
AcDbLine
 10
338.747205
 20
321.413443
 30
0.0
 11
339.098299
 21
321.230673
 31
0.0
  0
LINE
  5
CC
330
C8
100
AcDbEntity
  8
LC-001-100-D00-0
 62
     7
370
    15
100
AcDbLine
 10
339.098299
 20
321.230673
 30
0.0
 11
339.449392
 21
321.04791
 31
0.0
  0
LINE
  5
CD
330
C8
100
AcDbEntity
  8
LC-001-100-D00-0
 62
     7
370
    15
100
AcDbLine
 10
339.449392
 20
321.04791
 30
0.0
 11
339.997204
 21
320.762731
 31
0.0
  0
ENDBLK
  5
CA
330
C8
100
AcDbEntity
  8
0
100
AcDbBlockEnd
  0
BLOCK
  5
D0
330
CF
100
AcDbEntity
  8
0
100
AcDbBlockBegin
  2
KLON4
 70
     0
 71
     0
 10
0.0
 20
0.0
 30
0.0
  3
KLON4
  1

  4
KLON4
  0
LINE
  5
D2
330
CF
100
AcDbEntity
  8
LC-001-100-D00-0
 62
     7
370
    15
100
AcDbLine
 10
333.497205
 20
322.262734
 30
0.0
 11
333.848299
 21
322.445505
 31
0.0
  0
LINE
  5
D3
330
CF
100
AcDbEntity
  8
LC-001-100-D00-0
 62
     7
370
    15
100
AcDbLine
 10
333.848299
 20
322.445505
 30
0.0
 11
334.199393
 21
322.628275
 31
0.0
  0
LINE
  5
D4
330
CF
100
AcDbEntity
  8
LC-001-100-D00-0
 62
     7
370
    15
100
AcDbLine
 10
334.199393
 20
322.628275
 30
0.0
 11
334.747204
 21
322.913446
 31
0.0
  0
ENDBLK
  5
D1
330
CF
100
AcDbEntity
  8
0
100
AcDbBlockEnd
  0
BLOCK
  5
D7
330
D6
100
AcDbEntity
  8
0
100
AcDbBlockBegin
  2
POLY12
 70
     0
 71
     0
 10
0.0
 20
0.0
 30
0.0
  3
POLY12
  1

  4
POLY12
  0
LINE
  5
D9
330
D6
100
AcDbEntity
  8
LC-001-100-D00-0
 62
     7
370
    50
100
AcDbLine
 10
333.497205
 20
322.262734
 30
0.0
 11
333.497205
 21
322.262734
 31
0.0
  0
LINE
  5
DA
330
D6
100
AcDbEntity
  8
LC-001-100-D00-0
 62
     7
370
    50
100
AcDbLine
 10
333.497205
 20
322.262734
 30
0.0
 11
333.497211
 21
322.261999
 31
0.0
  0
LINE
  5
DB
330
D6
100
AcDbEntity
  8
LC-001-100-D00-0
 62
     7
370
    50
100
AcDbLine
 10
333.497211
 20
322.261999
 30
0.0
 11
333.497211
 21
322.261999
 31
0.0
  0
LINE
  5
DC
330
D6
100
AcDbEntity
  8
LC-001-100-D00-0
 62
     7
370
    50
100
AcDbLine
 10
333.497211
 20
322.261999
 30
0.0
 11
333.497596
 21
322.210922
 31
0.0
  0
LINE
  5
DD
330
D6
100
AcDbEntity
  8
LC-001-100-D00-0
 62
     7
370
    50
100
AcDbLine
 10
333.497596
 20
322.210922
 30
0.0
 11
333.497596
 21
322.210922
 31
0.0
  0
LINE
  5
DE
330
D6
100
AcDbEntity
  8
LC-001-100-D00-0
 62
     7
370
    50
100
AcDbLine
 10
333.497596
 20
322.210922
 30
0.0
 11
333.597439
 21
322.163625
 31
0.0
  0
LINE
  5
DF
330
D6
100
AcDbEntity
  8
LC-001-100-D00-0
 62
     7
370
    50
100
AcDbLine
 10
333.597439
 20
322.163625
 30
0.0
 11
333.597439
 21
322.163625
 31
0.0
  0
LINE
  5
E0
330
D6
100
AcDbEntity
  8
LC-001-100-D00-0
 62
     7
370
    50
100
AcDbLine
 10
333.597439
 20
322.163625
 30
0.0
 11
333.695845
 21
322.117008
 31
0.0
  0
ENDBLK
  5
D8
330
D6
100
AcDbEntity
  8
0
100
AcDbBlockEnd
  0
BLOCK
  5
E4
330
E3
100
AcDbEntity
  8
0
100
AcDbBlockBegin
  2
KLON5
 70
     0
 71
     0
 10
0.0
 20
0.0
 30
0.0
  3
KLON5
  1

  4
KLON5
  0
LINE
  5
E6
330
E3
100
AcDbEntity
  8
LC-001-100-D00-0
 62
     7
370
    15
100
AcDbLine
 10
338.747205
 20
315.413445
 30
0.0
 11
339.098299
 21
315.230675
 31
0.0
  0
LINE
  5
E7
330
E3
100
AcDbEntity
  8
LC-001-100-D00-0
 62
     7
370
    15
100
AcDbLine
 10
339.098299
 20
315.230675
 30
0.0
 11
339.449392
 21
315.047905
 31
0.0
  0
LINE
  5
E8
330
E3
100
AcDbEntity
  8
LC-001-100-D00-0
 62
     7
370
    15
100
AcDbLine
 10
339.449392
 20
315.047905
 30
0.0
 11
339.997204
 21
314.762734
 31
0.0
  0
ENDBLK
  5
E5
330
E3
100
AcDbEntity
  8
0
100
AcDbBlockEnd
  0
BLOCK
  5
EB
330
EA
100
AcDbEntity
  8
0
100
AcDbBlockBegin
  2
KLON6
 70
     0
 71
     0
 10
0.0
 20
0.0
 30
0.0
  3
KLON6
  1

  4
KLON6
  0
LINE
  5
ED
330
EA
100
AcDbEntity
  8
LC-001-100-D00-0
 62
     7
370
    15
100
AcDbLine
 10
333.497205
 20
316.262737
 30
0.0
 11
333.848299
 21
316.4455
 31
0.0
  0
LINE
  5
EE
330
EA
100
AcDbEntity
  8
LC-001-100-D00-0
 62
     7
370
    15
100
AcDbLine
 10
333.848299
 20
316.4455
 30
0.0
 11
334.199393
 21
316.62827
 31
0.0
  0
LINE
  5
EF
330
EA
100
AcDbEntity
  8
LC-001-100-D00-0
 62
     7
370
    15
100
AcDbLine
 10
334.199393
 20
316.62827
 30
0.0
 11
334.747204
 21
316.913441
 31
0.0
  0
ENDBLK
  5
EC
330
EA
100
AcDbEntity
  8
0
100
AcDbBlockEnd
  0
BLOCK
  5
F2
330
F1
100
AcDbEntity
  8
0
100
AcDbBlockBegin
  2
KLON7
 70
     0
 71
     0
 10
0.0
 20
0.0
 30
0.0
  3
KLON7
  1

  4
KLON7
  0
LINE
  5
F4
330
F1
100
AcDbEntity
  8
LC-001-100-D00-0
 62
     7
370
    15
100
AcDbLine
 10
338.747205
 20
327.41344
 30
0.0
 11
339.098299
 21
327.230677
 31
0.0
  0
LINE
  5
F5
330
F1
100
AcDbEntity
  8
LC-001-100-D00-0
 62
     7
370
    15
100
AcDbLine
 10
339.098299
 20
327.230677
 30
0.0
 11
339.449392
 21
327.047907
 31
0.0
  0
LINE
  5
F6
330
F1
100
AcDbEntity
  8
LC-001-100-D00-0
 62
     7
370
    15
100
AcDbLine
 10
339.449392
 20
327.047907
 30
0.0
 11
339.997204
 21
326.762736
 31
0.0
  0
ENDBLK
  5
F3
330
F1
100
AcDbEntity
  8
0
100
AcDbBlockEnd
  0
BLOCK
  5
F9
330
F8
100
AcDbEntity
  8
0
100
AcDbBlockBegin
  2
KLON8
 70
     0
 71
     0
 10
0.0
 20
0.0
 30
0.0
  3
KLON8
  1

  4
KLON8
  0
LINE
  5
FB
330
F8
100
AcDbEntity
  8
LC-001-100-D00-0
 62
     7
370
    15
100
AcDbLine
 10
333.497205
 20
328.262732
 30
0.0
 11
333.848299
 21
328.445502
 31
0.0
  0
LINE
  5
FC
330
F8
100
AcDbEntity
  8
LC-001-100-D00-0
 62
     7
370
    15
100
AcDbLine
 10
333.848299
 20
328.445502
 30
0.0
 11
334.199393
 21
328.628272
 31
0.0
  0
LINE
  5
FD
330
F8
100
AcDbEntity
  8
LC-001-100-D00-0
 62
     7
370
    15
100
AcDbLine
 10
334.199393
 20
328.628272
 30
0.0
 11
334.747204
 21
328.913443
 31
0.0
  0
ENDBLK
  5
FA
330
F8
100
AcDbEntity
  8
0
100
AcDbBlockEnd
  0
BLOCK
  5
100
330
FF
100
AcDbEntity
  8
0
100
AcDbBlockBegin
  2
POLY13
 70
     0
 71
     0
 10
0.0
 20
0.0
 30
0.0
  3
POLY13
  1

  4
POLY13
  0
LINE
  5
102
330
FF
100
AcDbEntity
  8
LC-001-100-D00-0
 62
     7
370
    50
100
AcDbLine
 10
333.497205
 20
328.262732
 30
0.0
 11
333.497205
 21
328.262732
 31
0.0
  0
LINE
  5
103
330
FF
100
AcDbEntity
  8
LC-001-100-D00-0
 62
     7
370
    50
100
AcDbLine
 10
333.497205
 20
328.262732
 30
0.0
 11
333.497211
 21
328.261999
 31
0.0
  0
LINE
  5
104
330
FF
100
AcDbEntity
  8
LC-001-100-D00-0
 62
     7
370
    50
100
AcDbLine
 10
333.497211
 20
328.261999
 30
0.0
 11
333.497211
 21
328.261999
 31
0.0
  0
LINE
  5
105
330
FF
100
AcDbEntity
  8
LC-001-100-D00-0
 62
     7
370
    50
100
AcDbLine
 10
333.497211
 20
328.261999
 30
0.0
 11
333.497596
 21
328.211091
 31
0.0
  0
LINE
  5
106
330
FF
100
AcDbEntity
  8
LC-001-100-D00-0
 62
     7
370
    50
100
AcDbLine
 10
333.497596
 20
328.211091
 30
0.0
 11
333.497596
 21
328.211091
 31
0.0
  0
LINE
  5
107
330
FF
100
AcDbEntity
  8
LC-001-100-D00-0
 62
     7
370
    50
100
AcDbLine
 10
333.497596
 20
328.211091
 30
0.0
 11
333.597439
 21
328.163711
 31
0.0
  0
LINE
  5
108
330
FF
100
AcDbEntity
  8
LC-001-100-D00-0
 62
     7
370
    50
100
AcDbLine
 10
333.597439
 20
328.163711
 30
0.0
 11
333.597439
 21
328.163711
 31
0.0
  0
LINE
  5
109
330
FF
100
AcDbEntity
  8
LC-001-100-D00-0
 62
     7
370
    50
100
AcDbLine
 10
333.597439
 20
328.163711
 30
0.0
 11
333.695845
 21
328.117013
 31
0.0
  0
ENDBLK
  5
101
330
FF
100
AcDbEntity
  8
0
100
AcDbBlockEnd
  0
BLOCK
  5
10D
330
10C
100
AcDbEntity
  8
0
100
AcDbBlockBegin
  2
KLON9
 70
     0
 71
     0
 10
0.0
 20
0.0
 30
0.0
  3
KLON9
  1

  4
KLON9
  0
LINE
  5
10F
330
10C
100
AcDbEntity
  8
LC-001-100-D00-0
 62
     7
370
    15
100
AcDbLine
 10
338.747205
 20
318.413444
 30
0.0
 11
339.098299
 21
318.230674
 31
0.0
  0
LINE
  5
110
330
10C
100
AcDbEntity
  8
LC-001-100-D00-0
 62
     7
370
    15
100
AcDbLine
 10
339.098299
 20
318.230674
 30
0.0
 11
339.449392
 21
318.047904
 31
0.0
  0
LINE
  5
111
330
10C
100
AcDbEntity
  8
LC-001-100-D00-0
 62
     7
370
    15
100
AcDbLine
 10
339.449392
 20
318.047904
 30
0.0
 11
339.997204
 21
317.762733
 31
0.0
  0
ENDBLK
  5
10E
330
10C
100
AcDbEntity
  8
0
100
AcDbBlockEnd
  0
BLOCK
  5
114
330
113
100
AcDbEntity
  8
0
100
AcDbBlockBegin
  2
KLON10
 70
     0
 71
     0
 10
0.0
 20
0.0
 30
0.0
  3
KLON10
  1

  4
KLON10
  0
LINE
  5
116
330
113
100
AcDbEntity
  8
LC-001-100-D00-0
 62
     7
370
    15
100
AcDbLine
 10
333.497205
 20
319.262736
 30
0.0
 11
333.848299
 21
319.445506
 31
0.0
  0
LINE
  5
117
330
113
100
AcDbEntity
  8
LC-001-100-D00-0
 62
     7
370
    15
100
AcDbLine
 10
333.848299
 20
319.445506
 30
0.0
 11
334.199393
 21
319.628269
 31
0.0
  0
LINE
  5
118
330
113
100
AcDbEntity
  8
LC-001-100-D00-0
 62
     7
370
    15
100
AcDbLine
 10
334.199393
 20
319.628269
 30
0.0
 11
334.747204
 21
319.913447
 31
0.0
  0
ENDBLK
  5
115
330
113
100
AcDbEntity
  8
0
100
AcDbBlockEnd
  0
BLOCK
  5
11B
330
11A
100
AcDbEntity
  8
0
100
AcDbBlockBegin
  2
POLY14
 70
     0
 71
     0
 10
0.0
 20
0.0
 30
0.0
  3
POLY14
  1

  4
POLY14
  0
LINE
  5
11D
330
11A
100
AcDbEntity
  8
LC-001-100-D00-0
 62
     7
370
    50
100
AcDbLine
 10
333.497205
 20
319.262736
 30
0.0
 11
333.497205
 21
319.262736
 31
0.0
  0
LINE
  5
11E
330
11A
100
AcDbEntity
  8
LC-001-100-D00-0
 62
     7
370
    50
100
AcDbLine
 10
333.497205
 20
319.262736
 30
0.0
 11
333.497211
 21
319.262
 31
0.0
  0
LINE
  5
11F
330
11A
100
AcDbEntity
  8
LC-001-100-D00-0
 62
     7
370
    50
100
AcDbLine
 10
333.497211
 20
319.262
 30
0.0
 11
333.497211
 21
319.262
 31
0.0
  0
LINE
  5
120
330
11A
100
AcDbEntity
  8
LC-001-100-D00-0
 62
     7
370
    50
100
AcDbLine
 10
333.497211
 20
319.262
 30
0.0
 11
333.497596
 21
319.210923
 31
0.0
  0
LINE
  5
121
330
11A
100
AcDbEntity
  8
LC-001-100-D00-0
 62
     7
370
    50
100
AcDbLine
 10
333.497596
 20
319.210923
 30
0.0
 11
333.497596
 21
319.210923
 31
0.0
  0
LINE
  5
122
330
11A
100
AcDbEntity
  8
LC-001-100-D00-0
 62
     7
370
    50
100
AcDbLine
 10
333.497596
 20
319.210923
 30
0.0
 11
333.597439
 21
319.163626
 31
0.0
  0
LINE
  5
123
330
11A
100
AcDbEntity
  8
LC-001-100-D00-0
 62
     7
370
    50
100
AcDbLine
 10
333.597439
 20
319.163626
 30
0.0
 11
333.597439
 21
319.163626
 31
0.0
  0
LINE
  5
124
330
11A
100
AcDbEntity
  8
LC-001-100-D00-0
 62
     7
370
    50
100
AcDbLine
 10
333.597439
 20
319.163626
 30
0.0
 11
333.695845
 21
319.11701
 31
0.0
  0
ENDBLK
  5
11C
330
11A
100
AcDbEntity
  8
0
100
AcDbBlockEnd
  0
BLOCK
  5
132
330
131
100
AcDbEntity
  8
0
100
AcDbBlockBegin
  2
KLON11
 70
     0
 71
     0
 10
0.0
 20
0.0
 30
0.0
  3
KLON11
  1

  4
KLON11
  0
LINE
  5
134
330
131
100
AcDbEntity
  8
LC-001-100-D00-0
 62
     7
370
    15
100
AcDbLine
 10
339.997204
 20
326.762736
 30
0.0
 11
339.64611
 21
326.579966
 31
0.0
  0
LINE
  5
135
330
131
100
AcDbEntity
  8
LC-001-100-D00-0
 62
     7
370
    15
100
AcDbLine
 10
339.64611
 20
326.579966
 30
0.0
 11
339.295016
 21
326.397196
 31
0.0
  0
LINE
  5
136
330
131
100
AcDbEntity
  8
LC-001-100-D00-0
 62
     7
370
    15
100
AcDbLine
 10
339.295016
 20
326.397196
 30
0.0
 11
338.747205
 21
326.112025
 31
0.0
  0
ENDBLK
  5
133
330
131
100
AcDbEntity
  8
0
100
AcDbBlockEnd
  0
BLOCK
  5
13A
330
139
100
AcDbEntity
  8
0
100
AcDbBlockBegin
  2
KLON12
 70
     0
 71
     0
 10
0.0
 20
0.0
 30
0.0
  3
KLON12
  1

  4
KLON12
  0
LINE
  5
13C
330
139
100
AcDbEntity
  8
LC-001-100-D00-0
 62
     7
370
    15
100
AcDbLine
 10
339.997204
 20
323.762737
 30
0.0
 11
339.64611
 21
323.579967
 31
0.0
  0
LINE
  5
13D
330
139
100
AcDbEntity
  8
LC-001-100-D00-0
 62
     7
370
    15
100
AcDbLine
 10
339.64611
 20
323.579967
 30
0.0
 11
339.295016
 21
323.397197
 31
0.0
  0
LINE
  5
13E
330
139
100
AcDbEntity
  8
LC-001-100-D00-0
 62
     7
370
    15
100
AcDbLine
 10
339.295016
 20
323.397197
 30
0.0
 11
338.747205
 21
323.112026
 31
0.0
  0
ENDBLK
  5
13B
330
139
100
AcDbEntity
  8
0
100
AcDbBlockEnd
  0
BLOCK
  5
142
330
141
100
AcDbEntity
  8
0
100
AcDbBlockBegin
  2
KLON13
 70
     0
 71
     0
 10
0.0
 20
0.0
 30
0.0
  3
KLON13
  1

  4
KLON13
  0
LINE
  5
144
330
141
100
AcDbEntity
  8
LC-001-100-D00-0
 62
     7
370
    15
100
AcDbLine
 10
339.997204
 20
320.762731
 30
0.0
 11
339.64611
 21
320.579969
 31
0.0
  0
LINE
  5
145
330
141
100
AcDbEntity
  8
LC-001-100-D00-0
 62
     7
370
    15
100
AcDbLine
 10
339.64611
 20
320.579969
 30
0.0
 11
339.295016
 21
320.397198
 31
0.0
  0
LINE
  5
146
330
141
100
AcDbEntity
  8
LC-001-100-D00-0
 62
     7
370
    15
100
AcDbLine
 10
339.295016
 20
320.397198
 30
0.0
 11
338.747205
 21
320.112027
 31
0.0
  0
ENDBLK
  5
143
330
141
100
AcDbEntity
  8
0
100
AcDbBlockEnd
  0
BLOCK
  5
14A
330
149
100
AcDbEntity
  8
0
100
AcDbBlockBegin
  2
KLON14
 70
     0
 71
     0
 10
0.0
 20
0.0
 30
0.0
  3
KLON14
  1

  4
KLON14
  0
LINE
  5
14C
330
149
100
AcDbEntity
  8
LC-001-100-D00-0
 62
     7
370
    15
100
AcDbLine
 10
339.997204
 20
317.762733
 30
0.0
 11
339.64611
 21
317.579963
 31
0.0
  0
LINE
  5
14D
330
149
100
AcDbEntity
  8
LC-001-100-D00-0
 62
     7
370
    15
100
AcDbLine
 10
339.64611
 20
317.579963
 30
0.0
 11
339.295016
 21
317.3972
 31
0.0
  0
LINE
  5
14E
330
149
100
AcDbEntity
  8
LC-001-100-D00-0
 62
     7
370
    15
100
AcDbLine
 10
339.295016
 20
317.3972
 30
0.0
 11
338.747205
 21
317.112029
 31
0.0
  0
ENDBLK
  5
14B
330
149
100
AcDbEntity
  8
0
100
AcDbBlockEnd
  0
BLOCK
  5
151
330
150
100
AcDbEntity
  8
0
100
AcDbBlockBegin
  2
KLON15
 70
     0
 71
     0
 10
0.0
 20
0.0
 30
0.0
  3
KLON15
  1

  4
KLON15
  0
LINE
  5
153
330
150
100
AcDbEntity
  8
LC-001-100-D00-0
 62
     7
370
    15
100
AcDbLine
 10
339.997204
 20
314.762734
 30
0.0
 11
339.64611
 21
314.579964
 31
0.0
  0
LINE
  5
154
330
150
100
AcDbEntity
  8
LC-001-100-D00-0
 62
     7
370
    15
100
AcDbLine
 10
339.64611
 20
314.579964
 30
0.0
 11
339.295016
 21
314.397201
 31
0.0
  0
LINE
  5
155
330
150
100
AcDbEntity
  8
LC-001-100-D00-0
 62
     7
370
    15
100
AcDbLine
 10
339.295016
 20
314.397201
 30
0.0
 11
338.747205
 21
314.112023
 31
0.0
  0
ENDBLK
  5
152
330
150
100
AcDbEntity
  8
0
100
AcDbBlockEnd
  0
BLOCK
  5
15C
330
15B
100
AcDbEntity
  8
0
100
AcDbBlockBegin
  2
KLON16
 70
     0
 71
     0
 10
0.0
 20
0.0
 30
0.0
  3
KLON16
  1

  4
KLON16
  0
LINE
  5
15E
330
15B
100
AcDbEntity
  8
LC-001-100-D00-0
 62
     7
370
    15
100
AcDbLine
 10
334.747204
 20
315.612026
 30
0.0
 11
334.396111
 21
315.794796
 31
0.0
  0
LINE
  5
15F
330
15B
100
AcDbEntity
  8
LC-001-100-D00-0
 62
     7
370
    15
100
AcDbLine
 10
334.396111
 20
315.794796
 30
0.0
 11
334.045017
 21
315.977566
 31
0.0
  0
LINE
  5
160
330
15B
100
AcDbEntity
  8
LC-001-100-D00-0
 62
     7
370
    15
100
AcDbLine
 10
334.045017
 20
315.977566
 30
0.0
 11
333.497205
 21
316.262737
 31
0.0
  0
ENDBLK
  5
15D
330
15B
100
AcDbEntity
  8
0
100
AcDbBlockEnd
  0
BLOCK
  5
163
330
162
100
AcDbEntity
  8
0
100
AcDbBlockBegin
  2
KLON17
 70
     0
 71
     0
 10
0.0
 20
0.0
 30
0.0
  3
KLON17
  1

  4
KLON17
  0
LINE
  5
165
330
162
100
AcDbEntity
  8
LC-001-100-D00-0
 62
     7
370
    15
100
AcDbLine
 10
334.747204
 20
318.612024
 30
0.0
 11
334.396111
 21
318.794795
 31
0.0
  0
LINE
  5
166
330
162
100
AcDbEntity
  8
LC-001-100-D00-0
 62
     7
370
    15
100
AcDbLine
 10
334.396111
 20
318.794795
 30
0.0
 11
334.045017
 21
318.977565
 31
0.0
  0
LINE
  5
167
330
162
100
AcDbEntity
  8
LC-001-100-D00-0
 62
     7
370
    15
100
AcDbLine
 10
334.045017
 20
318.977565
 30
0.0
 11
333.497205
 21
319.262736
 31
0.0
  0
ENDBLK
  5
164
330
162
100
AcDbEntity
  8
0
100
AcDbBlockEnd
  0
BLOCK
  5
16B
330
16A
100
AcDbEntity
  8
0
100
AcDbBlockBegin
  2
KLON18
 70
     0
 71
     0
 10
0.0
 20
0.0
 30
0.0
  3
KLON18
  1

  4
KLON18
  0
LINE
  5
16D
330
16A
100
AcDbEntity
  8
LC-001-100-D00-0
 62
     7
370
    15
100
AcDbLine
 10
334.747204
 20
321.612023
 30
0.0
 11
334.396111
 21
321.794793
 31
0.0
  0
LINE
  5
16E
330
16A
100
AcDbEntity
  8
LC-001-100-D00-0
 62
     7
370
    15
100
AcDbLine
 10
334.396111
 20
321.794793
 30
0.0
 11
334.045017
 21
321.977563
 31
0.0
  0
LINE
  5
16F
330
16A
100
AcDbEntity
  8
LC-001-100-D00-0
 62
     7
370
    15
100
AcDbLine
 10
334.045017
 20
321.977563
 30
0.0
 11
333.497205
 21
322.262734
 31
0.0
  0
ENDBLK
  5
16C
330
16A
100
AcDbEntity
  8
0
100
AcDbBlockEnd
  0
BLOCK
  5
173
330
172
100
AcDbEntity
  8
0
100
AcDbBlockBegin
  2
KLON19
 70
     0
 71
     0
 10
0.0
 20
0.0
 30
0.0
  3
KLON19
  1

  4
KLON19
  0
LINE
  5
175
330
172
100
AcDbEntity
  8
LC-001-100-D00-0
 62
     7
370
    15
100
AcDbLine
 10
334.747204
 20
324.612029
 30
0.0
 11
334.396111
 21
324.794792
 31
0.0
  0
LINE
  5
176
330
172
100
AcDbEntity
  8
LC-001-100-D00-0
 62
     7
370
    15
100
AcDbLine
 10
334.396111
 20
324.794792
 30
0.0
 11
334.045017
 21
324.977562
 31
0.0
  0
LINE
  5
177
330
172
100
AcDbEntity
  8
LC-001-100-D00-0
 62
     7
370
    15
100
AcDbLine
 10
334.045017
 20
324.977562
 30
0.0
 11
333.497205
 21
325.262733
 31
0.0
  0
ENDBLK
  5
174
330
172
100
AcDbEntity
  8
0
100
AcDbBlockEnd
  0
BLOCK
  5
17B
330
17A
100
AcDbEntity
  8
0
100
AcDbBlockBegin
  2
KLON20
 70
     0
 71
     0
 10
0.0
 20
0.0
 30
0.0
  3
KLON20
  1

  4
KLON20
  0
LINE
  5
17D
330
17A
100
AcDbEntity
  8
LC-001-100-D00-0
 62
     7
370
    15
100
AcDbLine
 10
334.747204
 20
327.612028
 30
0.0
 11
334.396111
 21
327.794798
 31
0.0
  0
LINE
  5
17E
330
17A
100
AcDbEntity
  8
LC-001-100-D00-0
 62
     7
370
    15
100
AcDbLine
 10
334.396111
 20
327.794798
 30
0.0
 11
334.045017
 21
327.977561
 31
0.0
  0
LINE
  5
17F
330
17A
100
AcDbEntity
  8
LC-001-100-D00-0
 62
     7
370
    15
100
AcDbLine
 10
334.045017
 20
327.977561
 30
0.0
 11
333.497205
 21
328.262732
 31
0.0
  0
ENDBLK
  5
17C
330
17A
100
AcDbEntity
  8
0
100
AcDbBlockEnd
  0
BLOCK
  5
18F
330
18E
100
AcDbEntity
  8
0
100
AcDbBlockBegin
  2
POLY15
 70
     0
 71
     0
 10
0.0
 20
0.0
 30
0.0
  3
POLY15
  1

  4
POLY15
  0
LINE
  5
191
330
18E
100
AcDbEntity
  8
LC-001-100-D00-0
 62
     7
370
    50
100
AcDbLine
 10
339.748347
 20
332.896851
 30
0.0
 11
339.748347
 21
332.896851
 31
0.0
  0
LINE
  5
192
330
18E
100
AcDbEntity
  8
LC-001-100-D00-0
 62
     7
370
    50
100
AcDbLine
 10
339.748347
 20
332.896851
 30
0.0
 11
339.726673
 21
332.905263
 31
0.0
  0
LINE
  5
193
330
18E
100
AcDbEntity
  8
LC-001-100-D00-0
 62
     7
370
    50
100
AcDbLine
 10
339.726673
 20
332.905263
 30
0.0
 11
339.726673
 21
332.905263
 31
0.0
  0
LINE
  5
194
330
18E
100
AcDbEntity
  8
LC-001-100-D00-0
 62
     7
370
    50
100
AcDbLine
 10
339.726673
 20
332.905263
 30
0.0
 11
339.697284
 21
332.91667
 31
0.0
  0
LINE
  5
195
330
18E
100
AcDbEntity
  8
LC-001-100-D00-0
 62
     7
370
    50
100
AcDbLine
 10
339.697284
 20
332.91667
 30
0.0
 11
339.697284
 21
332.91667
 31
0.0
  0
LINE
  5
196
330
18E
100
AcDbEntity
  8
LC-001-100-D00-0
 62
     7
370
    50
100
AcDbLine
 10
339.697284
 20
332.91667
 30
0.0
 11
339.666058
 21
332.917608
 31
0.0
  0
LINE
  5
197
330
18E
100
AcDbEntity
  8
LC-001-100-D00-0
 62
     7
370
    50
100
AcDbLine
 10
339.666058
 20
332.917608
 30
0.0
 11
339.666058
 21
332.917608
 31
0.0
  0
LINE
  5
198
330
18E
100
AcDbEntity
  8
LC-001-100-D00-0
 62
     7
370
    50
100
AcDbLine
 10
339.666058
 20
332.917608
 30
0.0
 11
339.65786
 21
332.917854
 31
0.0
  0
ENDBLK
  5
190
330
18E
100
AcDbEntity
  8
0
100
AcDbBlockEnd
  0
BLOCK
  5
19C
330
19B
100
AcDbEntity
  8
0
100
AcDbBlockBegin
  2
POLY16
 70
     0
 71
     0
 10
0.0
 20
0.0
 30
0.0
  3
POLY16
  1

  4
POLY16
  0
LINE
  5
19E
330
19B
100
AcDbEntity
  8
LC-001-100-D00-0
 62
     7
370
    50
100
AcDbLine
 10
333.83655
 20
332.917854
 30
0.0
 11
333.83655
 21
332.917854
 31
0.0
  0
LINE
  5
19F
330
19B
100
AcDbEntity
  8
LC-001-100-D00-0
 62
     7
370
    50
100
AcDbLine
 10
333.83655
 20
332.917854
 30
0.0
 11
333.813384
 21
332.915862
 31
0.0
  0
LINE
  5
1A0
330
19B
100
AcDbEntity
  8
LC-001-100-D00-0
 62
     7
370
    50
100
AcDbLine
 10
333.813384
 20
332.915862
 30
0.0
 11
333.813384
 21
332.915862
 31
0.0
  0
LINE
  5
1A1
330
19B
100
AcDbEntity
  8
LC-001-100-D00-0
 62
     7
370
    50
100
AcDbLine
 10
333.813384
 20
332.915862
 30
0.0
 11
333.781974
 21
332.913161
 31
0.0
  0
LINE
  5
1A2
330
19B
100
AcDbEntity
  8
LC-001-100-D00-0
 62
     7
370
    50
100
AcDbLine
 10
333.781974
 20
332.913161
 30
0.0
 11
333.781974
 21
332.913161
 31
0.0
  0
LINE
  5
1A3
330
19B
100
AcDbEntity
  8
LC-001-100-D00-0
 62
     7
370
    50
100
AcDbLine
 10
333.781974
 20
332.913161
 30
0.0
 11
333.753529
 21
332.900242
 31
0.0
  0
LINE
  5
1A4
330
19B
100
AcDbEntity
  8
LC-001-100-D00-0
 62
     7
370
    50
100
AcDbLine
 10
333.753529
 20
332.900242
 30
0.0
 11
333.753529
 21
332.900242
 31
0.0
  0
LINE
  5
1A5
330
19B
100
AcDbEntity
  8
LC-001-100-D00-0
 62
     7
370
    50
100
AcDbLine
 10
333.753529
 20
332.900242
 30
0.0
 11
333.746062
 21
332.896851
 31
0.0
  0
ENDBLK
  5
19D
330
19B
100
AcDbEntity
  8
0
100
AcDbBlockEnd
  0
BLOCK
  5
320
330
31F
100
AcDbEntity
  8
0
100
AcDbBlockBegin
  2
POLY17
 70
     0
 71
     0
 10
0.0
 20
0.0
 30
0.0
  3
POLY17
  1

  4
POLY17
  0
LINE
  5
322
330
31F
100
AcDbEntity
  8
LC-001-100-D00-0
 62
     7
370
    50
100
AcDbLine
 10
360.734651
 20
319.217853
 30
0.0
 11
360.734651
 21
319.217853
 31
0.0
  0
LINE
  5
323
330
31F
100
AcDbEntity
  8
LC-001-100-D00-0
 62
     7
370
    50
100
AcDbLine
 10
360.734651
 20
319.217853
 30
0.0
 11
360.736471
 21
319.329091
 31
0.0
  0
LINE
  5
324
330
31F
100
AcDbEntity
  8
LC-001-100-D00-0
 62
     7
370
    50
100
AcDbLine
 10
360.736471
 20
319.329091
 30
0.0
 11
360.736471
 21
319.329091
 31
0.0
  0
LINE
  5
325
330
31F
100
AcDbEntity
  8
LC-001-100-D00-0
 62
     7
370
    50
100
AcDbLine
 10
360.736471
 20
319.329091
 30
0.0
 11
360.740112
 21
319.551539
 31
0.0
  0
LINE
  5
326
330
31F
100
AcDbEntity
  8
LC-001-100-D00-0
 62
     7
370
    50
100
AcDbLine
 10
360.740112
 20
319.551539
 30
0.0
 11
360.740112
 21
319.551539
 31
0.0
  0
LINE
  5
327
330
31F
100
AcDbEntity
  8
LC-001-100-D00-0
 62
     7
370
    50
100
AcDbLine
 10
360.740112
 20
319.551539
 30
0.0
 11
360.768733
 21
319.848421
 31
0.0
  0
LINE
  5
328
330
31F
100
AcDbEntity
  8
LC-001-100-D00-0
 62
     7
370
    50
100
AcDbLine
 10
360.768733
 20
319.848421
 30
0.0
 11
360.768733
 21
319.848421
 31
0.0
  0
LINE
  5
329
330
31F
100
AcDbEntity
  8
LC-001-100-D00-0
 62
     7
370
    50
100
AcDbLine
 10
360.768733
 20
319.848421
 30
0.0
 11
360.811784
 21
320.074532
 31
0.0
  0
LINE
  5
32A
330
31F
100
AcDbEntity
  8
LC-001-100-D00-0
 62
     7
370
    50
100
AcDbLine
 10
360.811784
 20
320.074532
 30
0.0
 11
360.811784
 21
320.074532
 31
0.0
  0
LINE
  5
32B
330
31F
100
AcDbEntity
  8
LC-001-100-D00-0
 62
     7
370
    50
100
AcDbLine
 10
360.811784
 20
320.074532
 30
0.0
 11
360.86166
 21
320.199128
 31
0.0
  0
LINE
  5
32C
330
31F
100
AcDbEntity
  8
LC-001-100-D00-0
 62
     7
370
    50
100
AcDbLine
 10
360.86166
 20
320.199128
 30
0.0
 11
360.86166
 21
320.199128
 31
0.0
  0
LINE
  5
32D
330
31F
100
AcDbEntity
  8
LC-001-100-D00-0
 62
     7
370
    50
100
AcDbLine
 10
360.86166
 20
320.199128
 30
0.0
 11
360.896242
 21
320.212372
 31
0.0
  0
LINE
  5
32E
330
31F
100
AcDbEntity
  8
LC-001-100-D00-0
 62
     7
370
    50
100
AcDbLine
 10
360.896242
 20
320.212372
 30
0.0
 11
360.896242
 21
320.212372
 31
0.0
  0
LINE
  5
32F
330
31F
100
AcDbEntity
  8
LC-001-100-D00-0
 62
     7
370
    50
100
AcDbLine
 10
360.896242
 20
320.212372
 30
0.0
 11
360.910559
 21
320.217856
 31
0.0
  0
ENDBLK
  5
321
330
31F
100
AcDbEntity
  8
0
100
AcDbBlockEnd
  0
BLOCK
  5
335
330
334
100
AcDbEntity
  8
0
100
AcDbBlockBegin
  2
POLY18
 70
     0
 71
     0
 10
0.0
 20
0.0
 30
0.0
  3
POLY18
  1

  4
POLY18
  0
LINE
  5
337
330
334
100
AcDbEntity
  8
LC-001-100-D00-0
 62
     7
370
    50
100
AcDbLine
 10
500.583874
 20
320.217856
 30
0.0
 11
500.583874
 21
320.217856
 31
0.0
  0
LINE
  5
338
330
334
100
AcDbEntity
  8
LC-001-100-D00-0
 62
     7
370
    50
100
AcDbLine
 10
500.583874
 20
320.217856
 30
0.0
 11
500.604537
 21
320.206572
 31
0.0
  0
LINE
  5
339
330
334
100
AcDbEntity
  8
LC-001-100-D00-0
 62
     7
370
    50
100
AcDbLine
 10
500.604537
 20
320.206572
 30
0.0
 11
500.604537
 21
320.206572
 31
0.0
  0
LINE
  5
33A
330
334
100
AcDbEntity
  8
LC-001-100-D00-0
 62
     7
370
    50
100
AcDbLine
 10
500.604537
 20
320.206572
 30
0.0
 11
500.645871
 21
320.184003
 31
0.0
  0
LINE
  5
33B
330
334
100
AcDbEntity
  8
LC-001-100-D00-0
 62
     7
370
    50
100
AcDbLine
 10
500.645871
 20
320.184003
 30
0.0
 11
500.645871
 21
320.184003
 31
0.0
  0
LINE
  5
33C
330
334
100
AcDbEntity
  8
LC-001-100-D00-0
 62
     7
370
    50
100
AcDbLine
 10
500.645871
 20
320.184003
 30
0.0
 11
500.698966
 21
320.007473
 31
0.0
  0
LINE
  5
33D
330
334
100
AcDbEntity
  8
LC-001-100-D00-0
 62
     7
370
    50
100
AcDbLine
 10
500.698966
 20
320.007473
 30
0.0
 11
500.698966
 21
320.007473
 31
0.0
  0
LINE
  5
33E
330
334
100
AcDbEntity
  8
LC-001-100-D00-0
 62
     7
370
    50
100
AcDbLine
 10
500.698966
 20
320.007473
 30
0.0
 11
500.737785
 21
319.748416
 31
0.0
  0
LINE
  5
33F
330
334
100
AcDbEntity
  8
LC-001-100-D00-0
 62
     7
370
    50
100
AcDbLine
 10
500.737785
 20
319.748416
 30
0.0
 11
500.737785
 21
319.748416
 31
0.0
  0
LINE
  5
340
330
334
100
AcDbEntity
  8
LC-001-100-D00-0
 62
     7
370
    50
100
AcDbLine
 10
500.737785
 20
319.748416
 30
0.0
 11
500.757173
 21
319.468145
 31
0.0
  0
LINE
  5
341
330
334
100
AcDbEntity
  8
LC-001-100-D00-0
 62
     7
370
    50
100
AcDbLine
 10
500.757173
 20
319.468145
 30
0.0
 11
500.757173
 21
319.468145
 31
0.0
  0
LINE
  5
342
330
334
100
AcDbEntity
  8
LC-001-100-D00-0
 62
     7
370
    50
100
AcDbLine
 10
500.757173
 20
319.468145
 30
0.0
 11
500.759061
 21
319.286746
 31
0.0
  0
LINE
  5
343
330
334
100
AcDbEntity
  8
LC-001-100-D00-0
 62
     7
370
    50
100
AcDbLine
 10
500.759061
 20
319.286746
 30
0.0
 11
500.759061
 21
319.286746
 31
0.0
  0
LINE
  5
344
330
334
100
AcDbEntity
  8
LC-001-100-D00-0
 62
     7
370
    50
100
AcDbLine
 10
500.759061
 20
319.286746
 30
0.0
 11
500.759778
 21
319.217853
 31
0.0
  0
ENDBLK
  5
336
330
334
100
AcDbEntity
  8
0
100
AcDbBlockEnd
  0
BLOCK
  5
393
330
392
100
AcDbEntity
  8
0
100
AcDbBlockBegin
  2
POLY19
 70
     0
 71
     0
 10
0.0
 20
0.0
 30
0.0
  3
POLY19
  1

  4
POLY19
  0
LINE
  5
395
330
392
100
AcDbEntity
  8
LC-001-100-D00-0
 62
     7
370
    50
100
AcDbLine
 10
360.910559
 20
320.217856
 30
0.0
 11
360.910559
 21
320.217856
 31
0.0
  0
LINE
  5
396
330
392
100
AcDbEntity
  8
LC-001-100-D00-0
 62
     7
370
    50
100
AcDbLine
 10
360.910559
 20
320.217856
 30
0.0
 11
360.931623
 21
320.2065
 31
0.0
  0
LINE
  5
397
330
392
100
AcDbEntity
  8
LC-001-100-D00-0
 62
     7
370
    50
100
AcDbLine
 10
360.931623
 20
320.2065
 30
0.0
 11
360.931623
 21
320.2065
 31
0.0
  0
LINE
  5
398
330
392
100
AcDbEntity
  8
LC-001-100-D00-0
 62
     7
370
    50
100
AcDbLine
 10
360.931623
 20
320.2065
 30
0.0
 11
360.973757
 21
320.183785
 31
0.0
  0
LINE
  5
399
330
392
100
AcDbEntity
  8
LC-001-100-D00-0
 62
     7
370
    50
100
AcDbLine
 10
360.973757
 20
320.183785
 30
0.0
 11
360.973757
 21
320.183785
 31
0.0
  0
LINE
  5
39A
330
392
100
AcDbEntity
  8
LC-001-100-D00-0
 62
     7
370
    50
100
AcDbLine
 10
360.973757
 20
320.183785
 30
0.0
 11
361.0317
 21
320.006558
 31
0.0
  0
LINE
  5
39B
330
392
100
AcDbEntity
  8
LC-001-100-D00-0
 62
     7
370
    50
100
AcDbLine
 10
361.0317
 20
320.006558
 30
0.0
 11
361.0317
 21
320.006558
 31
0.0
  0
LINE
  5
39C
330
392
100
AcDbEntity
  8
LC-001-100-D00-0
 62
     7
370
    50
100
AcDbLine
 10
361.0317
 20
320.006558
 30
0.0
 11
361.075741
 21
319.746609
 31
0.0
  0
LINE
  5
39D
330
392
100
AcDbEntity
  8
LC-001-100-D00-0
 62
     7
370
    50
100
AcDbLine
 10
361.075741
 20
319.746609
 30
0.0
 11
361.075741
 21
319.746609
 31
0.0
  0
LINE
  5
39E
330
392
100
AcDbEntity
  8
LC-001-100-D00-0
 62
     7
370
    50
100
AcDbLine
 10
361.075741
 20
319.746609
 30
0.0
 11
361.098264
 21
319.466313
 31
0.0
  0
LINE
  5
39F
330
392
100
AcDbEntity
  8
LC-001-100-D00-0
 62
     7
370
    50
100
AcDbLine
 10
361.098264
 20
319.466313
 30
0.0
 11
361.098264
 21
319.466313
 31
0.0
  0
LINE
  5
3A0
330
392
100
AcDbEntity
  8
LC-001-100-D00-0
 62
     7
370
    50
100
AcDbLine
 10
361.098264
 20
319.466313
 30
0.0
 11
361.100445
 21
319.285671
 31
0.0
  0
LINE
  5
3A1
330
392
100
AcDbEntity
  8
LC-001-100-D00-0
 62
     7
370
    50
100
AcDbLine
 10
361.100445
 20
319.285671
 30
0.0
 11
361.100445
 21
319.285671
 31
0.0
  0
LINE
  5
3A2
330
392
100
AcDbEntity
  8
LC-001-100-D00-0
 62
     7
370
    50
100
AcDbLine
 10
361.100445
 20
319.285671
 30
0.0
 11
361.101264
 21
319.217853
 31
0.0
  0
ENDBLK
  5
394
330
392
100
AcDbEntity
  8
0
100
AcDbBlockEnd
  0
BLOCK
  5
3A5
330
3A4
100
AcDbEntity
  8
0
100
AcDbBlockBegin
  2
POLY20
 70
     0
 71
     0
 10
0.0
 20
0.0
 30
0.0
  3
POLY20
  1

  4
POLY20
  0
LINE
  5
3A7
330
3A4
100
AcDbEntity
  8
LC-001-100-D00-0
 62
     7
370
    50
100
AcDbLine
 10
416.947221
 20
319.217853
 30
0.0
 11
416.947221
 21
319.217853
 31
0.0
  0
LINE
  5
3A8
330
3A4
100
AcDbEntity
  8
LC-001-100-D00-0
 62
     7
370
    50
100
AcDbLine
 10
416.947221
 20
319.217853
 30
0.0
 11
416.957988
 21
319.328718
 31
0.0
  0
LINE
  5
3A9
330
3A4
100
AcDbEntity
  8
LC-001-100-D00-0
 62
     7
370
    50
100
AcDbLine
 10
416.957988
 20
319.328718
 30
0.0
 11
416.957988
 21
319.328718
 31
0.0
  0
LINE
  5
3AA
330
3A4
100
AcDbEntity
  8
LC-001-100-D00-0
 62
     7
370
    50
100
AcDbLine
 10
416.957988
 20
319.328718
 30
0.0
 11
416.979518
 21
319.550412
 31
0.0
  0
LINE
  5
3AB
330
3A4
100
AcDbEntity
  8
LC-001-100-D00-0
 62
     7
370
    50
100
AcDbLine
 10
416.979518
 20
319.550412
 30
0.0
 11
416.979518
 21
319.550412
 31
0.0
  0
LINE
  5
3AC
330
3A4
100
AcDbEntity
  8
LC-001-100-D00-0
 62
     7
370
    50
100
AcDbLine
 10
416.979518
 20
319.550412
 30
0.0
 11
417.147022
 21
319.846497
 31
0.0
  0
LINE
  5
3AD
330
3A4
100
AcDbEntity
  8
LC-001-100-D00-0
 62
     7
370
    50
100
AcDbLine
 10
417.147022
 20
319.846497
 30
0.0
 11
417.147022
 21
319.846497
 31
0.0
  0
LINE
  5
3AE
330
3A4
100
AcDbEntity
  8
LC-001-100-D00-0
 62
     7
370
    50
100
AcDbLine
 10
417.147022
 20
319.846497
 30
0.0
 11
417.394528
 21
320.07285
 31
0.0
  0
LINE
  5
3AF
330
3A4
100
AcDbEntity
  8
LC-001-100-D00-0
 62
     7
370
    50
100
AcDbLine
 10
417.394528
 20
320.07285
 30
0.0
 11
417.394528
 21
320.07285
 31
0.0
  0
LINE
  5
3B0
330
3A4
100
AcDbEntity
  8
LC-001-100-D00-0
 62
     7
370
    50
100
AcDbLine
 10
417.394528
 20
320.07285
 30
0.0
 11
417.676663
 21
320.198742
 31
0.0
  0
LINE
  5
3B1
330
3A4
100
AcDbEntity
  8
LC-001-100-D00-0
 62
     7
370
    50
100
AcDbLine
 10
417.676663
 20
320.198742
 30
0.0
 11
417.676663
 21
320.198742
 31
0.0
  0
LINE
  5
3B2
330
3A4
100
AcDbEntity
  8
LC-001-100-D00-0
 62
     7
370
    50
100
AcDbLine
 10
417.676663
 20
320.198742
 30
0.0
 11
417.867742
 21
320.212241
 31
0.0
  0
LINE
  5
3B3
330
3A4
100
AcDbEntity
  8
LC-001-100-D00-0
 62
     7
370
    50
100
AcDbLine
 10
417.867742
 20
320.212241
 30
0.0
 11
417.867742
 21
320.212241
 31
0.0
  0
LINE
  5
3B4
330
3A4
100
AcDbEntity
  8
LC-001-100-D00-0
 62
     7
370
    50
100
AcDbLine
 10
417.867742
 20
320.212241
 30
0.0
 11
417.947223
 21
320.217856
 31
0.0
  0
ENDBLK
  5
3A6
330
3A4
100
AcDbEntity
  8
0
100
AcDbBlockEnd
  0
BLOCK
  5
3BA
330
3B9
100
AcDbEntity
  8
0
100
AcDbBlockBegin
  2
POLY21
 70
     0
 71
     0
 10
0.0
 20
0.0
 30
0.0
  3
POLY21
  1

  4
POLY21
  0
LINE
  5
3BC
330
3B9
100
AcDbEntity
  8
LC-001-100-D00-0
 62
     7
370
    50
100
AcDbLine
 10
500.393172
 20
319.217853
 30
0.0
 11
500.393172
 21
319.217853
 31
0.0
  0
LINE
  5
3BD
330
3B9
100
AcDbEntity
  8
LC-001-100-D00-0
 62
     7
370
    50
100
AcDbLine
 10
500.393172
 20
319.217853
 30
0.0
 11
500.395309
 21
319.328718
 31
0.0
  0
LINE
  5
3BE
330
3B9
100
AcDbEntity
  8
LC-001-100-D00-0
 62
     7
370
    50
100
AcDbLine
 10
500.395309
 20
319.328718
 30
0.0
 11
500.395309
 21
319.328718
 31
0.0
  0
LINE
  5
3BF
330
3B9
100
AcDbEntity
  8
LC-001-100-D00-0
 62
     7
370
    50
100
AcDbLine
 10
500.395309
 20
319.328718
 30
0.0
 11
500.399581
 21
319.550414
 31
0.0
  0
LINE
  5
3C0
330
3B9
100
AcDbEntity
  8
LC-001-100-D00-0
 62
     7
370
    50
100
AcDbLine
 10
500.399581
 20
319.550414
 30
0.0
 11
500.399581
 21
319.550414
 31
0.0
  0
LINE
  5
3C1
330
3B9
100
AcDbEntity
  8
LC-001-100-D00-0
 62
     7
370
    50
100
AcDbLine
 10
500.399581
 20
319.550414
 30
0.0
 11
500.432575
 21
319.846495
 31
0.0
  0
LINE
  5
3C2
330
3B9
100
AcDbEntity
  8
LC-001-100-D00-0
 62
     7
370
    50
100
AcDbLine
 10
500.432575
 20
319.846495
 30
0.0
 11
500.432575
 21
319.846495
 31
0.0
  0
LINE
  5
3C3
330
3B9
100
AcDbEntity
  8
LC-001-100-D00-0
 62
     7
370
    50
100
AcDbLine
 10
500.432575
 20
319.846495
 30
0.0
 11
500.480491
 21
320.072851
 31
0.0
  0
LINE
  5
3C4
330
3B9
100
AcDbEntity
  8
LC-001-100-D00-0
 62
     7
370
    50
100
AcDbLine
 10
500.480491
 20
320.072851
 30
0.0
 11
500.480491
 21
320.072851
 31
0.0
  0
LINE
  5
3C5
330
3B9
100
AcDbEntity
  8
LC-001-100-D00-0
 62
     7
370
    50
100
AcDbLine
 10
500.480491
 20
320.072851
 30
0.0
 11
500.533999
 21
320.198741
 31
0.0
  0
LINE
  5
3C6
330
3B9
100
AcDbEntity
  8
LC-001-100-D00-0
 62
     7
370
    50
100
AcDbLine
 10
500.533999
 20
320.198741
 30
0.0
 11
500.533999
 21
320.198741
 31
0.0
  0
LINE
  5
3C7
330
3B9
100
AcDbEntity
  8
LC-001-100-D00-0
 62
     7
370
    50
100
AcDbLine
 10
500.533999
 20
320.198741
 30
0.0
 11
500.569222
 21
320.21224
 31
0.0
  0
LINE
  5
3C8
330
3B9
100
AcDbEntity
  8
LC-001-100-D00-0
 62
     7
370
    50
100
AcDbLine
 10
500.569222
 20
320.21224
 30
0.0
 11
500.569222
 21
320.21224
 31
0.0
  0
LINE
  5
3C9
330
3B9
100
AcDbEntity
  8
LC-001-100-D00-0
 62
     7
370
    50
100
AcDbLine
 10
500.569222
 20
320.21224
 30
0.0
 11
500.583874
 21
320.217856
 31
0.0
  0
ENDBLK
  5
3BB
330
3B9
100
AcDbEntity
  8
0
100
AcDbBlockEnd
  0
BLOCK
  5
3CC
330
3CB
100
AcDbEntity
  8
0
100
AcDbBlockBegin
  2
POLY22
 70
     0
 71
     0
 10
0.0
 20
0.0
 30
0.0
  3
POLY22
  1

  4
POLY22
  0
LINE
  5
3CE
330
3CB
100
AcDbEntity
  8
LC-001-100-D00-0
 62
     7
370
    50
100
AcDbLine
 10
443.547303
 20
320.217856
 30
0.0
 11
443.547303
 21
320.217856
 31
0.0
  0
LINE
  5
3CF
330
3CB
100
AcDbEntity
  8
LC-001-100-D00-0
 62
     7
370
    50
100
AcDbLine
 10
443.547303
 20
320.217856
 30
0.0
 11
443.661288
 21
320.2065
 31
0.0
  0
LINE
  5
3D0
330
3CB
100
AcDbEntity
  8
LC-001-100-D00-0
 62
     7
370
    50
100
AcDbLine
 10
443.661288
 20
320.2065
 30
0.0
 11
443.661288
 21
320.2065
 31
0.0
  0
LINE
  5
3D1
330
3CB
100
AcDbEntity
  8
LC-001-100-D00-0
 62
     7
370
    50
100
AcDbLine
 10
443.661288
 20
320.2065
 30
0.0
 11
443.889284
 21
320.183785
 31
0.0
  0
LINE
  5
3D2
330
3CB
100
AcDbEntity
  8
LC-001-100-D00-0
 62
     7
370
    50
100
AcDbLine
 10
443.889284
 20
320.183785
 30
0.0
 11
443.889284
 21
320.183785
 31
0.0
  0
LINE
  5
3D3
330
3CB
100
AcDbEntity
  8
LC-001-100-D00-0
 62
     7
370
    50
100
AcDbLine
 10
443.889284
 20
320.183785
 30
0.0
 11
444.192297
 21
320.006558
 31
0.0
  0
LINE
  5
3D4
330
3CB
100
AcDbEntity
  8
LC-001-100-D00-0
 62
     7
370
    50
100
AcDbLine
 10
444.192297
 20
320.006558
 30
0.0
 11
444.192297
 21
320.006558
 31
0.0
  0
LINE
  5
3D5
330
3CB
100
AcDbEntity
  8
LC-001-100-D00-0
 62
     7
370
    50
100
AcDbLine
 10
444.192297
 20
320.006558
 30
0.0
 11
444.418283
 21
319.746609
 31
0.0
  0
LINE
  5
3D6
330
3CB
100
AcDbEntity
  8
LC-001-100-D00-0
 62
     7
370
    50
100
AcDbLine
 10
444.418283
 20
319.746609
 30
0.0
 11
444.418283
 21
319.746609
 31
0.0
  0
LINE
  5
3D7
330
3CB
100
AcDbEntity
  8
LC-001-100-D00-0
 62
     7
370
    50
100
AcDbLine
 10
444.418283
 20
319.746609
 30
0.0
 11
444.532186
 21
319.466313
 31
0.0
  0
LINE
  5
3D8
330
3CB
100
AcDbEntity
  8
LC-001-100-D00-0
 62
     7
370
    50
100
AcDbLine
 10
444.532186
 20
319.466313
 30
0.0
 11
444.532186
 21
319.466313
 31
0.0
  0
LINE
  5
3D9
330
3CB
100
AcDbEntity
  8
LC-001-100-D00-0
 62
     7
370
    50
100
AcDbLine
 10
444.532186
 20
319.466313
 30
0.0
 11
444.543176
 21
319.285671
 31
0.0
  0
LINE
  5
3DA
330
3CB
100
AcDbEntity
  8
LC-001-100-D00-0
 62
     7
370
    50
100
AcDbLine
 10
444.543176
 20
319.285671
 30
0.0
 11
444.543176
 21
319.285671
 31
0.0
  0
LINE
  5
3DB
330
3CB
100
AcDbEntity
  8
LC-001-100-D00-0
 62
     7
370
    50
100
AcDbLine
 10
444.543176
 20
319.285671
 30
0.0
 11
444.547302
 21
319.217853
 31
0.0
  0
ENDBLK
  5
3CD
330
3CB
100
AcDbEntity
  8
0
100
AcDbBlockEnd
  0
BLOCK
  5
41C
330
41B
100
AcDbEntity
  8
0
100
AcDbBlockBegin
  2
POLY23
 70
     0
 71
     0
 10
0.0
 20
0.0
 30
0.0
  3
POLY23
  1

  4
POLY23
  0
LINE
  5
41E
330
41B
100
AcDbEntity
  8
LC-001-100-D00-0
 62
     7
370
    50
100
AcDbLine
 10
442.547302
 20
319.217853
 30
0.0
 11
442.547302
 21
319.217853
 31
0.0
  0
LINE
  5
41F
330
41B
100
AcDbEntity
  8
LC-001-100-D00-0
 62
     7
370
    50
100
AcDbLine
 10
442.547302
 20
319.217853
 30
0.0
 11
442.558135
 21
319.329091
 31
0.0
  0
LINE
  5
420
330
41B
100
AcDbEntity
  8
LC-001-100-D00-0
 62
     7
370
    50
100
AcDbLine
 10
442.558135
 20
319.329091
 30
0.0
 11
442.558135
 21
319.329091
 31
0.0
  0
LINE
  5
421
330
41B
100
AcDbEntity
  8
LC-001-100-D00-0
 62
     7
370
    50
100
AcDbLine
 10
442.558135
 20
319.329091
 30
0.0
 11
442.579797
 21
319.55154
 31
0.0
  0
LINE
  5
422
330
41B
100
AcDbEntity
  8
LC-001-100-D00-0
 62
     7
370
    50
100
AcDbLine
 10
442.579797
 20
319.55154
 30
0.0
 11
442.579797
 21
319.55154
 31
0.0
  0
LINE
  5
423
330
41B
100
AcDbEntity
  8
LC-001-100-D00-0
 62
     7
370
    50
100
AcDbLine
 10
442.579797
 20
319.55154
 30
0.0
 11
442.748451
 21
319.848421
 31
0.0
  0
LINE
  5
424
330
41B
100
AcDbEntity
  8
LC-001-100-D00-0
 62
     7
370
    50
100
AcDbLine
 10
442.748451
 20
319.848421
 30
0.0
 11
442.748451
 21
319.848421
 31
0.0
  0
LINE
  5
425
330
41B
100
AcDbEntity
  8
LC-001-100-D00-0
 62
     7
370
    50
100
AcDbLine
 10
442.748451
 20
319.848421
 30
0.0
 11
442.997167
 21
320.074533
 31
0.0
  0
LINE
  5
426
330
41B
100
AcDbEntity
  8
LC-001-100-D00-0
 62
     7
370
    50
100
AcDbLine
 10
442.997167
 20
320.074533
 30
0.0
 11
442.997167
 21
320.074533
 31
0.0
  0
LINE
  5
427
330
41B
100
AcDbEntity
  8
LC-001-100-D00-0
 62
     7
370
    50
100
AcDbLine
 10
442.997167
 20
320.074533
 30
0.0
 11
443.27899
 21
320.199128
 31
0.0
  0
LINE
  5
428
330
41B
100
AcDbEntity
  8
LC-001-100-D00-0
 62
     7
370
    50
100
AcDbLine
 10
443.27899
 20
320.199128
 30
0.0
 11
443.27899
 21
320.199128
 31
0.0
  0
LINE
  5
429
330
41B
100
AcDbEntity
  8
LC-001-100-D00-0
 62
     7
370
    50
100
AcDbLine
 10
443.27899
 20
320.199128
 30
0.0
 11
443.468747
 21
320.212372
 31
0.0
  0
LINE
  5
42A
330
41B
100
AcDbEntity
  8
LC-001-100-D00-0
 62
     7
370
    50
100
AcDbLine
 10
443.468747
 20
320.212372
 30
0.0
 11
443.468747
 21
320.212372
 31
0.0
  0
LINE
  5
42B
330
41B
100
AcDbEntity
  8
LC-001-100-D00-0
 62
     7
370
    50
100
AcDbLine
 10
443.468747
 20
320.212372
 30
0.0
 11
443.547303
 21
320.217856
 31
0.0
  0
ENDBLK
  5
41D
330
41B
100
AcDbEntity
  8
0
100
AcDbBlockEnd
  0
BLOCK
  5
431
330
430
100
AcDbEntity
  8
0
100
AcDbBlockBegin
  2
POLY24
 70
     0
 71
     0
 10
0.0
 20
0.0
 30
0.0
  3
POLY24
  1

  4
POLY24
  0
LINE
  5
433
330
430
100
AcDbEntity
  8
LC-001-100-D00-0
 62
     7
370
    50
100
AcDbLine
 10
417.947223
 20
320.217856
 30
0.0
 11
417.947223
 21
320.217856
 31
0.0
  0
LINE
  5
434
330
430
100
AcDbEntity
  8
LC-001-100-D00-0
 62
     7
370
    50
100
AcDbLine
 10
417.947223
 20
320.217856
 30
0.0
 11
418.060895
 21
320.206572
 31
0.0
  0
LINE
  5
435
330
430
100
AcDbEntity
  8
LC-001-100-D00-0
 62
     7
370
    50
100
AcDbLine
 10
418.060895
 20
320.206572
 30
0.0
 11
418.060895
 21
320.206572
 31
0.0
  0
LINE
  5
436
330
430
100
AcDbEntity
  8
LC-001-100-D00-0
 62
     7
370
    50
100
AcDbLine
 10
418.060895
 20
320.206572
 30
0.0
 11
418.288275
 21
320.184002
 31
0.0
  0
LINE
  5
437
330
430
100
AcDbEntity
  8
LC-001-100-D00-0
 62
     7
370
    50
100
AcDbLine
 10
418.288275
 20
320.184002
 30
0.0
 11
418.288275
 21
320.184002
 31
0.0
  0
LINE
  5
438
330
430
100
AcDbEntity
  8
LC-001-100-D00-0
 62
     7
370
    50
100
AcDbLine
 10
418.288275
 20
320.184002
 30
0.0
 11
418.591011
 21
320.007473
 31
0.0
  0
LINE
  5
439
330
430
100
AcDbEntity
  8
LC-001-100-D00-0
 62
     7
370
    50
100
AcDbLine
 10
418.591011
 20
320.007473
 30
0.0
 11
418.591011
 21
320.007473
 31
0.0
  0
LINE
  5
43A
330
430
100
AcDbEntity
  8
LC-001-100-D00-0
 62
     7
370
    50
100
AcDbLine
 10
418.591011
 20
320.007473
 30
0.0
 11
418.816965
 21
319.748416
 31
0.0
  0
LINE
  5
43B
330
430
100
AcDbEntity
  8
LC-001-100-D00-0
 62
     7
370
    50
100
AcDbLine
 10
418.816965
 20
319.748416
 30
0.0
 11
418.816965
 21
319.748416
 31
0.0
  0
LINE
  5
43C
330
430
100
AcDbEntity
  8
LC-001-100-D00-0
 62
     7
370
    50
100
AcDbLine
 10
418.816965
 20
319.748416
 30
0.0
 11
418.931772
 21
319.468145
 31
0.0
  0
LINE
  5
43D
330
430
100
AcDbEntity
  8
LC-001-100-D00-0
 62
     7
370
    50
100
AcDbLine
 10
418.931772
 20
319.468145
 30
0.0
 11
418.931772
 21
319.468145
 31
0.0
  0
LINE
  5
43E
330
430
100
AcDbEntity
  8
LC-001-100-D00-0
 62
     7
370
    50
100
AcDbLine
 10
418.931772
 20
319.468145
 30
0.0
 11
418.942969
 21
319.286746
 31
0.0
  0
LINE
  5
43F
330
430
100
AcDbEntity
  8
LC-001-100-D00-0
 62
     7
370
    50
100
AcDbLine
 10
418.942969
 20
319.286746
 30
0.0
 11
418.942969
 21
319.286746
 31
0.0
  0
LINE
  5
440
330
430
100
AcDbEntity
  8
LC-001-100-D00-0
 62
     7
370
    50
100
AcDbLine
 10
418.942969
 20
319.286746
 30
0.0
 11
418.947221
 21
319.217853
 31
0.0
  0
ENDBLK
  5
432
330
430
100
AcDbEntity
  8
0
100
AcDbBlockEnd
  0
BLOCK
  5
448
330
447
100
AcDbEntity
  8
0
100
AcDbBlockBegin
  2
POLY25
 70
     0
 71
     0
 10
0.0
 20
0.0
 30
0.0
  3
POLY25
  1

  4
POLY25
  0
LINE
  5
44A
330
447
100
AcDbEntity
  8
LC-001-100-D00-0
 62
     7
370
    50
100
AcDbLine
 10
476.679647
 20
332.896851
 30
0.0
 11
476.679647
 21
332.896851
 31
0.0
  0
LINE
  5
44B
330
447
100
AcDbEntity
  8
LC-001-100-D00-0
 62
     7
370
    50
100
AcDbLine
 10
476.679647
 20
332.896851
 30
0.0
 11
476.690483
 21
332.905263
 31
0.0
  0
LINE
  5
44C
330
447
100
AcDbEntity
  8
LC-001-100-D00-0
 62
     7
370
    50
100
AcDbLine
 10
476.690483
 20
332.905263
 30
0.0
 11
476.690483
 21
332.905263
 31
0.0
  0
LINE
  5
44D
330
447
100
AcDbEntity
  8
LC-001-100-D00-0
 62
     7
370
    50
100
AcDbLine
 10
476.690483
 20
332.905263
 30
0.0
 11
476.705176
 21
332.916669
 31
0.0
  0
LINE
  5
44E
330
447
100
AcDbEntity
  8
LC-001-100-D00-0
 62
     7
370
    50
100
AcDbLine
 10
476.705176
 20
332.916669
 30
0.0
 11
476.705176
 21
332.916669
 31
0.0
  0
LINE
  5
44F
330
447
100
AcDbEntity
  8
LC-001-100-D00-0
 62
     7
370
    50
100
AcDbLine
 10
476.705176
 20
332.916669
 30
0.0
 11
476.720792
 21
332.917608
 31
0.0
  0
LINE
  5
450
330
447
100
AcDbEntity
  8
LC-001-100-D00-0
 62
     7
370
    50
100
AcDbLine
 10
476.720792
 20
332.917608
 30
0.0
 11
476.720792
 21
332.917608
 31
0.0
  0
LINE
  5
451
330
447
100
AcDbEntity
  8
LC-001-100-D00-0
 62
     7
370
    50
100
AcDbLine
 10
476.720792
 20
332.917608
 30
0.0
 11
476.724891
 21
332.917854
 31
0.0
  0
ENDBLK
  5
449
330
447
100
AcDbEntity
  8
0
100
AcDbBlockEnd
  0
BLOCK
  5
455
330
454
100
AcDbEntity
  8
0
100
AcDbBlockBegin
  2
POLY26
 70
     0
 71
     0
 10
0.0
 20
0.0
 30
0.0
  3
POLY26
  1

  4
POLY26
  0
LINE
  5
457
330
454
100
AcDbEntity
  8
LC-001-100-D00-0
 62
     7
370
    50
100
AcDbLine
 10
475.858865
 20
332.917854
 30
0.0
 11
475.858865
 21
332.917854
 31
0.0
  0
LINE
  5
458
330
454
100
AcDbEntity
  8
LC-001-100-D00-0
 62
     7
370
    50
100
AcDbLine
 10
475.858865
 20
332.917854
 30
0.0
 11
475.847282
 21
332.915862
 31
0.0
  0
LINE
  5
459
330
454
100
AcDbEntity
  8
LC-001-100-D00-0
 62
     7
370
    50
100
AcDbLine
 10
475.847282
 20
332.915862
 30
0.0
 11
475.847282
 21
332.915862
 31
0.0
  0
LINE
  5
45A
330
454
100
AcDbEntity
  8
LC-001-100-D00-0
 62
     7
370
    50
100
AcDbLine
 10
475.847282
 20
332.915862
 30
0.0
 11
475.831575
 21
332.91316
 31
0.0
  0
LINE
  5
45B
330
454
100
AcDbEntity
  8
LC-001-100-D00-0
 62
     7
370
    50
100
AcDbLine
 10
475.831575
 20
332.91316
 30
0.0
 11
475.831575
 21
332.91316
 31
0.0
  0
LINE
  5
45C
330
454
100
AcDbEntity
  8
LC-001-100-D00-0
 62
     7
370
    50
100
AcDbLine
 10
475.831575
 20
332.91316
 30
0.0
 11
475.817355
 21
332.900242
 31
0.0
  0
LINE
  5
45D
330
454
100
AcDbEntity
  8
LC-001-100-D00-0
 62
     7
370
    50
100
AcDbLine
 10
475.817355
 20
332.900242
 30
0.0
 11
475.817355
 21
332.900242
 31
0.0
  0
LINE
  5
45E
330
454
100
AcDbEntity
  8
LC-001-100-D00-0
 62
     7
370
    50
100
AcDbLine
 10
475.817355
 20
332.900242
 30
0.0
 11
475.813621
 21
332.896851
 31
0.0
  0
ENDBLK
  5
456
330
454
100
AcDbEntity
  8
0
100
AcDbBlockEnd
  0
BLOCK
  5
464
330
463
100
AcDbEntity
  8
0
100
AcDbBlockBegin
  2
KLON21
 70
     0
 71
     0
 10
0.0
 20
0.0
 30
0.0
  3
KLON21
  1

  4
KLON21
  0
LINE
  5
466
330
463
100
AcDbEntity
  8
LC-001-100-D00-0
 62
     7
370
    25
100
AcDbLine
 10
360.270228
 20
222.573977
 30
0.0
 11
364.770228
 21
227.073977
 31
0.0
  0
LINE
  5
467
330
463
100
AcDbEntity
  8
LC-001-100-D00-0
 62
     7
370
    25
100
AcDbLine
 10
354.506458
 20
225.790463
 30
0.0
 11
356.500951
 21
227.784956
 31
0.0
  0
LINE
  5
468
330
463
100
AcDbEntity
  8
LC-001-100-D00-0
 62
     7
370
    25
100
AcDbLine
 10
350.876613
 20
231.140875
 30
0.0
 11
355.747205
 21
236.011466
 31
0.0
  0
LINE
  5
469
330
463
100
AcDbEntity
  8
LC-001-100-D00-0
 62
     7
370
    25
100
AcDbLine
 10
353.497205
 20
242.741723
 30
0.0
 11
354.32946
 21
243.573977
 31
0.0
  0
ENDBLK
  5
465
330
463
100
AcDbEntity
  8
0
100
AcDbBlockEnd
  0
BLOCK
  5
46C
330
46B
100
AcDbEntity
  8
0
100
AcDbBlockBegin
  2
KLON22
 70
     0
 71
     0
 10
0.0
 20
0.0
 30
0.0
  3
KLON22
  1

  4
KLON22
  0
LINE
  5
46E
330
46B
100
AcDbEntity
  8
LC-001-100-D00-0
 62
     7
370
    25
100
AcDbLine
 10
507.576098
 20
226.195749
 30
0.0
 11
509.125434
 21
227.745085
 31
0.0
  0
LINE
  5
46F
330
46B
100
AcDbEntity
  8
LC-001-100-D00-0
 62
     7
370
    25
100
AcDbLine
 10
494.97407
 20
222.573977
 30
0.0
 11
499.47407
 21
227.073977
 31
0.0
  0
LINE
  5
470
330
46B
100
AcDbEntity
  8
LC-001-100-D00-0
 62
     7
370
    25
100
AcDbLine
 10
505.747205
 20
233.347112
 30
0.0
 11
507.997205
 21
235.597112
 31
0.0
  0
LINE
  5
471
330
46B
100
AcDbEntity
  8
LC-001-100-D00-0
 62
     7
370
    25
100
AcDbLine
 10
506.047205
 20
242.627369
 30
0.0
 11
506.993814
 21
243.573977
 31
0.0
  0
ENDBLK
  5
46D
330
46B
100
AcDbEntity
  8
0
100
AcDbBlockEnd
  0
BLOCK
  5
474
330
473
100
AcDbEntity
  8
0
100
AcDbBlockBegin
  2
KLON23
 70
     0
 71
     0
 10
0.0
 20
0.0
 30
0.0
  3
KLON23
  1

  4
KLON23
  0
LINE
  5
476
330
473
100
AcDbEntity
  8
LC-001-100-D00-0
 62
     7
370
    25
100
AcDbLine
 10
607.747205
 20
324.443312
 30
0.0
 11
605.61654
 21
326.573977
 31
0.0
  0
LINE
  5
477
330
473
100
AcDbEntity
  8
LC-001-100-D00-0
 62
     7
370
    25
100
AcDbLine
 10
599.636284
 20
323.573977
 30
0.0
 11
596.636284
 21
326.573977
 31
0.0
  0
LINE
  5
478
330
473
100
AcDbEntity
  8
LC-001-100-D00-0
 62
     7
370
    25
100
AcDbLine
 10
590.656028
 20
323.573977
 30
0.0
 11
587.656028
 21
326.573977
 31
0.0
  0
LINE
  5
479
330
473
100
AcDbEntity
  8
LC-001-100-D00-0
 62
     7
370
    25
100
AcDbLine
 10
581.675772
 20
323.573977
 30
0.0
 11
578.675772
 21
326.573977
 31
0.0
  0
LINE
  5
47A
330
473
100
AcDbEntity
  8
LC-001-100-D00-0
 62
     7
370
    25
100
AcDbLine
 10
572.695515
 20
323.573977
 30
0.0
 11
569.695515
 21
326.573977
 31
0.0
  0
LINE
  5
47B
330
473
100
AcDbEntity
  8
LC-001-100-D00-0
 62
     7
370
    25
100
AcDbLine
 10
563.715259
 20
323.573977
 30
0.0
 11
560.715259
 21
326.573977
 31
0.0
  0
LINE
  5
47C
330
473
100
AcDbEntity
  8
LC-001-100-D00-0
 62
     7
370
    25
100
AcDbLine
 10
555.749324
 20
322.559656
 30
0.0
 11
553.478925
 21
324.830056
 31
0.0
  0
LINE
  5
47D
330
473
100
AcDbEntity
  8
LC-001-100-D00-0
 62
     7
370
    25
100
AcDbLine
 10
549.165415
 20
320.163309
 30
0.0
 11
546.895015
 21
322.433709
 31
0.0
  0
LINE
  5
47E
330
473
100
AcDbEntity
  8
LC-001-100-D00-0
 62
     7
370
    25
100
AcDbLine
 10
542.581506
 20
317.766962
 30
0.0
 11
540.311106
 21
320.037362
 31
0.0
  0
LINE
  5
47F
330
473
100
AcDbEntity
  8
LC-001-100-D00-0
 62
     7
370
    25
100
AcDbLine
 10
535.974235
 20
315.393977
 30
0.0
 11
533.474235
 21
317.893977
 31
0.0
  0
LINE
  5
480
330
473
100
AcDbEntity
  8
LC-001-100-D00-0
 62
     7
370
    25
100
AcDbLine
 10
530.722205
 20
311.66575
 30
0.0
 11
527.497205
 21
314.89075
 31
0.0
  0
LINE
  5
481
330
473
100
AcDbEntity
  8
LC-001-100-D00-0
 62
     7
370
    25
100
AcDbLine
 10
530.722205
 20
302.685494
 30
0.0
 11
527.497205
 21
305.910494
 31
0.0
  0
LINE
  5
482
330
473
100
AcDbEntity
  8
LC-001-100-D00-0
 62
     7
370
    25
100
AcDbLine
 10
521.997205
 20
311.410494
 30
0.0
 11
515.513723
 21
317.893977
 31
0.0
  0
LINE
  5
483
330
473
100
AcDbEntity
  8
LC-001-100-D00-0
 62
     7
370
    25
100
AcDbLine
 10
527.747205
 20
296.680238
 30
0.0
 11
522.033466
 21
302.393977
 31
0.0
  0
LINE
  5
484
330
473
100
AcDbEntity
  8
LC-001-100-D00-0
 62
     7
370
    25
100
AcDbLine
 10
521.997205
 20
302.430238
 30
0.0
 11
513.247205
 21
311.180238
 31
0.0
  0
LINE
  5
485
330
473
100
AcDbEntity
  8
LC-001-100-D00-0
 62
     7
370
    25
100
AcDbLine
 10
516.05321
 20
299.393977
 30
0.0
 11
513.247205
 21
302.199982
 31
0.0
  0
LINE
  5
486
330
473
100
AcDbEntity
  8
LC-001-100-D00-0
 62
     7
370
    25
100
AcDbLine
 10
510.747205
 20
295.719726
 30
0.0
 11
509.28008
 21
297.186852
 31
0.0
  0
LINE
  5
487
330
473
100
AcDbEntity
  8
LC-001-100-D00-0
 62
     7
370
    25
100
AcDbLine
 10
510.747205
 20
286.73947
 30
0.0
 11
508.247205
 21
289.23947
 31
0.0
  0
LINE
  5
488
330
473
100
AcDbEntity
  8
LC-001-100-D00-0
 62
     7
370
    25
100
AcDbLine
 10
510.747205
 20
277.759214
 30
0.0
 11
508.232693
 21
280.273726
 31
0.0
  0
LINE
  5
489
330
473
100
AcDbEntity
  8
LC-001-100-D00-0
 62
     7
370
    25
100
AcDbLine
 10
507.416955
 20
281.089464
 30
0.0
 11
502.802442
 21
285.703977
 31
0.0
  0
LINE
  5
48A
330
473
100
AcDbEntity
  8
LC-001-100-D00-0
 62
     7
370
    25
100
AcDbLine
 10
510.747205
 20
268.778958
 30
0.0
 11
508.247205
 21
271.278958
 31
0.0
  0
LINE
  5
48B
330
473
100
AcDbEntity
  8
LC-001-100-D00-0
 62
     7
370
    25
100
AcDbLine
 10
503.797205
 20
275.728958
 30
0.0
 11
501.247205
 21
278.278958
 31
0.0
  0
LINE
  5
48C
330
473
100
AcDbEntity
  8
LC-001-100-D00-0
 62
     7
370
    25
100
AcDbLine
 10
510.747205
 20
259.798701
 30
0.0
 11
508.247205
 21
262.298701
 31
0.0
  0
LINE
  5
48D
330
473
100
AcDbEntity
  8
LC-001-100-D00-0
 62
     7
370
    25
100
AcDbLine
 10
502.822617
 20
267.72329
 30
0.0
 11
499.84193
 21
270.703977
 31
0.0
  0
LINE
  5
48E
330
473
100
AcDbEntity
  8
LC-001-100-D00-0
 62
     7
370
    25
100
AcDbLine
 10
510.747205
 20
250.818445
 30
0.0
 11
508.247205
 21
253.318445
 31
0.0
  0
LINE
  5
48F
330
473
100
AcDbEntity
  8
LC-001-100-D00-0
 62
     7
370
    25
100
AcDbLine
 10
498.497205
 20
263.068445
 30
0.0
 11
495.247205
 21
266.318445
 31
0.0
  0
LINE
  5
490
330
473
100
AcDbEntity
  8
LC-001-100-D00-0
 62
     7
370
    25
100
AcDbLine
 10
510.747205
 20
241.838189
 30
0.0
 11
508.247205
 21
244.338189
 31
0.0
  0
LINE
  5
491
330
473
100
AcDbEntity
  8
LC-001-100-D00-0
 62
     7
370
    25
100
AcDbLine
 10
498.497205
 20
254.088189
 30
0.0
 11
495.247205
 21
257.338189
 31
0.0
  0
LINE
  5
492
330
473
100
AcDbEntity
  8
LC-001-100-D00-0
 62
     7
370
    25
100
AcDbLine
 10
509.031161
 20
234.573977
 30
0.0
 11
508.247205
 21
235.357933
 31
0.0
  0
LINE
  5
493
330
473
100
AcDbEntity
  8
LC-001-100-D00-0
 62
     7
370
    25
100
AcDbLine
 10
498.497205
 20
245.107933
 30
0.0
 11
495.247205
 21
248.357933
 31
0.0
  0
LINE
  5
494
330
473
100
AcDbEntity
  8
LC-001-100-D00-0
 62
     7
370
    25
100
AcDbLine
 10
498.497205
 20
236.127677
 30
0.0
 11
494.523368
 21
240.101514
 31
0.0
  0
LINE
  5
495
330
473
100
AcDbEntity
  8
LC-001-100-D00-0
 62
     7
370
    25
100
AcDbLine
 10
493.247205
 20
232.397421
 30
0.0
 11
490.247205
 21
235.397421
 31
0.0
  0
LINE
  5
496
330
473
100
AcDbEntity
  8
LC-001-100-D00-0
 62
     7
370
    25
100
AcDbLine
 10
493.247205
 20
223.417165
 30
0.0
 11
490.247205
 21
226.417165
 31
0.0
  0
LINE
  5
497
330
473
100
AcDbEntity
  8
LC-001-100-D00-0
 62
     7
370
    25
100
AcDbLine
 10
493.247205
 20
214.436909
 30
0.0
 11
490.247205
 21
217.436909
 31
0.0
  0
LINE
  5
498
330
473
100
AcDbEntity
  8
LC-001-100-D00-0
 62
     7
370
    25
100
AcDbLine
 10
493.247205
 20
205.456652
 30
0.0
 11
490.247205
 21
208.456652
 31
0.0
  0
LINE
  5
499
330
473
100
AcDbEntity
  8
LC-001-100-D00-0
 62
     7
370
    25
100
AcDbLine
 10
493.247205
 20
196.476396
 30
0.0
 11
490.247205
 21
199.476396
 31
0.0
  0
LINE
  5
49A
330
473
100
AcDbEntity
  8
LC-001-100-D00-0
 62
     7
370
    25
100
AcDbLine
 10
493.247205
 20
187.49614
 30
0.0
 11
490.247205
 21
190.49614
 31
0.0
  0
LINE
  5
49B
330
473
100
AcDbEntity
  8
LC-001-100-D00-0
 62
     7
370
    25
100
AcDbLine
 10
493.247205
 20
178.515884
 30
0.0
 11
490.247205
 21
181.515884
 31
0.0
  0
LINE
  5
49C
330
473
100
AcDbEntity
  8
LC-001-100-D00-0
 62
     7
370
    25
100
AcDbLine
 10
493.247205
 20
169.535628
 30
0.0
 11
490.247205
 21
172.535628
 31
0.0
  0
LINE
  5
49D
330
473
100
AcDbEntity
  8
LC-001-100-D00-0
 62
     7
370
    25
100
AcDbLine
 10
492.714961
 20
161.087616
 30
0.0
 11
490.247205
 21
163.555372
 31
0.0
  0
ENDBLK
  5
475
330
473
100
AcDbEntity
  8
0
100
AcDbBlockEnd
  0
BLOCK
  5
4A0
330
49F
100
AcDbEntity
  8
0
100
AcDbBlockBegin
  2
KLON24
 70
     0
 71
     0
 10
0.0
 20
0.0
 30
0.0
  3
KLON24
  1

  4
KLON24
  0
LINE
  5
4A2
330
49F
100
AcDbEntity
  8
LC-001-100-D00-0
 62
     7
370
    25
100
AcDbLine
 10
348.247205
 20
314.535628
 30
0.0
 11
344.888856
 21
317.893977
 31
0.0
  0
LINE
  5
4A3
330
49F
100
AcDbEntity
  8
LC-001-100-D00-0
 62
     7
370
    25
100
AcDbLine
 10
348.247205
 20
305.555372
 30
0.0
 11
339.497205
 21
314.305372
 31
0.0
  0
LINE
  5
4A4
330
49F
100
AcDbEntity
  8
LC-001-100-D00-0
 62
     7
370
    25
100
AcDbLine
 10
360.247205
 20
284.575116
 30
0.0
 11
359.118344
 21
285.703977
 31
0.0
  0
LINE
  5
4A5
330
49F
100
AcDbEntity
  8
LC-001-100-D00-0
 62
     7
370
    25
100
AcDbLine
 10
353.247205
 20
291.575116
 30
0.0
 11
350.747205
 21
294.075116
 31
0.0
  0
LINE
  5
4A6
330
49F
100
AcDbEntity
  8
LC-001-100-D00-0
 62
     7
370
    25
100
AcDbLine
 10
347.808344
 20
297.013977
 30
0.0
 11
345.747205
 21
299.075116
 31
0.0
  0
LINE
  5
4A7
330
49F
100
AcDbEntity
  8
LC-001-100-D00-0
 62
     7
370
    25
100
AcDbLine
 10
345.428344
 20
299.393977
 30
0.0
 11
339.497205
 21
305.325116
 31
0.0
  0
LINE
  5
4A8
330
49F
100
AcDbEntity
  8
LC-001-100-D00-0
 62
     7
370
    25
100
AcDbLine
 10
333.997205
 20
310.825116
 30
0.0
 11
330.772205
 21
314.050116
 31
0.0
  0
LINE
  5
4A9
330
49F
100
AcDbEntity
  8
LC-001-100-D00-0
 62
     7
370
    25
100
AcDbLine
 10
329.428344
 20
315.393977
 30
0.0
 11
326.846019
 21
317.976302
 31
0.0
  0
LINE
  5
4AA
330
49F
100
AcDbEntity
  8
LC-001-100-D00-0
 62
     7
370
    25
100
AcDbLine
 10
366.247205
 20
269.59486
 30
0.0
 11
365.138088
 21
270.703977
 31
0.0
  0
LINE
  5
4AB
330
49F
100
AcDbEntity
  8
LC-001-100-D00-0
 62
     7
370
    25
100
AcDbLine
 10
360.247205
 20
275.59486
 30
0.0
 11
357.697205
 21
278.14486
 31
0.0
  0
LINE
  5
4AC
330
49F
100
AcDbEntity
  8
LC-001-100-D00-0
 62
     7
370
    25
100
AcDbLine
 10
354.738088
 20
281.103977
 30
0.0
 11
350.747205
 21
285.09486
 31
0.0
  0
LINE
  5
4AD
330
49F
100
AcDbEntity
  8
LC-001-100-D00-0
 62
     7
370
    25
100
AcDbLine
 10
339.597647
 20
296.244418
 30
0.0
 11
330.772205
 21
305.06986
 31
0.0
  0
LINE
  5
4AE
330
49F
100
AcDbEntity
  8
LC-001-100-D00-0
 62
     7
370
    25
100
AcDbLine
 10
317.595668
 20
318.246397
 30
0.0
 11
312.72678
 21
323.115285
 31
0.0
  0
LINE
  5
4AF
330
49F
100
AcDbEntity
  8
LC-001-100-D00-0
 62
     7
370
    25
100
AcDbLine
 10
366.247205
 20
260.614604
 30
0.0
 11
362.997205
 21
263.864604
 31
0.0
  0
LINE
  5
4B0
330
49F
100
AcDbEntity
  8
LC-001-100-D00-0
 62
     7
370
    25
100
AcDbLine
 10
359.580598
 20
267.281211
 30
0.0
 11
357.774439
 21
269.08737
 31
0.0
  0
LINE
  5
4B1
330
49F
100
AcDbEntity
  8
LC-001-100-D00-0
 62
     7
370
    25
100
AcDbLine
 10
353.247205
 20
273.614604
 30
0.0
 11
350.747205
 21
276.114604
 31
0.0
  0
LINE
  5
4B2
330
49F
100
AcDbEntity
  8
LC-001-100-D00-0
 62
     7
370
    25
100
AcDbLine
 10
303.476429
 20
323.38538
 30
0.0
 11
300.287832
 21
326.573977
 31
0.0
  0
LINE
  5
4B3
330
49F
100
AcDbEntity
  8
LC-001-100-D00-0
 62
     7
370
    25
100
AcDbLine
 10
366.247205
 20
251.634347
 30
0.0
 11
362.997205
 21
254.884347
 31
0.0
  0
LINE
  5
4B4
330
49F
100
AcDbEntity
  8
LC-001-100-D00-0
 62
     7
370
    25
100
AcDbLine
 10
353.247205
 20
264.634347
 30
0.0
 11
350.747205
 21
267.134347
 31
0.0
  0
LINE
  5
4B5
330
49F
100
AcDbEntity
  8
LC-001-100-D00-0
 62
     7
370
    25
100
AcDbLine
 10
294.307576
 20
323.573977
 30
0.0
 11
291.307576
 21
326.573977
 31
0.0
  0
LINE
  5
4B6
330
49F
100
AcDbEntity
  8
LC-001-100-D00-0
 62
     7
370
    25
100
AcDbLine
 10
371.247205
 20
237.654091
 30
0.0
 11
369.069991
 21
239.831305
 31
0.0
  0
LINE
  5
4B7
330
49F
100
AcDbEntity
  8
LC-001-100-D00-0
 62
     7
370
    25
100
AcDbLine
 10
366.247205
 20
242.654091
 30
0.0
 11
362.997205
 21
245.904091
 31
0.0
  0
LINE
  5
4B8
330
49F
100
AcDbEntity
  8
LC-001-100-D00-0
 62
     7
370
    25
100
AcDbLine
 10
353.247205
 20
255.654091
 30
0.0
 11
350.747205
 21
258.154091
 31
0.0
  0
LINE
  5
4B9
330
49F
100
AcDbEntity
  8
LC-001-100-D00-0
 62
     7
370
    25
100
AcDbLine
 10
285.32732
 20
323.573977
 30
0.0
 11
282.32732
 21
326.573977
 31
0.0
  0
LINE
  5
4BA
330
49F
100
AcDbEntity
  8
LC-001-100-D00-0
 62
     7
370
    25
100
AcDbLine
 10
371.247205
 20
228.673835
 30
0.0
 11
368.247205
 21
231.673835
 31
0.0
  0
LINE
  5
4BB
330
49F
100
AcDbEntity
  8
LC-001-100-D00-0
 62
     7
370
    25
100
AcDbLine
 10
365.347063
 20
234.573977
 30
0.0
 11
362.997205
 21
236.923835
 31
0.0
  0
LINE
  5
4BC
330
49F
100
AcDbEntity
  8
LC-001-100-D00-0
 62
     7
370
    25
100
AcDbLine
 10
353.247205
 20
246.673835
 30
0.0
 11
350.747205
 21
249.173835
 31
0.0
  0
LINE
  5
4BD
330
49F
100
AcDbEntity
  8
LC-001-100-D00-0
 62
     7
370
    25
100
AcDbLine
 10
276.347063
 20
323.573977
 30
0.0
 11
273.347063
 21
326.573977
 31
0.0
  0
LINE
  5
4BE
330
49F
100
AcDbEntity
  8
LC-001-100-D00-0
 62
     7
370
    25
100
AcDbLine
 10
371.247205
 20
219.693579
 30
0.0
 11
368.247205
 21
222.693579
 31
0.0
  0
LINE
  5
4BF
330
49F
100
AcDbEntity
  8
LC-001-100-D00-0
 62
     7
370
    25
100
AcDbLine
 10
353.247205
 20
237.693579
 30
0.0
 11
350.747205
 21
240.193579
 31
0.0
  0
LINE
  5
4C0
330
49F
100
AcDbEntity
  8
LC-001-100-D00-0
 62
     7
370
    25
100
AcDbLine
 10
267.366807
 20
323.573977
 30
0.0
 11
264.366807
 21
326.573977
 31
0.0
  0
LINE
  5
4C1
330
49F
100
AcDbEntity
  8
LC-001-100-D00-0
 62
     7
370
    25
100
AcDbLine
 10
371.247205
 20
210.713323
 30
0.0
 11
368.247205
 21
213.713323
 31
0.0
  0
LINE
  5
4C2
330
49F
100
AcDbEntity
  8
LC-001-100-D00-0
 62
     7
370
    25
100
AcDbLine
 10
258.386551
 20
323.573977
 30
0.0
 11
255.41443
 21
326.546098
 31
0.0
  0
LINE
  5
4C3
330
49F
100
AcDbEntity
  8
LC-001-100-D00-0
 62
     7
370
    25
100
AcDbLine
 10
371.247205
 20
201.733067
 30
0.0
 11
368.247205
 21
204.733067
 31
0.0
  0
LINE
  5
4C4
330
49F
100
AcDbEntity
  8
LC-001-100-D00-0
 62
     7
370
    25
100
AcDbLine
 10
371.247205
 20
192.752811
 30
0.0
 11
368.247205
 21
195.752811
 31
0.0
  0
LINE
  5
4C5
330
49F
100
AcDbEntity
  8
LC-001-100-D00-0
 62
     7
370
    25
100
AcDbLine
 10
371.247205
 20
183.772555
 30
0.0
 11
368.247205
 21
186.772555
 31
0.0
  0
LINE
  5
4C6
330
49F
100
AcDbEntity
  8
LC-001-100-D00-0
 62
     7
370
    25
100
AcDbLine
 10
371.247205
 20
174.792298
 30
0.0
 11
368.247205
 21
177.792298
 31
0.0
  0
LINE
  5
4C7
330
49F
100
AcDbEntity
  8
LC-001-100-D00-0
 62
     7
370
    25
100
AcDbLine
 10
371.247205
 20
165.812042
 30
0.0
 11
368.247205
 21
168.812042
 31
0.0
  0
LINE
  5
4C8
330
49F
100
AcDbEntity
  8
LC-001-100-D00-0
 62
     7
370
    25
100
AcDbLine
 10
369.505014
 20
158.573977
 30
0.0
 11
369.43393
 21
158.645062
 31
0.0
  0
ENDBLK
  5
4A1
330
49F
100
AcDbEntity
  8
0
100
AcDbBlockEnd
  0
BLOCK
  5
4CB
330
4CA
100
AcDbEntity
  8
0
100
AcDbBlockBegin
  2
KLON25
 70
     0
 71
     0
 10
0.0
 20
0.0
 30
0.0
  3
KLON25
  1

  4
KLON25
  0
LINE
  5
4CD
330
4CA
100
AcDbEntity
  8
LC-001-100-D00-0
 62
     7
370
    25
100
AcDbLine
 10
504.222533
 20
285.703977
 30
0.0
 11
507.997205
 21
289.478649
 31
0.0
  0
LINE
  5
4CE
330
4CA
100
AcDbEntity
  8
LC-001-100-D00-0
 62
     7
370
    25
100
AcDbLine
 10
495.890767
 20
286.352466
 30
0.0
 11
500.742277
 21
291.203977
 31
0.0
  0
ENDBLK
  5
4CC
330
4CA
100
AcDbEntity
  8
0
100
AcDbBlockEnd
  0
BLOCK
  5
4D1
330
4D0
100
AcDbEntity
  8
0
100
AcDbBlockBegin
  2
KLON26
 70
     0
 71
     0
 10
0.0
 20
0.0
 30
0.0
  3
KLON26
  1

  4
KLON26
  0
LINE
  5
4D3
330
4D0
100
AcDbEntity
  8
LC-001-100-D00-0
 62
     7
370
    25
100
AcDbLine
 10
361.997205
 20
287.162747
 30
0.0
 11
365.112898
 21
290.278439
 31
0.0
  0
LINE
  5
4D4
330
4D0
100
AcDbEntity
  8
LC-001-100-D00-0
 62
     7
370
    25
100
AcDbLine
 10
353.497205
 20
287.643003
 30
0.0
 11
357.058179
 21
291.203977
 31
0.0
  0
ENDBLK
  5
4D2
330
4D0
100
AcDbEntity
  8
0
100
AcDbBlockEnd
  0
BLOCK
  5
4D7
330
4D6
100
AcDbEntity
  8
0
100
AcDbBlockBegin
  2
KLON27
 70
     0
 71
     0
 10
0.0
 20
0.0
 30
0.0
  3
KLON27
  1

  4
KLON27
  0
LINE
  5
4D9
330
4D6
100
AcDbEntity
  8
LC-001-100-D00-0
 62
     7
370
    25
100
AcDbLine
 10
549.148966
 20
329.160014
 30
0.0
 11
548.694028
 21
329.614953
 31
0.0
  0
LINE
  5
4DA
330
4D6
100
AcDbEntity
  8
LC-001-100-D00-0
 62
     7
370
    25
100
AcDbLine
 10
541.022804
 20
328.30592
 30
0.0
 11
540.567866
 21
328.760859
 31
0.0
  0
LINE
  5
4DB
330
4D6
100
AcDbEntity
  8
LC-001-100-D00-0
 62
     7
370
    25
100
AcDbLine
 10
532.896642
 20
327.451826
 30
0.0
 11
532.430615
 21
327.917853
 31
0.0
  0
LINE
  5
4DC
330
4D6
100
AcDbEntity
  8
LC-001-100-D00-0
 62
     7
370
    25
100
AcDbLine
 10
523.950359
 20
327.417853
 30
0.0
 11
523.450359
 21
327.917853
 31
0.0
  0
LINE
  5
4DD
330
4D6
100
AcDbEntity
  8
LC-001-100-D00-0
 62
     7
370
    25
100
AcDbLine
 10
514.970103
 20
327.417853
 30
0.0
 11
514.470103
 21
327.917853
 31
0.0
  0
LINE
  5
4DE
330
4D6
100
AcDbEntity
  8
LC-001-100-D00-0
 62
     7
370
    25
100
AcDbLine
 10
510.497205
 20
322.910494
 30
0.0
 11
509.997205
 21
323.410494
 31
0.0
  0
LINE
  5
4DF
330
4D6
100
AcDbEntity
  8
LC-001-100-D00-0
 62
     7
370
    25
100
AcDbLine
 10
510.497205
 20
313.930238
 30
0.0
 11
509.997205
 21
314.430238
 31
0.0
  0
LINE
  5
4E0
330
4D6
100
AcDbEntity
  8
LC-001-100-D00-0
 62
     7
370
    25
100
AcDbLine
 10
509.679043
 20
305.768144
 30
0.0
 11
509.32499
 21
306.122197
 31
0.0
  0
LINE
  5
4E1
330
4D6
100
AcDbEntity
  8
LC-001-100-D00-0
 62
     7
370
    25
100
AcDbLine
 10
506.247205
 20
300.219726
 30
0.0
 11
505.747205
 21
300.719726
 31
0.0
  0
ENDBLK
  5
4D8
330
4D6
100
AcDbEntity
  8
0
100
AcDbBlockEnd
  0
BLOCK
  5
4E4
330
4E3
100
AcDbEntity
  8
0
100
AcDbBlockBegin
  2
KLON28
 70
     0
 71
     0
 10
0.0
 20
0.0
 30
0.0
  3
KLON28
  1

  4
KLON28
  0
LINE
  5
4E6
330
4E3
100
AcDbEntity
  8
LC-001-100-D00-0
 62
     7
370
    25
100
AcDbLine
 10
351.497205
 20
320.265884
 30
0.0
 11
350.997205
 21
320.765884
 31
0.0
  0
LINE
  5
4E7
330
4E3
100
AcDbEntity
  8
LC-001-100-D00-0
 62
     7
370
    25
100
AcDbLine
 10
344.345236
 20
327.417853
 30
0.0
 11
343.845236
 21
327.917853
 31
0.0
  0
LINE
  5
4E8
330
4E3
100
AcDbEntity
  8
LC-001-100-D00-0
 62
     7
370
    25
100
AcDbLine
 10
351.497205
 20
311.285628
 30
0.0
 11
350.997205
 21
311.785628
 31
0.0
  0
ENDBLK
  5
4E5
330
4E3
100
AcDbEntity
  8
0
100
AcDbBlockEnd
  0
BLOCK
  5
4EB
330
4EA
100
AcDbEntity
  8
0
100
AcDbBlockBegin
  2
KLON29
 70
     0
 71
     0
 10
0.0
 20
0.0
 30
0.0
  3
KLON29
  1

  4
KLON29
  0
LINE
  5
4ED
330
4EA
100
AcDbEntity
  8
LC-001-100-D00-0
 62
     7
370
    25
100
AcDbLine
 10
326.086842
 20
327.715735
 30
0.0
 11
325.52504
 21
328.277537
 31
0.0
  0
LINE
  5
4EE
330
4EA
100
AcDbEntity
  8
LC-001-100-D00-0
 62
     7
370
    25
100
AcDbLine
 10
316.051867
 20
328.770454
 30
0.0
 11
315.490066
 21
329.332256
 31
0.0
  0
ENDBLK
  5
4EC
330
4EA
100
AcDbEntity
  8
0
100
AcDbBlockEnd
  0
BLOCK
  5
4FF
330
4FE
100
AcDbEntity
  8
0
100
AcDbBlockBegin
  2
*X156
 70
     1
 71
     0
 10
0.0
 20
0.0
 30
0.0
  3
*X156
  1

  4
*X1
  0
LINE
  5
502
330
4FE
100
AcDbEntity
  8
LC-003-005-----0
 62
     7
370
    25
100
AcDbLine
 10
190.243788
 20
326.573976
 30
0.0
 11
190.747198
 21
327.077385
 31
0.0
  0
LINE
  5
503
330
4FE
100
AcDbEntity
  8
LC-003-005-----0
 62
     7
370
    25
100
AcDbLine
 10
189.678103
 20
326.573976
 30
0.0
 11
190.747198
 21
327.64307
 31
0.0
  0
LINE
  5
504
330
4FE
100
AcDbEntity
  8
LC-003-005-----0
 62
     7
370
    25
100
AcDbLine
 10
189.112417
 20
326.573976
 30
0.0
 11
190.747198
 21
328.208756
 31
0.0
  0
LINE
  5
505
330
4FE
100
AcDbEntity
  8
LC-003-005-----0
 62
     7
370
    25
100
AcDbLine
 10
188.546732
 20
326.573976
 30
0.0
 11
190.747198
 21
328.774441
 31
0.0
  0
LINE
  5
506
330
4FE
100
AcDbEntity
  8
LC-003-005-----0
 62
     7
370
    25
100
AcDbLine
 10
187.981046
 20
326.573976
 30
0.0
 11
190.747198
 21
329.340127
 31
0.0
  0
LINE
  5
507
330
4FE
100
AcDbEntity
  8
LC-003-005-----0
 62
     7
370
    25
100
AcDbLine
 10
187.415361
 20
326.573976
 30
0.0
 11
190.747198
 21
329.905812
 31
0.0
  0
LINE
  5
508
330
4FE
100
AcDbEntity
  8
LC-003-005-----0
 62
     7
370
    25
100
AcDbLine
 10
186.849676
 20
326.573976
 30
0.0
 11
190.747198
 21
330.471498
 31
0.0
  0
LINE
  5
509
330
4FE
100
AcDbEntity
  8
LC-003-005-----0
 62
     7
370
    25
100
AcDbLine
 10
186.28399
 20
326.573976
 30
0.0
 11
190.747198
 21
331.037183
 31
0.0
  0
LINE
  5
50A
330
4FE
100
AcDbEntity
  8
LC-003-005-----0
 62
     7
370
    25
100
AcDbLine
 10
185.718305
 20
326.573976
 30
0.0
 11
190.418305
 21
331.273976
 31
0.0
  0
LINE
  5
50B
330
4FE
100
AcDbEntity
  8
LC-003-005-----0
 62
     7
370
    25
100
AcDbLine
 10
185.152619
 20
326.573976
 30
0.0
 11
189.852619
 21
331.273976
 31
0.0
  0
LINE
  5
50C
330
4FE
100
AcDbEntity
  8
LC-003-005-----0
 62
     7
370
    25
100
AcDbLine
 10
184.586934
 20
326.573976
 30
0.0
 11
189.286934
 21
331.273976
 31
0.0
  0
LINE
  5
50D
330
4FE
100
AcDbEntity
  8
LC-003-005-----0
 62
     7
370
    25
100
AcDbLine
 10
184.021249
 20
326.573976
 30
0.0
 11
188.721249
 21
331.273976
 31
0.0
  0
LINE
  5
50E
330
4FE
100
AcDbEntity
  8
LC-003-005-----0
 62
     7
370
    25
100
AcDbLine
 10
183.455563
 20
326.573976
 30
0.0
 11
188.155563
 21
331.273976
 31
0.0
  0
LINE
  5
50F
330
4FE
100
AcDbEntity
  8
LC-003-005-----0
 62
     7
370
    25
100
AcDbLine
 10
182.889878
 20
326.573976
 30
0.0
 11
187.589878
 21
331.273976
 31
0.0
  0
LINE
  5
510
330
4FE
100
AcDbEntity
  8
LC-003-005-----0
 62
     7
370
    25
100
AcDbLine
 10
182.324192
 20
326.573976
 30
0.0
 11
187.024192
 21
331.273976
 31
0.0
  0
LINE
  5
511
330
4FE
100
AcDbEntity
  8
LC-003-005-----0
 62
     7
370
    25
100
AcDbLine
 10
181.758507
 20
326.573976
 30
0.0
 11
186.458507
 21
331.273976
 31
0.0
  0
LINE
  5
512
330
4FE
100
AcDbEntity
  8
LC-003-005-----0
 62
     7
370
    25
100
AcDbLine
 10
181.192821
 20
326.573976
 30
0.0
 11
185.892821
 21
331.273976
 31
0.0
  0
LINE
  5
513
330
4FE
100
AcDbEntity
  8
LC-003-005-----0
 62
     7
370
    25
100
AcDbLine
 10
180.747198
 20
326.694037
 30
0.0
 11
185.327136
 21
331.273976
 31
0.0
  0
LINE
  5
514
330
4FE
100
AcDbEntity
  8
LC-003-005-----0
 62
     7
370
    25
100
AcDbLine
 10
180.747198
 20
327.259723
 30
0.0
 11
184.761451
 21
331.273976
 31
0.0
  0
LINE
  5
515
330
4FE
100
AcDbEntity
  8
LC-003-005-----0
 62
     7
370
    25
100
AcDbLine
 10
180.747198
 20
327.825408
 30
0.0
 11
184.195765
 21
331.273976
 31
0.0
  0
LINE
  5
516
330
4FE
100
AcDbEntity
  8
LC-003-005-----0
 62
     7
370
    25
100
AcDbLine
 10
180.747198
 20
328.391094
 30
0.0
 11
183.63008
 21
331.273976
 31
0.0
  0
LINE
  5
517
330
4FE
100
AcDbEntity
  8
LC-003-005-----0
 62
     7
370
    25
100
AcDbLine
 10
180.747198
 20
328.956779
 30
0.0
 11
183.064394
 21
331.273976
 31
0.0
  0
LINE
  5
518
330
4FE
100
AcDbEntity
  8
LC-003-005-----0
 62
     7
370
    25
100
AcDbLine
 10
180.747198
 20
329.522464
 30
0.0
 11
182.498709
 21
331.273976
 31
0.0
  0
LINE
  5
519
330
4FE
100
AcDbEntity
  8
LC-003-005-----0
 62
     7
370
    25
100
AcDbLine
 10
180.747198
 20
330.08815
 30
0.0
 11
181.933023
 21
331.273976
 31
0.0
  0
LINE
  5
51A
330
4FE
100
AcDbEntity
  8
LC-003-005-----0
 62
     7
370
    25
100
AcDbLine
 10
180.747198
 20
330.653835
 30
0.0
 11
181.367338
 21
331.273976
 31
0.0
  0
LINE
  5
51B
330
4FE
100
AcDbEntity
  8
LC-003-005-----0
 62
     7
370
    25
100
AcDbLine
 10
180.747198
 20
331.219521
 30
0.0
 11
180.801653
 21
331.273976
 31
0.0
  0
ENDBLK
  5
500
330
4FE
100
AcDbEntity
  8
0
100
AcDbBlockEnd
  0
BLOCK
  5
51E
330
51D
100
AcDbEntity
  8
0
100
AcDbBlockBegin
  2
*X257
 70
     1
 71
     0
 10
0.0
 20
0.0
 30
0.0
  3
*X257
  1

  4
*X2
  0
LINE
  5
520
330
51D
100
AcDbEntity
  8
LC-003-005-----0
 62
     7
370
    25
100
AcDbLine
 10
210.608463
 20
326.573976
 30
0.0
 11
210.747198
 21
326.71271
 31
0.0
  0
LINE
  5
521
330
51D
100
AcDbEntity
  8
LC-003-005-----0
 62
     7
370
    25
100
AcDbLine
 10
210.042778
 20
326.573976
 30
0.0
 11
210.747198
 21
327.278395
 31
0.0
  0
LINE
  5
522
330
51D
100
AcDbEntity
  8
LC-003-005-----0
 62
     7
370
    25
100
AcDbLine
 10
209.477093
 20
326.573976
 30
0.0
 11
210.747198
 21
327.844081
 31
0.0
  0
LINE
  5
523
330
51D
100
AcDbEntity
  8
LC-003-005-----0
 62
     7
370
    25
100
AcDbLine
 10
208.911407
 20
326.573976
 30
0.0
 11
210.747198
 21
328.409766
 31
0.0
  0
LINE
  5
524
330
51D
100
AcDbEntity
  8
LC-003-005-----0
 62
     7
370
    25
100
AcDbLine
 10
208.345722
 20
326.573976
 30
0.0
 11
210.747198
 21
328.975451
 31
0.0
  0
LINE
  5
525
330
51D
100
AcDbEntity
  8
LC-003-005-----0
 62
     7
370
    25
100
AcDbLine
 10
207.780036
 20
326.573976
 30
0.0
 11
210.747198
 21
329.541137
 31
0.0
  0
LINE
  5
526
330
51D
100
AcDbEntity
  8
LC-003-005-----0
 62
     7
370
    25
100
AcDbLine
 10
207.214351
 20
326.573976
 30
0.0
 11
210.747198
 21
330.106822
 31
0.0
  0
LINE
  5
527
330
51D
100
AcDbEntity
  8
LC-003-005-----0
 62
     7
370
    25
100
AcDbLine
 10
206.648666
 20
326.573976
 30
0.0
 11
210.747198
 21
330.672508
 31
0.0
  0
LINE
  5
528
330
51D
100
AcDbEntity
  8
LC-003-005-----0
 62
     7
370
    25
100
AcDbLine
 10
206.08298
 20
326.573976
 30
0.0
 11
210.747198
 21
331.238193
 31
0.0
  0
LINE
  5
529
330
51D
100
AcDbEntity
  8
LC-003-005-----0
 62
     7
370
    25
100
AcDbLine
 10
205.517295
 20
326.573976
 30
0.0
 11
210.217295
 21
331.273976
 31
0.0
  0
LINE
  5
52A
330
51D
100
AcDbEntity
  8
LC-003-005-----0
 62
     7
370
    25
100
AcDbLine
 10
204.951609
 20
326.573976
 30
0.0
 11
209.651609
 21
331.273976
 31
0.0
  0
LINE
  5
52B
330
51D
100
AcDbEntity
  8
LC-003-005-----0
 62
     7
370
    25
100
AcDbLine
 10
204.385924
 20
326.573976
 30
0.0
 11
209.085924
 21
331.273976
 31
0.0
  0
LINE
  5
52C
330
51D
100
AcDbEntity
  8
LC-003-005-----0
 62
     7
370
    25
100
AcDbLine
 10
203.820238
 20
326.573976
 30
0.0
 11
208.520238
 21
331.273976
 31
0.0
  0
LINE
  5
52D
330
51D
100
AcDbEntity
  8
LC-003-005-----0
 62
     7
370
    25
100
AcDbLine
 10
203.254553
 20
326.573976
 30
0.0
 11
207.954553
 21
331.273976
 31
0.0
  0
LINE
  5
52E
330
51D
100
AcDbEntity
  8
LC-003-005-----0
 62
     7
370
    25
100
AcDbLine
 10
202.688868
 20
326.573976
 30
0.0
 11
207.388868
 21
331.273976
 31
0.0
  0
LINE
  5
52F
330
51D
100
AcDbEntity
  8
LC-003-005-----0
 62
     7
370
    25
100
AcDbLine
 10
202.123182
 20
326.573976
 30
0.0
 11
206.823182
 21
331.273976
 31
0.0
  0
LINE
  5
530
330
51D
100
AcDbEntity
  8
LC-003-005-----0
 62
     7
370
    25
100
AcDbLine
 10
201.557497
 20
326.573976
 30
0.0
 11
206.257497
 21
331.273976
 31
0.0
  0
LINE
  5
531
330
51D
100
AcDbEntity
  8
LC-003-005-----0
 62
     7
370
    25
100
AcDbLine
 10
200.991811
 20
326.573976
 30
0.0
 11
205.691811
 21
331.273976
 31
0.0
  0
LINE
  5
532
330
51D
100
AcDbEntity
  8
LC-003-005-----0
 62
     7
370
    25
100
AcDbLine
 10
200.747198
 20
326.895047
 30
0.0
 11
205.126126
 21
331.273976
 31
0.0
  0
LINE
  5
533
330
51D
100
AcDbEntity
  8
LC-003-005-----0
 62
     7
370
    25
100
AcDbLine
 10
200.747198
 20
327.460733
 30
0.0
 11
204.56044
 21
331.273976
 31
0.0
  0
LINE
  5
534
330
51D
100
AcDbEntity
  8
LC-003-005-----0
 62
     7
370
    25
100
AcDbLine
 10
200.747198
 20
328.026418
 30
0.0
 11
203.994755
 21
331.273976
 31
0.0
  0
LINE
  5
535
330
51D
100
AcDbEntity
  8
LC-003-005-----0
 62
     7
370
    25
100
AcDbLine
 10
200.747198
 20
328.592104
 30
0.0
 11
203.42907
 21
331.273976
 31
0.0
  0
LINE
  5
536
330
51D
100
AcDbEntity
  8
LC-003-005-----0
 62
     7
370
    25
100
AcDbLine
 10
200.747198
 20
329.157789
 30
0.0
 11
202.863384
 21
331.273976
 31
0.0
  0
LINE
  5
537
330
51D
100
AcDbEntity
  8
LC-003-005-----0
 62
     7
370
    25
100
AcDbLine
 10
200.747198
 20
329.723474
 30
0.0
 11
202.297699
 21
331.273976
 31
0.0
  0
LINE
  5
538
330
51D
100
AcDbEntity
  8
LC-003-005-----0
 62
     7
370
    25
100
AcDbLine
 10
200.747198
 20
330.28916
 30
0.0
 11
201.732013
 21
331.273976
 31
0.0
  0
LINE
  5
539
330
51D
100
AcDbEntity
  8
LC-003-005-----0
 62
     7
370
    25
100
AcDbLine
 10
200.747198
 20
330.854845
 30
0.0
 11
201.166328
 21
331.273976
 31
0.0
  0
ENDBLK
  5
51F
330
51D
100
AcDbEntity
  8
0
100
AcDbBlockEnd
  0
BLOCK
  5
53C
330
53B
100
AcDbEntity
  8
0
100
AcDbBlockBegin
  2
*X358
 70
     1
 71
     0
 10
0.0
 20
0.0
 30
0.0
  3
*X358
  1

  4
*X3
  0
LINE
  5
53E
330
53B
100
AcDbEntity
  8
LC-003-005-----0
 62
     7
370
    25
100
AcDbLine
 10
230.407453
 20
326.573976
 30
0.0
 11
230.747198
 21
326.91372
 31
0.0
  0
LINE
  5
53F
330
53B
100
AcDbEntity
  8
LC-003-005-----0
 62
     7
370
    25
100
AcDbLine
 10
229.841768
 20
326.573976
 30
0.0
 11
230.747198
 21
327.479405
 31
0.0
  0
LINE
  5
540
330
53B
100
AcDbEntity
  8
LC-003-005-----0
 62
     7
370
    25
100
AcDbLine
 10
229.276083
 20
326.573976
 30
0.0
 11
230.747198
 21
328.045091
 31
0.0
  0
LINE
  5
541
330
53B
100
AcDbEntity
  8
LC-003-005-----0
 62
     7
370
    25
100
AcDbLine
 10
228.710397
 20
326.573976
 30
0.0
 11
230.747198
 21
328.610776
 31
0.0
  0
LINE
  5
542
330
53B
100
AcDbEntity
  8
LC-003-005-----0
 62
     7
370
    25
100
AcDbLine
 10
228.144712
 20
326.573976
 30
0.0
 11
230.747198
 21
329.176462
 31
0.0
  0
LINE
  5
543
330
53B
100
AcDbEntity
  8
LC-003-005-----0
 62
     7
370
    25
100
AcDbLine
 10
227.579026
 20
326.573976
 30
0.0
 11
230.747198
 21
329.742147
 31
0.0
  0
LINE
  5
544
330
53B
100
AcDbEntity
  8
LC-003-005-----0
 62
     7
370
    25
100
AcDbLine
 10
227.013341
 20
326.573976
 30
0.0
 11
230.747198
 21
330.307832
 31
0.0
  0
LINE
  5
545
330
53B
100
AcDbEntity
  8
LC-003-005-----0
 62
     7
370
    25
100
AcDbLine
 10
226.447655
 20
326.573976
 30
0.0
 11
230.747198
 21
330.873518
 31
0.0
  0
LINE
  5
546
330
53B
100
AcDbEntity
  8
LC-003-005-----0
 62
     7
370
    25
100
AcDbLine
 10
225.88197
 20
326.573976
 30
0.0
 11
230.58197
 21
331.273976
 31
0.0
  0
LINE
  5
547
330
53B
100
AcDbEntity
  8
LC-003-005-----0
 62
     7
370
    25
100
AcDbLine
 10
225.316285
 20
326.573976
 30
0.0
 11
230.016285
 21
331.273976
 31
0.0
  0
LINE
  5
548
330
53B
100
AcDbEntity
  8
LC-003-005-----0
 62
     7
370
    25
100
AcDbLine
 10
224.750599
 20
326.573976
 30
0.0
 11
229.450599
 21
331.273976
 31
0.0
  0
LINE
  5
549
330
53B
100
AcDbEntity
  8
LC-003-005-----0
 62
     7
370
    25
100
AcDbLine
 10
224.184914
 20
326.573976
 30
0.0
 11
228.884914
 21
331.273976
 31
0.0
  0
LINE
  5
54A
330
53B
100
AcDbEntity
  8
LC-003-005-----0
 62
     7
370
    25
100
AcDbLine
 10
223.619228
 20
326.573976
 30
0.0
 11
228.319228
 21
331.273976
 31
0.0
  0
LINE
  5
54B
330
53B
100
AcDbEntity
  8
LC-003-005-----0
 62
     7
370
    25
100
AcDbLine
 10
223.053543
 20
326.573976
 30
0.0
 11
227.753543
 21
331.273976
 31
0.0
  0
LINE
  5
54C
330
53B
100
AcDbEntity
  8
LC-003-005-----0
 62
     7
370
    25
100
AcDbLine
 10
222.487857
 20
326.573976
 30
0.0
 11
227.187857
 21
331.273976
 31
0.0
  0
LINE
  5
54D
330
53B
100
AcDbEntity
  8
LC-003-005-----0
 62
     7
370
    25
100
AcDbLine
 10
221.922172
 20
326.573976
 30
0.0
 11
226.622172
 21
331.273976
 31
0.0
  0
LINE
  5
54E
330
53B
100
AcDbEntity
  8
LC-003-005-----0
 62
     7
370
    25
100
AcDbLine
 10
221.356487
 20
326.573976
 30
0.0
 11
226.056487
 21
331.273976
 31
0.0
  0
LINE
  5
54F
330
53B
100
AcDbEntity
  8
LC-003-005-----0
 62
     7
370
    25
100
AcDbLine
 10
220.790801
 20
326.573976
 30
0.0
 11
225.490801
 21
331.273976
 31
0.0
  0
LINE
  5
550
330
53B
100
AcDbEntity
  8
LC-003-005-----0
 62
     7
370
    25
100
AcDbLine
 10
220.747198
 20
327.096058
 30
0.0
 11
224.925116
 21
331.273976
 31
0.0
  0
LINE
  5
551
330
53B
100
AcDbEntity
  8
LC-003-005-----0
 62
     7
370
    25
100
AcDbLine
 10
220.747198
 20
327.661743
 30
0.0
 11
224.35943
 21
331.273976
 31
0.0
  0
LINE
  5
552
330
53B
100
AcDbEntity
  8
LC-003-005-----0
 62
     7
370
    25
100
AcDbLine
 10
220.747198
 20
328.227428
 30
0.0
 11
223.793745
 21
331.273976
 31
0.0
  0
LINE
  5
553
330
53B
100
AcDbEntity
  8
LC-003-005-----0
 62
     7
370
    25
100
AcDbLine
 10
220.747198
 20
328.793114
 30
0.0
 11
223.228059
 21
331.273976
 31
0.0
  0
LINE
  5
554
330
53B
100
AcDbEntity
  8
LC-003-005-----0
 62
     7
370
    25
100
AcDbLine
 10
220.747198
 20
329.358799
 30
0.0
 11
222.662374
 21
331.273976
 31
0.0
  0
LINE
  5
555
330
53B
100
AcDbEntity
  8
LC-003-005-----0
 62
     7
370
    25
100
AcDbLine
 10
220.747198
 20
329.924485
 30
0.0
 11
222.096689
 21
331.273976
 31
0.0
  0
LINE
  5
556
330
53B
100
AcDbEntity
  8
LC-003-005-----0
 62
     7
370
    25
100
AcDbLine
 10
220.747198
 20
330.49017
 30
0.0
 11
221.531003
 21
331.273976
 31
0.0
  0
LINE
  5
557
330
53B
100
AcDbEntity
  8
LC-003-005-----0
 62
     7
370
    25
100
AcDbLine
 10
220.747198
 20
331.055855
 30
0.0
 11
220.965318
 21
331.273976
 31
0.0
  0
ENDBLK
  5
53D
330
53B
100
AcDbEntity
  8
0
100
AcDbBlockEnd
  0
BLOCK
  5
55A
330
559
100
AcDbEntity
  8
0
100
AcDbBlockBegin
  2
*X459
 70
     1
 71
     0
 10
0.0
 20
0.0
 30
0.0
  3
*X459
  1

  4
*X4
  0
LINE
  5
55C
330
559
100
AcDbEntity
  8
LC-003-005-----0
 62
     7
370
    25
100
AcDbLine
 10
250.206443
 20
326.573976
 30
0.0
 11
250.747198
 21
327.11473
 31
0.0
  0
LINE
  5
55D
330
559
100
AcDbEntity
  8
LC-003-005-----0
 62
     7
370
    25
100
AcDbLine
 10
249.640758
 20
326.573976
 30
0.0
 11
250.747198
 21
327.680415
 31
0.0
  0
LINE
  5
55E
330
559
100
AcDbEntity
  8
LC-003-005-----0
 62
     7
370
    25
100
AcDbLine
 10
249.075072
 20
326.573976
 30
0.0
 11
250.747198
 21
328.246101
 31
0.0
  0
LINE
  5
55F
330
559
100
AcDbEntity
  8
LC-003-005-----0
 62
     7
370
    25
100
AcDbLine
 10
248.509387
 20
326.573976
 30
0.0
 11
250.747198
 21
328.811786
 31
0.0
  0
LINE
  5
560
330
559
100
AcDbEntity
  8
LC-003-005-----0
 62
     7
370
    25
100
AcDbLine
 10
247.943702
 20
326.573976
 30
0.0
 11
250.747198
 21
329.377472
 31
0.0
  0
LINE
  5
561
330
559
100
AcDbEntity
  8
LC-003-005-----0
 62
     7
370
    25
100
AcDbLine
 10
247.378016
 20
326.573976
 30
0.0
 11
250.747198
 21
329.943157
 31
0.0
  0
LINE
  5
562
330
559
100
AcDbEntity
  8
LC-003-005-----0
 62
     7
370
    25
100
AcDbLine
 10
246.812331
 20
326.573976
 30
0.0
 11
250.747198
 21
330.508843
 31
0.0
  0
LINE
  5
563
330
559
100
AcDbEntity
  8
LC-003-005-----0
 62
     7
370
    25
100
AcDbLine
 10
246.246645
 20
326.573976
 30
0.0
 11
250.747198
 21
331.074528
 31
0.0
  0
LINE
  5
564
330
559
100
AcDbEntity
  8
LC-003-005-----0
 62
     7
370
    25
100
AcDbLine
 10
245.68096
 20
326.573976
 30
0.0
 11
250.38096
 21
331.273976
 31
0.0
  0
LINE
  5
565
330
559
100
AcDbEntity
  8
LC-003-005-----0
 62
     7
370
    25
100
AcDbLine
 10
245.115274
 20
326.573976
 30
0.0
 11
249.815274
 21
331.273976
 31
0.0
  0
LINE
  5
566
330
559
100
AcDbEntity
  8
LC-003-005-----0
 62
     7
370
    25
100
AcDbLine
 10
244.549589
 20
326.573976
 30
0.0
 11
249.249589
 21
331.273976
 31
0.0
  0
LINE
  5
567
330
559
100
AcDbEntity
  8
LC-003-005-----0
 62
     7
370
    25
100
AcDbLine
 10
243.983904
 20
326.573976
 30
0.0
 11
248.683904
 21
331.273976
 31
0.0
  0
LINE
  5
568
330
559
100
AcDbEntity
  8
LC-003-005-----0
 62
     7
370
    25
100
AcDbLine
 10
243.418218
 20
326.573976
 30
0.0
 11
248.118218
 21
331.273976
 31
0.0
  0
LINE
  5
569
330
559
100
AcDbEntity
  8
LC-003-005-----0
 62
     7
370
    25
100
AcDbLine
 10
242.852533
 20
326.573976
 30
0.0
 11
247.552533
 21
331.273976
 31
0.0
  0
LINE
  5
56A
330
559
100
AcDbEntity
  8
LC-003-005-----0
 62
     7
370
    25
100
AcDbLine
 10
242.286847
 20
326.573976
 30
0.0
 11
246.986847
 21
331.273976
 31
0.0
  0
LINE
  5
56B
330
559
100
AcDbEntity
  8
LC-003-005-----0
 62
     7
370
    25
100
AcDbLine
 10
241.721162
 20
326.573976
 30
0.0
 11
246.421162
 21
331.273976
 31
0.0
  0
LINE
  5
56C
330
559
100
AcDbEntity
  8
LC-003-005-----0
 62
     7
370
    25
100
AcDbLine
 10
241.155476
 20
326.573976
 30
0.0
 11
245.855476
 21
331.273976
 31
0.0
  0
LINE
  5
56D
330
559
100
AcDbEntity
  8
LC-003-005-----0
 62
     7
370
    25
100
AcDbLine
 10
240.747198
 20
326.731382
 30
0.0
 11
245.289791
 21
331.273976
 31
0.0
  0
LINE
  5
56E
330
559
100
AcDbEntity
  8
LC-003-005-----0
 62
     7
370
    25
100
AcDbLine
 10
240.747198
 20
327.297068
 30
0.0
 11
244.724106
 21
331.273976
 31
0.0
  0
LINE
  5
56F
330
559
100
AcDbEntity
  8
LC-003-005-----0
 62
     7
370
    25
100
AcDbLine
 10
240.747198
 20
327.862753
 30
0.0
 11
244.15842
 21
331.273976
 31
0.0
  0
LINE
  5
570
330
559
100
AcDbEntity
  8
LC-003-005-----0
 62
     7
370
    25
100
AcDbLine
 10
240.747198
 20
328.428438
 30
0.0
 11
243.592735
 21
331.273976
 31
0.0
  0
LINE
  5
571
330
559
100
AcDbEntity
  8
LC-003-005-----0
 62
     7
370
    25
100
AcDbLine
 10
240.747198
 20
328.994124
 30
0.0
 11
243.027049
 21
331.273976
 31
0.0
  0
LINE
  5
572
330
559
100
AcDbEntity
  8
LC-003-005-----0
 62
     7
370
    25
100
AcDbLine
 10
240.747198
 20
329.559809
 30
0.0
 11
242.461364
 21
331.273976
 31
0.0
  0
LINE
  5
573
330
559
100
AcDbEntity
  8
LC-003-005-----0
 62
     7
370
    25
100
AcDbLine
 10
240.747198
 20
330.125495
 30
0.0
 11
241.895678
 21
331.273976
 31
0.0
  0
LINE
  5
574
330
559
100
AcDbEntity
  8
LC-003-005-----0
 62
     7
370
    25
100
AcDbLine
 10
240.747198
 20
330.69118
 30
0.0
 11
241.329993
 21
331.273976
 31
0.0
  0
LINE
  5
575
330
559
100
AcDbEntity
  8
LC-003-005-----0
 62
     7
370
    25
100
AcDbLine
 10
240.747198
 20
331.256866
 30
0.0
 11
240.764308
 21
331.273976
 31
0.0
  0
ENDBLK
  5
55B
330
559
100
AcDbEntity
  8
0
100
AcDbBlockEnd
  0
BLOCK
  5
578
330
577
100
AcDbEntity
  8
0
100
AcDbBlockBegin
  2
*X560
 70
     1
 71
     0
 10
0.0
 20
0.0
 30
0.0
  3
*X560
  1

  4
*X5
  0
LINE
  5
57A
330
577
100
AcDbEntity
  8
LC-003-005-----0
 62
     7
370
    25
100
AcDbLine
 10
270.571119
 20
326.573976
 30
0.0
 11
270.747198
 21
326.750055
 31
0.0
  0
LINE
  5
57B
330
577
100
AcDbEntity
  8
LC-003-005-----0
 62
     7
370
    25
100
AcDbLine
 10
270.005433
 20
326.573976
 30
0.0
 11
270.747198
 21
327.31574
 31
0.0
  0
LINE
  5
57C
330
577
100
AcDbEntity
  8
LC-003-005-----0
 62
     7
370
    25
100
AcDbLine
 10
269.439748
 20
326.573976
 30
0.0
 11
270.747198
 21
327.881426
 31
0.0
  0
LINE
  5
57D
330
577
100
AcDbEntity
  8
LC-003-005-----0
 62
     7
370
    25
100
AcDbLine
 10
268.874062
 20
326.573976
 30
0.0
 11
270.747198
 21
328.447111
 31
0.0
  0
LINE
  5
57E
330
577
100
AcDbEntity
  8
LC-003-005-----0
 62
     7
370
    25
100
AcDbLine
 10
268.308377
 20
326.573976
 30
0.0
 11
270.747198
 21
329.012796
 31
0.0
  0
LINE
  5
57F
330
577
100
AcDbEntity
  8
LC-003-005-----0
 62
     7
370
    25
100
AcDbLine
 10
267.742691
 20
326.573976
 30
0.0
 11
270.747198
 21
329.578482
 31
0.0
  0
LINE
  5
580
330
577
100
AcDbEntity
  8
LC-003-005-----0
 62
     7
370
    25
100
AcDbLine
 10
267.177006
 20
326.573976
 30
0.0
 11
270.747198
 21
330.144167
 31
0.0
  0
LINE
  5
581
330
577
100
AcDbEntity
  8
LC-003-005-----0
 62
     7
370
    25
100
AcDbLine
 10
266.611321
 20
326.573976
 30
0.0
 11
270.747198
 21
330.709853
 31
0.0
  0
LINE
  5
582
330
577
100
AcDbEntity
  8
LC-003-005-----0
 62
     7
370
    25
100
AcDbLine
 10
266.045635
 20
326.573976
 30
0.0
 11
270.745635
 21
331.273976
 31
0.0
  0
LINE
  5
583
330
577
100
AcDbEntity
  8
LC-003-005-----0
 62
     7
370
    25
100
AcDbLine
 10
265.47995
 20
326.573976
 30
0.0
 11
270.17995
 21
331.273976
 31
0.0
  0
LINE
  5
584
330
577
100
AcDbEntity
  8
LC-003-005-----0
 62
     7
370
    25
100
AcDbLine
 10
264.914264
 20
326.573976
 30
0.0
 11
269.614264
 21
331.273976
 31
0.0
  0
LINE
  5
585
330
577
100
AcDbEntity
  8
LC-003-005-----0
 62
     7
370
    25
100
AcDbLine
 10
264.348579
 20
326.573976
 30
0.0
 11
269.048579
 21
331.273976
 31
0.0
  0
LINE
  5
586
330
577
100
AcDbEntity
  8
LC-003-005-----0
 62
     7
370
    25
100
AcDbLine
 10
263.782893
 20
326.573976
 30
0.0
 11
268.482893
 21
331.273976
 31
0.0
  0
LINE
  5
587
330
577
100
AcDbEntity
  8
LC-003-005-----0
 62
     7
370
    25
100
AcDbLine
 10
263.217208
 20
326.573976
 30
0.0
 11
267.917208
 21
331.273976
 31
0.0
  0
LINE
  5
588
330
577
100
AcDbEntity
  8
LC-003-005-----0
 62
     7
370
    25
100
AcDbLine
 10
262.651523
 20
326.573976
 30
0.0
 11
267.351523
 21
331.273976
 31
0.0
  0
LINE
  5
589
330
577
100
AcDbEntity
  8
LC-003-005-----0
 62
     7
370
    25
100
AcDbLine
 10
262.085837
 20
326.573976
 30
0.0
 11
266.785837
 21
331.273976
 31
0.0
  0
LINE
  5
58A
330
577
100
AcDbEntity
  8
LC-003-005-----0
 62
     7
370
    25
100
AcDbLine
 10
261.520152
 20
326.573976
 30
0.0
 11
266.220152
 21
331.273976
 31
0.0
  0
LINE
  5
58B
330
577
100
AcDbEntity
  8
LC-003-005-----0
 62
     7
370
    25
100
AcDbLine
 10
260.954466
 20
326.573976
 30
0.0
 11
265.654466
 21
331.273976
 31
0.0
  0
LINE
  5
58C
330
577
100
AcDbEntity
  8
LC-003-005-----0
 62
     7
370
    25
100
AcDbLine
 10
260.747198
 20
326.932392
 30
0.0
 11
265.088781
 21
331.273976
 31
0.0
  0
LINE
  5
58D
330
577
100
AcDbEntity
  8
LC-003-005-----0
 62
     7
370
    25
100
AcDbLine
 10
260.747198
 20
327.498078
 30
0.0
 11
264.523095
 21
331.273976
 31
0.0
  0
LINE
  5
58E
330
577
100
AcDbEntity
  8
LC-003-005-----0
 62
     7
370
    25
100
AcDbLine
 10
260.747198
 20
328.063763
 30
0.0
 11
263.95741
 21
331.273976
 31
0.0
  0
LINE
  5
58F
330
577
100
AcDbEntity
  8
LC-003-005-----0
 62
     7
370
    25
100
AcDbLine
 10
260.747198
 20
328.629449
 30
0.0
 11
263.391725
 21
331.273976
 31
0.0
  0
LINE
  5
590
330
577
100
AcDbEntity
  8
LC-003-005-----0
 62
     7
370
    25
100
AcDbLine
 10
260.747198
 20
329.195134
 30
0.0
 11
262.826039
 21
331.273976
 31
0.0
  0
LINE
  5
591
330
577
100
AcDbEntity
  8
LC-003-005-----0
 62
     7
370
    25
100
AcDbLine
 10
260.747198
 20
329.760819
 30
0.0
 11
262.260354
 21
331.273976
 31
0.0
  0
LINE
  5
592
330
577
100
AcDbEntity
  8
LC-003-005-----0
 62
     7
370
    25
100
AcDbLine
 10
260.747198
 20
330.326505
 30
0.0
 11
261.694668
 21
331.273976
 31
0.0
  0
LINE
  5
593
330
577
100
AcDbEntity
  8
LC-003-005-----0
 62
     7
370
    25
100
AcDbLine
 10
260.747198
 20
330.89219
 30
0.0
 11
261.128983
 21
331.273976
 31
0.0
  0
ENDBLK
  5
579
330
577
100
AcDbEntity
  8
0
100
AcDbBlockEnd
  0
BLOCK
  5
598
330
597
100
AcDbEntity
  8
0
100
AcDbBlockBegin
  2
*X661
 70
     1
 71
     0
 10
0.0
 20
0.0
 30
0.0
  3
*X661
  1

  4
*X6
  0
LINE
  5
59A
330
597
100
AcDbEntity
  8
LC-003-005-----0
 62
     7
370
    25
100
AcDbLine
 10
290.370108
 20
326.573976
 30
0.0
 11
290.747198
 21
326.951065
 31
0.0
  0
LINE
  5
59B
330
597
100
AcDbEntity
  8
LC-003-005-----0
 62
     7
370
    25
100
AcDbLine
 10
289.804423
 20
326.573976
 30
0.0
 11
290.747198
 21
327.51675
 31
0.0
  0
LINE
  5
59C
330
597
100
AcDbEntity
  8
LC-003-005-----0
 62
     7
370
    25
100
AcDbLine
 10
289.238738
 20
326.573976
 30
0.0
 11
290.747198
 21
328.082436
 31
0.0
  0
LINE
  5
59D
330
597
100
AcDbEntity
  8
LC-003-005-----0
 62
     7
370
    25
100
AcDbLine
 10
288.673052
 20
326.573976
 30
0.0
 11
290.747198
 21
328.648121
 31
0.0
  0
LINE
  5
59E
330
597
100
AcDbEntity
  8
LC-003-005-----0
 62
     7
370
    25
100
AcDbLine
 10
288.107367
 20
326.573976
 30
0.0
 11
290.747198
 21
329.213807
 31
0.0
  0
LINE
  5
59F
330
597
100
AcDbEntity
  8
LC-003-005-----0
 62
     7
370
    25
100
AcDbLine
 10
287.541681
 20
326.573976
 30
0.0
 11
290.747198
 21
329.779492
 31
0.0
  0
LINE
  5
5A0
330
597
100
AcDbEntity
  8
LC-003-005-----0
 62
     7
370
    25
100
AcDbLine
 10
286.975996
 20
326.573976
 30
0.0
 11
290.747198
 21
330.345177
 31
0.0
  0
LINE
  5
5A1
330
597
100
AcDbEntity
  8
LC-003-005-----0
 62
     7
370
    25
100
AcDbLine
 10
286.41031
 20
326.573976
 30
0.0
 11
290.747198
 21
330.910863
 31
0.0
  0
LINE
  5
5A2
330
597
100
AcDbEntity
  8
LC-003-005-----0
 62
     7
370
    25
100
AcDbLine
 10
285.844625
 20
326.573976
 30
0.0
 11
290.544625
 21
331.273976
 31
0.0
  0
LINE
  5
5A3
330
597
100
AcDbEntity
  8
LC-003-005-----0
 62
     7
370
    25
100
AcDbLine
 10
285.27894
 20
326.573976
 30
0.0
 11
289.97894
 21
331.273976
 31
0.0
  0
LINE
  5
5A4
330
597
100
AcDbEntity
  8
LC-003-005-----0
 62
     7
370
    25
100
AcDbLine
 10
284.713254
 20
326.573976
 30
0.0
 11
289.413254
 21
331.273976
 31
0.0
  0
LINE
  5
5A5
330
597
100
AcDbEntity
  8
LC-003-005-----0
 62
     7
370
    25
100
AcDbLine
 10
284.147569
 20
326.573976
 30
0.0
 11
288.847569
 21
331.273976
 31
0.0
  0
LINE
  5
5A6
330
597
100
AcDbEntity
  8
LC-003-005-----0
 62
     7
370
    25
100
AcDbLine
 10
283.581883
 20
326.573976
 30
0.0
 11
288.281883
 21
331.273976
 31
0.0
  0
LINE
  5
5A7
330
597
100
AcDbEntity
  8
LC-003-005-----0
 62
     7
370
    25
100
AcDbLine
 10
283.016198
 20
326.573976
 30
0.0
 11
287.716198
 21
331.273976
 31
0.0
  0
LINE
  5
5A8
330
597
100
AcDbEntity
  8
LC-003-005-----0
 62
     7
370
    25
100
AcDbLine
 10
282.450512
 20
326.573976
 30
0.0
 11
287.150512
 21
331.273976
 31
0.0
  0
LINE
  5
5A9
330
597
100
AcDbEntity
  8
LC-003-005-----0
 62
     7
370
    25
100
AcDbLine
 10
281.884827
 20
326.573976
 30
0.0
 11
286.584827
 21
331.273976
 31
0.0
  0
LINE
  5
5AA
330
597
100
AcDbEntity
  8
LC-003-005-----0
 62
     7
370
    25
100
AcDbLine
 10
281.319142
 20
326.573976
 30
0.0
 11
286.019142
 21
331.273976
 31
0.0
  0
LINE
  5
5AB
330
597
100
AcDbEntity
  8
LC-003-005-----0
 62
     7
370
    25
100
AcDbLine
 10
280.753456
 20
326.573976
 30
0.0
 11
285.453456
 21
331.273976
 31
0.0
  0
LINE
  5
5AC
330
597
100
AcDbEntity
  8
LC-003-005-----0
 62
     7
370
    25
100
AcDbLine
 10
280.747198
 20
327.133402
 30
0.0
 11
284.887771
 21
331.273976
 31
0.0
  0
LINE
  5
5AD
330
597
100
AcDbEntity
  8
LC-003-005-----0
 62
     7
370
    25
100
AcDbLine
 10
280.747198
 20
327.699088
 30
0.0
 11
284.322085
 21
331.273976
 31
0.0
  0
LINE
  5
5AE
330
597
100
AcDbEntity
  8
LC-003-005-----0
 62
     7
370
    25
100
AcDbLine
 10
280.747198
 20
328.264773
 30
0.0
 11
283.7564
 21
331.273976
 31
0.0
  0
LINE
  5
5AF
330
597
100
AcDbEntity
  8
LC-003-005-----0
 62
     7
370
    25
100
AcDbLine
 10
280.747198
 20
328.830459
 30
0.0
 11
283.190714
 21
331.273976
 31
0.0
  0
LINE
  5
5B0
330
597
100
AcDbEntity
  8
LC-003-005-----0
 62
     7
370
    25
100
AcDbLine
 10
280.747198
 20
329.396144
 30
0.0
 11
282.625029
 21
331.273976
 31
0.0
  0
LINE
  5
5B1
330
597
100
AcDbEntity
  8
LC-003-005-----0
 62
     7
370
    25
100
AcDbLine
 10
280.747198
 20
329.96183
 30
0.0
 11
282.059344
 21
331.273976
 31
0.0
  0
LINE
  5
5B2
330
597
100
AcDbEntity
  8
LC-003-005-----0
 62
     7
370
    25
100
AcDbLine
 10
280.747198
 20
330.527515
 30
0.0
 11
281.493658
 21
331.273976
 31
0.0
  0
LINE
  5
5B3
330
597
100
AcDbEntity
  8
LC-003-005-----0
 62
     7
370
    25
100
AcDbLine
 10
280.747198
 20
331.0932
 30
0.0
 11
280.927973
 21
331.273976
 31
0.0
  0
ENDBLK
  5
599
330
597
100
AcDbEntity
  8
0
100
AcDbBlockEnd
  0
BLOCK
  5
5B7
330
5B6
100
AcDbEntity
  8
0
100
AcDbBlockBegin
  2
*X762
 70
     1
 71
     0
 10
0.0
 20
0.0
 30
0.0
  3
*X762
  1

  4
*X7
  0
LINE
  5
5B9
330
5B6
100
AcDbEntity
  8
LC-003-005-----0
 62
     7
370
    25
100
AcDbLine
 10
310.389521
 20
323.965972
 30
0.0
 11
310.747198
 21
324.323648
 31
0.0
  0
LINE
  5
5BA
330
5B6
100
AcDbEntity
  8
LC-003-005-----0
 62
     7
370
    25
100
AcDbLine
 10
309.974787
 20
324.116923
 30
0.0
 11
310.747198
 21
324.889333
 31
0.0
  0
LINE
  5
5BB
330
5B6
100
AcDbEntity
  8
LC-003-005-----0
 62
     7
370
    25
100
AcDbLine
 10
309.560052
 20
324.267873
 30
0.0
 11
310.747198
 21
325.455019
 31
0.0
  0
LINE
  5
5BC
330
5B6
100
AcDbEntity
  8
LC-003-005-----0
 62
     7
370
    25
100
AcDbLine
 10
309.145318
 20
324.418824
 30
0.0
 11
310.747198
 21
326.020704
 31
0.0
  0
LINE
  5
5BD
330
5B6
100
AcDbEntity
  8
LC-003-005-----0
 62
     7
370
    25
100
AcDbLine
 10
308.730584
 20
324.569775
 30
0.0
 11
310.747198
 21
326.58639
 31
0.0
  0
LINE
  5
5BE
330
5B6
100
AcDbEntity
  8
LC-003-005-----0
 62
     7
370
    25
100
AcDbLine
 10
308.315849
 20
324.720726
 30
0.0
 11
310.747198
 21
327.152075
 31
0.0
  0
LINE
  5
5BF
330
5B6
100
AcDbEntity
  8
LC-003-005-----0
 62
     7
370
    25
100
AcDbLine
 10
307.901115
 20
324.871677
 30
0.0
 11
310.747198
 21
327.71776
 31
0.0
  0
LINE
  5
5C0
330
5B6
100
AcDbEntity
  8
LC-003-005-----0
 62
     7
370
    25
100
AcDbLine
 10
307.48638
 20
325.022628
 30
0.0
 11
310.747198
 21
328.283446
 31
0.0
  0
LINE
  5
5C1
330
5B6
100
AcDbEntity
  8
LC-003-005-----0
 62
     7
370
    25
100
AcDbLine
 10
307.071646
 20
325.173579
 30
0.0
 11
310.686039
 21
328.787973
 31
0.0
  0
LINE
  5
5C2
330
5B6
100
AcDbEntity
  8
LC-003-005-----0
 62
     7
370
    25
100
AcDbLine
 10
306.656911
 20
325.32453
 30
0.0
 11
310.20144
 21
328.869059
 31
0.0
  0
LINE
  5
5C3
330
5B6
100
AcDbEntity
  8
LC-003-005-----0
 62
     7
370
    25
100
AcDbLine
 10
306.242177
 20
325.475481
 30
0.0
 11
309.689555
 21
328.92286
 31
0.0
  0
LINE
  5
5C4
330
5B6
100
AcDbEntity
  8
LC-003-005-----0
 62
     7
370
    25
100
AcDbLine
 10
305.827442
 20
325.626432
 30
0.0
 11
309.177671
 21
328.976661
 31
0.0
  0
LINE
  5
5C5
330
5B6
100
AcDbEntity
  8
LC-003-005-----0
 62
     7
370
    25
100
AcDbLine
 10
305.412708
 20
325.777383
 30
0.0
 11
308.665787
 21
329.030462
 31
0.0
  0
LINE
  5
5C6
330
5B6
100
AcDbEntity
  8
LC-003-005-----0
 62
     7
370
    25
100
AcDbLine
 10
304.997974
 20
325.928334
 30
0.0
 11
308.178492
 21
329.108853
 31
0.0
  0
LINE
  5
5C7
330
5B6
100
AcDbEntity
  8
LC-003-005-----0
 62
     7
370
    25
100
AcDbLine
 10
304.583239
 20
326.079285
 30
0.0
 11
307.751452
 21
329.247498
 31
0.0
  0
LINE
  5
5C8
330
5B6
100
AcDbEntity
  8
LC-003-005-----0
 62
     7
370
    25
100
AcDbLine
 10
304.168505
 20
326.230236
 30
0.0
 11
307.37295
 21
329.434681
 31
0.0
  0
LINE
  5
5C9
330
5B6
100
AcDbEntity
  8
LC-003-005-----0
 62
     7
370
    25
100
AcDbLine
 10
303.75377
 20
326.381187
 30
0.0
 11
307.03636
 21
329.663777
 31
0.0
  0
LINE
  5
5CA
330
5B6
100
AcDbEntity
  8
LC-003-005-----0
 62
     7
370
    25
100
AcDbLine
 10
303.339036
 20
326.532138
 30
0.0
 11
306.738494
 21
329.931597
 31
0.0
  0
LINE
  5
5CB
330
5B6
100
AcDbEntity
  8
LC-003-005-----0
 62
     7
370
    25
100
AcDbLine
 10
302.815188
 20
326.573976
 30
0.0
 11
306.478521
 21
330.237309
 31
0.0
  0
LINE
  5
5CC
330
5B6
100
AcDbEntity
  8
LC-003-005-----0
 62
     7
370
    25
100
AcDbLine
 10
302.249502
 20
326.573976
 30
0.0
 11
306.12398
 21
330.448454
 31
0.0
  0
LINE
  5
5CD
330
5B6
100
AcDbEntity
  8
LC-003-005-----0
 62
     7
370
    25
100
AcDbLine
 10
301.683817
 20
326.573976
 30
0.0
 11
305.709248
 21
330.599407
 31
0.0
  0
LINE
  5
5CE
330
5B6
100
AcDbEntity
  8
LC-003-005-----0
 62
     7
370
    25
100
AcDbLine
 10
301.118131
 20
326.573976
 30
0.0
 11
305.294515
 21
330.750359
 31
0.0
  0
LINE
  5
5CF
330
5B6
100
AcDbEntity
  8
LC-003-005-----0
 62
     7
370
    25
100
AcDbLine
 10
300.747198
 20
326.768727
 30
0.0
 11
304.879783
 21
330.901312
 31
0.0
  0
LINE
  5
5D0
330
5B6
100
AcDbEntity
  8
LC-003-005-----0
 62
     7
370
    25
100
AcDbLine
 10
300.747198
 20
327.334413
 30
0.0
 11
304.46505
 21
331.052265
 31
0.0
  0
LINE
  5
5D1
330
5B6
100
AcDbEntity
  8
LC-003-005-----0
 62
     7
370
    25
100
AcDbLine
 10
300.747198
 20
327.900098
 30
0.0
 11
304.050317
 21
331.203218
 31
0.0
  0
LINE
  5
5D2
330
5B6
100
AcDbEntity
  8
LC-003-005-----0
 62
     7
370
    25
100
AcDbLine
 10
300.747198
 20
328.465783
 30
0.0
 11
303.55538
 21
331.273966
 31
0.0
  0
LINE
  5
5D3
330
5B6
100
AcDbEntity
  8
LC-003-005-----0
 62
     7
370
    25
100
AcDbLine
 10
300.747198
 20
329.031469
 30
0.0
 11
302.989695
 21
331.273966
 31
0.0
  0
LINE
  5
5D4
330
5B6
100
AcDbEntity
  8
LC-003-005-----0
 62
     7
370
    25
100
AcDbLine
 10
300.747198
 20
329.597154
 30
0.0
 11
302.424009
 21
331.273966
 31
0.0
  0
LINE
  5
5D5
330
5B6
100
AcDbEntity
  8
LC-003-005-----0
 62
     7
370
    25
100
AcDbLine
 10
300.747198
 20
330.16284
 30
0.0
 11
301.858324
 21
331.273966
 31
0.0
  0
LINE
  5
5D6
330
5B6
100
AcDbEntity
  8
LC-003-005-----0
 62
     7
370
    25
100
AcDbLine
 10
300.747198
 20
330.728525
 30
0.0
 11
301.292638
 21
331.273966
 31
0.0
  0
ENDBLK
  5
5B8
330
5B6
100
AcDbEntity
  8
0
100
AcDbBlockEnd
  0
BLOCK
  5
5DC
330
5DB
100
AcDbEntity
  8
0
100
AcDbBlockBegin
  2
*X863
 70
     1
 71
     0
 10
0.0
 20
0.0
 30
0.0
  3
*X863
  1

  4
*X8
  0
LINE
  5
5DE
330
5DB
100
AcDbEntity
  8
LC-003-005-----0
 62
     7
370
    25
100
AcDbLine
 10
330.339054
 20
317.893975
 30
0.0
 11
330.747198
 21
318.302118
 31
0.0
  0
LINE
  5
5DF
330
5DB
100
AcDbEntity
  8
LC-003-005-----0
 62
     7
370
    25
100
AcDbLine
 10
329.773369
 20
317.893975
 30
0.0
 11
330.747198
 21
318.867804
 31
0.0
  0
LINE
  5
5E0
330
5DB
100
AcDbEntity
  8
LC-003-005-----0
 62
     7
370
    25
100
AcDbLine
 10
329.207683
 20
317.893975
 30
0.0
 11
330.747198
 21
319.433489
 31
0.0
  0
LINE
  5
5E1
330
5DB
100
AcDbEntity
  8
LC-003-005-----0
 62
     7
370
    25
100
AcDbLine
 10
328.641998
 20
317.893975
 30
0.0
 11
330.747198
 21
319.999175
 31
0.0
  0
LINE
  5
5E2
330
5DB
100
AcDbEntity
  8
LC-003-005-----0
 62
     7
370
    25
100
AcDbLine
 10
328.076312
 20
317.893975
 30
0.0
 11
330.747198
 21
320.56486
 31
0.0
  0
LINE
  5
5E3
330
5DB
100
AcDbEntity
  8
LC-003-005-----0
 62
     7
370
    25
100
AcDbLine
 10
327.510627
 20
317.893975
 30
0.0
 11
330.747198
 21
321.130545
 31
0.0
  0
LINE
  5
5E4
330
5DB
100
AcDbEntity
  8
LC-003-005-----0
 62
     7
370
    25
100
AcDbLine
 10
326.978899
 20
317.927932
 30
0.0
 11
330.747198
 21
321.696231
 31
0.0
  0
LINE
  5
5E5
330
5DB
100
AcDbEntity
  8
LC-003-005-----0
 62
     7
370
    25
100
AcDbLine
 10
326.564165
 20
318.078883
 30
0.0
 11
330.747198
 21
322.261916
 31
0.0
  0
LINE
  5
5E6
330
5DB
100
AcDbEntity
  8
LC-003-005-----0
 62
     7
370
    25
100
AcDbLine
 10
326.14943
 20
318.229834
 30
0.0
 11
330.44357
 21
322.523974
 31
0.0
  0
LINE
  5
5E7
330
5DB
100
AcDbEntity
  8
LC-003-005-----0
 62
     7
370
    25
100
AcDbLine
 10
325.734696
 20
318.380785
 30
0.0
 11
329.877885
 21
322.523974
 31
0.0
  0
LINE
  5
5E8
330
5DB
100
AcDbEntity
  8
LC-003-005-----0
 62
     7
370
    25
100
AcDbLine
 10
325.319961
 20
318.531736
 30
0.0
 11
329.312199
 21
322.523974
 31
0.0
  0
LINE
  5
5E9
330
5DB
100
AcDbEntity
  8
LC-003-005-----0
 62
     7
370
    25
100
AcDbLine
 10
324.905227
 20
318.682687
 30
0.0
 11
328.746514
 21
322.523974
 31
0.0
  0
LINE
  5
5EA
330
5DB
100
AcDbEntity
  8
LC-003-005-----0
 62
     7
370
    25
100
AcDbLine
 10
324.490493
 20
318.833638
 30
0.0
 11
328.180828
 21
322.523974
 31
0.0
  0
LINE
  5
5EB
330
5DB
100
AcDbEntity
  8
LC-003-005-----0
 62
     7
370
    25
100
AcDbLine
 10
324.075758
 20
318.984589
 30
0.0
 11
327.690076
 21
322.598907
 31
0.0
  0
LINE
  5
5EC
330
5DB
100
AcDbEntity
  8
LC-003-005-----0
 62
     7
370
    25
100
AcDbLine
 10
323.661024
 20
319.13554
 30
0.0
 11
327.275343
 21
322.74986
 31
0.0
  0
LINE
  5
5ED
330
5DB
100
AcDbEntity
  8
LC-003-005-----0
 62
     7
370
    25
100
AcDbLine
 10
323.246289
 20
319.286491
 30
0.0
 11
326.86061
 21
322.900813
 31
0.0
  0
LINE
  5
5EE
330
5DB
100
AcDbEntity
  8
LC-003-005-----0
 62
     7
370
    25
100
AcDbLine
 10
322.831555
 20
319.437442
 30
0.0
 11
326.445878
 21
323.051765
 31
0.0
  0
LINE
  5
5EF
330
5DB
100
AcDbEntity
  8
LC-003-005-----0
 62
     7
370
    25
100
AcDbLine
 10
322.41682
 20
319.588393
 30
0.0
 11
326.031145
 21
323.202718
 31
0.0
  0
LINE
  5
5F0
330
5DB
100
AcDbEntity
  8
LC-003-005-----0
 62
     7
370
    25
100
AcDbLine
 10
322.002086
 20
319.739344
 30
0.0
 11
325.616413
 21
323.353671
 31
0.0
  0
LINE
  5
5F1
330
5DB
100
AcDbEntity
  8
LC-003-005-----0
 62
     7
370
    25
100
AcDbLine
 10
321.587351
 20
319.890295
 30
0.0
 11
325.20168
 21
323.504624
 31
0.0
  0
LINE
  5
5F2
330
5DB
100
AcDbEntity
  8
LC-003-005-----0
 62
     7
370
    25
100
AcDbLine
 10
321.172617
 20
320.041246
 30
0.0
 11
324.786947
 21
323.655577
 31
0.0
  0
LINE
  5
5F3
330
5DB
100
AcDbEntity
  8
LC-003-005-----0
 62
     7
370
    25
100
AcDbLine
 10
320.757883
 20
320.192197
 30
0.0
 11
324.372215
 21
323.806529
 31
0.0
  0
LINE
  5
5F4
330
5DB
100
AcDbEntity
  8
LC-003-005-----0
 62
     7
370
    25
100
AcDbLine
 10
320.747198
 20
320.747198
 30
0.0
 11
323.957482
 21
323.957482
 31
0.0
  0
LINE
  5
5F5
330
5DB
100
AcDbEntity
  8
LC-003-005-----0
 62
     7
370
    25
100
AcDbLine
 10
320.747198
 20
321.312883
 30
0.0
 11
323.54275
 21
324.108435
 31
0.0
  0
LINE
  5
5F6
330
5DB
100
AcDbEntity
  8
LC-003-005-----0
 62
     7
370
    25
100
AcDbLine
 10
320.747198
 20
321.878568
 30
0.0
 11
323.128017
 21
324.259388
 31
0.0
  0
LINE
  5
5F7
330
5DB
100
AcDbEntity
  8
LC-003-005-----0
 62
     7
370
    25
100
AcDbLine
 10
320.747198
 20
322.444254
 30
0.0
 11
322.713284
 21
324.410341
 31
0.0
  0
LINE
  5
5F8
330
5DB
100
AcDbEntity
  8
LC-003-005-----0
 62
     7
370
    25
100
AcDbLine
 10
320.747198
 20
323.009939
 30
0.0
 11
322.298552
 21
324.561294
 31
0.0
  0
LINE
  5
5F9
330
5DB
100
AcDbEntity
  8
LC-003-005-----0
 62
     7
370
    25
100
AcDbLine
 10
320.747198
 20
323.575625
 30
0.0
 11
321.883819
 21
324.712246
 31
0.0
  0
LINE
  5
5FA
330
5DB
100
AcDbEntity
  8
LC-003-005-----0
 62
     7
370
    25
100
AcDbLine
 10
320.747198
 20
324.14131
 30
0.0
 11
321.469087
 21
324.863199
 31
0.0
  0
LINE
  5
5FB
330
5DB
100
AcDbEntity
  8
LC-003-005-----0
 62
     7
370
    25
100
AcDbLine
 10
320.747198
 20
324.706996
 30
0.0
 11
321.054354
 21
325.014152
 31
0.0
  0
ENDBLK
  5
5DD
330
5DB
100
AcDbEntity
  8
0
100
AcDbBlockEnd
  0
BLOCK
  5
607
330
606
100
AcDbEntity
  8
0
100
AcDbBlockBegin
  2
*X964
 70
     1
 71
     0
 10
0.0
 20
0.0
 30
0.0
  3
*X964
  1

  4
*X9
  0
LINE
  5
609
330
606
100
AcDbEntity
  8
LC-003-005-----0
 62
     7
370
    25
100
AcDbLine
 10
680.693052
 20
326.573976
 30
0.0
 11
680.747213
 21
326.628137
 31
0.0
  0
LINE
  5
60A
330
606
100
AcDbEntity
  8
LC-003-005-----0
 62
     7
370
    25
100
AcDbLine
 10
680.127366
 20
326.573976
 30
0.0
 11
680.747213
 21
327.193823
 31
0.0
  0
LINE
  5
60B
330
606
100
AcDbEntity
  8
LC-003-005-----0
 62
     7
370
    25
100
AcDbLine
 10
679.561681
 20
326.573976
 30
0.0
 11
680.747213
 21
327.759508
 31
0.0
  0
LINE
  5
60C
330
606
100
AcDbEntity
  8
LC-003-005-----0
 62
     7
370
    25
100
AcDbLine
 10
678.995995
 20
326.573976
 30
0.0
 11
680.747213
 21
328.325193
 31
0.0
  0
LINE
  5
60D
330
606
100
AcDbEntity
  8
LC-003-005-----0
 62
     7
370
    25
100
AcDbLine
 10
678.43031
 20
326.573976
 30
0.0
 11
680.747213
 21
328.890879
 31
0.0
  0
LINE
  5
60E
330
606
100
AcDbEntity
  8
LC-003-005-----0
 62
     7
370
    25
100
AcDbLine
 10
677.864625
 20
326.573976
 30
0.0
 11
680.747213
 21
329.456564
 31
0.0
  0
LINE
  5
60F
330
606
100
AcDbEntity
  8
LC-003-005-----0
 62
     7
370
    25
100
AcDbLine
 10
677.298939
 20
326.573976
 30
0.0
 11
680.747213
 21
330.02225
 31
0.0
  0
LINE
  5
610
330
606
100
AcDbEntity
  8
LC-003-005-----0
 62
     7
370
    25
100
AcDbLine
 10
676.733254
 20
326.573976
 30
0.0
 11
680.747213
 21
330.587935
 31
0.0
  0
LINE
  5
611
330
606
100
AcDbEntity
  8
LC-003-005-----0
 62
     7
370
    25
100
AcDbLine
 10
676.167568
 20
326.573976
 30
0.0
 11
680.747213
 21
331.153621
 31
0.0
  0
LINE
  5
612
330
606
100
AcDbEntity
  8
LC-003-005-----0
 62
     7
370
    25
100
AcDbLine
 10
675.601883
 20
326.573976
 30
0.0
 11
680.301883
 21
331.273976
 31
0.0
  0
LINE
  5
613
330
606
100
AcDbEntity
  8
LC-003-005-----0
 62
     7
370
    25
100
AcDbLine
 10
675.036197
 20
326.573976
 30
0.0
 11
679.736197
 21
331.273976
 31
0.0
  0
LINE
  5
614
330
606
100
AcDbEntity
  8
LC-003-005-----0
 62
     7
370
    25
100
AcDbLine
 10
674.470512
 20
326.573976
 30
0.0
 11
679.170512
 21
331.273976
 31
0.0
  0
LINE
  5
615
330
606
100
AcDbEntity
  8
LC-003-005-----0
 62
     7
370
    25
100
AcDbLine
 10
673.904827
 20
326.573976
 30
0.0
 11
678.604827
 21
331.273976
 31
0.0
  0
LINE
  5
616
330
606
100
AcDbEntity
  8
LC-003-005-----0
 62
     7
370
    25
100
AcDbLine
 10
673.339141
 20
326.573976
 30
0.0
 11
678.039141
 21
331.273976
 31
0.0
  0
LINE
  5
617
330
606
100
AcDbEntity
  8
LC-003-005-----0
 62
     7
370
    25
100
AcDbLine
 10
672.773456
 20
326.573976
 30
0.0
 11
677.473456
 21
331.273976
 31
0.0
  0
LINE
  5
618
330
606
100
AcDbEntity
  8
LC-003-005-----0
 62
     7
370
    25
100
AcDbLine
 10
672.20777
 20
326.573976
 30
0.0
 11
676.90777
 21
331.273976
 31
0.0
  0
LINE
  5
619
330
606
100
AcDbEntity
  8
LC-003-005-----0
 62
     7
370
    25
100
AcDbLine
 10
671.642085
 20
326.573976
 30
0.0
 11
676.342085
 21
331.273976
 31
0.0
  0
LINE
  5
61A
330
606
100
AcDbEntity
  8
LC-003-005-----0
 62
     7
370
    25
100
AcDbLine
 10
671.076399
 20
326.573976
 30
0.0
 11
675.776399
 21
331.273976
 31
0.0
  0
LINE
  5
61B
330
606
100
AcDbEntity
  8
LC-003-005-----0
 62
     7
370
    25
100
AcDbLine
 10
670.747213
 20
326.810475
 30
0.0
 11
675.210714
 21
331.273976
 31
0.0
  0
LINE
  5
61C
330
606
100
AcDbEntity
  8
LC-003-005-----0
 62
     7
370
    25
100
AcDbLine
 10
670.747213
 20
327.37616
 30
0.0
 11
674.645029
 21
331.273976
 31
0.0
  0
LINE
  5
61D
330
606
100
AcDbEntity
  8
LC-003-005-----0
 62
     7
370
    25
100
AcDbLine
 10
670.747213
 20
327.941846
 30
0.0
 11
674.079343
 21
331.273976
 31
0.0
  0
LINE
  5
61E
330
606
100
AcDbEntity
  8
LC-003-005-----0
 62
     7
370
    25
100
AcDbLine
 10
670.747213
 20
328.507531
 30
0.0
 11
673.513658
 21
331.273976
 31
0.0
  0
LINE
  5
61F
330
606
100
AcDbEntity
  8
LC-003-005-----0
 62
     7
370
    25
100
AcDbLine
 10
670.747213
 20
329.073216
 30
0.0
 11
672.947972
 21
331.273976
 31
0.0
  0
LINE
  5
620
330
606
100
AcDbEntity
  8
LC-003-005-----0
 62
     7
370
    25
100
AcDbLine
 10
670.747213
 20
329.638902
 30
0.0
 11
672.382287
 21
331.273976
 31
0.0
  0
LINE
  5
621
330
606
100
AcDbEntity
  8
LC-003-005-----0
 62
     7
370
    25
100
AcDbLine
 10
670.747213
 20
330.204587
 30
0.0
 11
671.816601
 21
331.273976
 31
0.0
  0
LINE
  5
622
330
606
100
AcDbEntity
  8
LC-003-005-----0
 62
     7
370
    25
100
AcDbLine
 10
670.747213
 20
330.770273
 30
0.0
 11
671.250916
 21
331.273976
 31
0.0
  0
ENDBLK
  5
608
330
606
100
AcDbEntity
  8
0
100
AcDbBlockEnd
  0
BLOCK
  5
625
330
624
100
AcDbEntity
  8
0
100
AcDbBlockBegin
  2
*X1065
 70
     1
 71
     0
 10
0.0
 20
0.0
 30
0.0
  3
*X1065
  1

  4
*X10
  0
LINE
  5
627
330
624
100
AcDbEntity
  8
LC-003-005-----0
 62
     7
370
    25
100
AcDbLine
 10
660.328376
 20
326.573976
 30
0.0
 11
660.747213
 21
326.992812
 31
0.0
  0
LINE
  5
628
330
624
100
AcDbEntity
  8
LC-003-005-----0
 62
     7
370
    25
100
AcDbLine
 10
659.762691
 20
326.573976
 30
0.0
 11
660.747213
 21
327.558498
 31
0.0
  0
LINE
  5
629
330
624
100
AcDbEntity
  8
LC-003-005-----0
 62
     7
370
    25
100
AcDbLine
 10
659.197005
 20
326.573976
 30
0.0
 11
660.747213
 21
328.124183
 31
0.0
  0
LINE
  5
62A
330
624
100
AcDbEntity
  8
LC-003-005-----0
 62
     7
370
    25
100
AcDbLine
 10
658.63132
 20
326.573976
 30
0.0
 11
660.747213
 21
328.689869
 31
0.0
  0
LINE
  5
62B
330
624
100
AcDbEntity
  8
LC-003-005-----0
 62
     7
370
    25
100
AcDbLine
 10
658.065635
 20
326.573976
 30
0.0
 11
660.747213
 21
329.255554
 31
0.0
  0
LINE
  5
62C
330
624
100
AcDbEntity
  8
LC-003-005-----0
 62
     7
370
    25
100
AcDbLine
 10
657.499949
 20
326.573976
 30
0.0
 11
660.747213
 21
329.82124
 31
0.0
  0
LINE
  5
62D
330
624
100
AcDbEntity
  8
LC-003-005-----0
 62
     7
370
    25
100
AcDbLine
 10
656.934264
 20
326.573976
 30
0.0
 11
660.747213
 21
330.386925
 31
0.0
  0
LINE
  5
62E
330
624
100
AcDbEntity
  8
LC-003-005-----0
 62
     7
370
    25
100
AcDbLine
 10
656.368578
 20
326.573976
 30
0.0
 11
660.747213
 21
330.95261
 31
0.0
  0
LINE
  5
62F
330
624
100
AcDbEntity
  8
LC-003-005-----0
 62
     7
370
    25
100
AcDbLine
 10
655.802893
 20
326.573976
 30
0.0
 11
660.502893
 21
331.273976
 31
0.0
  0
LINE
  5
630
330
624
100
AcDbEntity
  8
LC-003-005-----0
 62
     7
370
    25
100
AcDbLine
 10
655.237208
 20
326.573976
 30
0.0
 11
659.937208
 21
331.273976
 31
0.0
  0
LINE
  5
631
330
624
100
AcDbEntity
  8
LC-003-005-----0
 62
     7
370
    25
100
AcDbLine
 10
654.671522
 20
326.573976
 30
0.0
 11
659.371522
 21
331.273976
 31
0.0
  0
LINE
  5
632
330
624
100
AcDbEntity
  8
LC-003-005-----0
 62
     7
370
    25
100
AcDbLine
 10
654.105837
 20
326.573976
 30
0.0
 11
658.805837
 21
331.273976
 31
0.0
  0
LINE
  5
633
330
624
100
AcDbEntity
  8
LC-003-005-----0
 62
     7
370
    25
100
AcDbLine
 10
653.540151
 20
326.573976
 30
0.0
 11
658.240151
 21
331.273976
 31
0.0
  0
LINE
  5
634
330
624
100
AcDbEntity
  8
LC-003-005-----0
 62
     7
370
    25
100
AcDbLine
 10
652.974466
 20
326.573976
 30
0.0
 11
657.674466
 21
331.273976
 31
0.0
  0
LINE
  5
635
330
624
100
AcDbEntity
  8
LC-003-005-----0
 62
     7
370
    25
100
AcDbLine
 10
652.40878
 20
326.573976
 30
0.0
 11
657.10878
 21
331.273976
 31
0.0
  0
LINE
  5
636
330
624
100
AcDbEntity
  8
LC-003-005-----0
 62
     7
370
    25
100
AcDbLine
 10
651.843095
 20
326.573976
 30
0.0
 11
656.543095
 21
331.273976
 31
0.0
  0
LINE
  5
637
330
624
100
AcDbEntity
  8
LC-003-005-----0
 62
     7
370
    25
100
AcDbLine
 10
651.27741
 20
326.573976
 30
0.0
 11
655.97741
 21
331.273976
 31
0.0
  0
LINE
  5
638
330
624
100
AcDbEntity
  8
LC-003-005-----0
 62
     7
370
    25
100
AcDbLine
 10
650.747213
 20
326.609465
 30
0.0
 11
655.411724
 21
331.273976
 31
0.0
  0
LINE
  5
639
330
624
100
AcDbEntity
  8
LC-003-005-----0
 62
     7
370
    25
100
AcDbLine
 10
650.747213
 20
327.17515
 30
0.0
 11
654.846039
 21
331.273976
 31
0.0
  0
LINE
  5
63A
330
624
100
AcDbEntity
  8
LC-003-005-----0
 62
     7
370
    25
100
AcDbLine
 10
650.747213
 20
327.740835
 30
0.0
 11
654.280353
 21
331.273976
 31
0.0
  0
LINE
  5
63B
330
624
100
AcDbEntity
  8
LC-003-005-----0
 62
     7
370
    25
100
AcDbLine
 10
650.747213
 20
328.306521
 30
0.0
 11
653.714668
 21
331.273976
 31
0.0
  0
LINE
  5
63C
330
624
100
AcDbEntity
  8
LC-003-005-----0
 62
     7
370
    25
100
AcDbLine
 10
650.747213
 20
328.872206
 30
0.0
 11
653.148982
 21
331.273976
 31
0.0
  0
LINE
  5
63D
330
624
100
AcDbEntity
  8
LC-003-005-----0
 62
     7
370
    25
100
AcDbLine
 10
650.747213
 20
329.437892
 30
0.0
 11
652.583297
 21
331.273976
 31
0.0
  0
LINE
  5
63E
330
624
100
AcDbEntity
  8
LC-003-005-----0
 62
     7
370
    25
100
AcDbLine
 10
650.747213
 20
330.003577
 30
0.0
 11
652.017612
 21
331.273976
 31
0.0
  0
LINE
  5
63F
330
624
100
AcDbEntity
  8
LC-003-005-----0
 62
     7
370
    25
100
AcDbLine
 10
650.747213
 20
330.569263
 30
0.0
 11
651.451926
 21
331.273976
 31
0.0
  0
LINE
  5
640
330
624
100
AcDbEntity
  8
LC-003-005-----0
 62
     7
370
    25
100
AcDbLine
 10
650.747213
 20
331.134948
 30
0.0
 11
650.886241
 21
331.273976
 31
0.0
  0
ENDBLK
  5
626
330
624
100
AcDbEntity
  8
0
100
AcDbBlockEnd
  0
BLOCK
  5
643
330
642
100
AcDbEntity
  8
0
100
AcDbBlockBegin
  2
*X1166
 70
     1
 71
     0
 10
0.0
 20
0.0
 30
0.0
  3
*X1166
  1

  4
*X11
  0
LINE
  5
645
330
642
100
AcDbEntity
  8
LC-003-005-----0
 62
     7
370
    25
100
AcDbLine
 10
640.529386
 20
326.573976
 30
0.0
 11
640.747213
 21
326.791802
 31
0.0
  0
LINE
  5
646
330
642
100
AcDbEntity
  8
LC-003-005-----0
 62
     7
370
    25
100
AcDbLine
 10
639.963701
 20
326.573976
 30
0.0
 11
640.747213
 21
327.357488
 31
0.0
  0
LINE
  5
647
330
642
100
AcDbEntity
  8
LC-003-005-----0
 62
     7
370
    25
100
AcDbLine
 10
639.398016
 20
326.573976
 30
0.0
 11
640.747213
 21
327.923173
 31
0.0
  0
LINE
  5
648
330
642
100
AcDbEntity
  8
LC-003-005-----0
 62
     7
370
    25
100
AcDbLine
 10
638.83233
 20
326.573976
 30
0.0
 11
640.747213
 21
328.488859
 31
0.0
  0
LINE
  5
649
330
642
100
AcDbEntity
  8
LC-003-005-----0
 62
     7
370
    25
100
AcDbLine
 10
638.266645
 20
326.573976
 30
0.0
 11
640.747213
 21
329.054544
 31
0.0
  0
LINE
  5
64A
330
642
100
AcDbEntity
  8
LC-003-005-----0
 62
     7
370
    25
100
AcDbLine
 10
637.700959
 20
326.573976
 30
0.0
 11
640.747213
 21
329.620229
 31
0.0
  0
LINE
  5
64B
330
642
100
AcDbEntity
  8
LC-003-005-----0
 62
     7
370
    25
100
AcDbLine
 10
637.135274
 20
326.573976
 30
0.0
 11
640.747213
 21
330.185915
 31
0.0
  0
LINE
  5
64C
330
642
100
AcDbEntity
  8
LC-003-005-----0
 62
     7
370
    25
100
AcDbLine
 10
636.569588
 20
326.573976
 30
0.0
 11
640.747213
 21
330.7516
 31
0.0
  0
LINE
  5
64D
330
642
100
AcDbEntity
  8
LC-003-005-----0
 62
     7
370
    25
100
AcDbLine
 10
636.003903
 20
326.573976
 30
0.0
 11
640.703903
 21
331.273976
 31
0.0
  0
LINE
  5
64E
330
642
100
AcDbEntity
  8
LC-003-005-----0
 62
     7
370
    25
100
AcDbLine
 10
635.438218
 20
326.573976
 30
0.0
 11
640.138218
 21
331.273976
 31
0.0
  0
LINE
  5
64F
330
642
100
AcDbEntity
  8
LC-003-005-----0
 62
     7
370
    25
100
AcDbLine
 10
634.872532
 20
326.573976
 30
0.0
 11
639.572532
 21
331.273976
 31
0.0
  0
LINE
  5
650
330
642
100
AcDbEntity
  8
LC-003-005-----0
 62
     7
370
    25
100
AcDbLine
 10
634.306847
 20
326.573976
 30
0.0
 11
639.006847
 21
331.273976
 31
0.0
  0
LINE
  5
651
330
642
100
AcDbEntity
  8
LC-003-005-----0
 62
     7
370
    25
100
AcDbLine
 10
633.741161
 20
326.573976
 30
0.0
 11
638.441161
 21
331.273976
 31
0.0
  0
LINE
  5
652
330
642
100
AcDbEntity
  8
LC-003-005-----0
 62
     7
370
    25
100
AcDbLine
 10
633.175476
 20
326.573976
 30
0.0
 11
637.875476
 21
331.273976
 31
0.0
  0
LINE
  5
653
330
642
100
AcDbEntity
  8
LC-003-005-----0
 62
     7
370
    25
100
AcDbLine
 10
632.609791
 20
326.573976
 30
0.0
 11
637.309791
 21
331.273976
 31
0.0
  0
LINE
  5
654
330
642
100
AcDbEntity
  8
LC-003-005-----0
 62
     7
370
    25
100
AcDbLine
 10
632.044105
 20
326.573976
 30
0.0
 11
636.744105
 21
331.273976
 31
0.0
  0
LINE
  5
655
330
642
100
AcDbEntity
  8
LC-003-005-----0
 62
     7
370
    25
100
AcDbLine
 10
631.47842
 20
326.573976
 30
0.0
 11
636.17842
 21
331.273976
 31
0.0
  0
LINE
  5
656
330
642
100
AcDbEntity
  8
LC-003-005-----0
 62
     7
370
    25
100
AcDbLine
 10
630.912734
 20
326.573976
 30
0.0
 11
635.612734
 21
331.273976
 31
0.0
  0
LINE
  5
657
330
642
100
AcDbEntity
  8
LC-003-005-----0
 62
     7
370
    25
100
AcDbLine
 10
630.747213
 20
326.97414
 30
0.0
 11
635.047049
 21
331.273976
 31
0.0
  0
LINE
  5
658
330
642
100
AcDbEntity
  8
LC-003-005-----0
 62
     7
370
    25
100
AcDbLine
 10
630.747213
 20
327.539825
 30
0.0
 11
634.481363
 21
331.273976
 31
0.0
  0
LINE
  5
659
330
642
100
AcDbEntity
  8
LC-003-005-----0
 62
     7
370
    25
100
AcDbLine
 10
630.747213
 20
328.105511
 30
0.0
 11
633.915678
 21
331.273976
 31
0.0
  0
LINE
  5
65A
330
642
100
AcDbEntity
  8
LC-003-005-----0
 62
     7
370
    25
100
AcDbLine
 10
630.747213
 20
328.671196
 30
0.0
 11
633.349993
 21
331.273976
 31
0.0
  0
LINE
  5
65B
330
642
100
AcDbEntity
  8
LC-003-005-----0
 62
     7
370
    25
100
AcDbLine
 10
630.747213
 20
329.236882
 30
0.0
 11
632.784307
 21
331.273976
 31
0.0
  0
LINE
  5
65C
330
642
100
AcDbEntity
  8
LC-003-005-----0
 62
     7
370
    25
100
AcDbLine
 10
630.747213
 20
329.802567
 30
0.0
 11
632.218622
 21
331.273976
 31
0.0
  0
LINE
  5
65D
330
642
100
AcDbEntity
  8
LC-003-005-----0
 62
     7
370
    25
100
AcDbLine
 10
630.747213
 20
330.368252
 30
0.0
 11
631.652936
 21
331.273976
 31
0.0
  0
LINE
  5
65E
330
642
100
AcDbEntity
  8
LC-003-005-----0
 62
     7
370
    25
100
AcDbLine
 10
630.747213
 20
330.933938
 30
0.0
 11
631.087251
 21
331.273976
 31
0.0
  0
ENDBLK
  5
644
330
642
100
AcDbEntity
  8
0
100
AcDbBlockEnd
  0
BLOCK
  5
661
330
660
100
AcDbEntity
  8
0
100
AcDbBlockBegin
  2
*X1267
 70
     1
 71
     0
 10
0.0
 20
0.0
 30
0.0
  3
*X1267
  1

  4
*X12
  0
LINE
  5
663
330
660
100
AcDbEntity
  8
LC-003-005-----0
 62
     7
370
    25
100
AcDbLine
 10
620.730397
 20
326.573976
 30
0.0
 11
620.747213
 21
326.590792
 31
0.0
  0
LINE
  5
664
330
660
100
AcDbEntity
  8
LC-003-005-----0
 62
     7
370
    25
100
AcDbLine
 10
620.164711
 20
326.573976
 30
0.0
 11
620.747213
 21
327.156478
 31
0.0
  0
LINE
  5
665
330
660
100
AcDbEntity
  8
LC-003-005-----0
 62
     7
370
    25
100
AcDbLine
 10
619.599026
 20
326.573976
 30
0.0
 11
620.747213
 21
327.722163
 31
0.0
  0
LINE
  5
666
330
660
100
AcDbEntity
  8
LC-003-005-----0
 62
     7
370
    25
100
AcDbLine
 10
619.03334
 20
326.573976
 30
0.0
 11
620.747213
 21
328.287848
 31
0.0
  0
LINE
  5
667
330
660
100
AcDbEntity
  8
LC-003-005-----0
 62
     7
370
    25
100
AcDbLine
 10
618.467655
 20
326.573976
 30
0.0
 11
620.747213
 21
328.853534
 31
0.0
  0
LINE
  5
668
330
660
100
AcDbEntity
  8
LC-003-005-----0
 62
     7
370
    25
100
AcDbLine
 10
617.901969
 20
326.573976
 30
0.0
 11
620.747213
 21
329.419219
 31
0.0
  0
LINE
  5
669
330
660
100
AcDbEntity
  8
LC-003-005-----0
 62
     7
370
    25
100
AcDbLine
 10
617.336284
 20
326.573976
 30
0.0
 11
620.747213
 21
329.984905
 31
0.0
  0
LINE
  5
66A
330
660
100
AcDbEntity
  8
LC-003-005-----0
 62
     7
370
    25
100
AcDbLine
 10
616.770599
 20
326.573976
 30
0.0
 11
620.747213
 21
330.55059
 31
0.0
  0
LINE
  5
66B
330
660
100
AcDbEntity
  8
LC-003-005-----0
 62
     7
370
    25
100
AcDbLine
 10
616.204913
 20
326.573976
 30
0.0
 11
620.747213
 21
331.116276
 31
0.0
  0
LINE
  5
66C
330
660
100
AcDbEntity
  8
LC-003-005-----0
 62
     7
370
    25
100
AcDbLine
 10
615.639228
 20
326.573976
 30
0.0
 11
620.339228
 21
331.273976
 31
0.0
  0
LINE
  5
66D
330
660
100
AcDbEntity
  8
LC-003-005-----0
 62
     7
370
    25
100
AcDbLine
 10
615.073542
 20
326.573976
 30
0.0
 11
619.773542
 21
331.273976
 31
0.0
  0
LINE
  5
66E
330
660
100
AcDbEntity
  8
LC-003-005-----0
 62
     7
370
    25
100
AcDbLine
 10
614.507857
 20
326.573976
 30
0.0
 11
619.207857
 21
331.273976
 31
0.0
  0
LINE
  5
66F
330
660
100
AcDbEntity
  8
LC-003-005-----0
 62
     7
370
    25
100
AcDbLine
 10
613.942171
 20
326.573976
 30
0.0
 11
618.642171
 21
331.273976
 31
0.0
  0
LINE
  5
670
330
660
100
AcDbEntity
  8
LC-003-005-----0
 62
     7
370
    25
100
AcDbLine
 10
613.376486
 20
326.573976
 30
0.0
 11
618.076486
 21
331.273976
 31
0.0
  0
LINE
  5
671
330
660
100
AcDbEntity
  8
LC-003-005-----0
 62
     7
370
    25
100
AcDbLine
 10
612.810801
 20
326.573976
 30
0.0
 11
617.510801
 21
331.273976
 31
0.0
  0
LINE
  5
672
330
660
100
AcDbEntity
  8
LC-003-005-----0
 62
     7
370
    25
100
AcDbLine
 10
612.245115
 20
326.573976
 30
0.0
 11
616.945115
 21
331.273976
 31
0.0
  0
LINE
  5
673
330
660
100
AcDbEntity
  8
LC-003-005-----0
 62
     7
370
    25
100
AcDbLine
 10
611.67943
 20
326.573976
 30
0.0
 11
616.37943
 21
331.273976
 31
0.0
  0
LINE
  5
674
330
660
100
AcDbEntity
  8
LC-003-005-----0
 62
     7
370
    25
100
AcDbLine
 10
611.113744
 20
326.573976
 30
0.0
 11
615.813744
 21
331.273976
 31
0.0
  0
LINE
  5
675
330
660
100
AcDbEntity
  8
LC-003-005-----0
 62
     7
370
    25
100
AcDbLine
 10
610.747213
 20
326.77313
 30
0.0
 11
615.248059
 21
331.273976
 31
0.0
  0
LINE
  5
676
330
660
100
AcDbEntity
  8
LC-003-005-----0
 62
     7
370
    25
100
AcDbLine
 10
610.747213
 20
327.338815
 30
0.0
 11
614.682374
 21
331.273976
 31
0.0
  0
LINE
  5
677
330
660
100
AcDbEntity
  8
LC-003-005-----0
 62
     7
370
    25
100
AcDbLine
 10
610.747213
 20
327.904501
 30
0.0
 11
614.116688
 21
331.273976
 31
0.0
  0
LINE
  5
678
330
660
100
AcDbEntity
  8
LC-003-005-----0
 62
     7
370
    25
100
AcDbLine
 10
610.747213
 20
328.470186
 30
0.0
 11
613.551003
 21
331.273976
 31
0.0
  0
LINE
  5
679
330
660
100
AcDbEntity
  8
LC-003-005-----0
 62
     7
370
    25
100
AcDbLine
 10
610.747213
 20
329.035872
 30
0.0
 11
612.985317
 21
331.273976
 31
0.0
  0
LINE
  5
67A
330
660
100
AcDbEntity
  8
LC-003-005-----0
 62
     7
370
    25
100
AcDbLine
 10
610.747213
 20
329.601557
 30
0.0
 11
612.419632
 21
331.273976
 31
0.0
  0
LINE
  5
67B
330
660
100
AcDbEntity
  8
LC-003-005-----0
 62
     7
370
    25
100
AcDbLine
 10
610.747213
 20
330.167242
 30
0.0
 11
611.853946
 21
331.273976
 31
0.0
  0
LINE
  5
67C
330
660
100
AcDbEntity
  8
LC-003-005-----0
 62
     7
370
    25
100
AcDbLine
 10
610.747213
 20
330.732928
 30
0.0
 11
611.288261
 21
331.273976
 31
0.0
  0
ENDBLK
  5
662
330
660
100
AcDbEntity
  8
0
100
AcDbBlockEnd
  0
BLOCK
  5
67F
330
67E
100
AcDbEntity
  8
0
100
AcDbBlockBegin
  2
*X1368
 70
     1
 71
     0
 10
0.0
 20
0.0
 30
0.0
  3
*X1368
  1

  4
*X13
  0
LINE
  5
681
330
67E
100
AcDbEntity
  8
LC-003-005-----0
 62
     7
370
    25
100
AcDbLine
 10
600.365721
 20
326.573976
 30
0.0
 11
600.747213
 21
326.955467
 31
0.0
  0
LINE
  5
682
330
67E
100
AcDbEntity
  8
LC-003-005-----0
 62
     7
370
    25
100
AcDbLine
 10
599.800036
 20
326.573976
 30
0.0
 11
600.747213
 21
327.521153
 31
0.0
  0
LINE
  5
683
330
67E
100
AcDbEntity
  8
LC-003-005-----0
 62
     7
370
    25
100
AcDbLine
 10
599.23435
 20
326.573976
 30
0.0
 11
600.747213
 21
328.086838
 31
0.0
  0
LINE
  5
684
330
67E
100
AcDbEntity
  8
LC-003-005-----0
 62
     7
370
    25
100
AcDbLine
 10
598.668665
 20
326.573976
 30
0.0
 11
600.747213
 21
328.652524
 31
0.0
  0
LINE
  5
685
330
67E
100
AcDbEntity
  8
LC-003-005-----0
 62
     7
370
    25
100
AcDbLine
 10
598.10298
 20
326.573976
 30
0.0
 11
600.747213
 21
329.218209
 31
0.0
  0
LINE
  5
686
330
67E
100
AcDbEntity
  8
LC-003-005-----0
 62
     7
370
    25
100
AcDbLine
 10
597.537294
 20
326.573976
 30
0.0
 11
600.747213
 21
329.783895
 31
0.0
  0
LINE
  5
687
330
67E
100
AcDbEntity
  8
LC-003-005-----0
 62
     7
370
    25
100
AcDbLine
 10
596.971609
 20
326.573976
 30
0.0
 11
600.747213
 21
330.34958
 31
0.0
  0
LINE
  5
688
330
67E
100
AcDbEntity
  8
LC-003-005-----0
 62
     7
370
    25
100
AcDbLine
 10
596.405923
 20
326.573976
 30
0.0
 11
600.747213
 21
330.915265
 31
0.0
  0
LINE
  5
689
330
67E
100
AcDbEntity
  8
LC-003-005-----0
 62
     7
370
    25
100
AcDbLine
 10
595.840238
 20
326.573976
 30
0.0
 11
600.540238
 21
331.273976
 31
0.0
  0
LINE
  5
68A
330
67E
100
AcDbEntity
  8
LC-003-005-----0
 62
     7
370
    25
100
AcDbLine
 10
595.274552
 20
326.573976
 30
0.0
 11
599.974552
 21
331.273976
 31
0.0
  0
LINE
  5
68B
330
67E
100
AcDbEntity
  8
LC-003-005-----0
 62
     7
370
    25
100
AcDbLine
 10
594.708867
 20
326.573976
 30
0.0
 11
599.408867
 21
331.273976
 31
0.0
  0
LINE
  5
68C
330
67E
100
AcDbEntity
  8
LC-003-005-----0
 62
     7
370
    25
100
AcDbLine
 10
594.143182
 20
326.573976
 30
0.0
 11
598.843182
 21
331.273976
 31
0.0
  0
LINE
  5
68D
330
67E
100
AcDbEntity
  8
LC-003-005-----0
 62
     7
370
    25
100
AcDbLine
 10
593.577496
 20
326.573976
 30
0.0
 11
598.277496
 21
331.273976
 31
0.0
  0
LINE
  5
68E
330
67E
100
AcDbEntity
  8
LC-003-005-----0
 62
     7
370
    25
100
AcDbLine
 10
593.011811
 20
326.573976
 30
0.0
 11
597.711811
 21
331.273976
 31
0.0
  0
LINE
  5
68F
330
67E
100
AcDbEntity
  8
LC-003-005-----0
 62
     7
370
    25
100
AcDbLine
 10
592.446125
 20
326.573976
 30
0.0
 11
597.146125
 21
331.273976
 31
0.0
  0
LINE
  5
690
330
67E
100
AcDbEntity
  8
LC-003-005-----0
 62
     7
370
    25
100
AcDbLine
 10
591.88044
 20
326.573976
 30
0.0
 11
596.58044
 21
331.273976
 31
0.0
  0
LINE
  5
691
330
67E
100
AcDbEntity
  8
LC-003-005-----0
 62
     7
370
    25
100
AcDbLine
 10
591.314754
 20
326.573976
 30
0.0
 11
596.014754
 21
331.273976
 31
0.0
  0
LINE
  5
692
330
67E
100
AcDbEntity
  8
LC-003-005-----0
 62
     7
370
    25
100
AcDbLine
 10
590.749069
 20
326.573976
 30
0.0
 11
595.449069
 21
331.273976
 31
0.0
  0
LINE
  5
693
330
67E
100
AcDbEntity
  8
LC-003-005-----0
 62
     7
370
    25
100
AcDbLine
 10
590.747213
 20
327.137805
 30
0.0
 11
594.883384
 21
331.273976
 31
0.0
  0
LINE
  5
694
330
67E
100
AcDbEntity
  8
LC-003-005-----0
 62
     7
370
    25
100
AcDbLine
 10
590.747213
 20
327.703491
 30
0.0
 11
594.317698
 21
331.273976
 31
0.0
  0
LINE
  5
695
330
67E
100
AcDbEntity
  8
LC-003-005-----0
 62
     7
370
    25
100
AcDbLine
 10
590.747213
 20
328.269176
 30
0.0
 11
593.752013
 21
331.273976
 31
0.0
  0
LINE
  5
696
330
67E
100
AcDbEntity
  8
LC-003-005-----0
 62
     7
370
    25
100
AcDbLine
 10
590.747213
 20
328.834861
 30
0.0
 11
593.186327
 21
331.273976
 31
0.0
  0
LINE
  5
697
330
67E
100
AcDbEntity
  8
LC-003-005-----0
 62
     7
370
    25
100
AcDbLine
 10
590.747213
 20
329.400547
 30
0.0
 11
592.620642
 21
331.273976
 31
0.0
  0
LINE
  5
698
330
67E
100
AcDbEntity
  8
LC-003-005-----0
 62
     7
370
    25
100
AcDbLine
 10
590.747213
 20
329.966232
 30
0.0
 11
592.054957
 21
331.273976
 31
0.0
  0
LINE
  5
699
330
67E
100
AcDbEntity
  8
LC-003-005-----0
 62
     7
370
    25
100
AcDbLine
 10
590.747213
 20
330.531918
 30
0.0
 11
591.489271
 21
331.273976
 31
0.0
  0
LINE
  5
69A
330
67E
100
AcDbEntity
  8
LC-003-005-----0
 62
     7
370
    25
100
AcDbLine
 10
590.747213
 20
331.097603
 30
0.0
 11
590.923586
 21
331.273976
 31
0.0
  0
ENDBLK
  5
680
330
67E
100
AcDbEntity
  8
0
100
AcDbBlockEnd
  0
BLOCK
  5
69F
330
69E
100
AcDbEntity
  8
0
100
AcDbBlockBegin
  2
*X1469
 70
     1
 71
     0
 10
0.0
 20
0.0
 30
0.0
  3
*X1469
  1

  4
*X14
  0
LINE
  5
6A1
330
69E
100
AcDbEntity
  8
LC-003-005-----0
 62
     7
370
    25
100
AcDbLine
 10
580.566731
 20
326.573976
 30
0.0
 11
580.747213
 21
326.754457
 31
0.0
  0
LINE
  5
6A2
330
69E
100
AcDbEntity
  8
LC-003-005-----0
 62
     7
370
    25
100
AcDbLine
 10
580.001046
 20
326.573976
 30
0.0
 11
580.747213
 21
327.320143
 31
0.0
  0
LINE
  5
6A3
330
69E
100
AcDbEntity
  8
LC-003-005-----0
 62
     7
370
    25
100
AcDbLine
 10
579.435361
 20
326.573976
 30
0.0
 11
580.747213
 21
327.885828
 31
0.0
  0
LINE
  5
6A4
330
69E
100
AcDbEntity
  8
LC-003-005-----0
 62
     7
370
    25
100
AcDbLine
 10
578.869675
 20
326.573976
 30
0.0
 11
580.747213
 21
328.451514
 31
0.0
  0
LINE
  5
6A5
330
69E
100
AcDbEntity
  8
LC-003-005-----0
 62
     7
370
    25
100
AcDbLine
 10
578.30399
 20
326.573976
 30
0.0
 11
580.747213
 21
329.017199
 31
0.0
  0
LINE
  5
6A6
330
69E
100
AcDbEntity
  8
LC-003-005-----0
 62
     7
370
    25
100
AcDbLine
 10
577.738304
 20
326.573976
 30
0.0
 11
580.747213
 21
329.582884
 31
0.0
  0
LINE
  5
6A7
330
69E
100
AcDbEntity
  8
LC-003-005-----0
 62
     7
370
    25
100
AcDbLine
 10
577.172619
 20
326.573976
 30
0.0
 11
580.747213
 21
330.14857
 31
0.0
  0
LINE
  5
6A8
330
69E
100
AcDbEntity
  8
LC-003-005-----0
 62
     7
370
    25
100
AcDbLine
 10
576.606933
 20
326.573976
 30
0.0
 11
580.747213
 21
330.714255
 31
0.0
  0
LINE
  5
6A9
330
69E
100
AcDbEntity
  8
LC-003-005-----0
 62
     7
370
    25
100
AcDbLine
 10
576.041248
 20
326.573976
 30
0.0
 11
580.741248
 21
331.273976
 31
0.0
  0
LINE
  5
6AA
330
69E
100
AcDbEntity
  8
LC-003-005-----0
 62
     7
370
    25
100
AcDbLine
 10
575.475563
 20
326.573976
 30
0.0
 11
580.175563
 21
331.273976
 31
0.0
  0
LINE
  5
6AB
330
69E
100
AcDbEntity
  8
LC-003-005-----0
 62
     7
370
    25
100
AcDbLine
 10
574.909877
 20
326.573976
 30
0.0
 11
579.609877
 21
331.273976
 31
0.0
  0
LINE
  5
6AC
330
69E
100
AcDbEntity
  8
LC-003-005-----0
 62
     7
370
    25
100
AcDbLine
 10
574.344192
 20
326.573976
 30
0.0
 11
579.044192
 21
331.273976
 31
0.0
  0
LINE
  5
6AD
330
69E
100
AcDbEntity
  8
LC-003-005-----0
 62
     7
370
    25
100
AcDbLine
 10
573.778506
 20
326.573976
 30
0.0
 11
578.478506
 21
331.273976
 31
0.0
  0
LINE
  5
6AE
330
69E
100
AcDbEntity
  8
LC-003-005-----0
 62
     7
370
    25
100
AcDbLine
 10
573.212821
 20
326.573976
 30
0.0
 11
577.912821
 21
331.273976
 31
0.0
  0
LINE
  5
6AF
330
69E
100
AcDbEntity
  8
LC-003-005-----0
 62
     7
370
    25
100
AcDbLine
 10
572.647135
 20
326.573976
 30
0.0
 11
577.347135
 21
331.273976
 31
0.0
  0
LINE
  5
6B0
330
69E
100
AcDbEntity
  8
LC-003-005-----0
 62
     7
370
    25
100
AcDbLine
 10
572.08145
 20
326.573976
 30
0.0
 11
576.78145
 21
331.273976
 31
0.0
  0
LINE
  5
6B1
330
69E
100
AcDbEntity
  8
LC-003-005-----0
 62
     7
370
    25
100
AcDbLine
 10
571.515765
 20
326.573976
 30
0.0
 11
576.215765
 21
331.273976
 31
0.0
  0
LINE
  5
6B2
330
69E
100
AcDbEntity
  8
LC-003-005-----0
 62
     7
370
    25
100
AcDbLine
 10
570.950079
 20
326.573976
 30
0.0
 11
575.650079
 21
331.273976
 31
0.0
  0
LINE
  5
6B3
330
69E
100
AcDbEntity
  8
LC-003-005-----0
 62
     7
370
    25
100
AcDbLine
 10
570.747213
 20
326.936795
 30
0.0
 11
575.084394
 21
331.273976
 31
0.0
  0
LINE
  5
6B4
330
69E
100
AcDbEntity
  8
LC-003-005-----0
 62
     7
370
    25
100
AcDbLine
 10
570.747213
 20
327.50248
 30
0.0
 11
574.518708
 21
331.273976
 31
0.0
  0
LINE
  5
6B5
330
69E
100
AcDbEntity
  8
LC-003-005-----0
 62
     7
370
    25
100
AcDbLine
 10
570.747213
 20
328.068166
 30
0.0
 11
573.953023
 21
331.273976
 31
0.0
  0
LINE
  5
6B6
330
69E
100
AcDbEntity
  8
LC-003-005-----0
 62
     7
370
    25
100
AcDbLine
 10
570.747213
 20
328.633851
 30
0.0
 11
573.387337
 21
331.273976
 31
0.0
  0
LINE
  5
6B7
330
69E
100
AcDbEntity
  8
LC-003-005-----0
 62
     7
370
    25
100
AcDbLine
 10
570.747213
 20
329.199537
 30
0.0
 11
572.821652
 21
331.273976
 31
0.0
  0
LINE
  5
6B8
330
69E
100
AcDbEntity
  8
LC-003-005-----0
 62
     7
370
    25
100
AcDbLine
 10
570.747213
 20
329.765222
 30
0.0
 11
572.255967
 21
331.273976
 31
0.0
  0
LINE
  5
6B9
330
69E
100
AcDbEntity
  8
LC-003-005-----0
 62
     7
370
    25
100
AcDbLine
 10
570.747213
 20
330.330908
 30
0.0
 11
571.690281
 21
331.273976
 31
0.0
  0
LINE
  5
6BA
330
69E
100
AcDbEntity
  8
LC-003-005-----0
 62
     7
370
    25
100
AcDbLine
 10
570.747213
 20
330.896593
 30
0.0
 11
571.124596
 21
331.273976
 31
0.0
  0
ENDBLK
  5
6A0
330
69E
100
AcDbEntity
  8
0
100
AcDbBlockEnd
  0
BLOCK
  5
6BE
330
6BD
100
AcDbEntity
  8
0
100
AcDbBlockBegin
  2
*X1570
 70
     1
 71
     0
 10
0.0
 20
0.0
 30
0.0
  3
*X1570
  1

  4
*X15
  0
LINE
  5
6C0
330
6BD
100
AcDbEntity
  8
LC-003-005-----0
 62
     7
370
    25
100
AcDbLine
 10
560.202056
 20
326.573976
 30
0.0
 11
560.747213
 21
327.119133
 31
0.0
  0
LINE
  5
6C1
330
6BD
100
AcDbEntity
  8
LC-003-005-----0
 62
     7
370
    25
100
AcDbLine
 10
559.636371
 20
326.573976
 30
0.0
 11
560.747213
 21
327.684818
 31
0.0
  0
LINE
  5
6C2
330
6BD
100
AcDbEntity
  8
LC-003-005-----0
 62
     7
370
    25
100
AcDbLine
 10
559.070685
 20
326.573976
 30
0.0
 11
560.747213
 21
328.250503
 31
0.0
  0
LINE
  5
6C3
330
6BD
100
AcDbEntity
  8
LC-003-005-----0
 62
     7
370
    25
100
AcDbLine
 10
558.505
 20
326.573976
 30
0.0
 11
560.747213
 21
328.816189
 31
0.0
  0
LINE
  5
6C4
330
6BD
100
AcDbEntity
  8
LC-003-005-----0
 62
     7
370
    25
100
AcDbLine
 10
557.749894
 20
326.384555
 30
0.0
 11
560.747213
 21
329.381874
 31
0.0
  0
LINE
  5
6C5
330
6BD
100
AcDbEntity
  8
LC-003-005-----0
 62
     7
370
    25
100
AcDbLine
 10
556.860493
 20
326.06084
 30
0.0
 11
560.747213
 21
329.94756
 31
0.0
  0
LINE
  5
6C6
330
6BD
100
AcDbEntity
  8
LC-003-005-----0
 62
     7
370
    25
100
AcDbLine
 10
555.971092
 20
325.737124
 30
0.0
 11
560.747213
 21
330.513245
 31
0.0
  0
LINE
  5
6C7
330
6BD
100
AcDbEntity
  8
LC-003-005-----0
 62
     7
370
    25
100
AcDbLine
 10
555.081692
 20
325.413409
 30
0.0
 11
560.747213
 21
331.078931
 31
0.0
  0
LINE
  5
6C8
330
6BD
100
AcDbEntity
  8
LC-003-005-----0
 62
     7
370
    25
100
AcDbLine
 10
554.192291
 20
325.089694
 30
0.0
 11
560.376563
 21
331.273966
 31
0.0
  0
LINE
  5
6C9
330
6BD
100
AcDbEntity
  8
LC-003-005-----0
 62
     7
370
    25
100
AcDbLine
 10
553.30289
 20
324.765978
 30
0.0
 11
559.810877
 21
331.273966
 31
0.0
  0
LINE
  5
6CA
330
6BD
100
AcDbEntity
  8
LC-003-005-----0
 62
     7
370
    25
100
AcDbLine
 10
552.413489
 20
324.442263
 30
0.0
 11
559.245192
 21
331.273966
 31
0.0
  0
LINE
  5
6CB
330
6BD
100
AcDbEntity
  8
LC-003-005-----0
 62
     7
370
    25
100
AcDbLine
 10
551.524088
 20
324.118547
 30
0.0
 11
558.679507
 21
331.273966
 31
0.0
  0
LINE
  5
6CC
330
6BD
100
AcDbEntity
  8
LC-003-005-----0
 62
     7
370
    25
100
AcDbLine
 10
550.747213
 20
323.907358
 30
0.0
 11
558.113821
 21
331.273966
 31
0.0
  0
LINE
  5
6CD
330
6BD
100
AcDbEntity
  8
LC-003-005-----0
 62
     7
370
    25
100
AcDbLine
 10
550.747213
 20
324.473043
 30
0.0
 11
557.496441
 21
331.222271
 31
0.0
  0
LINE
  5
6CE
330
6BD
100
AcDbEntity
  8
LC-003-005-----0
 62
     7
370
    25
100
AcDbLine
 10
550.747213
 20
325.038729
 30
0.0
 11
556.607032
 21
330.898547
 31
0.0
  0
LINE
  5
6CF
330
6BD
100
AcDbEntity
  8
LC-003-005-----0
 62
     7
370
    25
100
AcDbLine
 10
550.747213
 20
325.604414
 30
0.0
 11
555.717623
 21
330.574823
 31
0.0
  0
LINE
  5
6D0
330
6BD
100
AcDbEntity
  8
LC-003-005-----0
 62
     7
370
    25
100
AcDbLine
 10
550.747213
 20
326.170099
 30
0.0
 11
553.889062
 21
329.311948
 31
0.0
  0
LINE
  5
6D1
330
6BD
100
AcDbEntity
  8
LC-003-005-----0
 62
     7
370
    25
100
AcDbLine
 10
550.747213
 20
326.735785
 30
0.0
 11
553.071354
 21
329.059926
 31
0.0
  0
LINE
  5
6D2
330
6BD
100
AcDbEntity
  8
LC-003-005-----0
 62
     7
370
    25
100
AcDbLine
 10
550.747213
 20
327.30147
 30
0.0
 11
552.434814
 21
328.989071
 31
0.0
  0
LINE
  5
6D3
330
6BD
100
AcDbEntity
  8
LC-003-005-----0
 62
     7
370
    25
100
AcDbLine
 10
550.747213
 20
327.867156
 30
0.0
 11
551.80269
 21
328.922632
 31
0.0
  0
LINE
  5
6D4
330
6BD
100
AcDbEntity
  8
LC-003-005-----0
 62
     7
370
    25
100
AcDbLine
 10
550.747213
 20
328.432841
 30
0.0
 11
551.170566
 21
328.856194
 31
0.0
  0
ENDBLK
  5
6BF
330
6BD
100
AcDbEntity
  8
0
100
AcDbBlockEnd
  0
BLOCK
  5
6D9
330
6D8
100
AcDbEntity
  8
0
100
AcDbBlockBegin
  2
*X1671
 70
     1
 71
     0
 10
0.0
 20
0.0
 30
0.0
  3
*X1671
  1

  4
*X16
  0
LINE
  5
6DB
330
6D8
100
AcDbEntity
  8
LC-003-005-----0
 62
     7
370
    25
100
AcDbLine
 10
539.961878
 20
319.910247
 30
0.0
 11
540.747213
 21
320.695583
 31
0.0
  0
LINE
  5
6DC
330
6D8
100
AcDbEntity
  8
LC-003-005-----0
 62
     7
370
    25
100
AcDbLine
 10
539.072477
 20
319.586532
 30
0.0
 11
540.747213
 21
321.261268
 31
0.0
  0
LINE
  5
6DD
330
6D8
100
AcDbEntity
  8
LC-003-005-----0
 62
     7
370
    25
100
AcDbLine
 10
538.183076
 20
319.262817
 30
0.0
 11
540.747213
 21
321.826954
 31
0.0
  0
LINE
  5
6DE
330
6D8
100
AcDbEntity
  8
LC-003-005-----0
 62
     7
370
    25
100
AcDbLine
 10
537.293675
 20
318.939101
 30
0.0
 11
540.747213
 21
322.392639
 31
0.0
  0
LINE
  5
6DF
330
6D8
100
AcDbEntity
  8
LC-003-005-----0
 62
     7
370
    25
100
AcDbLine
 10
536.404274
 20
318.615386
 30
0.0
 11
540.747213
 21
322.958325
 31
0.0
  0
LINE
  5
6E0
330
6D8
100
AcDbEntity
  8
LC-003-005-----0
 62
     7
370
    25
100
AcDbLine
 10
535.514874
 20
318.29167
 30
0.0
 11
540.747213
 21
323.52401
 31
0.0
  0
LINE
  5
6E1
330
6D8
100
AcDbEntity
  8
LC-003-005-----0
 62
     7
370
    25
100
AcDbLine
 10
534.625473
 20
317.967955
 30
0.0
 11
540.747213
 21
324.089695
 31
0.0
  0
LINE
  5
6E2
330
6D8
100
AcDbEntity
  8
LC-003-005-----0
 62
     7
370
    25
100
AcDbLine
 10
533.985807
 20
317.893975
 30
0.0
 11
540.747213
 21
324.655381
 31
0.0
  0
LINE
  5
6E3
330
6D8
100
AcDbEntity
  8
LC-003-005-----0
 62
     7
370
    25
100
AcDbLine
 10
533.420122
 20
317.893975
 30
0.0
 11
540.597664
 21
325.071518
 31
0.0
  0
LINE
  5
6E4
330
6D8
100
AcDbEntity
  8
LC-003-005-----0
 62
     7
370
    25
100
AcDbLine
 10
532.854436
 20
317.893975
 30
0.0
 11
539.708255
 21
324.747794
 31
0.0
  0
LINE
  5
6E5
330
6D8
100
AcDbEntity
  8
LC-003-005-----0
 62
     7
370
    25
100
AcDbLine
 10
532.288751
 20
317.893975
 30
0.0
 11
538.818846
 21
324.42407
 31
0.0
  0
LINE
  5
6E6
330
6D8
100
AcDbEntity
  8
LC-003-005-----0
 62
     7
370
    25
100
AcDbLine
 10
531.723065
 20
317.893975
 30
0.0
 11
537.929437
 21
324.100346
 31
0.0
  0
LINE
  5
6E7
330
6D8
100
AcDbEntity
  8
LC-003-005-----0
 62
     7
370
    25
100
AcDbLine
 10
531.15738
 20
317.893975
 30
0.0
 11
537.040027
 21
323.776622
 31
0.0
  0
LINE
  5
6E8
330
6D8
100
AcDbEntity
  8
LC-003-005-----0
 62
     7
370
    25
100
AcDbLine
 10
530.747213
 20
318.049493
 30
0.0
 11
536.150618
 21
323.452898
 31
0.0
  0
LINE
  5
6E9
330
6D8
100
AcDbEntity
  8
LC-003-005-----0
 62
     7
370
    25
100
AcDbLine
 10
530.747213
 20
318.615179
 30
0.0
 11
535.261209
 21
323.129174
 31
0.0
  0
LINE
  5
6EA
330
6D8
100
AcDbEntity
  8
LC-003-005-----0
 62
     7
370
    25
100
AcDbLine
 10
530.747213
 20
319.180864
 30
0.0
 11
534.371799
 21
322.80545
 31
0.0
  0
LINE
  5
6EB
330
6D8
100
AcDbEntity
  8
LC-003-005-----0
 62
     7
370
    25
100
AcDbLine
 10
530.747213
 20
319.74655
 30
0.0
 11
533.524638
 21
322.523974
 31
0.0
  0
LINE
  5
6EC
330
6D8
100
AcDbEntity
  8
LC-003-005-----0
 62
     7
370
    25
100
AcDbLine
 10
530.747213
 20
320.312235
 30
0.0
 11
532.958952
 21
322.523974
 31
0.0
  0
LINE
  5
6ED
330
6D8
100
AcDbEntity
  8
LC-003-005-----0
 62
     7
370
    25
100
AcDbLine
 10
530.747213
 20
320.87792
 30
0.0
 11
532.393267
 21
322.523974
 31
0.0
  0
LINE
  5
6EE
330
6D8
100
AcDbEntity
  8
LC-003-005-----0
 62
     7
370
    25
100
AcDbLine
 10
530.747213
 20
321.443606
 30
0.0
 11
531.827581
 21
322.523974
 31
0.0
  0
LINE
  5
6EF
330
6D8
100
AcDbEntity
  8
LC-003-005-----0
 62
     7
370
    25
100
AcDbLine
 10
530.747213
 20
322.009291
 30
0.0
 11
531.261896
 21
322.523974
 31
0.0
  0
ENDBLK
  5
6DA
330
6D8
100
AcDbEntity
  8
0
100
AcDbBlockEnd
  0
BLOCK
  5
701
330
6F7
100
AcDbEntity
  8
0
100
AcDbBlockBegin
  2
*D72
 70
     1
 71
     0
 10
0.0
 20
0.0
 30
0.0
  3
*D72
  1

  0
LINE
  5
6F8
330
6F7
100
AcDbEntity
  8
LC-004-003-----0
 62
     2
370
    -2
100
AcDbLine
 10
180.747198
 20
326.573981
 30
0.0
 11
180.747198
 21
475.109976
 31
0.0
  0
LINE
  5
6F9
330
6F7
100
AcDbEntity
  8
LC-004-003-----0
 62
     2
370
    -2
100
AcDbLine
 10
680.747198
 20
326.573981
 30
0.0
 11
680.747198
 21
475.109976
 31
0.0
  0
LINE
  5
6FA
330
6F7
100
AcDbEntity
  8
LC-004-003-----0
 62
     2
370
    -2
100
AcDbLine
 10
208.747198
 20
471.509976
 30
0.0
 11
652.747198
 21
471.509976
 31
0.0
  0
SOLID
  5
6FB
330
6F7
100
AcDbEntity
  8
LC-004-003-----0
 62
     2
100
AcDbTrace
 10
208.747198
 20
476.176642
 30
0.0
 11
208.747198
 21
466.843309
 31
0.0
 12
180.747198
 22
471.509976
 32
0.0
 13
180.747198
 23
471.509976
 33
0.0
  0
SOLID
  5
6FC
330
6F7
100
AcDbEntity
  8
LC-004-003-----0
 62
     2
100
AcDbTrace
 10
652.747198
 20
466.843309
 30
0.0
 11
652.747198
 21
476.176642
 31
0.0
 12
680.747198
 22
471.509976
 32
0.0
 13
680.747198
 23
471.509976
 33
0.0
  0
MTEXT
  5
6FD
330
6F7
100
AcDbEntity
  8
LC-004-003-----0
 62
     2
100
AcDbMText
 10
442.707445
 20
502.309976
 30
0.0
 40
28.0
 41
0.0
 71
     5
 72
     1
  1
\A1;500
  7
LCTX15-400-0-0pDIN-Schrift
 73
     1
 44
1.0
  0
POINT
  5
6FE
330
6F7
100
AcDbEntity
  8
Defpoints
 62
     0
100
AcDbPoint
 10
180.747198
 20
326.573981
 30
0.0
  0
POINT
  5
6FF
330
6F7
100
AcDbEntity
  8
Defpoints
 62
     0
100
AcDbPoint
 10
680.747198
 20
326.573981
 30
0.0
  0
POINT
  5
700
330
6F7
100
AcDbEntity
  8
Defpoints
 62
     0
100
AcDbPoint
 10
680.747198
 20
471.509976
 30
0.0
  0
ENDBLK
  5
702
330
6F7
100
AcDbEntity
  8
0
100
AcDbBlockEnd
  0
BLOCK
  5
70E
330
704
100
AcDbEntity
  8
0
100
AcDbBlockBegin
  2
*D73
 70
     1
 71
     0
 10
0.0
 20
0.0
 30
0.0
  3
*D73
  1

  0
LINE
  5
705
330
704
100
AcDbEntity
  8
LC-004-003-----0
 62
     2
370
    -2
100
AcDbLine
 10
253.747197
 20
323.573975
 30
0.0
 11
253.747197
 21
426.995976
 31
0.0
  0
LINE
  5
706
330
704
100
AcDbEntity
  8
LC-004-003-----0
 62
     2
370
    -2
100
AcDbLine
 10
607.747199
 20
323.573975
 30
0.0
 11
607.747199
 21
426.995976
 31
0.0
  0
LINE
  5
707
330
704
100
AcDbEntity
  8
LC-004-003-----0
 62
     2
370
    -2
100
AcDbLine
 10
281.747197
 20
423.395976
 30
0.0
 11
579.747199
 21
423.395976
 31
0.0
  0
SOLID
  5
708
330
704
100
AcDbEntity
  8
LC-004-003-----0
 62
     2
100
AcDbTrace
 10
281.747197
 20
428.062642
 30
0.0
 11
281.747197
 21
418.729309
 31
0.0
 12
253.747197
 22
423.395976
 32
0.0
 13
253.747197
 23
423.395976
 33
0.0
  0
SOLID
  5
709
330
704
100
AcDbEntity
  8
LC-004-003-----0
 62
     2
100
AcDbTrace
 10
579.747199
 20
418.729309
 30
0.0
 11
579.747199
 21
428.062642
 31
0.0
 12
607.747199
 22
423.395976
 32
0.0
 13
607.747199
 23
423.395976
 33
0.0
  0
MTEXT
  5
70A
330
704
100
AcDbEntity
  8
LC-004-003-----0
 62
     2
100
AcDbMText
 10
427.799138
 20
454.195976
 30
0.0
 40
28.0
 41
0.0
 71
     5
 72
     1
  1
%%c\A1;354
  7
LCTX15-400-0-0pDIN-Schrift
 73
     1
 44
1.0
  0
POINT
  5
70B
330
704
100
AcDbEntity
  8
Defpoints
 62
     0
100
AcDbPoint
 10
253.747197
 20
323.573975
 30
0.0
  0
POINT
  5
70C
330
704
100
AcDbEntity
  8
Defpoints
 62
     0
100
AcDbPoint
 10
607.747199
 20
323.573975
 30
0.0
  0
POINT
  5
70D
330
704
100
AcDbEntity
  8
Defpoints
 62
     0
100
AcDbPoint
 10
607.747199
 20
423.395976
 30
0.0
  0
ENDBLK
  5
70F
330
704
100
AcDbEntity
  8
0
100
AcDbBlockEnd
  0
BLOCK
  5
71B
330
711
100
AcDbEntity
  8
0
100
AcDbBlockBegin
  2
*D74
 70
     1
 71
     0
 10
0.0
 20
0.0
 30
0.0
  3
*D74
  1

  0
LINE
  5
712
330
711
100
AcDbEntity
  8
LC-004-003-----0
 62
     2
370
    -2
100
AcDbLine
 10
180.747198
 20
326.573981
 30
0.0
 11
239.056839
 21
326.573981
 31
0.0
  0
LINE
  5
713
330
711
100
AcDbEntity
  8
LC-004-003-----0
 62
     2
370
    -2
100
AcDbLine
 10
361.528486
 20
224.573973
 30
0.0
 11
231.856839
 21
224.573973
 31
0.0
  0
LINE
  5
714
330
711
100
AcDbEntity
  8
LC-004-003-----0
 62
     2
370
    -2
100
AcDbLine
 10
235.456839
 20
298.573981
 30
0.0
 11
235.456839
 21
252.573973
 31
0.0
  0
SOLID
  5
715
330
711
100
AcDbEntity
  8
LC-004-003-----0
 62
     2
100
AcDbTrace
 10
240.123506
 20
298.573981
 30
0.0
 11
230.790172
 21
298.573981
 31
0.0
 12
235.456839
 22
326.573981
 32
0.0
 13
235.456839
 23
326.573981
 33
0.0
  0
SOLID
  5
716
330
711
100
AcDbEntity
  8
LC-004-003-----0
 62
     2
100
AcDbTrace
 10
230.790172
 20
252.573973
 30
0.0
 11
240.123506
 21
252.573973
 31
0.0
 12
235.456839
 22
224.573973
 32
0.0
 13
235.456839
 23
224.573973
 33
0.0
  0
MTEXT
  5
717
330
711
100
AcDbEntity
  8
LC-004-003-----0
 62
     2
100
AcDbMText
 10
204.656839
 20
274.249971
 30
0.0
 40
28.0
 41
0.0
 71
     5
 72
     1
  1
\A1;102
  7
LCTX15-400-0-0pDIN-Schrift
 11
6.123031769111886E-17
 21
1.0
 31
0.0
 73
     1
 44
1.0
  0
POINT
  5
718
330
711
100
AcDbEntity
  8
Defpoints
 62
     0
100
AcDbPoint
 10
180.747198
 20
326.573981
 30
0.0
  0
POINT
  5
719
330
711
100
AcDbEntity
  8
Defpoints
 62
     0
100
AcDbPoint
 10
361.528486
 20
224.573973
 30
0.0
  0
POINT
  5
71A
330
711
100
AcDbEntity
  8
Defpoints
 62
     0
100
AcDbPoint
 10
235.456839
 20
224.573973
 30
0.0
  0
ENDBLK
  5
71C
330
711
100
AcDbEntity
  8
0
100
AcDbBlockEnd
  0
BLOCK
  5
728
330
71E
100
AcDbEntity
  8
0
100
AcDbBlockBegin
  2
*D75
 70
     1
 71
     0
 10
0.0
 20
0.0
 30
0.0
  3
*D75
  1

  0
LINE
  5
71F
330
71E
100
AcDbEntity
  8
LC-004-003-----0
 62
     2
370
    -2
100
AcDbLine
 10
350.747199
 20
234.573973
 30
0.0
 11
350.747199
 21
53.891976
 31
0.0
  0
LINE
  5
720
330
71E
100
AcDbEntity
  8
LC-004-003-----0
 62
     2
370
    -2
100
AcDbLine
 10
510.747196
 20
234.573973
 30
0.0
 11
510.747196
 21
53.891976
 31
0.0
  0
LINE
  5
721
330
71E
100
AcDbEntity
  8
LC-004-003-----0
 62
     2
370
    -2
100
AcDbLine
 10
378.747199
 20
57.491976
 30
0.0
 11
482.747196
 21
57.491976
 31
0.0
  0
SOLID
  5
722
330
71E
100
AcDbEntity
  8
LC-004-003-----0
 62
     2
100
AcDbTrace
 10
378.747199
 20
62.158642
 30
0.0
 11
378.747199
 21
52.825309
 31
0.0
 12
350.747199
 22
57.491976
 32
0.0
 13
350.747199
 23
57.491976
 33
0.0
  0
SOLID
  5
723
330
71E
100
AcDbEntity
  8
LC-004-003-----0
 62
     2
100
AcDbTrace
 10
482.747196
 20
52.825309
 30
0.0
 11
482.747196
 21
62.158642
 31
0.0
 12
510.747196
 22
57.491976
 32
0.0
 13
510.747196
 23
57.491976
 33
0.0
  0
MTEXT
  5
724
330
71E
100
AcDbEntity
  8
LC-004-003-----0
 62
     2
100
AcDbMText
 10
424.604501
 20
88.291976
 30
0.0
 40
28.0
 41
0.0
 71
     5
 72
     1
  1
%%c\A1;160
  7
LCTX15-400-0-0pDIN-Schrift
 73
     1
 44
1.0
  0
POINT
  5
725
330
71E
100
AcDbEntity
  8
Defpoints
 62
     0
100
AcDbPoint
 10
350.747199
 20
234.573973
 30
0.0
  0
POINT
  5
726
330
71E
100
AcDbEntity
  8
Defpoints
 62
     0
100
AcDbPoint
 10
510.747196
 20
234.573973
 30
0.0
  0
POINT
  5
727
330
71E
100
AcDbEntity
  8
Defpoints
 62
     0
100
AcDbPoint
 10
510.747196
 20
57.491976
 30
0.0
  0
ENDBLK
  5
729
330
71E
100
AcDbEntity
  8
0
100
AcDbBlockEnd
  0
BLOCK
  5
735
330
72B
100
AcDbEntity
  8
0
100
AcDbBlockBegin
  2
*D76
 70
     1
 71
     0
 10
0.0
 20
0.0
 30
0.0
  3
*D76
  1

  0
LINE
  5
72C
330
72B
100
AcDbEntity
  8
LC-004-003-----0
 62
     2
370
    -2
100
AcDbLine
 10
358.747205
 20
224.573977
 30
0.0
 11
292.154135
 21
224.573977
 31
0.0
  0
LINE
  5
72D
330
72B
100
AcDbEntity
  8
LC-004-003-----0
 62
     2
370
    -2
100
AcDbLine
 10
369.452977
 20
158.573978
 30
0.0
 11
292.154135
 21
158.573978
 31
0.0
  0
LINE
  5
72E
330
72B
100
AcDbEntity
  8
LC-004-003-----0
 62
     2
370
    -2
100
AcDbLine
 10
295.754135
 20
196.573977
 30
0.0
 11
295.754135
 21
186.573978
 31
0.0
  0
SOLID
  5
72F
330
72B
100
AcDbEntity
  8
LC-004-003-----0
 62
     2
100
AcDbTrace
 10
300.420802
 20
196.573977
 30
0.0
 11
291.087469
 21
196.573977
 31
0.0
 12
295.754135
 22
224.573977
 32
0.0
 13
295.754135
 23
224.573977
 33
0.0
  0
SOLID
  5
730
330
72B
100
AcDbEntity
  8
LC-004-003-----0
 62
     2
100
AcDbTrace
 10
291.087469
 20
186.573978
 30
0.0
 11
300.420802
 21
186.573978
 31
0.0
 12
295.754135
 22
158.573978
 32
0.0
 13
295.754135
 23
158.573978
 33
0.0
  0
MTEXT
  5
731
330
72B
100
AcDbEntity
  8
LC-004-003-----0
 62
     2
100
AcDbMText
 10
264.954135
 20
188.765976
 30
0.0
 40
28.0
 41
0.0
 71
     5
 72
     1
  1
\A1;66
  7
LCTX15-400-0-0pDIN-Schrift
 11
6.123031769111886E-17
 21
1.0
 31
0.0
 73
     1
 44
1.0
  0
POINT
  5
732
330
72B
100
AcDbEntity
  8
Defpoints
 62
     0
100
AcDbPoint
 10
358.747205
 20
224.573977
 30
0.0
  0
POINT
  5
733
330
72B
100
AcDbEntity
  8
Defpoints
 62
     0
100
AcDbPoint
 10
369.452977
 20
158.573978
 30
0.0
  0
POINT
  5
734
330
72B
100
AcDbEntity
  8
Defpoints
 62
     0
100
AcDbPoint
 10
295.754135
 20
158.573978
 30
0.0
  0
ENDBLK
  5
736
330
72B
100
AcDbEntity
  8
0
100
AcDbBlockEnd
  0
BLOCK
  5
742
330
738
100
AcDbEntity
  8
0
100
AcDbBlockBegin
  2
*D77
 70
     1
 71
     0
 10
0.0
 20
0.0
 30
0.0
  3
*D77
  1

  0
LINE
  5
739
330
738
100
AcDbEntity
  8
LC-004-003-----0
 62
     2
370
    -2
100
AcDbLine
 10
368.247205
 20
163.073976
 30
0.0
 11
368.247205
 21
102.005976
 31
0.0
  0
LINE
  5
73A
330
738
100
AcDbEntity
  8
LC-004-003-----0
 62
     2
370
    -2
100
AcDbLine
 10
493.247205
 20
163.073976
 30
0.0
 11
493.247205
 21
102.005976
 31
0.0
  0
LINE
  5
73B
330
738
100
AcDbEntity
  8
LC-004-003-----0
 62
     2
370
    -2
100
AcDbLine
 10
396.247205
 20
105.605976
 30
0.0
 11
465.247205
 21
105.605976
 31
0.0
  0
SOLID
  5
73C
330
738
100
AcDbEntity
  8
LC-004-003-----0
 62
     2
100
AcDbTrace
 10
396.247205
 20
110.272642
 30
0.0
 11
396.247205
 21
100.939309
 31
0.0
 12
368.247205
 22
105.605976
 32
0.0
 13
368.247205
 23
105.605976
 33
0.0
  0
SOLID
  5
73D
330
738
100
AcDbEntity
  8
LC-004-003-----0
 62
     2
100
AcDbTrace
 10
465.247205
 20
100.939309
 30
0.0
 11
465.247205
 21
110.272642
 31
0.0
 12
493.247205
 22
105.605976
 32
0.0
 13
493.247205
 23
105.605976
 33
0.0
  0
MTEXT
  5
73E
330
738
100
AcDbEntity
  8
LC-004-003-----0
 62
     2
100
AcDbMText
 10
427.799138
 20
136.405976
 30
0.0
 40
28.0
 41
0.0
 71
     5
 72
     1
  1
\A1;DN125
  7
LCTX15-400-0-0pDIN-Schrift
 73
     1
 44
1.0
  0
POINT
  5
73F
330
738
100
AcDbEntity
  8
Defpoints
 62
     0
100
AcDbPoint
 10
368.247205
 20
163.073976
 30
0.0
  0
POINT
  5
740
330
738
100
AcDbEntity
  8
Defpoints
 62
     0
100
AcDbPoint
 10
493.247205
 20
163.073976
 30
0.0
  0
POINT
  5
741
330
738
100
AcDbEntity
  8
Defpoints
 62
     0
100
AcDbPoint
 10
493.247205
 20
105.605976
 30
0.0
  0
ENDBLK
  5
743
330
738
100
AcDbEntity
  8
0
100
AcDbBlockEnd
  0
ENDSEC
  0
SECTION
  2
ENTITIES
  0
INSERT
  5
3D
330
1F
100
AcDbEntity
  8
LC-001-100-D00-0
 62
     7
370
    50
100
AcDbBlockReference
  2
POLY1
 10
0.0
 20
0.0
 30
0.0
  0
INSERT
  5
49
330
1F
100
AcDbEntity
  8
LC-001-100-D00-0
 62
     7
370
    50
100
AcDbBlockReference
  2
POLY2
 10
0.0
 20
0.0
 30
0.0
  0
INSERT
  5
55
330
1F
100
AcDbEntity
  8
LC-001-100-D00-0
 62
     7
370
    50
100
AcDbBlockReference
  2
POLY3
 10
0.0
 20
0.0
 30
0.0
  0
INSERT
  5
61
330
1F
100
AcDbEntity
  8
LC-001-100-D00-0
 62
     7
370
    50
100
AcDbBlockReference
  2
POLY4
 10
0.0
 20
0.0
 30
0.0
  0
INSERT
  5
6D
330
1F
100
AcDbEntity
  8
LC-001-100-D00-0
 62
     7
370
    50
100
AcDbBlockReference
  2
POLY5
 10
0.0
 20
0.0
 30
0.0
  0
INSERT
  5
79
330
1F
100
AcDbEntity
  8
LC-001-100-D00-0
 62
     7
370
    50
100
AcDbBlockReference
  2
POLY6
 10
0.0
 20
0.0
 30
0.0
  0
INSERT
  5
85
330
1F
100
AcDbEntity
  8
LC-001-100-D00-0
 62
     7
370
    50
100
AcDbBlockReference
  2
POLY7
 10
0.0
 20
0.0
 30
0.0
  0
INSERT
  5
91
330
1F
100
AcDbEntity
  8
LC-001-100-D00-0
 62
     7
370
    50
100
AcDbBlockReference
  2
POLY8
 10
0.0
 20
0.0
 30
0.0
  0
INSERT
  5
9D
330
1F
100
AcDbEntity
  8
LC-001-100-D00-0
 62
     7
370
    50
100
AcDbBlockReference
  2
POLY9
 10
0.0
 20
0.0
 30
0.0
  0
INSERT
  5
A9
330
1F
100
AcDbEntity
  8
LC-001-100-D00-0
 62
     7
370
    50
100
AcDbBlockReference
  2
POLY10
 10
0.0
 20
0.0
 30
0.0
  0
LINE
  5
AA
330
1F
100
AcDbEntity
  8
LC-001-100-D00-0
 62
     7
370
    50
100
AcDbLine
 10
383.811945
 20
327.930354
 30
0.0
 11
383.811945
 21
327.917852
 31
0.0
  0
ARC
  5
AB
330
1F
100
AcDbEntity
  8
LC-001-100-D00-0
 62
     7
370
    50
100
AcDbCircle
 10
477.747205
 20
326.792853
 30
0.0
 40
6.820236432851901
100
AcDbArc
 50
116.493736
 51
123.008786
  0
ARC
  5
AC
330
1F
100
AcDbEntity
  8
LC-001-100-D00-0
 62
     7
370
    50
100
AcDbCircle
 10
474.793918
 20
332.717853
 30
0.0
 40
0.1999999999999318
100
AcDbArc
 50
90.0
 51
116.493736
  0
INSERT
  5
B3
330
1F
100
AcDbEntity
  8
LC-001-100-D00-0
 62
     7
370
    50
100
AcDbBlockReference
  2
KLON1
 10
0.0
 20
0.0
 30
0.0
  0
INSERT
  5
BA
330
1F
100
AcDbEntity
  8
LC-001-100-D00-0
 62
     7
370
    50
100
AcDbBlockReference
  2
KLON2
 10
0.0
 20
0.0
 30
0.0
  0
INSERT
  5
C6
330
1F
100
AcDbEntity
  8
LC-001-100-D00-0
 62
     7
370
    50
100
AcDbBlockReference
  2
POLY11
 10
0.0
 20
0.0
 30
0.0
  0
LINE
  5
C7
330
1F
100
AcDbEntity
  8
LC-001-100-D00-0
 62
     7
370
    50
100
AcDbLine
 10
339.78563
 20
323.927112
 30
0.0
 11
339.997204
 21
323.762737
 31
0.0
  0
INSERT
  5
CE
330
1F
100
AcDbEntity
  8
LC-001-100-D00-0
 62
     7
370
    50
100
AcDbBlockReference
  2
KLON3
 10
0.0
 20
0.0
 30
0.0
  0
INSERT
  5
D5
330
1F
100
AcDbEntity
  8
LC-001-100-D00-0
 62
     7
370
    50
100
AcDbBlockReference
  2
KLON4
 10
0.0
 20
0.0
 30
0.0
  0
INSERT
  5
E1
330
1F
100
AcDbEntity
  8
LC-001-100-D00-0
 62
     7
370
    50
100
AcDbBlockReference
  2
POLY12
 10
0.0
 20
0.0
 30
0.0
  0
LINE
  5
E2
330
1F
100
AcDbEntity
  8
LC-001-100-D00-0
 62
     7
370
    50
100
AcDbLine
 10
339.78563
 20
320.927114
 30
0.0
 11
339.997204
 21
320.762731
 31
0.0
  0
INSERT
  5
E9
330
1F
100
AcDbEntity
  8
LC-001-100-D00-0
 62
     7
370
    50
100
AcDbBlockReference
  2
KLON5
 10
0.0
 20
0.0
 30
0.0
  0
INSERT
  5
F0
330
1F
100
AcDbEntity
  8
LC-001-100-D00-0
 62
     7
370
    50
100
AcDbBlockReference
  2
KLON6
 10
0.0
 20
0.0
 30
0.0
  0
INSERT
  5
F7
330
1F
100
AcDbEntity
  8
LC-001-100-D00-0
 62
     7
370
    50
100
AcDbBlockReference
  2
KLON7
 10
0.0
 20
0.0
 30
0.0
  0
INSERT
  5
FE
330
1F
100
AcDbEntity
  8
LC-001-100-D00-0
 62
     7
370
    50
100
AcDbBlockReference
  2
KLON8
 10
0.0
 20
0.0
 30
0.0
  0
INSERT
  5
10A
330
1F
100
AcDbEntity
  8
LC-001-100-D00-0
 62
     7
370
    50
100
AcDbBlockReference
  2
POLY13
 10
0.0
 20
0.0
 30
0.0
  0
LINE
  5
10B
330
1F
100
AcDbEntity
  8
LC-001-100-D00-0
 62
     7
370
    50
100
AcDbLine
 10
339.78563
 20
326.927111
 30
0.0
 11
339.997204
 21
326.762736
 31
0.0
  0
INSERT
  5
112
330
1F
100
AcDbEntity
  8
LC-001-100-D00-0
 62
     7
370
    50
100
AcDbBlockReference
  2
KLON9
 10
0.0
 20
0.0
 30
0.0
  0
INSERT
  5
119
330
1F
100
AcDbEntity
  8
LC-001-100-D00-0
 62
     7
370
    50
100
AcDbBlockReference
  2
KLON10
 10
0.0
 20
0.0
 30
0.0
  0
INSERT
  5
125
330
1F
100
AcDbEntity
  8
LC-001-100-D00-0
 62
     7
370
    50
100
AcDbBlockReference
  2
POLY14
 10
0.0
 20
0.0
 30
0.0
  0
LINE
  5
126
330
1F
100
AcDbEntity
  8
LC-001-100-D00-0
 62
     7
370
    50
100
AcDbLine
 10
338.747205
 20
315.413445
 30
0.0
 11
338.747205
 21
317.112029
 31
0.0
  0
LINE
  5
127
330
1F
100
AcDbEntity
  8
LC-001-100-D00-0
 62
     7
370
    50
100
AcDbLine
 10
334.747204
 20
318.612024
 30
0.0
 11
334.747204
 21
316.913441
 31
0.0
  0
LINE
  5
128
330
1F
100
AcDbEntity
  8
LC-001-100-D00-0
 62
     7
370
    50
100
AcDbLine
 10
338.52064
 20
330.91785
 30
0.0
 11
338.52064
 21
331.417851
 31
0.0
  0
LINE
  5
129
330
1F
100
AcDbEntity
  8
LC-001-100-D00-0
 62
     7
370
    50
100
AcDbLine
 10
340.497205
 20
331.417851
 30
0.0
 11
338.52064
 21
331.417851
 31
0.0
  0
LINE
  5
12A
330
1F
100
AcDbEntity
  8
LC-001-100-D00-0
 62
     7
370
    50
100
AcDbLine
 10
340.497205
 20
331.417851
 30
0.0
 11
340.497205
 21
332.489617
 31
0.0
  0
ARC
  5
12B
330
1F
100
AcDbEntity
  8
LC-001-100-D00-0
 62
     7
370
    50
100
AcDbCircle
 10
336.747205
 20
326.792853
 30
0.0
 40
6.820236432852132
100
AcDbArc
 50
48.715289
 51
56.644353
  0
LINE
  5
12C
330
1F
100
AcDbEntity
  8
LC-001-100-D00-0
 62
     7
370
    50
100
AcDbLine
 10
341.797204
 20
331.917852
 30
0.0
 11
341.247202
 21
331.917852
 31
0.0
  0
ARC
  5
12D
330
1F
100
AcDbEntity
  8
LC-001-100-D00-0
 62
     7
370
    50
100
AcDbCircle
 10
341.797205
 20
331.717853
 30
0.0
 40
0.2000000000000455
100
AcDbArc
 50
0.0
 51
90.0
  0
LINE
  5
12E
330
1F
100
AcDbEntity
  8
LC-001-100-D00-0
 62
     7
370
    50
100
AcDbLine
 10
341.997208
 20
328.917854
 30
0.0
 11
341.997208
 21
331.717856
 31
0.0
  0
LINE
  5
12F
330
1F
100
AcDbEntity
  8
LC-001-100-D00-0
 62
     7
370
    50
100
AcDbLine
 10
338.747205
 20
328.917854
 30
0.0
 11
341.997208
 21
328.917854
 31
0.0
  0
LINE
  5
130
330
1F
100
AcDbEntity
  8
LC-001-100-D00-0
 62
     7
370
    50
100
AcDbLine
 10
338.747205
 20
327.41344
 30
0.0
 11
338.747205
 21
328.917854
 31
0.0
  0
INSERT
  5
137
330
1F
100
AcDbEntity
  8
LC-001-100-D00-0
 62
     7
370
    50
100
AcDbBlockReference
  2
KLON11
 10
0.0
 20
0.0
 30
0.0
  0
LINE
  5
138
330
1F
100
AcDbEntity
  8
LC-001-100-D00-0
 62
     7
370
    50
100
AcDbLine
 10
338.747205
 20
324.413441
 30
0.0
 11
338.747205
 21
326.112025
 31
0.0
  0
INSERT
  5
13F
330
1F
100
AcDbEntity
  8
LC-001-100-D00-0
 62
     7
370
    50
100
AcDbBlockReference
  2
KLON12
 10
0.0
 20
0.0
 30
0.0
  0
LINE
  5
140
330
1F
100
AcDbEntity
  8
LC-001-100-D00-0
 62
     7
370
    50
100
AcDbLine
 10
338.747205
 20
321.413443
 30
0.0
 11
338.747205
 21
323.112026
 31
0.0
  0
INSERT
  5
147
330
1F
100
AcDbEntity
  8
LC-001-100-D00-0
 62
     7
370
    50
100
AcDbBlockReference
  2
KLON13
 10
0.0
 20
0.0
 30
0.0
  0
LINE
  5
148
330
1F
100
AcDbEntity
  8
LC-001-100-D00-0
 62
     7
370
    50
100
AcDbLine
 10
338.747205
 20
318.413444
 30
0.0
 11
338.747205
 21
320.112027
 31
0.0
  0
INSERT
  5
14F
330
1F
100
AcDbEntity
  8
LC-001-100-D00-0
 62
     7
370
    50
100
AcDbBlockReference
  2
KLON14
 10
0.0
 20
0.0
 30
0.0
  0
INSERT
  5
156
330
1F
100
AcDbEntity
  8
LC-001-100-D00-0
 62
     7
370
    50
100
AcDbBlockReference
  2
KLON15
 10
0.0
 20
0.0
 30
0.0
  0
LINE
  5
157
330
1F
100
AcDbEntity
  8
LC-001-100-D00-0
 62
     7
370
    50
100
AcDbLine
 10
338.747205
 20
313.318268
 30
0.0
 11
338.747205
 21
314.112023
 31
0.0
  0
LINE
  5
158
330
1F
100
AcDbEntity
  8
LC-001-100-D00-0
 62
     7
370
    50
100
AcDbLine
 10
336.747208
 20
311.917857
 30
0.0
 11
338.747205
 21
313.318268
 31
0.0
  0
LINE
  5
159
330
1F
100
AcDbEntity
  8
LC-001-100-D00-0
 62
     7
370
    50
100
AcDbLine
 10
334.747204
 20
313.318268
 30
0.0
 11
336.747208
 21
311.917857
 31
0.0
  0
LINE
  5
15A
330
1F
100
AcDbEntity
  8
LC-001-100-D00-0
 62
     7
370
    50
100
AcDbLine
 10
334.747204
 20
315.612026
 30
0.0
 11
334.747204
 21
313.318268
 31
0.0
  0
INSERT
  5
161
330
1F
100
AcDbEntity
  8
LC-001-100-D00-0
 62
     7
370
    50
100
AcDbBlockReference
  2
KLON16
 10
0.0
 20
0.0
 30
0.0
  0
INSERT
  5
168
330
1F
100
AcDbEntity
  8
LC-001-100-D00-0
 62
     7
370
    50
100
AcDbBlockReference
  2
KLON17
 10
0.0
 20
0.0
 30
0.0
  0
LINE
  5
169
330
1F
100
AcDbEntity
  8
LC-001-100-D00-0
 62
     7
370
    50
100
AcDbLine
 10
334.747204
 20
321.612023
 30
0.0
 11
334.747204
 21
319.913447
 31
0.0
  0
INSERT
  5
170
330
1F
100
AcDbEntity
  8
LC-001-100-D00-0
 62
     7
370
    50
100
AcDbBlockReference
  2
KLON18
 10
0.0
 20
0.0
 30
0.0
  0
LINE
  5
171
330
1F
100
AcDbEntity
  8
LC-001-100-D00-0
 62
     7
370
    50
100
AcDbLine
 10
334.747204
 20
324.612029
 30
0.0
 11
334.747204
 21
322.913446
 31
0.0
  0
INSERT
  5
178
330
1F
100
AcDbEntity
  8
LC-001-100-D00-0
 62
     7
370
    50
100
AcDbBlockReference
  2
KLON19
 10
0.0
 20
0.0
 30
0.0
  0
LINE
  5
179
330
1F
100
AcDbEntity
  8
LC-001-100-D00-0
 62
     7
370
    50
100
AcDbLine
 10
334.747204
 20
327.612028
 30
0.0
 11
334.747204
 21
325.913444
 31
0.0
  0
INSERT
  5
180
330
1F
100
AcDbEntity
  8
LC-001-100-D00-0
 62
     7
370
    50
100
AcDbBlockReference
  2
KLON20
 10
0.0
 20
0.0
 30
0.0
  0
LINE
  5
181
330
1F
100
AcDbEntity
  8
LC-001-100-D00-0
 62
     7
370
    50
100
AcDbLine
 10
334.747204
 20
328.917854
 30
0.0
 11
334.747204
 21
328.913443
 31
0.0
  0
LINE
  5
182
330
1F
100
AcDbEntity
  8
LC-001-100-D00-0
 62
     7
370
    50
100
AcDbLine
 10
331.497209
 20
328.917854
 30
0.0
 11
334.747204
 21
328.917854
 31
0.0
  0
LINE
  5
183
330
1F
100
AcDbEntity
  8
LC-001-100-D00-0
 62
     7
370
    50
100
AcDbLine
 10
331.497209
 20
331.717856
 30
0.0
 11
331.497209
 21
328.917854
 31
0.0
  0
ARC
  5
184
330
1F
100
AcDbEntity
  8
LC-001-100-D00-0
 62
     7
370
    50
100
AcDbCircle
 10
331.697205
 20
331.717853
 30
0.0
 40
0.1999999999999318
100
AcDbArc
 50
90.0
 51
180.0
  0
LINE
  5
185
330
1F
100
AcDbEntity
  8
LC-001-100-D00-0
 62
     7
370
    50
100
AcDbLine
 10
332.247207
 20
331.917852
 30
0.0
 11
331.697205
 21
331.917852
 31
0.0
  0
ARC
  5
186
330
1F
100
AcDbEntity
  8
LC-001-100-D00-0
 62
     7
370
    50
100
AcDbCircle
 10
336.747205
 20
326.792853
 30
0.0
 40
6.820236432851915
100
AcDbArc
 50
123.355647
 51
131.284711
  0
LINE
  5
187
330
1F
100
AcDbEntity
  8
LC-001-100-D00-0
 62
     7
370
    50
100
AcDbLine
 10
332.997204
 20
332.489617
 30
0.0
 11
332.997204
 21
331.417851
 31
0.0
  0
LINE
  5
188
330
1F
100
AcDbEntity
  8
LC-001-100-D00-0
 62
     7
370
    50
100
AcDbLine
 10
334.973776
 20
331.417851
 30
0.0
 11
332.997204
 21
331.417851
 31
0.0
  0
LINE
  5
189
330
1F
100
AcDbEntity
  8
LC-001-100-D00-0
 62
     7
370
    50
100
AcDbLine
 10
334.973776
 20
330.91785
 30
0.0
 11
334.973776
 21
331.417851
 31
0.0
  0
LINE
  5
18A
330
1F
100
AcDbEntity
  8
LC-001-100-D00-0
 62
     7
370
    50
100
AcDbLine
 10
338.52064
 20
330.91785
 30
0.0
 11
334.973776
 21
330.91785
 31
0.0
  0
ARC
  5
18B
330
1F
100
AcDbEntity
  8
LC-001-100-D00-0
 62
     7
370
    50
100
AcDbCircle
 10
336.747205
 20
326.792853
 30
0.0
 40
6.801883930206413
100
AcDbArc
 50
56.54253
 51
63.818118
  0
ARC
  5
18C
330
1F
100
AcDbEntity
  8
LC-001-100-D00-0
 62
     7
370
    50
100
AcDbCircle
 10
336.747205
 20
326.792853
 30
0.0
 40
6.801883930206485
100
AcDbArc
 50
116.181882
 51
123.45747
  0
LINE
  5
18D
330
1F
100
AcDbEntity
  8
LC-001-100-D00-0
 62
     7
370
    50
100
AcDbLine
 10
339.65786
 20
332.917854
 30
0.0
 11
338.52064
 21
332.917854
 31
0.0
  0
INSERT
  5
199
330
1F
100
AcDbEntity
  8
LC-001-100-D00-0
 62
     7
370
    50
100
AcDbBlockReference
  2
POLY15
 10
0.0
 20
0.0
 30
0.0
  0
LINE
  5
19A
330
1F
100
AcDbEntity
  8
LC-001-100-D00-0
 62
     7
370
    50
100
AcDbLine
 10
338.52064
 20
332.917854
 30
0.0
 11
338.52064
 21
331.417851
 31
0.0
  0
INSERT
  5
1A6
330
1F
100
AcDbEntity
  8
LC-001-100-D00-0
 62
     7
370
    50
100
AcDbBlockReference
  2
POLY16
 10
0.0
 20
0.0
 30
0.0
  0
LINE
  5
1A7
330
1F
100
AcDbEntity
  8
LC-001-100-D00-0
 62
     7
370
    50
100
AcDbLine
 10
334.973776
 20
332.917854
 30
0.0
 11
333.83655
 21
332.917854
 31
0.0
  0
LINE
  5
1A8
330
1F
100
AcDbEntity
  8
LC-001-100-D00-0
 62
     7
370
    50
100
AcDbLine
 10
334.973776
 20
332.917854
 30
0.0
 11
334.973776
 21
331.417851
 31
0.0
  0
LINE
  5
1A9
330
1F
100
AcDbEntity
  8
LC-001-100-D00-0
 62
     7
370
    50
100
AcDbLine
 10
336.077654
 20
332.917854
 30
0.0
 11
337.416755
 21
332.917854
 31
0.0
  0
LINE
  5
1AA
330
1F
100
AcDbEntity
  8
LC-001-100-D00-0
 62
     7
370
    50
100
AcDbLine
 10
337.719867
 20
332.917854
 30
0.0
 11
337.416755
 21
332.917854
 31
0.0
  0
LINE
  5
1AB
330
1F
100
AcDbEntity
  8
LC-001-100-D00-0
 62
     7
370
    50
100
AcDbLine
 10
335.774542
 20
332.917854
 30
0.0
 11
336.077654
 21
332.917854
 31
0.0
  0
LINE
  5
1AC
330
1F
100
AcDbEntity
  8
LC-001-100-D00-0
 62
     7
370
    50
100
AcDbLine
 10
337.719867
 20
332.917854
 30
0.0
 11
338.52064
 21
332.917854
 31
0.0
  0
LINE
  5
1AD
330
1F
100
AcDbEntity
  8
LC-001-100-D00-0
 62
     7
370
    50
100
AcDbLine
 10
335.774542
 20
332.917854
 30
0.0
 11
334.973776
 21
332.917854
 31
0.0
  0
LINE
  5
1AE
330
1F
100
AcDbEntity
  8
LC-001-100-D00-0
 62
     7
370
    50
100
AcDbLine
 10
534.427205
 20
317.823977
 30
0.0
 11
558.467203
 21
326.573976
 31
0.0
  0
LINE
  5
1AF
330
1F
100
AcDbEntity
  8
LC-001-100-D00-0
 62
     7
370
    50
100
AcDbLine
 10
303.027199
 20
326.573976
 30
0.0
 11
327.067205
 21
317.823977
 31
0.0
  0
LINE
  5
1B0
330
1F
100
AcDbEntity
  8
LC-001-100-D00-0
 62
     7
370
    50
100
AcDbLine
 10
557.638453
 20
331.273981
 30
0.0
 11
533.598454
 21
322.523974
 31
0.0
  0
LINE
  5
1B1
330
1F
100
AcDbEntity
  8
LC-001-100-D00-0
 62
     7
370
    50
100
AcDbLine
 10
327.895956
 20
322.523974
 30
0.0
 11
303.855957
 21
331.273981
 31
0.0
  0
LINE
  5
1B2
330
1F
100
AcDbEntity
  8
LC-001-100-D00-0
 62
     7
370
    50
100
AcDbLine
 10
303.855957
 20
331.273981
 30
0.0
 11
331.497209
 21
331.273981
 31
0.0
  0
LINE
  5
1B3
330
1F
100
AcDbEntity
  8
LC-001-100-D00-0
 62
     7
370
    50
100
AcDbLine
 10
341.997208
 20
331.273981
 30
0.0
 11
345.719272
 21
331.273981
 31
0.0
  0
LINE
  5
1B4
330
1F
100
AcDbEntity
  8
LC-001-100-D00-0
 62
     7
370
    50
100
AcDbLine
 10
382.573368
 20
331.273981
 30
0.0
 11
387.237312
 21
331.273981
 31
0.0
  0
LINE
  5
1B5
330
1F
100
AcDbEntity
  8
LC-001-100-D00-0
 62
     7
370
    50
100
AcDbLine
 10
397.104086
 20
331.273981
 30
0.0
 11
407.62954
 21
331.273981
 31
0.0
  0
LINE
  5
1B6
330
1F
100
AcDbEntity
  8
LC-001-100-D00-0
 62
     7
370
    50
100
AcDbLine
 10
413.927527
 20
331.273981
 30
0.0
 11
429.597206
 21
331.273981
 31
0.0
  0
LINE
  5
1B7
330
1F
100
AcDbEntity
  8
LC-001-100-D00-0
 62
     7
370
    50
100
AcDbLine
 10
431.897206
 20
331.273981
 30
0.0
 11
447.566882
 21
331.273981
 31
0.0
  0
LINE
  5
1B8
330
1F
100
AcDbEntity
  8
LC-001-100-D00-0
 62
     7
370
    50
100
AcDbLine
 10
453.864869
 20
331.273981
 30
0.0
 11
464.390326
 21
331.273981
 31
0.0
  0
LINE
  5
1B9
330
1F
100
AcDbEntity
  8
LC-001-100-D00-0
 62
     7
370
    50
100
AcDbLine
 10
515.775138
 20
331.273981
 30
0.0
 11
557.638453
 21
331.273981
 31
0.0
  0
LINE
  5
1BA
330
1F
100
AcDbEntity
  8
LC-001-100-D00-0
 62
     7
370
    50
100
AcDbLine
 10
180.747198
 20
331.273981
 30
0.0
 11
180.747198
 21
326.573976
 31
0.0
  0
LINE
  5
1BB
330
1F
100
AcDbEntity
  8
LC-001-100-D00-0
 62
     7
370
    50
100
AcDbLine
 10
332.747208
 20
322.523974
 30
0.0
 11
332.747208
 21
317.823977
 31
0.0
  0
LINE
  5
1BC
330
1F
100
AcDbEntity
  8
LC-001-100-D00-0
 62
     7
370
    50
100
AcDbLine
 10
332.747208
 20
322.523974
 30
0.0
 11
327.895956
 21
322.523974
 31
0.0
  0
LINE
  5
1BD
330
1F
100
AcDbEntity
  8
LC-001-100-D00-0
 62
     7
370
    50
100
AcDbLine
 10
327.067205
 20
317.823977
 30
0.0
 11
332.747208
 21
317.823977
 31
0.0
  0
LINE
  5
1BE
330
1F
100
AcDbEntity
  8
LC-001-100-D00-0
 62
     7
370
    50
100
AcDbLine
 10
180.747198
 20
326.573976
 30
0.0
 11
303.027199
 21
326.573976
 31
0.0
  0
LINE
  5
1BF
330
1F
100
AcDbEntity
  8
LC-001-100-D00-0
 62
     7
370
    50
100
AcDbLine
 10
303.855957
 20
331.273981
 30
0.0
 11
180.747198
 21
331.273981
 31
0.0
  0
LINE
  5
1C0
330
1F
100
AcDbEntity
  8
LC-001-100-D00-0
 62
     7
370
    50
100
AcDbLine
 10
528.747202
 20
317.823977
 30
0.0
 11
528.747202
 21
322.523974
 31
0.0
  0
LINE
  5
1C1
330
1F
100
AcDbEntity
  8
LC-001-100-D00-0
 62
     7
370
    50
100
AcDbLine
 10
680.747213
 20
326.573976
 30
0.0
 11
680.747213
 21
331.273981
 31
0.0
  0
LINE
  5
1C2
330
1F
100
AcDbEntity
  8
LC-001-100-D00-0
 62
     7
370
    50
100
AcDbLine
 10
533.598454
 20
322.523974
 30
0.0
 11
528.747202
 21
322.523974
 31
0.0
  0
LINE
  5
1C3
330
1F
100
AcDbEntity
  8
LC-001-100-D00-0
 62
     7
370
    50
100
AcDbLine
 10
528.747202
 20
317.823977
 30
0.0
 11
534.427205
 21
317.823977
 31
0.0
  0
LINE
  5
1C4
330
1F
100
AcDbEntity
  8
LC-001-100-D00-0
 62
     7
370
    50
100
AcDbLine
 10
558.467203
 20
326.573976
 30
0.0
 11
680.747213
 21
326.573976
 31
0.0
  0
LINE
  5
1C5
330
1F
100
AcDbEntity
  8
LC-001-100-D00-0
 62
     7
370
    50
100
AcDbLine
 10
680.747213
 20
331.273981
 30
0.0
 11
557.638453
 21
331.273981
 31
0.0
  0
LINE
  5
1C6
330
1F
100
AcDbEntity
  8
LC-001-100-D00-0
 62
     7
370
    50
100
AcDbLine
 10
333.990166
 20
322.523974
 30
0.0
 11
332.747208
 21
322.523974
 31
0.0
  0
LINE
  5
1C7
330
1F
100
AcDbEntity
  8
LC-001-100-D00-0
 62
     7
370
    50
100
AcDbLine
 10
524.662101
 20
317.893975
 30
0.0
 11
524.662101
 21
322.523974
 31
0.0
  0
LINE
  5
1C8
330
1F
100
AcDbEntity
  8
LC-001-100-D00-0
 62
     7
370
    50
100
AcDbLine
 10
528.747202
 20
322.523974
 30
0.0
 11
524.662101
 21
322.523974
 31
0.0
  0
LINE
  5
1C9
330
1F
100
AcDbEntity
  8
LC-001-100-D00-0
 62
     7
370
    50
100
AcDbLine
 10
513.150224
 20
317.823977
 30
0.0
 11
513.150224
 21
322.523974
 31
0.0
  0
LINE
  5
1CA
330
1F
100
AcDbEntity
  8
LC-001-100-D00-0
 62
     7
370
    50
100
AcDbLine
 10
524.662101
 20
322.523974
 30
0.0
 11
513.150224
 21
322.523974
 31
0.0
  0
LINE
  5
1CB
330
1F
100
AcDbEntity
  8
LC-001-100-D00-0
 62
     7
370
    50
100
AcDbLine
 10
510.497206
 20
322.523974
 30
0.0
 11
513.150224
 21
322.523974
 31
0.0
  0
LINE
  5
1CC
330
1F
100
AcDbEntity
  8
LC-001-100-D00-0
 62
     7
370
    50
100
AcDbLine
 10
510.497206
 20
317.823977
 30
0.0
 11
513.150224
 21
317.823977
 31
0.0
  0
LINE
  5
1CD
330
1F
100
AcDbEntity
  8
LC-001-100-D00-0
 62
     7
370
    50
100
AcDbLine
 10
348.344186
 20
322.523974
 30
0.0
 11
348.344186
 21
317.823977
 31
0.0
  0
LINE
  5
1CE
330
1F
100
AcDbEntity
  8
LC-001-100-D00-0
 62
     7
370
    50
100
AcDbLine
 10
348.344186
 20
322.523974
 30
0.0
 11
350.997204
 21
322.523974
 31
0.0
  0
LINE
  5
1CF
330
1F
100
AcDbEntity
  8
LC-001-100-D00-0
 62
     7
370
    50
100
AcDbLine
 10
348.344186
 20
317.823977
 30
0.0
 11
350.997204
 21
317.823977
 31
0.0
  0
LINE
  5
1D0
330
1F
100
AcDbEntity
  8
LC-001-100-D00-0
 62
     7
370
    50
100
AcDbLine
 10
348.344186
 20
322.523974
 30
0.0
 11
338.747205
 21
322.523974
 31
0.0
  0
ARC
  5
1D1
330
1F
100
AcDbEntity
  8
LC-001-100-D00-0
 62
     7
370
    50
100
AcDbCircle
 10
552.605629
 20
332.539849
 30
0.0
 40
2.500000000000018
100
AcDbArc
 50
276.0
 51
325.333525
  0
ARC
  5
1D2
330
1F
100
AcDbEntity
  8
LC-001-100-D00-0
 62
     7
370
    50
100
AcDbCircle
 10
308.888782
 20
332.539849
 30
0.0
 40
2.499999999999987
100
AcDbArc
 50
214.666475
 51
264.0
  0
LINE
  5
1D3
330
1F
100
AcDbEntity
  8
LC-001-100-D00-0
 62
     7
370
    50
100
AcDbLine
 10
554.661819
 20
331.117854
 30
0.0
 11
515.831964
 21
331.117854
 31
0.0
  0
LINE
  5
1D4
330
1F
100
AcDbEntity
  8
LC-001-100-D00-0
 62
     7
370
    50
100
AcDbLine
 10
464.418738
 20
331.117854
 30
0.0
 11
453.879576
 21
331.117854
 31
0.0
  0
LINE
  5
1D5
330
1F
100
AcDbEntity
  8
LC-001-100-D00-0
 62
     7
370
    50
100
AcDbLine
 10
447.581589
 20
331.117854
 30
0.0
 11
431.897206
 21
331.117854
 31
0.0
  0
LINE
  5
1D6
330
1F
100
AcDbEntity
  8
LC-001-100-D00-0
 62
     7
370
    50
100
AcDbLine
 10
429.597206
 20
331.117854
 30
0.0
 11
413.912823
 21
331.117854
 31
0.0
  0
LINE
  5
1D7
330
1F
100
AcDbEntity
  8
LC-001-100-D00-0
 62
     7
370
    50
100
AcDbLine
 10
407.614836
 20
331.117854
 30
0.0
 11
397.075673
 21
331.117854
 31
0.0
  0
LINE
  5
1D8
330
1F
100
AcDbEntity
  8
LC-001-100-D00-0
 62
     7
370
    50
100
AcDbLine
 10
387.208895
 20
331.117854
 30
0.0
 11
382.533187
 21
331.117854
 31
0.0
  0
LINE
  5
1D9
330
1F
100
AcDbEntity
  8
LC-001-100-D00-0
 62
     7
370
    50
100
AcDbLine
 10
345.662446
 20
331.117854
 30
0.0
 11
341.997208
 21
331.117854
 31
0.0
  0
LINE
  5
1DA
330
1F
100
AcDbEntity
  8
LC-001-100-D00-0
 62
     7
370
    50
100
AcDbLine
 10
331.497209
 20
331.117854
 30
0.0
 11
306.832583
 21
331.117854
 31
0.0
  0
ARC
  5
1DB
330
1F
100
AcDbEntity
  8
LC-001-100-D00-0
 62
     7
370
    50
100
AcDbCircle
 10
552.605629
 20
332.539849
 30
0.0
 40
3.000000000000016
100
AcDbArc
 50
276.0
 51
331.705828
  0
ARC
  5
1DC
330
1F
100
AcDbEntity
  8
LC-001-100-D00-0
 62
     7
370
    50
100
AcDbCircle
 10
308.888782
 20
332.539849
 30
0.0
 40
2.999999999999982
100
AcDbArc
 50
208.294172
 51
264.0
  0
LINE
  5
1DD
330
1F
100
AcDbEntity
  8
LC-001-100-D00-0
 62
     7
370
    50
100
AcDbLine
 10
552.919211
 20
329.556287
 30
0.0
 11
532.573411
 21
327.417851
 31
0.0
  0
LINE
  5
1DE
330
1F
100
AcDbEntity
  8
LC-001-100-D00-0
 62
     7
370
    50
100
AcDbLine
 10
328.920999
 20
327.417851
 30
0.0
 11
308.5752
 21
329.556287
 31
0.0
  0
LINE
  5
1DF
330
1F
100
AcDbEntity
  8
LC-001-100-D00-0
 62
     7
370
    50
100
AcDbLine
 10
532.547207
 20
327.917852
 30
0.0
 11
552.866952
 21
330.053546
 31
0.0
  0
LINE
  5
1E0
330
1F
100
AcDbEntity
  8
LC-001-100-D00-0
 62
     7
370
    50
100
AcDbLine
 10
308.627458
 20
330.053546
 30
0.0
 11
328.947203
 21
327.917852
 31
0.0
  0
ARC
  5
1E1
330
1F
100
AcDbEntity
  8
LC-001-100-D00-0
 62
     7
370
    50
100
AcDbCircle
 10
512.997205
 20
324.917853
 30
0.0
 40
2.500000000000114
100
AcDbArc
 50
90.0
 51
180.0
  0
ARC
  5
1E2
330
1F
100
AcDbEntity
  8
LC-001-100-D00-0
 62
     7
370
    50
100
AcDbCircle
 10
348.497205
 20
324.917853
 30
0.0
 40
2.500000000000114
100
AcDbArc
 50
0.0
 51
90.0
  0
LINE
  5
1E3
330
1F
100
AcDbEntity
  8
LC-001-100-D00-0
 62
     7
370
    50
100
AcDbLine
 10
510.497206
 20
324.917853
 30
0.0
 11
510.497206
 21
307.617851
 31
0.0
  0
LINE
  5
1E4
330
1F
100
AcDbEntity
  8
LC-001-100-D00-0
 62
     7
370
    50
100
AcDbLine
 10
350.997204
 20
307.617851
 30
0.0
 11
350.997204
 21
324.917853
 31
0.0
  0
ARC
  5
1E5
330
1F
100
AcDbEntity
  8
LC-001-100-D00-0
 62
     7
370
    50
100
AcDbCircle
 10
512.997205
 20
324.917853
 30
0.0
 40
3.0
100
AcDbArc
 50
90.0
 51
180.0
  0
ARC
  5
1E6
330
1F
100
AcDbEntity
  8
LC-001-100-D00-0
 62
     7
370
    50
100
AcDbCircle
 10
348.497205
 20
324.917853
 30
0.0
 40
3.0
100
AcDbArc
 50
0.0
 51
90.0
  0
LINE
  5
1E7
330
1F
100
AcDbEntity
  8
LC-001-100-D00-0
 62
     7
370
    50
100
AcDbLine
 10
509.997205
 20
307.617851
 30
0.0
 11
509.997205
 21
324.917853
 31
0.0
  0
LINE
  5
1E8
330
1F
100
AcDbEntity
  8
LC-001-100-D00-0
 62
     7
370
    50
100
AcDbLine
 10
351.497205
 20
324.917853
 30
0.0
 11
351.497205
 21
307.617851
 31
0.0
  0
ARC
  5
1E9
330
1F
100
AcDbEntity
  8
LC-001-100-D00-0
 62
     7
370
    50
100
AcDbCircle
 10
507.997205
 20
307.617853
 30
0.0
 40
2.0
100
AcDbArc
 50
270.0
 51
0.0
  0
ARC
  5
1EA
330
1F
100
AcDbEntity
  8
LC-001-100-D00-0
 62
     7
370
    50
100
AcDbCircle
 10
353.497205
 20
307.617853
 30
0.0
 40
2.0
100
AcDbArc
 50
180.0
 51
270.0
  0
ARC
  5
1EB
330
1F
100
AcDbEntity
  8
LC-001-100-D00-0
 62
     7
370
    50
100
AcDbCircle
 10
507.997205
 20
307.617853
 30
0.0
 40
2.5
100
AcDbArc
 50
270.0
 51
0.0
  0
ARC
  5
1EC
330
1F
100
AcDbEntity
  8
LC-001-100-D00-0
 62
     7
370
    50
100
AcDbCircle
 10
353.497205
 20
307.617853
 30
0.0
 40
2.5
100
AcDbArc
 50
180.0
 51
270.0
  0
ARC
  5
1ED
330
1F
100
AcDbEntity
  8
LC-001-100-D00-0
 62
     7
370
    50
100
AcDbCircle
 10
507.247205
 20
304.117853
 30
0.0
 40
1.0
100
AcDbArc
 50
90.0
 51
180.0
  0
ARC
  5
1EE
330
1F
100
AcDbEntity
  8
LC-001-100-D00-0
 62
     7
370
    50
100
AcDbCircle
 10
354.247205
 20
304.117853
 30
0.0
 40
1.0
100
AcDbArc
 50
0.0
 51
90.0
  0
LINE
  5
1EF
330
1F
100
AcDbEntity
  8
LC-001-100-D00-0
 62
     7
370
    50
100
AcDbLine
 10
506.247205
 20
304.117851
 30
0.0
 11
506.247205
 21
300.117851
 31
0.0
  0
LINE
  5
1F0
330
1F
100
AcDbEntity
  8
LC-001-100-D00-0
 62
     7
370
    50
100
AcDbLine
 10
355.247209
 20
300.117851
 30
0.0
 11
355.247209
 21
304.117851
 31
0.0
  0
ARC
  5
1F1
330
1F
100
AcDbEntity
  8
LC-001-100-D00-0
 62
     7
370
    50
100
AcDbCircle
 10
507.247205
 20
304.117853
 30
0.0
 40
1.499999999999886
100
AcDbArc
 50
90.0
 51
180.0
  0
ARC
  5
1F2
330
1F
100
AcDbEntity
  8
LC-001-100-D00-0
 62
     7
370
    50
100
AcDbCircle
 10
354.247205
 20
304.117853
 30
0.0
 40
1.5
100
AcDbArc
 50
0.0
 51
90.0
  0
LINE
  5
1F3
330
1F
100
AcDbEntity
  8
LC-001-100-D00-0
 62
     7
370
    50
100
AcDbLine
 10
507.247204
 20
305.617854
 30
0.0
 11
504.647204
 21
305.617854
 31
0.0
  0
LINE
  5
1F4
330
1F
100
AcDbEntity
  8
LC-001-100-D00-0
 62
     7
370
    50
100
AcDbLine
 10
500.759778
 20
305.617854
 30
0.0
 11
442.547302
 21
305.617854
 31
0.0
  0
LINE
  5
1F5
330
1F
100
AcDbEntity
  8
LC-001-100-D00-0
 62
     7
370
    50
100
AcDbLine
 10
418.947221
 20
305.617854
 30
0.0
 11
360.734651
 21
305.617854
 31
0.0
  0
LINE
  5
1F6
330
1F
100
AcDbEntity
  8
LC-001-100-D00-0
 62
     7
370
    50
100
AcDbLine
 10
356.847206
 20
305.617854
 30
0.0
 11
354.247206
 21
305.617854
 31
0.0
  0
LINE
  5
1F7
330
1F
100
AcDbEntity
  8
LC-001-100-D00-0
 62
     7
370
    50
100
AcDbLine
 10
505.747204
 20
300.117851
 30
0.0
 11
505.747204
 21
304.117851
 31
0.0
  0
LINE
  5
1F8
330
1F
100
AcDbEntity
  8
LC-001-100-D00-0
 62
     7
370
    50
100
AcDbLine
 10
355.747202
 20
304.117851
 30
0.0
 11
355.747202
 21
300.117851
 31
0.0
  0
LINE
  5
1F9
330
1F
100
AcDbEntity
  8
LC-001-100-D00-0
 62
     7
370
    50
100
AcDbLine
 10
500.759778
 20
300.117851
 30
0.0
 11
442.547302
 21
300.117851
 31
0.0
  0
LINE
  5
1FA
330
1F
100
AcDbEntity
  8
LC-001-100-D00-0
 62
     7
370
    50
100
AcDbLine
 10
418.947221
 20
300.117851
 30
0.0
 11
360.734651
 21
300.117851
 31
0.0
  0
LINE
  5
1FB
330
1F
100
AcDbEntity
  8
LC-001-100-D00-0
 62
     7
370
    50
100
AcDbLine
 10
506.247205
 20
300.117851
 30
0.0
 11
505.747204
 21
300.117851
 31
0.0
  0
LINE
  5
1FC
330
1F
100
AcDbEntity
  8
LC-001-100-D00-0
 62
     7
370
    50
100
AcDbLine
 10
507.247204
 20
305.617854
 30
0.0
 11
507.997205
 21
305.617854
 31
0.0
  0
LINE
  5
1FD
330
1F
100
AcDbEntity
  8
LC-001-100-D00-0
 62
     7
370
    50
100
AcDbLine
 10
507.997205
 20
305.117853
 30
0.0
 11
507.247204
 21
305.117853
 31
0.0
  0
LINE
  5
1FE
330
1F
100
AcDbEntity
  8
LC-001-100-D00-0
 62
     7
370
    50
100
AcDbLine
 10
512.997204
 20
327.917852
 30
0.0
 11
532.547207
 21
327.917852
 31
0.0
  0
LINE
  5
1FF
330
1F
100
AcDbEntity
  8
LC-001-100-D00-0
 62
     7
370
    50
100
AcDbLine
 10
532.573411
 20
327.417851
 30
0.0
 11
512.997204
 21
327.417851
 31
0.0
  0
LINE
  5
200
330
1F
100
AcDbEntity
  8
LC-001-100-D00-0
 62
     7
370
    50
100
AcDbLine
 10
554.661819
 20
331.117854
 30
0.0
 11
555.247204
 21
331.117854
 31
0.0
  0
ARC
  5
201
330
1F
100
AcDbEntity
  8
LC-001-100-D00-0
 62
     7
370
    50
100
AcDbCircle
 10
329.640099
 20
328.417853
 30
0.0
 40
1.0
100
AcDbArc
 50
270.0
 51
315.0
  0
LINE
  5
202
330
1F
100
AcDbEntity
  8
LC-001-100-D00-0
 62
     7
370
    50
100
AcDbLine
 10
329.847203
 20
327.917852
 30
0.0
 11
330.554315
 21
328.624957
 31
0.0
  0
ARC
  5
203
330
1F
100
AcDbEntity
  8
LC-001-100-D00-0
 62
     7
370
    50
100
AcDbCircle
 10
331.261419
 20
327.917853
 30
0.0
 40
1.0
100
AcDbArc
 50
90.0
 51
135.0
  0
LINE
  5
204
330
1F
100
AcDbEntity
  8
LC-001-100-D00-0
 62
     7
370
    50
100
AcDbLine
 10
331.26142
 20
328.917854
 30
0.0
 11
332.997204
 21
328.917854
 31
0.0
  0
LINE
  5
205
330
1F
100
AcDbEntity
  8
LC-001-100-D00-0
 62
     7
370
    50
100
AcDbLine
 10
332.997204
 20
328.917854
 30
0.0
 11
332.997204
 21
328.417853
 31
0.0
  0
LINE
  5
206
330
1F
100
AcDbEntity
  8
LC-001-100-D00-0
 62
     7
370
    50
100
AcDbLine
 10
332.997204
 20
328.417853
 30
0.0
 11
331.054309
 21
328.417853
 31
0.0
  0
LINE
  5
207
330
1F
100
AcDbEntity
  8
LC-001-100-D00-0
 62
     7
370
    50
100
AcDbLine
 10
331.054309
 20
328.417853
 30
0.0
 11
330.347204
 21
327.710748
 31
0.0
  0
LINE
  5
208
330
1F
100
AcDbEntity
  8
LC-001-100-D00-0
 62
     7
370
    50
100
AcDbLine
 10
328.947203
 20
327.917852
 30
0.0
 11
329.847203
 21
327.917852
 31
0.0
  0
LINE
  5
209
330
1F
100
AcDbEntity
  8
LC-001-100-D00-0
 62
     7
370
    50
100
AcDbLine
 10
329.640099
 20
327.417851
 30
0.0
 11
328.920999
 21
327.417851
 31
0.0
  0
LINE
  5
20A
330
1F
100
AcDbEntity
  8
LC-001-100-D00-0
 62
     7
370
    50
100
AcDbLine
 10
306.247206
 20
331.117854
 30
0.0
 11
306.832583
 21
331.117854
 31
0.0
  0
ARC
  5
20B
330
1F
100
AcDbEntity
  8
LC-001-100-D00-0
 62
     7
370
    50
100
AcDbCircle
 10
343.854312
 20
328.417853
 30
0.0
 40
1.000000000000008
100
AcDbArc
 50
225.0
 51
270.0
  0
LINE
  5
20C
330
1F
100
AcDbEntity
  8
LC-001-100-D00-0
 62
     7
370
    50
100
AcDbLine
 10
343.147205
 20
327.710748
 30
0.0
 11
342.4401
 21
328.417853
 31
0.0
  0
LINE
  5
20D
330
1F
100
AcDbEntity
  8
LC-001-100-D00-0
 62
     7
370
    50
100
AcDbLine
 10
342.4401
 20
328.417853
 30
0.0
 11
340.497205
 21
328.417853
 31
0.0
  0
LINE
  5
20E
330
1F
100
AcDbEntity
  8
LC-001-100-D00-0
 62
     7
370
    50
100
AcDbLine
 10
340.497205
 20
328.417853
 30
0.0
 11
340.497205
 21
328.917854
 31
0.0
  0
LINE
  5
20F
330
1F
100
AcDbEntity
  8
LC-001-100-D00-0
 62
     7
370
    50
100
AcDbLine
 10
340.497205
 20
328.917854
 30
0.0
 11
342.232989
 21
328.917854
 31
0.0
  0
ARC
  5
210
330
1F
100
AcDbEntity
  8
LC-001-100-D00-0
 62
     7
370
    50
100
AcDbCircle
 10
342.232992
 20
327.917853
 30
0.0
 40
1.000000000000008
100
AcDbArc
 50
45.0
 51
90.0
  0
LINE
  5
211
330
1F
100
AcDbEntity
  8
LC-001-100-D00-0
 62
     7
370
    50
100
AcDbLine
 10
342.940101
 20
328.624957
 30
0.0
 11
343.647206
 21
327.917852
 31
0.0
  0
LINE
  5
212
330
1F
100
AcDbEntity
  8
LC-001-100-D00-0
 62
     7
370
    50
100
AcDbLine
 10
355.747202
 20
300.117851
 30
0.0
 11
355.247209
 21
300.117851
 31
0.0
  0
LINE
  5
213
330
1F
100
AcDbEntity
  8
LC-001-100-D00-0
 62
     7
370
    50
100
AcDbLine
 10
353.497209
 20
305.617854
 30
0.0
 11
354.247206
 21
305.617854
 31
0.0
  0
LINE
  5
214
330
1F
100
AcDbEntity
  8
LC-001-100-D00-0
 62
     7
370
    50
100
AcDbLine
 10
354.247206
 20
305.117853
 30
0.0
 11
353.497209
 21
305.117853
 31
0.0
  0
LINE
  5
215
330
1F
100
AcDbEntity
  8
LC-001-100-D00-0
 62
     7
370
    50
100
AcDbLine
 10
343.647206
 20
327.917852
 30
0.0
 11
348.497206
 21
327.917852
 31
0.0
  0
LINE
  5
216
330
1F
100
AcDbEntity
  8
LC-001-100-D00-0
 62
     7
370
    50
100
AcDbLine
 10
348.497206
 20
327.417851
 30
0.0
 11
343.85431
 21
327.417851
 31
0.0
  0
LINE
  5
217
330
1F
100
AcDbEntity
  8
LC-001-100-D00-0
 62
     7
370
    50
100
AcDbLine
 10
340.497205
 20
328.417853
 30
0.0
 11
338.747205
 21
328.417853
 31
0.0
  0
LINE
  5
218
330
1F
100
AcDbEntity
  8
LC-001-100-D00-0
 62
     7
370
    50
100
AcDbLine
 10
333.750391
 20
328.417853
 30
0.0
 11
332.997204
 21
328.417853
 31
0.0
  0
LINE
  5
219
330
1F
100
AcDbEntity
  8
LC-001-100-D00-0
 62
     7
370
    50
100
AcDbLine
 10
343.85431
 20
327.417851
 30
0.0
 11
338.948862
 21
327.417851
 31
0.0
  0
LINE
  5
21A
330
1F
100
AcDbEntity
  8
LC-001-100-D00-0
 62
     7
370
    50
100
AcDbLine
 10
334.747204
 20
327.417851
 30
0.0
 11
329.640099
 21
327.417851
 31
0.0
  0
LINE
  5
21B
330
1F
100
AcDbEntity
  8
LC-001-100-D00-0
 62
     7
370
    50
100
AcDbLine
 10
473.814584
 20
328.917854
 30
0.0
 11
479.527432
 21
328.917854
 31
0.0
  0
LINE
  5
21C
330
1F
100
AcDbEntity
  8
LC-001-100-D00-0
 62
     7
370
    50
100
AcDbLine
 10
506.997207
 20
291.203976
 30
0.0
 11
496.497204
 21
291.203976
 31
0.0
  0
LINE
  5
21D
330
1F
100
AcDbEntity
  8
LC-001-100-D00-0
 62
     7
370
    50
100
AcDbLine
 10
506.997207
 20
290.203974
 30
0.0
 11
506.997207
 21
291.203976
 31
0.0
  0
LINE
  5
21E
330
1F
100
AcDbEntity
  8
LC-001-100-D00-0
 62
     7
370
    50
100
AcDbLine
 10
507.997205
 20
290.203974
 30
0.0
 11
506.997207
 21
290.203974
 31
0.0
  0
LINE
  5
21F
330
1F
100
AcDbEntity
  8
LC-001-100-D00-0
 62
     7
370
    50
100
AcDbLine
 10
507.997205
 20
286.703974
 30
0.0
 11
507.997205
 21
290.203974
 31
0.0
  0
LINE
  5
220
330
1F
100
AcDbEntity
  8
LC-001-100-D00-0
 62
     7
370
    50
100
AcDbLine
 10
506.997207
 20
285.703976
 30
0.0
 11
507.997205
 21
286.703974
 31
0.0
  0
LINE
  5
221
330
1F
100
AcDbEntity
  8
LC-001-100-D00-0
 62
     7
370
    50
100
AcDbLine
 10
503.997204
 20
285.703976
 30
0.0
 11
506.997207
 21
285.703976
 31
0.0
  0
LINE
  5
222
330
1F
100
AcDbEntity
  8
LC-001-100-D00-0
 62
     7
370
    50
100
AcDbLine
 10
503.997204
 20
287.703976
 30
0.0
 11
503.997204
 21
285.703976
 31
0.0
  0
LINE
  5
223
330
1F
100
AcDbEntity
  8
LC-001-100-D00-0
 62
     7
370
    50
100
AcDbLine
 10
499.497207
 20
287.703976
 30
0.0
 11
503.997204
 21
287.703976
 31
0.0
  0
LINE
  5
224
330
1F
100
AcDbEntity
  8
LC-001-100-D00-0
 62
     7
370
    50
100
AcDbLine
 10
499.497207
 20
283.203978
 30
0.0
 11
499.497207
 21
287.703976
 31
0.0
  0
LINE
  5
225
330
1F
100
AcDbEntity
  8
LC-001-100-D00-0
 62
     7
370
    50
100
AcDbLine
 10
496.497204
 20
291.203976
 30
0.0
 11
495.497206
 21
283.203978
 31
0.0
  0
LINE
  5
226
330
1F
100
AcDbEntity
  8
LC-001-100-D00-0
 62
     7
370
    50
100
AcDbLine
 10
495.497206
 20
283.203978
 30
0.0
 11
499.497207
 21
283.203978
 31
0.0
  0
LINE
  5
227
330
1F
100
AcDbEntity
  8
LC-001-100-D00-0
 62
     7
370
    50
100
AcDbLine
 10
361.997204
 20
287.703976
 30
0.0
 11
361.997204
 21
283.203978
 31
0.0
  0
LINE
  5
228
330
1F
100
AcDbEntity
  8
LC-001-100-D00-0
 62
     7
370
    50
100
AcDbLine
 10
357.497202
 20
287.703976
 30
0.0
 11
361.997204
 21
287.703976
 31
0.0
  0
LINE
  5
229
330
1F
100
AcDbEntity
  8
LC-001-100-D00-0
 62
     7
370
    50
100
AcDbLine
 10
357.497202
 20
285.703976
 30
0.0
 11
357.497202
 21
287.703976
 31
0.0
  0
LINE
  5
22A
330
1F
100
AcDbEntity
  8
LC-001-100-D00-0
 62
     7
370
    50
100
AcDbLine
 10
354.497203
 20
285.703976
 30
0.0
 11
357.497202
 21
285.703976
 31
0.0
  0
LINE
  5
22B
330
1F
100
AcDbEntity
  8
LC-001-100-D00-0
 62
     7
370
    50
100
AcDbLine
 10
353.497209
 20
286.703974
 30
0.0
 11
354.497203
 21
285.703976
 31
0.0
  0
LINE
  5
22C
330
1F
100
AcDbEntity
  8
LC-001-100-D00-0
 62
     7
370
    50
100
AcDbLine
 10
353.497209
 20
290.203974
 30
0.0
 11
353.497209
 21
286.703974
 31
0.0
  0
LINE
  5
22D
330
1F
100
AcDbEntity
  8
LC-001-100-D00-0
 62
     7
370
    50
100
AcDbLine
 10
354.497203
 20
290.203974
 30
0.0
 11
353.497209
 21
290.203974
 31
0.0
  0
LINE
  5
22E
330
1F
100
AcDbEntity
  8
LC-001-100-D00-0
 62
     7
370
    50
100
AcDbLine
 10
354.497203
 20
291.203976
 30
0.0
 11
354.497203
 21
290.203974
 31
0.0
  0
LINE
  5
22F
330
1F
100
AcDbEntity
  8
LC-001-100-D00-0
 62
     7
370
    50
100
AcDbLine
 10
364.997202
 20
291.203976
 30
0.0
 11
354.497203
 21
291.203976
 31
0.0
  0
LINE
  5
230
330
1F
100
AcDbEntity
  8
LC-001-100-D00-0
 62
     7
370
    50
100
AcDbLine
 10
365.997204
 20
283.203978
 30
0.0
 11
364.997202
 21
291.203976
 31
0.0
  0
LINE
  5
231
330
1F
100
AcDbEntity
  8
LC-001-100-D00-0
 62
     7
370
    50
100
AcDbLine
 10
361.997204
 20
283.203978
 30
0.0
 11
365.997204
 21
283.203978
 31
0.0
  0
LINE
  5
232
330
1F
100
AcDbEntity
  8
LC-001-100-D00-0
 62
     7
370
    50
100
AcDbLine
 10
496.497204
 20
291.203976
 30
0.0
 11
364.997202
 21
291.203976
 31
0.0
  0
LINE
  5
233
330
1F
100
AcDbEntity
  8
LC-001-100-D00-0
 62
     7
370
    50
100
AcDbLine
 10
495.497206
 20
283.203978
 30
0.0
 11
365.997204
 21
283.203978
 31
0.0
  0
LINE
  5
234
330
1F
100
AcDbEntity
  8
LC-001-100-D00-0
 62
     7
370
    50
100
AcDbLine
 10
605.74721
 20
326.573976
 30
0.0
 11
558.270307
 21
326.573976
 31
0.0
  0
ARC
  5
235
330
1F
100
AcDbEntity
  8
LC-001-100-D00-0
 62
     7
370
    50
100
AcDbCircle
 10
605.747205
 20
324.573977
 30
0.0
 40
2.0
100
AcDbArc
 50
0.0
 51
90.0
  0
LINE
  5
236
330
1F
100
AcDbEntity
  8
LC-001-100-D00-0
 62
     7
370
    50
100
AcDbLine
 10
607.747199
 20
323.573977
 30
0.0
 11
607.747199
 21
324.573979
 31
0.0
  0
LINE
  5
237
330
1F
100
AcDbEntity
  8
LC-001-100-D00-0
 62
     7
370
    50
100
AcDbLine
 10
558.536151
 20
323.573977
 30
0.0
 11
607.747199
 21
323.573977
 31
0.0
  0
LINE
  5
238
330
1F
100
AcDbEntity
  8
LC-001-100-D00-0
 62
     7
370
    50
100
AcDbLine
 10
536.06178
 20
315.393977
 30
0.0
 11
558.536151
 21
323.573977
 31
0.0
  0
LINE
  5
239
330
1F
100
AcDbEntity
  8
LC-001-100-D00-0
 62
     7
370
    50
100
AcDbLine
 10
530.722202
 20
315.393977
 30
0.0
 11
536.06178
 21
315.393977
 31
0.0
  0
LINE
  5
23A
330
1F
100
AcDbEntity
  8
LC-001-100-D00-0
 62
     7
370
    50
100
AcDbLine
 10
530.722202
 20
315.393977
 30
0.0
 11
530.722202
 21
299.893975
 31
0.0
  0
ARC
  5
23B
330
1F
100
AcDbEntity
  8
LC-001-100-D00-0
 62
     7
370
    50
100
AcDbCircle
 10
530.222205
 20
299.893977
 30
0.0
 40
0.5
100
AcDbArc
 50
270.0
 51
0.0
  0
LINE
  5
23C
330
1F
100
AcDbEntity
  8
LC-001-100-D00-0
 62
     7
370
    50
100
AcDbLine
 10
527.747208
 20
299.393974
 30
0.0
 11
530.222209
 21
299.393974
 31
0.0
  0
LINE
  5
23D
330
1F
100
AcDbEntity
  8
LC-001-100-D00-0
 62
     7
370
    50
100
AcDbLine
 10
527.747208
 20
299.393974
 30
0.0
 11
527.747208
 21
296.393976
 31
0.0
  0
LINE
  5
23E
330
1F
100
AcDbEntity
  8
LC-001-100-D00-0
 62
     7
370
    50
100
AcDbLine
 10
526.747206
 20
295.393974
 30
0.0
 11
527.747208
 21
296.393976
 31
0.0
  0
LINE
  5
23F
330
1F
100
AcDbEntity
  8
LC-001-100-D00-0
 62
     7
370
    50
100
AcDbLine
 10
522.747205
 20
295.393974
 30
0.0
 11
526.747206
 21
295.393974
 31
0.0
  0
LINE
  5
240
330
1F
100
AcDbEntity
  8
LC-001-100-D00-0
 62
     7
370
    50
100
AcDbLine
 10
521.747203
 20
296.393976
 30
0.0
 11
522.747205
 21
295.393974
 31
0.0
  0
LINE
  5
241
330
1F
100
AcDbEntity
  8
LC-001-100-D00-0
 62
     7
370
    50
100
AcDbLine
 10
521.747203
 20
296.393976
 30
0.0
 11
521.747203
 21
299.393974
 31
0.0
  0
LINE
  5
242
330
1F
100
AcDbEntity
  8
LC-001-100-D00-0
 62
     7
370
    50
100
AcDbLine
 10
515.747206
 20
299.393974
 30
0.0
 11
521.747203
 21
299.393974
 31
0.0
  0
LINE
  5
243
330
1F
100
AcDbEntity
  8
LC-001-100-D00-0
 62
     7
370
    50
100
AcDbLine
 10
515.747206
 20
297.013976
 30
0.0
 11
515.747206
 21
299.393974
 31
0.0
  0
LINE
  5
244
330
1F
100
AcDbEntity
  8
LC-001-100-D00-0
 62
     7
370
    50
100
AcDbLine
 10
511.747205
 20
297.013976
 30
0.0
 11
515.747206
 21
297.013976
 31
0.0
  0
LINE
  5
245
330
1F
100
AcDbEntity
  8
LC-001-100-D00-0
 62
     7
370
    50
100
AcDbLine
 10
510.747207
 20
296.013974
 30
0.0
 11
511.747205
 21
297.013976
 31
0.0
  0
LINE
  5
246
330
1F
100
AcDbEntity
  8
LC-001-100-D00-0
 62
     7
370
    50
100
AcDbLine
 10
510.747207
 20
234.573977
 30
0.0
 11
510.747207
 21
296.013974
 31
0.0
  0
LINE
  5
247
330
1F
100
AcDbEntity
  8
LC-001-100-D00-0
 62
     7
370
    50
100
AcDbLine
 10
508.247206
 20
234.573977
 30
0.0
 11
510.747207
 21
234.573977
 31
0.0
  0
LINE
  5
248
330
1F
100
AcDbEntity
  8
LC-001-100-D00-0
 62
     7
370
    50
100
AcDbLine
 10
508.247206
 20
280.103978
 30
0.0
 11
508.247206
 21
234.573977
 31
0.0
  0
ARC
  5
249
330
1F
100
AcDbEntity
  8
LC-001-100-D00-0
 62
     7
370
    50
100
AcDbCircle
 10
507.247205
 20
280.103977
 30
0.0
 40
1.0
100
AcDbArc
 50
0.0
 51
90.0
  0
LINE
  5
24A
330
1F
100
AcDbEntity
  8
LC-001-100-D00-0
 62
     7
370
    50
100
AcDbLine
 10
504.797207
 20
281.103976
 30
0.0
 11
507.247204
 21
281.103976
 31
0.0
  0
ARC
  5
24B
330
1F
100
AcDbEntity
  8
LC-001-100-D00-0
 62
     7
370
    50
100
AcDbCircle
 10
504.797205
 20
280.103977
 30
0.0
 40
1.0
100
AcDbArc
 50
90.0
 51
180.0
  0
LINE
  5
24C
330
1F
100
AcDbEntity
  8
LC-001-100-D00-0
 62
     7
370
    50
100
AcDbLine
 10
503.797205
 20
269.703977
 30
0.0
 11
503.797205
 21
280.103978
 31
0.0
  0
ARC
  5
24D
330
1F
100
AcDbEntity
  8
LC-001-100-D00-0
 62
     7
370
    50
100
AcDbCircle
 10
501.297205
 20
269.703977
 30
0.0
 40
2.5
100
AcDbArc
 50
270.0
 51
0.0
  0
LINE
  5
24E
330
1F
100
AcDbEntity
  8
LC-001-100-D00-0
 62
     7
370
    50
100
AcDbLine
 10
499.497207
 20
267.203976
 30
0.0
 11
501.297207
 21
267.203976
 31
0.0
  0
ARC
  5
24F
330
1F
100
AcDbEntity
  8
LC-001-100-D00-0
 62
     7
370
    50
100
AcDbCircle
 10
499.497205
 20
266.203977
 30
0.0
 40
1.0
100
AcDbArc
 50
90.0
 51
180.0
  0
LINE
  5
250
330
1F
100
AcDbEntity
  8
LC-001-100-D00-0
 62
     7
370
    50
100
AcDbLine
 10
498.497205
 20
234.573977
 30
0.0
 11
498.497205
 21
266.203977
 31
0.0
  0
LINE
  5
251
330
1F
100
AcDbEntity
  8
LC-001-100-D00-0
 62
     7
370
    50
100
AcDbLine
 10
493.247205
 20
234.573977
 30
0.0
 11
498.497205
 21
234.573977
 31
0.0
  0
LINE
  5
252
330
1F
100
AcDbEntity
  8
LC-001-100-D00-0
 62
     7
370
    50
100
AcDbLine
 10
493.247205
 20
163.073976
 30
0.0
 11
493.247205
 21
234.573977
 31
0.0
  0
LINE
  5
253
330
1F
100
AcDbEntity
  8
LC-001-100-D00-0
 62
     7
370
    50
100
AcDbLine
 10
492.041433
 20
158.573978
 30
0.0
 11
493.247205
 21
163.073976
 31
0.0
  0
LINE
  5
254
330
1F
100
AcDbEntity
  8
LC-001-100-D00-0
 62
     7
370
    50
100
AcDbLine
 10
490.247206
 20
158.573978
 30
0.0
 11
492.041433
 21
158.573978
 31
0.0
  0
LINE
  5
255
330
1F
100
AcDbEntity
  8
LC-001-100-D00-0
 62
     7
370
    50
100
AcDbLine
 10
490.247206
 20
239.563978
 30
0.0
 11
490.247206
 21
158.573978
 31
0.0
  0
LINE
  5
256
330
1F
100
AcDbEntity
  8
LC-001-100-D00-0
 62
     7
370
    50
100
AcDbLine
 10
494.369076
 20
240.070079
 30
0.0
 11
490.247206
 21
239.563978
 31
0.0
  0
ARC
  5
257
330
1F
100
AcDbEntity
  8
LC-001-100-D00-0
 62
     7
370
    50
100
AcDbCircle
 10
494.247205
 20
241.062625
 30
0.0
 40
1.00000000000004
100
AcDbArc
 50
277.0
 51
0.0
  0
LINE
  5
258
330
1F
100
AcDbEntity
  8
LC-001-100-D00-0
 62
     7
370
    50
100
AcDbLine
 10
495.247205
 20
269.703977
 30
0.0
 11
495.247205
 21
241.062625
 31
0.0
  0
ARC
  5
259
330
1F
100
AcDbEntity
  8
LC-001-100-D00-0
 62
     7
370
    50
100
AcDbCircle
 10
496.247205
 20
269.703977
 30
0.0
 40
1.0
100
AcDbArc
 50
90.0
 51
180.0
  0
LINE
  5
25A
330
1F
100
AcDbEntity
  8
LC-001-100-D00-0
 62
     7
370
    50
100
AcDbLine
 10
501.247206
 20
270.703975
 30
0.0
 11
496.247204
 21
270.703975
 31
0.0
  0
LINE
  5
25B
330
1F
100
AcDbEntity
  8
LC-001-100-D00-0
 62
     7
370
    50
100
AcDbLine
 10
501.247206
 20
284.703978
 30
0.0
 11
501.247206
 21
270.703975
 31
0.0
  0
ARC
  5
25C
330
1F
100
AcDbEntity
  8
LC-001-100-D00-0
 62
     7
370
    50
100
AcDbCircle
 10
502.247205
 20
284.703977
 30
0.0
 40
1.0
100
AcDbArc
 50
90.0
 51
180.0
  0
LINE
  5
25D
330
1F
100
AcDbEntity
  8
LC-001-100-D00-0
 62
     7
370
    50
100
AcDbLine
 10
507.247204
 20
285.703976
 30
0.0
 11
502.247205
 21
285.703976
 31
0.0
  0
ARC
  5
25E
330
1F
100
AcDbEntity
  8
LC-001-100-D00-0
 62
     7
370
    50
100
AcDbCircle
 10
507.247205
 20
286.703977
 30
0.0
 40
1.0
100
AcDbArc
 50
270.0
 51
0.0
  0
LINE
  5
25F
330
1F
100
AcDbEntity
  8
LC-001-100-D00-0
 62
     7
370
    50
100
AcDbLine
 10
508.247206
 20
296.153978
 30
0.0
 11
508.247206
 21
286.703974
 31
0.0
  0
LINE
  5
260
330
1F
100
AcDbEntity
  8
LC-001-100-D00-0
 62
     7
370
    50
100
AcDbLine
 10
513.247208
 20
301.15398
 30
0.0
 11
508.247206
 21
296.153978
 31
0.0
  0
LINE
  5
261
330
1F
100
AcDbEntity
  8
LC-001-100-D00-0
 62
     7
370
    50
100
AcDbLine
 10
513.247208
 20
317.893975
 30
0.0
 11
513.247208
 21
301.15398
 31
0.0
  0
LINE
  5
262
330
1F
100
AcDbEntity
  8
LC-001-100-D00-0
 62
     7
370
    50
100
AcDbLine
 10
521.997207
 20
317.893975
 30
0.0
 11
513.247208
 21
317.893975
 31
0.0
  0
LINE
  5
263
330
1F
100
AcDbEntity
  8
LC-001-100-D00-0
 62
     7
370
    50
100
AcDbLine
 10
521.997207
 20
317.893975
 30
0.0
 11
521.997207
 21
302.393981
 31
0.0
  0
LINE
  5
264
330
1F
100
AcDbEntity
  8
LC-001-100-D00-0
 62
     7
370
    50
100
AcDbLine
 10
527.497204
 20
302.393981
 30
0.0
 11
521.997207
 21
302.393981
 31
0.0
  0
LINE
  5
265
330
1F
100
AcDbEntity
  8
LC-001-100-D00-0
 62
     7
370
    50
100
AcDbLine
 10
527.497204
 20
302.393981
 30
0.0
 11
527.497204
 21
317.893975
 31
0.0
  0
LINE
  5
266
330
1F
100
AcDbEntity
  8
LC-001-100-D00-0
 62
     7
370
    50
100
AcDbLine
 10
534.422205
 20
317.893975
 30
0.0
 11
527.497204
 21
317.893975
 31
0.0
  0
LINE
  5
267
330
1F
100
AcDbEntity
  8
LC-001-100-D00-0
 62
     7
370
    50
100
AcDbLine
 10
558.270307
 20
326.573976
 30
0.0
 11
534.422205
 21
317.893975
 31
0.0
  0
LINE
  5
268
330
1F
100
AcDbEntity
  8
LC-001-100-D00-0
 62
     7
370
    50
100
AcDbLine
 10
339.497203
 20
302.393981
 30
0.0
 11
333.997206
 21
302.393981
 31
0.0
  0
LINE
  5
269
330
1F
100
AcDbEntity
  8
LC-001-100-D00-0
 62
     7
370
    50
100
AcDbLine
 10
339.497203
 20
302.393981
 30
0.0
 11
339.497203
 21
317.893975
 31
0.0
  0
LINE
  5
26A
330
1F
100
AcDbEntity
  8
LC-001-100-D00-0
 62
     7
370
    50
100
AcDbLine
 10
348.247202
 20
317.893975
 30
0.0
 11
339.497203
 21
317.893975
 31
0.0
  0
LINE
  5
26B
330
1F
100
AcDbEntity
  8
LC-001-100-D00-0
 62
     7
370
    50
100
AcDbLine
 10
348.247202
 20
301.15398
 30
0.0
 11
348.247202
 21
317.893975
 31
0.0
  0
LINE
  5
26C
330
1F
100
AcDbEntity
  8
LC-001-100-D00-0
 62
     7
370
    50
100
AcDbLine
 10
353.247204
 20
296.153978
 30
0.0
 11
348.247202
 21
301.15398
 31
0.0
  0
LINE
  5
26D
330
1F
100
AcDbEntity
  8
LC-001-100-D00-0
 62
     7
370
    50
100
AcDbLine
 10
353.247204
 20
286.703974
 30
0.0
 11
353.247204
 21
296.153978
 31
0.0
  0
ARC
  5
26E
330
1F
100
AcDbEntity
  8
LC-001-100-D00-0
 62
     7
370
    50
100
AcDbCircle
 10
354.247205
 20
286.703977
 30
0.0
 40
1.0
100
AcDbArc
 50
180.0
 51
270.0
  0
LINE
  5
26F
330
1F
100
AcDbEntity
  8
LC-001-100-D00-0
 62
     7
370
    50
100
AcDbLine
 10
359.247202
 20
285.703976
 30
0.0
 11
354.247206
 21
285.703976
 31
0.0
  0
ARC
  5
270
330
1F
100
AcDbEntity
  8
LC-001-100-D00-0
 62
     7
370
    50
100
AcDbCircle
 10
359.247205
 20
284.703977
 30
0.0
 40
1.0
100
AcDbArc
 50
0.0
 51
90.0
  0
LINE
  5
271
330
1F
100
AcDbEntity
  8
LC-001-100-D00-0
 62
     7
370
    50
100
AcDbLine
 10
360.247204
 20
270.703975
 30
0.0
 11
360.247204
 21
284.703978
 31
0.0
  0
LINE
  5
272
330
1F
100
AcDbEntity
  8
LC-001-100-D00-0
 62
     7
370
    50
100
AcDbLine
 10
365.247206
 20
270.703975
 30
0.0
 11
360.247204
 21
270.703975
 31
0.0
  0
ARC
  5
273
330
1F
100
AcDbEntity
  8
LC-001-100-D00-0
 62
     7
370
    50
100
AcDbCircle
 10
365.247205
 20
269.703977
 30
0.0
 40
1.0
100
AcDbArc
 50
0.0
 51
90.0
  0
LINE
  5
274
330
1F
100
AcDbEntity
  8
LC-001-100-D00-0
 62
     7
370
    50
100
AcDbLine
 10
366.247208
 20
241.062625
 30
0.0
 11
366.247208
 21
269.703977
 31
0.0
  0
ARC
  5
275
330
1F
100
AcDbEntity
  8
LC-001-100-D00-0
 62
     7
370
    50
100
AcDbCircle
 10
367.247205
 20
241.062625
 30
0.0
 40
1.0
100
AcDbArc
 50
180.0
 51
263.0
  0
LINE
  5
276
330
1F
100
AcDbEntity
  8
LC-001-100-D00-0
 62
     7
370
    50
100
AcDbLine
 10
371.247204
 20
239.563978
 30
0.0
 11
367.125334
 21
240.070079
 31
0.0
  0
LINE
  5
277
330
1F
100
AcDbEntity
  8
LC-001-100-D00-0
 62
     7
370
    50
100
AcDbLine
 10
371.247204
 20
158.573978
 30
0.0
 11
371.247204
 21
239.563978
 31
0.0
  0
LINE
  5
278
330
1F
100
AcDbEntity
  8
LC-001-100-D00-0
 62
     7
370
    50
100
AcDbLine
 10
369.452977
 20
158.573978
 30
0.0
 11
371.247204
 21
158.573978
 31
0.0
  0
LINE
  5
279
330
1F
100
AcDbEntity
  8
LC-001-100-D00-0
 62
     7
370
    50
100
AcDbLine
 10
368.247205
 20
163.073976
 30
0.0
 11
369.452977
 21
158.573978
 31
0.0
  0
LINE
  5
27A
330
1F
100
AcDbEntity
  8
LC-001-100-D00-0
 62
     7
370
    50
100
AcDbLine
 10
368.247205
 20
234.573977
 30
0.0
 11
368.247205
 21
163.073976
 31
0.0
  0
LINE
  5
27B
330
1F
100
AcDbEntity
  8
LC-001-100-D00-0
 62
     7
370
    50
100
AcDbLine
 10
362.997206
 20
234.573977
 30
0.0
 11
368.247205
 21
234.573977
 31
0.0
  0
LINE
  5
27C
330
1F
100
AcDbEntity
  8
LC-001-100-D00-0
 62
     7
370
    50
100
AcDbLine
 10
362.997206
 20
266.203977
 30
0.0
 11
362.997206
 21
234.573977
 31
0.0
  0
ARC
  5
27D
330
1F
100
AcDbEntity
  8
LC-001-100-D00-0
 62
     7
370
    50
100
AcDbCircle
 10
361.997205
 20
266.203977
 30
0.0
 40
1.0
100
AcDbArc
 50
0.0
 51
90.0
  0
LINE
  5
27E
330
1F
100
AcDbEntity
  8
LC-001-100-D00-0
 62
     7
370
    50
100
AcDbLine
 10
360.197203
 20
267.203976
 30
0.0
 11
361.997204
 21
267.203976
 31
0.0
  0
ARC
  5
27F
330
1F
100
AcDbEntity
  8
LC-001-100-D00-0
 62
     7
370
    50
100
AcDbCircle
 10
360.197205
 20
269.703977
 30
0.0
 40
2.5
100
AcDbArc
 50
180.0
 51
270.0
  0
LINE
  5
280
330
1F
100
AcDbEntity
  8
LC-001-100-D00-0
 62
     7
370
    50
100
AcDbLine
 10
357.697205
 20
280.103978
 30
0.0
 11
357.697205
 21
269.703977
 31
0.0
  0
ARC
  5
281
330
1F
100
AcDbEntity
  8
LC-001-100-D00-0
 62
     7
370
    50
100
AcDbCircle
 10
356.697205
 20
280.103977
 30
0.0
 40
1.0
100
AcDbArc
 50
0.0
 51
90.0
  0
LINE
  5
282
330
1F
100
AcDbEntity
  8
LC-001-100-D00-0
 62
     7
370
    50
100
AcDbLine
 10
354.247206
 20
281.103976
 30
0.0
 11
356.697203
 21
281.103976
 31
0.0
  0
ARC
  5
283
330
1F
100
AcDbEntity
  8
LC-001-100-D00-0
 62
     7
370
    50
100
AcDbCircle
 10
354.247205
 20
280.103977
 30
0.0
 40
1.0
100
AcDbArc
 50
90.0
 51
180.0
  0
LINE
  5
284
330
1F
100
AcDbEntity
  8
LC-001-100-D00-0
 62
     7
370
    50
100
AcDbLine
 10
353.247204
 20
234.573977
 30
0.0
 11
353.247204
 21
280.103978
 31
0.0
  0
LINE
  5
285
330
1F
100
AcDbEntity
  8
LC-001-100-D00-0
 62
     7
370
    50
100
AcDbLine
 10
350.747207
 20
234.573977
 30
0.0
 11
353.247204
 21
234.573977
 31
0.0
  0
LINE
  5
286
330
1F
100
AcDbEntity
  8
LC-001-100-D00-0
 62
     7
370
    50
100
AcDbLine
 10
350.747207
 20
296.013974
 30
0.0
 11
350.747207
 21
234.573977
 31
0.0
  0
LINE
  5
287
330
1F
100
AcDbEntity
  8
LC-001-100-D00-0
 62
     7
370
    50
100
AcDbLine
 10
349.747205
 20
297.013976
 30
0.0
 11
350.747207
 21
296.013974
 31
0.0
  0
LINE
  5
288
330
1F
100
AcDbEntity
  8
LC-001-100-D00-0
 62
     7
370
    50
100
AcDbLine
 10
345.747204
 20
297.013976
 30
0.0
 11
349.747205
 21
297.013976
 31
0.0
  0
LINE
  5
289
330
1F
100
AcDbEntity
  8
LC-001-100-D00-0
 62
     7
370
    50
100
AcDbLine
 10
345.747204
 20
299.393974
 30
0.0
 11
345.747204
 21
297.013976
 31
0.0
  0
LINE
  5
28A
330
1F
100
AcDbEntity
  8
LC-001-100-D00-0
 62
     7
370
    50
100
AcDbLine
 10
339.747207
 20
299.393974
 30
0.0
 11
345.747204
 21
299.393974
 31
0.0
  0
LINE
  5
28B
330
1F
100
AcDbEntity
  8
LC-001-100-D00-0
 62
     7
370
    50
100
AcDbLine
 10
339.747207
 20
299.393974
 30
0.0
 11
339.747207
 21
296.393976
 31
0.0
  0
LINE
  5
28C
330
1F
100
AcDbEntity
  8
LC-001-100-D00-0
 62
     7
370
    50
100
AcDbLine
 10
338.747205
 20
295.393974
 30
0.0
 11
339.747207
 21
296.393976
 31
0.0
  0
LINE
  5
28D
330
1F
100
AcDbEntity
  8
LC-001-100-D00-0
 62
     7
370
    50
100
AcDbLine
 10
334.747204
 20
295.393974
 30
0.0
 11
338.747205
 21
295.393974
 31
0.0
  0
LINE
  5
28E
330
1F
100
AcDbEntity
  8
LC-001-100-D00-0
 62
     7
370
    50
100
AcDbLine
 10
333.747202
 20
296.393976
 30
0.0
 11
334.747204
 21
295.393974
 31
0.0
  0
LINE
  5
28F
330
1F
100
AcDbEntity
  8
LC-001-100-D00-0
 62
     7
370
    50
100
AcDbLine
 10
333.747202
 20
296.393976
 30
0.0
 11
333.747202
 21
299.393974
 31
0.0
  0
LINE
  5
290
330
1F
100
AcDbEntity
  8
LC-001-100-D00-0
 62
     7
370
    50
100
AcDbLine
 10
331.272209
 20
299.393974
 30
0.0
 11
333.747202
 21
299.393974
 31
0.0
  0
ARC
  5
291
330
1F
100
AcDbEntity
  8
LC-001-100-D00-0
 62
     7
370
    50
100
AcDbCircle
 10
331.272205
 20
299.893977
 30
0.0
 40
0.5
100
AcDbArc
 50
180.0
 51
270.0
  0
LINE
  5
292
330
1F
100
AcDbEntity
  8
LC-001-100-D00-0
 62
     7
370
    50
100
AcDbLine
 10
330.772208
 20
299.893975
 30
0.0
 11
330.772208
 21
315.393977
 31
0.0
  0
LINE
  5
293
330
1F
100
AcDbEntity
  8
LC-001-100-D00-0
 62
     7
370
    50
100
AcDbLine
 10
325.43263
 20
315.393977
 30
0.0
 11
330.772208
 21
315.393977
 31
0.0
  0
LINE
  5
294
330
1F
100
AcDbEntity
  8
LC-001-100-D00-0
 62
     7
370
    50
100
AcDbLine
 10
302.958266
 20
323.573977
 30
0.0
 11
325.43263
 21
315.393977
 31
0.0
  0
LINE
  5
295
330
1F
100
AcDbEntity
  8
LC-001-100-D00-0
 62
     7
370
    50
100
AcDbLine
 10
253.747211
 20
323.573977
 30
0.0
 11
302.958266
 21
323.573977
 31
0.0
  0
LINE
  5
296
330
1F
100
AcDbEntity
  8
LC-001-100-D00-0
 62
     7
370
    50
100
AcDbLine
 10
253.747211
 20
324.573979
 30
0.0
 11
253.747211
 21
323.573977
 31
0.0
  0
ARC
  5
297
330
1F
100
AcDbEntity
  8
LC-001-100-D00-0
 62
     7
370
    50
100
AcDbCircle
 10
255.747205
 20
324.573977
 30
0.0
 40
2.0
100
AcDbArc
 50
90.0
 51
180.0
  0
LINE
  5
298
330
1F
100
AcDbEntity
  8
LC-001-100-D00-0
 62
     7
370
    50
100
AcDbLine
 10
303.224103
 20
326.573976
 30
0.0
 11
255.747201
 21
326.573976
 31
0.0
  0
LINE
  5
299
330
1F
100
AcDbEntity
  8
LC-001-100-D00-0
 62
     7
370
    50
100
AcDbLine
 10
327.072205
 20
317.893975
 30
0.0
 11
303.224103
 21
326.573976
 31
0.0
  0
LINE
  5
29A
330
1F
100
AcDbEntity
  8
LC-001-100-D00-0
 62
     7
370
    50
100
AcDbLine
 10
333.997206
 20
317.893975
 30
0.0
 11
327.072205
 21
317.893975
 31
0.0
  0
LINE
  5
29B
330
1F
100
AcDbEntity
  8
LC-001-100-D00-0
 62
     7
370
    50
100
AcDbLine
 10
333.997206
 20
317.893975
 30
0.0
 11
333.997206
 21
302.393981
 31
0.0
  0
LINE
  5
29C
330
1F
100
AcDbEntity
  8
LC-001-100-D00-0
 62
     7
370
    50
100
AcDbLine
 10
367.125334
 20
240.070079
 30
0.0
 11
494.369076
 21
240.070079
 31
0.0
  0
LINE
  5
29D
330
1F
100
AcDbEntity
  8
LC-001-100-D00-0
 62
     7
370
    50
100
AcDbLine
 10
365.247206
 20
270.703975
 30
0.0
 11
496.247204
 21
270.703975
 31
0.0
  0
LINE
  5
29E
330
1F
100
AcDbEntity
  8
LC-001-100-D00-0
 62
     7
370
    50
100
AcDbLine
 10
359.247202
 20
285.703976
 30
0.0
 11
361.997204
 21
285.703976
 31
0.0
  0
LINE
  5
29F
330
1F
100
AcDbEntity
  8
LC-001-100-D00-0
 62
     7
370
    50
100
AcDbLine
 10
499.497207
 20
285.703976
 30
0.0
 11
502.247205
 21
285.703976
 31
0.0
  0
LINE
  5
2A0
330
1F
100
AcDbEntity
  8
LC-001-100-D00-0
 62
     7
370
    50
100
AcDbLine
 10
353.247204
 20
296.153978
 30
0.0
 11
508.247206
 21
296.153978
 31
0.0
  0
LINE
  5
2A1
330
1F
100
AcDbEntity
  8
LC-001-100-D00-0
 62
     7
370
    50
100
AcDbLine
 10
348.247202
 20
301.15398
 30
0.0
 11
355.247209
 21
301.15398
 31
0.0
  0
LINE
  5
2A2
330
1F
100
AcDbEntity
  8
LC-001-100-D00-0
 62
     7
370
    50
100
AcDbLine
 10
506.247205
 20
301.15398
 30
0.0
 11
513.247208
 21
301.15398
 31
0.0
  0
LINE
  5
2A3
330
1F
100
AcDbEntity
  8
LC-001-100-D00-0
 62
     7
370
    50
100
AcDbLine
 10
371.247204
 20
239.563978
 30
0.0
 11
490.247206
 21
239.563978
 31
0.0
  0
LINE
  5
2A4
330
1F
100
AcDbEntity
  8
LC-001-100-D00-0
 62
     7
370
    50
100
AcDbLine
 10
527.497204
 20
317.893975
 30
0.0
 11
521.997207
 21
317.893975
 31
0.0
  0
LINE
  5
2A5
330
1F
100
AcDbEntity
  8
LC-001-100-D00-0
 62
     7
370
    50
100
AcDbLine
 10
334.747204
 20
317.893975
 30
0.0
 11
333.997206
 21
317.893975
 31
0.0
  0
LINE
  5
2A6
330
1F
100
AcDbEntity
  8
LC-001-100-D00-0
 62
     7
370
    50
100
AcDbLine
 10
371.247204
 20
158.573978
 30
0.0
 11
490.247206
 21
158.573978
 31
0.0
  0
LINE
  5
2A7
330
1F
100
AcDbEntity
  8
LC-001-100-D00-0
 62
     7
370
    50
100
AcDbLine
 10
348.247202
 20
317.893975
 30
0.0
 11
350.997204
 21
317.893975
 31
0.0
  0
LINE
  5
2A8
330
1F
100
AcDbEntity
  8
LC-001-100-D00-0
 62
     7
370
    50
100
AcDbLine
 10
510.497206
 20
317.893975
 30
0.0
 11
513.247208
 21
317.893975
 31
0.0
  0
ARC
  5
2A9
330
1F
100
AcDbEntity
  8
LC-001-100-D00-0
 62
     7
370
    50
100
AcDbCircle
 10
358.747205
 20
232.573977
 30
0.0
 40
8.0
100
AcDbArc
 50
180.0
 51
270.0
  0
ARC
  5
2AA
330
1F
100
AcDbEntity
  8
LC-001-100-D00-0
 62
     7
370
    50
100
AcDbCircle
 10
502.747205
 20
232.573977
 30
0.0
 40
8.0
100
AcDbArc
 50
270.0
 51
0.0
  0
LINE
  5
2AB
330
1F
100
AcDbEntity
  8
LC-001-100-D00-0
 62
     7
370
    50
100
AcDbLine
 10
350.747207
 20
234.573977
 30
0.0
 11
350.747207
 21
232.573977
 31
0.0
  0
LINE
  5
2AC
330
1F
100
AcDbEntity
  8
LC-001-100-D00-0
 62
     7
370
    50
100
AcDbLine
 10
353.497209
 20
234.573977
 30
0.0
 11
350.747207
 21
234.573977
 31
0.0
  0
LINE
  5
2AD
330
1F
100
AcDbEntity
  8
LC-001-100-D00-0
 62
     7
370
    50
100
AcDbLine
 10
353.497209
 20
243.573977
 30
0.0
 11
353.497209
 21
234.573977
 31
0.0
  0
LINE
  5
2AE
330
1F
100
AcDbEntity
  8
LC-001-100-D00-0
 62
     7
370
    50
100
AcDbLine
 10
355.447204
 20
243.573977
 30
0.0
 11
353.497209
 21
243.573977
 31
0.0
  0
LINE
  5
2AF
330
1F
100
AcDbEntity
  8
LC-001-100-D00-0
 62
     7
370
    50
100
AcDbLine
 10
355.447204
 20
242.073978
 30
0.0
 11
355.447204
 21
243.573977
 31
0.0
  0
LINE
  5
2B0
330
1F
100
AcDbEntity
  8
LC-001-100-D00-0
 62
     7
370
    50
100
AcDbLine
 10
355.747202
 20
242.073978
 30
0.0
 11
355.447204
 21
242.073978
 31
0.0
  0
LINE
  5
2B1
330
1F
100
AcDbEntity
  8
LC-001-100-D00-0
 62
     7
370
    50
100
AcDbLine
 10
355.747202
 20
229.573977
 30
0.0
 11
355.747202
 21
242.073978
 31
0.0
  0
ARC
  5
2B2
330
1F
100
AcDbEntity
  8
LC-001-100-D00-0
 62
     7
370
    50
100
AcDbCircle
 10
358.247205
 20
229.573977
 30
0.0
 40
2.5
100
AcDbArc
 50
180.0
 51
270.0
  0
LINE
  5
2B3
330
1F
100
AcDbEntity
  8
LC-001-100-D00-0
 62
     7
370
    50
100
AcDbLine
 10
367.997208
 20
227.073977
 30
0.0
 11
358.247207
 21
227.073977
 31
0.0
  0
LINE
  5
2B4
330
1F
100
AcDbEntity
  8
LC-001-100-D00-0
 62
     7
370
    50
100
AcDbLine
 10
367.997208
 20
222.573977
 30
0.0
 11
367.997208
 21
227.073977
 31
0.0
  0
LINE
  5
2B5
330
1F
100
AcDbEntity
  8
LC-001-100-D00-0
 62
     7
370
    50
100
AcDbLine
 10
359.997207
 20
222.573977
 30
0.0
 11
367.997208
 21
222.573977
 31
0.0
  0
LINE
  5
2B6
330
1F
100
AcDbEntity
  8
LC-001-100-D00-0
 62
     7
370
    50
100
AcDbLine
 10
359.997207
 20
222.573977
 30
0.0
 11
359.997207
 21
224.573977
 31
0.0
  0
LINE
  5
2B7
330
1F
100
AcDbEntity
  8
LC-001-100-D00-0
 62
     7
370
    50
100
AcDbLine
 10
358.747208
 20
224.573977
 30
0.0
 11
359.997207
 21
224.573977
 31
0.0
  0
LINE
  5
2B8
330
1F
100
AcDbEntity
  8
LC-001-100-D00-0
 62
     7
370
    50
100
AcDbLine
 10
355.747202
 20
242.073978
 30
0.0
 11
362.997206
 21
242.073978
 31
0.0
  0
LINE
  5
2B9
330
1F
100
AcDbEntity
  8
LC-001-100-D00-0
 62
     7
370
    50
100
AcDbLine
 10
498.497205
 20
242.073978
 30
0.0
 11
505.747204
 21
242.073978
 31
0.0
  0
LINE
  5
2BA
330
1F
100
AcDbEntity
  8
LC-001-100-D00-0
 62
     7
370
    50
100
AcDbLine
 10
505.747204
 20
242.073978
 30
0.0
 11
505.747204
 21
229.573977
 31
0.0
  0
ARC
  5
2BB
330
1F
100
AcDbEntity
  8
LC-001-100-D00-0
 62
     7
370
    50
100
AcDbCircle
 10
503.247205
 20
229.573977
 30
0.0
 40
2.5
100
AcDbArc
 50
270.0
 51
0.0
  0
LINE
  5
2BC
330
1F
100
AcDbEntity
  8
LC-001-100-D00-0
 62
     7
370
    50
100
AcDbLine
 10
493.497206
 20
222.573977
 30
0.0
 11
501.497207
 21
222.573977
 31
0.0
  0
LINE
  5
2BD
330
1F
100
AcDbEntity
  8
LC-001-100-D00-0
 62
     7
370
    50
100
AcDbLine
 10
493.497206
 20
227.073977
 30
0.0
 11
493.497206
 21
222.573977
 31
0.0
  0
LINE
  5
2BE
330
1F
100
AcDbEntity
  8
LC-001-100-D00-0
 62
     7
370
    50
100
AcDbLine
 10
503.247207
 20
227.073977
 30
0.0
 11
493.497206
 21
227.073977
 31
0.0
  0
LINE
  5
2BF
330
1F
100
AcDbEntity
  8
LC-001-100-D00-0
 62
     7
370
    50
100
AcDbLine
 10
506.047206
 20
242.073978
 30
0.0
 11
505.747204
 21
242.073978
 31
0.0
  0
LINE
  5
2C0
330
1F
100
AcDbEntity
  8
LC-001-100-D00-0
 62
     7
370
    50
100
AcDbLine
 10
506.047206
 20
243.573977
 30
0.0
 11
506.047206
 21
242.073978
 31
0.0
  0
LINE
  5
2C1
330
1F
100
AcDbEntity
  8
LC-001-100-D00-0
 62
     7
370
    50
100
AcDbLine
 10
507.997205
 20
243.573977
 30
0.0
 11
506.047206
 21
243.573977
 31
0.0
  0
LINE
  5
2C2
330
1F
100
AcDbEntity
  8
LC-001-100-D00-0
 62
     7
370
    50
100
AcDbLine
 10
507.997205
 20
234.573977
 30
0.0
 11
507.997205
 21
243.573977
 31
0.0
  0
LINE
  5
2C3
330
1F
100
AcDbEntity
  8
LC-001-100-D00-0
 62
     7
370
    50
100
AcDbLine
 10
510.747207
 20
234.573977
 30
0.0
 11
507.997205
 21
234.573977
 31
0.0
  0
LINE
  5
2C4
330
1F
100
AcDbEntity
  8
LC-001-100-D00-0
 62
     7
370
    50
100
AcDbLine
 10
510.747207
 20
232.573977
 30
0.0
 11
510.747207
 21
234.573977
 31
0.0
  0
LINE
  5
2C5
330
1F
100
AcDbEntity
  8
LC-001-100-D00-0
 62
     7
370
    50
100
AcDbLine
 10
501.497207
 20
224.573977
 30
0.0
 11
501.497207
 21
222.573977
 31
0.0
  0
LINE
  5
2C6
330
1F
100
AcDbEntity
  8
LC-001-100-D00-0
 62
     7
370
    50
100
AcDbLine
 10
501.497207
 20
224.573977
 30
0.0
 11
502.747206
 21
224.573977
 31
0.0
  0
LINE
  5
2C7
330
1F
100
AcDbEntity
  8
LC-001-100-D00-0
 62
     7
370
    50
100
AcDbLine
 10
355.447204
 20
243.573977
 30
0.0
 11
362.997206
 21
243.573977
 31
0.0
  0
LINE
  5
2C8
330
1F
100
AcDbEntity
  8
LC-001-100-D00-0
 62
     7
370
    50
100
AcDbLine
 10
498.497205
 20
243.573977
 30
0.0
 11
506.047206
 21
243.573977
 31
0.0
  0
LINE
  5
2C9
330
1F
100
AcDbEntity
  8
LC-001-100-D00-0
 62
     7
370
    50
100
AcDbLine
 10
493.489237
 20
222.573977
 30
0.0
 11
493.489237
 21
224.573977
 31
0.0
  0
LINE
  5
2CA
330
1F
100
AcDbEntity
  8
LC-001-100-D00-0
 62
     7
370
    50
100
AcDbLine
 10
368.005173
 20
222.573977
 30
0.0
 11
368.005173
 21
224.573977
 31
0.0
  0
LINE
  5
2CB
330
1F
100
AcDbEntity
  8
LC-001-100-D00-0
 62
     7
370
    50
100
AcDbLine
 10
493.497206
 20
222.573977
 30
0.0
 11
493.489237
 21
222.573977
 31
0.0
  0
LINE
  5
2CC
330
1F
100
AcDbEntity
  8
LC-001-100-D00-0
 62
     7
370
    50
100
AcDbLine
 10
367.997208
 20
227.073977
 30
0.0
 11
368.247205
 21
227.073977
 31
0.0
  0
LINE
  5
2CD
330
1F
100
AcDbEntity
  8
LC-001-100-D00-0
 62
     7
370
    50
100
AcDbLine
 10
493.247205
 20
227.073977
 30
0.0
 11
493.497206
 21
227.073977
 31
0.0
  0
LINE
  5
2CE
330
1F
100
AcDbEntity
  8
LC-001-100-D00-0
 62
     7
370
    50
100
AcDbLine
 10
368.005173
 20
222.573977
 30
0.0
 11
367.997208
 21
222.573977
 31
0.0
  0
LINE
  5
2CF
330
1F
100
AcDbEntity
  8
LC-001-100-D00-0
 62
     7
370
    50
100
AcDbLine
 10
368.005173
 20
224.573977
 30
0.0
 11
368.247205
 21
224.573977
 31
0.0
  0
LINE
  5
2D0
330
1F
100
AcDbEntity
  8
LC-001-100-D00-0
 62
     7
370
    50
100
AcDbLine
 10
493.247205
 20
224.573977
 30
0.0
 11
493.489237
 21
224.573977
 31
0.0
  0
ARC
  5
2D1
330
1F
100
AcDbEntity
  8
LC-001-100-D00-0
 62
     7
370
    50
100
AcDbCircle
 10
356.347205
 20
299.917853
 30
0.0
 40
1.0
100
AcDbArc
 50
90.0
 51
180.0
  0
LINE
  5
2D2
330
1F
100
AcDbEntity
  8
LC-001-100-D00-0
 62
     7
370
    50
100
AcDbLine
 10
486.947206
 20
367.205762
 30
0.0
 11
479.195788
 21
388.50262
 31
0.0
  0
LINE
  5
2D3
330
1F
100
AcDbEntity
  8
LC-001-100-D00-0
 62
     7
370
    50
100
AcDbLine
 10
479.195788
 20
388.50262
 30
0.0
 11
479.195788
 21
388.117858
 31
0.0
  0
LINE
  5
2D4
330
1F
100
AcDbEntity
  8
LC-001-100-D00-0
 62
     7
370
    50
100
AcDbLine
 10
479.195788
 20
388.117858
 30
0.0
 11
382.29862
 21
388.117858
 31
0.0
  0
LINE
  5
2D5
330
1F
100
AcDbEntity
  8
LC-001-100-D00-0
 62
     7
370
    50
100
AcDbLine
 10
382.29862
 20
388.117858
 30
0.0
 11
382.29862
 21
388.50262
 31
0.0
  0
LINE
  5
2D6
330
1F
100
AcDbEntity
  8
LC-001-100-D00-0
 62
     7
370
    50
100
AcDbLine
 10
382.29862
 20
388.50262
 30
0.0
 11
374.547207
 21
367.205762
 31
0.0
  0
LINE
  5
2D7
330
1F
100
AcDbEntity
  8
LC-001-100-D00-0
 62
     7
370
    50
100
AcDbLine
 10
374.547207
 20
367.205762
 30
0.0
 11
374.547207
 21
362.517916
 31
0.0
  0
LINE
  5
2D8
330
1F
100
AcDbEntity
  8
LC-001-100-D00-0
 62
     7
370
    50
100
AcDbLine
 10
374.547207
 20
362.517916
 30
0.0
 11
372.840972
 21
362.517916
 31
0.0
  0
LINE
  5
2D9
330
1F
100
AcDbEntity
  8
LC-001-100-D00-0
 62
     7
370
    50
100
AcDbLine
 10
372.840972
 20
362.517916
 30
0.0
 11
360.247576
 21
327.917852
 31
0.0
  0
LINE
  5
2DA
330
1F
100
AcDbEntity
  8
LC-001-100-D00-0
 62
     7
370
    50
100
AcDbLine
 10
360.247576
 20
327.917852
 30
0.0
 11
360.247204
 21
327.917852
 31
0.0
  0
LINE
  5
2DB
330
1F
100
AcDbEntity
  8
LC-001-100-D00-0
 62
     7
370
    50
100
AcDbLine
 10
360.247204
 20
320.217856
 30
0.0
 11
360.247204
 21
327.917852
 31
0.0
  0
LINE
  5
2DC
330
1F
100
AcDbEntity
  8
LC-001-100-D00-0
 62
     7
370
    50
100
AcDbLine
 10
359.747203
 20
320.217856
 30
0.0
 11
360.247204
 21
320.217856
 31
0.0
  0
LINE
  5
2DD
330
1F
100
AcDbEntity
  8
LC-001-100-D00-0
 62
     7
370
    50
100
AcDbLine
 10
359.747203
 20
298.917853
 30
0.0
 11
359.747203
 21
320.217856
 31
0.0
  0
LINE
  5
2DE
330
1F
100
AcDbEntity
  8
LC-001-100-D00-0
 62
     7
370
    50
100
AcDbLine
 10
356.347205
 20
298.917853
 30
0.0
 11
359.747203
 21
298.917853
 31
0.0
  0
ARC
  5
2DF
330
1F
100
AcDbEntity
  8
LC-001-100-D00-0
 62
     7
370
    50
100
AcDbCircle
 10
356.347205
 20
299.917853
 30
0.0
 40
1.0
100
AcDbArc
 50
180.0
 51
270.0
  0
LINE
  5
2E0
330
1F
100
AcDbEntity
  8
LC-001-100-D00-0
 62
     7
370
    50
100
AcDbLine
 10
356.347205
 20
300.917857
 30
0.0
 11
356.847206
 21
300.917857
 31
0.0
  0
LINE
  5
2E1
330
1F
100
AcDbEntity
  8
LC-001-100-D00-0
 62
     7
370
    50
100
AcDbLine
 10
356.847206
 20
300.917857
 30
0.0
 11
356.847206
 21
327.917852
 31
0.0
  0
LINE
  5
2E2
330
1F
100
AcDbEntity
  8
LC-001-100-D00-0
 62
     7
370
    50
100
AcDbLine
 10
356.847206
 20
327.917852
 30
0.0
 11
348.354304
 21
327.917852
 31
0.0
  0
LINE
  5
2E3
330
1F
100
AcDbEntity
  8
LC-001-100-D00-0
 62
     7
370
    50
100
AcDbLine
 10
345.161738
 20
329.742179
 30
0.0
 11
348.354304
 21
327.917852
 31
0.0
  0
LINE
  5
2E4
330
1F
100
AcDbEntity
  8
LC-001-100-D00-0
 62
     7
370
    50
100
AcDbLine
 10
368.203232
 20
393.04816
 30
0.0
 11
345.161738
 21
329.742179
 31
0.0
  0
ARC
  5
2E5
330
1F
100
AcDbEntity
  8
LC-001-100-D00-0
 62
     7
370
    50
100
AcDbCircle
 10
382.298623
 20
387.917859
 30
0.0
 40
15.0
100
AcDbArc
 50
90.0
 51
160.0
  0
LINE
  5
2E6
330
1F
100
AcDbEntity
  8
LC-001-100-D00-0
 62
     7
370
    50
100
AcDbLine
 10
382.29862
 20
402.917855
 30
0.0
 11
442.54947
 21
402.917855
 31
0.0
  0
LINE
  5
2E7
330
1F
100
AcDbEntity
  8
LC-001-100-D00-0
 62
     7
370
    50
100
AcDbLine
 10
442.54947
 20
402.917855
 30
0.0
 11
442.54947
 21
403.017856
 31
0.0
  0
LINE
  5
2E8
330
1F
100
AcDbEntity
  8
LC-001-100-D00-0
 62
     7
370
    50
100
AcDbLine
 10
443.375524
 20
403.017856
 30
0.0
 11
442.54947
 21
403.017856
 31
0.0
  0
LINE
  5
2E9
330
1F
100
AcDbEntity
  8
LC-001-100-D00-0
 62
     7
370
    50
100
AcDbLine
 10
443.375524
 20
402.917855
 30
0.0
 11
443.375524
 21
403.017856
 31
0.0
  0
LINE
  5
2EA
330
1F
100
AcDbEntity
  8
LC-001-100-D00-0
 62
     7
370
    50
100
AcDbLine
 10
443.375524
 20
402.917855
 30
0.0
 11
443.953146
 21
402.917855
 31
0.0
  0
LINE
  5
2EB
330
1F
100
AcDbEntity
  8
LC-001-100-D00-0
 62
     7
370
    50
100
AcDbLine
 10
443.953146
 20
403.017856
 30
0.0
 11
443.953146
 21
402.917855
 31
0.0
  0
LINE
  5
2EC
330
1F
100
AcDbEntity
  8
LC-001-100-D00-0
 62
     7
370
    50
100
AcDbLine
 10
444.692248
 20
403.017856
 30
0.0
 11
443.953146
 21
403.017856
 31
0.0
  0
LINE
  5
2ED
330
1F
100
AcDbEntity
  8
LC-001-100-D00-0
 62
     7
370
    50
100
AcDbLine
 10
444.692248
 20
403.017856
 30
0.0
 11
444.692248
 21
402.917855
 31
0.0
  0
LINE
  5
2EE
330
1F
100
AcDbEntity
  8
LC-001-100-D00-0
 62
     7
370
    50
100
AcDbLine
 10
444.692248
 20
402.917855
 30
0.0
 11
445.071111
 21
402.917855
 31
0.0
  0
LINE
  5
2EF
330
1F
100
AcDbEntity
  8
LC-001-100-D00-0
 62
     7
370
    50
100
AcDbLine
 10
445.071111
 20
402.917855
 30
0.0
 11
445.071111
 21
403.017856
 31
0.0
  0
LINE
  5
2F0
330
1F
100
AcDbEntity
  8
LC-001-100-D00-0
 62
     7
370
    50
100
AcDbLine
 10
447.418844
 20
403.017856
 30
0.0
 11
445.071111
 21
403.017856
 31
0.0
  0
LINE
  5
2F1
330
1F
100
AcDbEntity
  8
LC-001-100-D00-0
 62
     7
370
    50
100
AcDbLine
 10
447.418844
 20
403.017856
 30
0.0
 11
447.418844
 21
402.917855
 31
0.0
  0
LINE
  5
2F2
330
1F
100
AcDbEntity
  8
LC-001-100-D00-0
 62
     7
370
    50
100
AcDbLine
 10
447.418844
 20
402.917855
 30
0.0
 11
447.853611
 21
402.917855
 31
0.0
  0
LINE
  5
2F3
330
1F
100
AcDbEntity
  8
LC-001-100-D00-0
 62
     7
370
    50
100
AcDbLine
 10
447.853611
 20
402.917855
 30
0.0
 11
447.853611
 21
403.017856
 31
0.0
  0
LINE
  5
2F4
330
1F
100
AcDbEntity
  8
LC-001-100-D00-0
 62
     7
370
    50
100
AcDbLine
 10
447.853611
 20
403.017856
 30
0.0
 11
448.636189
 21
403.017856
 31
0.0
  0
LINE
  5
2F5
330
1F
100
AcDbEntity
  8
LC-001-100-D00-0
 62
     7
370
    50
100
AcDbLine
 10
448.636189
 20
403.017856
 30
0.0
 11
448.636189
 21
402.917855
 31
0.0
  0
LINE
  5
2F6
330
1F
100
AcDbEntity
  8
LC-001-100-D00-0
 62
     7
370
    50
100
AcDbLine
 10
448.636189
 20
402.917855
 30
0.0
 11
449.723103
 21
402.917855
 31
0.0
  0
LINE
  5
2F7
330
1F
100
AcDbEntity
  8
LC-001-100-D00-0
 62
     7
370
    50
100
AcDbLine
 10
449.723103
 20
402.917855
 30
0.0
 11
449.723103
 21
403.017856
 31
0.0
  0
LINE
  5
2F8
330
1F
100
AcDbEntity
  8
LC-001-100-D00-0
 62
     7
370
    50
100
AcDbLine
 10
449.723103
 20
403.017856
 30
0.0
 11
450.505682
 21
403.017856
 31
0.0
  0
LINE
  5
2F9
330
1F
100
AcDbEntity
  8
LC-001-100-D00-0
 62
     7
370
    50
100
AcDbLine
 10
450.505682
 20
403.017856
 30
0.0
 11
450.505682
 21
402.917855
 31
0.0
  0
LINE
  5
2FA
330
1F
100
AcDbEntity
  8
LC-001-100-D00-0
 62
     7
370
    50
100
AcDbLine
 10
450.505682
 20
402.917855
 30
0.0
 11
451.592596
 21
402.917855
 31
0.0
  0
LINE
  5
2FB
330
1F
100
AcDbEntity
  8
LC-001-100-D00-0
 62
     7
370
    50
100
AcDbLine
 10
451.592596
 20
402.917855
 30
0.0
 11
451.592596
 21
403.017856
 31
0.0
  0
LINE
  5
2FC
330
1F
100
AcDbEntity
  8
LC-001-100-D00-0
 62
     7
370
    50
100
AcDbLine
 10
452.375174
 20
403.017856
 30
0.0
 11
451.592596
 21
403.017856
 31
0.0
  0
LINE
  5
2FD
330
1F
100
AcDbEntity
  8
LC-001-100-D00-0
 62
     7
370
    50
100
AcDbLine
 10
452.375174
 20
403.017856
 30
0.0
 11
452.375174
 21
402.917855
 31
0.0
  0
LINE
  5
2FE
330
1F
100
AcDbEntity
  8
LC-001-100-D00-0
 62
     7
370
    50
100
AcDbLine
 10
452.375174
 20
402.917855
 30
0.0
 11
452.940369
 21
402.917855
 31
0.0
  0
LINE
  5
2FF
330
1F
100
AcDbEntity
  8
LC-001-100-D00-0
 62
     7
370
    50
100
AcDbLine
 10
452.940369
 20
402.917855
 30
0.0
 11
452.940369
 21
403.017856
 31
0.0
  0
LINE
  5
300
330
1F
100
AcDbEntity
  8
LC-001-100-D00-0
 62
     7
370
    50
100
AcDbLine
 10
453.766424
 20
403.017856
 30
0.0
 11
452.940369
 21
403.017856
 31
0.0
  0
LINE
  5
301
330
1F
100
AcDbEntity
  8
LC-001-100-D00-0
 62
     7
370
    50
100
AcDbLine
 10
453.766424
 20
403.017856
 30
0.0
 11
453.766424
 21
402.917855
 31
0.0
  0
LINE
  5
302
330
1F
100
AcDbEntity
  8
LC-001-100-D00-0
 62
     7
370
    50
100
AcDbLine
 10
453.766424
 20
402.917855
 30
0.0
 11
454.33162
 21
402.917855
 31
0.0
  0
LINE
  5
303
330
1F
100
AcDbEntity
  8
LC-001-100-D00-0
 62
     7
370
    50
100
AcDbLine
 10
454.33162
 20
402.917855
 30
0.0
 11
454.33162
 21
403.017856
 31
0.0
  0
LINE
  5
304
330
1F
100
AcDbEntity
  8
LC-001-100-D00-0
 62
     7
370
    50
100
AcDbLine
 10
455.114197
 20
403.017856
 30
0.0
 11
454.33162
 21
403.017856
 31
0.0
  0
LINE
  5
305
330
1F
100
AcDbEntity
  8
LC-001-100-D00-0
 62
     7
370
    50
100
AcDbLine
 10
455.114197
 20
403.017856
 30
0.0
 11
455.114197
 21
402.917855
 31
0.0
  0
LINE
  5
306
330
1F
100
AcDbEntity
  8
LC-001-100-D00-0
 62
     7
370
    50
100
AcDbLine
 10
455.114197
 20
402.917855
 30
0.0
 11
455.462011
 21
402.917855
 31
0.0
  0
LINE
  5
307
330
1F
100
AcDbEntity
  8
LC-001-100-D00-0
 62
     7
370
    50
100
AcDbLine
 10
455.462011
 20
402.917855
 30
0.0
 11
455.462011
 21
403.017856
 31
0.0
  0
LINE
  5
308
330
1F
100
AcDbEntity
  8
LC-001-100-D00-0
 62
     7
370
    50
100
AcDbLine
 10
455.462011
 20
403.017856
 30
0.0
 11
457.37498
 21
403.017856
 31
0.0
  0
LINE
  5
309
330
1F
100
AcDbEntity
  8
LC-001-100-D00-0
 62
     7
370
    50
100
AcDbLine
 10
457.37498
 20
403.017856
 30
0.0
 11
457.37498
 21
402.917855
 31
0.0
  0
LINE
  5
30A
330
1F
100
AcDbEntity
  8
LC-001-100-D00-0
 62
     7
370
    50
100
AcDbLine
 10
457.37498
 20
402.917855
 30
0.0
 11
457.853221
 21
402.917855
 31
0.0
  0
LINE
  5
30B
330
1F
100
AcDbEntity
  8
LC-001-100-D00-0
 62
     7
370
    50
100
AcDbLine
 10
457.853221
 20
402.917855
 30
0.0
 11
457.853221
 21
403.017856
 31
0.0
  0
LINE
  5
30C
330
1F
100
AcDbEntity
  8
LC-001-100-D00-0
 62
     7
370
    50
100
AcDbLine
 10
460.176288
 20
403.017856
 30
0.0
 11
457.853221
 21
403.017856
 31
0.0
  0
LINE
  5
30D
330
1F
100
AcDbEntity
  8
LC-001-100-D00-0
 62
     7
370
    50
100
AcDbLine
 10
460.176288
 20
403.017856
 30
0.0
 11
460.176288
 21
402.917855
 31
0.0
  0
LINE
  5
30E
330
1F
100
AcDbEntity
  8
LC-001-100-D00-0
 62
     7
370
    50
100
AcDbLine
 10
460.176288
 20
402.917855
 30
0.0
 11
479.195788
 21
402.917855
 31
0.0
  0
ARC
  5
30F
330
1F
100
AcDbEntity
  8
LC-001-100-D00-0
 62
     7
370
    50
100
AcDbCircle
 10
479.195787
 20
387.917859
 30
0.0
 40
14.99999999999993
100
AcDbArc
 50
20.0
 51
90.0
  0
LINE
  5
310
330
1F
100
AcDbEntity
  8
LC-001-100-D00-0
 62
     7
370
    50
100
AcDbLine
 10
516.332673
 20
329.742179
 30
0.0
 11
493.291178
 21
393.04816
 31
0.0
  0
LINE
  5
311
330
1F
100
AcDbEntity
  8
LC-001-100-D00-0
 62
     7
370
    50
100
AcDbLine
 10
513.140106
 20
327.917852
 30
0.0
 11
516.332673
 21
329.742179
 31
0.0
  0
LINE
  5
312
330
1F
100
AcDbEntity
  8
LC-001-100-D00-0
 62
     7
370
    50
100
AcDbLine
 10
513.140106
 20
327.917852
 30
0.0
 11
504.647204
 21
327.917852
 31
0.0
  0
LINE
  5
313
330
1F
100
AcDbEntity
  8
LC-001-100-D00-0
 62
     7
370
    50
100
AcDbLine
 10
504.647204
 20
327.917852
 30
0.0
 11
504.647204
 21
300.917857
 31
0.0
  0
LINE
  5
314
330
1F
100
AcDbEntity
  8
LC-001-100-D00-0
 62
     7
370
    50
100
AcDbLine
 10
504.647204
 20
300.917857
 30
0.0
 11
505.147205
 21
300.917857
 31
0.0
  0
ARC
  5
315
330
1F
100
AcDbEntity
  8
LC-001-100-D00-0
 62
     7
370
    50
100
AcDbCircle
 10
505.147205
 20
299.917853
 30
0.0
 40
1.0
100
AcDbArc
 50
0.0
 51
90.0
  0
ARC
  5
316
330
1F
100
AcDbEntity
  8
LC-001-100-D00-0
 62
     7
370
    50
100
AcDbCircle
 10
505.147205
 20
299.917853
 30
0.0
 40
1.0
100
AcDbArc
 50
270.0
 51
0.0
  0
LINE
  5
317
330
1F
100
AcDbEntity
  8
LC-001-100-D00-0
 62
     7
370
    50
100
AcDbLine
 10
501.747204
 20
298.917853
 30
0.0
 11
505.147205
 21
298.917853
 31
0.0
  0
LINE
  5
318
330
1F
100
AcDbEntity
  8
LC-001-100-D00-0
 62
     7
370
    50
100
AcDbLine
 10
501.747204
 20
320.217856
 30
0.0
 11
501.747204
 21
298.917853
 31
0.0
  0
LINE
  5
319
330
1F
100
AcDbEntity
  8
LC-001-100-D00-0
 62
     7
370
    50
100
AcDbLine
 10
501.247206
 20
320.217856
 30
0.0
 11
501.747204
 21
320.217856
 31
0.0
  0
LINE
  5
31A
330
1F
100
AcDbEntity
  8
LC-001-100-D00-0
 62
     7
370
    50
100
AcDbLine
 10
501.247206
 20
327.917852
 30
0.0
 11
501.247206
 21
320.217856
 31
0.0
  0
LINE
  5
31B
330
1F
100
AcDbEntity
  8
LC-001-100-D00-0
 62
     7
370
    50
100
AcDbLine
 10
501.247206
 20
327.917852
 30
0.0
 11
501.246834
 21
327.917852
 31
0.0
  0
LINE
  5
31C
330
1F
100
AcDbEntity
  8
LC-001-100-D00-0
 62
     7
370
    50
100
AcDbLine
 10
501.246834
 20
327.917852
 30
0.0
 11
488.653442
 21
362.517916
 31
0.0
  0
LINE
  5
31D
330
1F
100
AcDbEntity
  8
LC-001-100-D00-0
 62
     7
370
    50
100
AcDbLine
 10
488.653442
 20
362.517916
 30
0.0
 11
486.947206
 21
362.517916
 31
0.0
  0
LINE
  5
31E
330
1F
100
AcDbEntity
  8
LC-001-100-D00-0
 62
     7
370
    50
100
AcDbLine
 10
486.947206
 20
362.517916
 30
0.0
 11
486.947206
 21
367.205762
 31
0.0
  0
INSERT
  5
330
330
1F
100
AcDbEntity
  8
LC-001-100-D00-0
 62
     7
370
    50
100
AcDbBlockReference
  2
POLY17
 10
0.0
 20
0.0
 30
0.0
  0
LINE
  5
331
330
1F
100
AcDbEntity
  8
LC-001-100-D00-0
 62
     7
370
    50
100
AcDbLine
 10
360.734651
 20
319.217853
 30
0.0
 11
360.734651
 21
298.917853
 31
0.0
  0
LINE
  5
332
330
1F
100
AcDbEntity
  8
LC-001-100-D00-0
 62
     7
370
    50
100
AcDbLine
 10
359.747203
 20
298.917853
 30
0.0
 11
360.734651
 21
298.917853
 31
0.0
  0
LINE
  5
333
330
1F
100
AcDbEntity
  8
LC-001-100-D00-0
 62
     7
370
    50
100
AcDbLine
 10
500.759778
 20
298.917853
 30
0.0
 11
500.759778
 21
319.217853
 31
0.0
  0
INSERT
  5
345
330
1F
100
AcDbEntity
  8
LC-001-100-D00-0
 62
     7
370
    50
100
AcDbBlockReference
  2
POLY18
 10
0.0
 20
0.0
 30
0.0
  0
LINE
  5
346
330
1F
100
AcDbEntity
  8
LC-001-100-D00-0
 62
     7
370
    50
100
AcDbLine
 10
500.759778
 20
298.917853
 30
0.0
 11
501.747204
 21
298.917853
 31
0.0
  0
LINE
  5
347
330
1F
100
AcDbEntity
  8
LC-001-100-D00-0
 62
     7
370
    50
100
AcDbLine
 10
360.247576
 20
327.917852
 30
0.0
 11
362.590538
 21
327.917852
 31
0.0
  0
LINE
  5
348
330
1F
100
AcDbEntity
  8
LC-001-100-D00-0
 62
     7
370
    50
100
AcDbLine
 10
362.709054
 20
327.917852
 30
0.0
 11
369.578259
 21
327.917852
 31
0.0
  0
LINE
  5
349
330
1F
100
AcDbEntity
  8
LC-001-100-D00-0
 62
     7
370
    50
100
AcDbLine
 10
369.807215
 20
327.917852
 30
0.0
 11
380.734542
 21
327.917852
 31
0.0
  0
LINE
  5
34A
330
1F
100
AcDbEntity
  8
LC-001-100-D00-0
 62
     7
370
    50
100
AcDbLine
 10
381.058337
 20
327.917852
 30
0.0
 11
395.299112
 21
327.917852
 31
0.0
  0
LINE
  5
34B
330
1F
100
AcDbEntity
  8
LC-001-100-D00-0
 62
     7
370
    50
100
AcDbLine
 10
395.695669
 20
327.917852
 30
0.0
 11
412.279406
 21
327.917852
 31
0.0
  0
LINE
  5
34C
330
1F
100
AcDbEntity
  8
LC-001-100-D00-0
 62
     7
370
    50
100
AcDbLine
 10
412.72171
 20
327.917852
 30
0.0
 11
430.518252
 21
327.917852
 31
0.0
  0
LINE
  5
34D
330
1F
100
AcDbEntity
  8
LC-001-100-D00-0
 62
     7
370
    50
100
AcDbLine
 10
430.97616
 20
327.917852
 30
0.0
 11
448.7727
 21
327.917852
 31
0.0
  0
LINE
  5
34E
330
1F
100
AcDbEntity
  8
LC-001-100-D00-0
 62
     7
370
    50
100
AcDbLine
 10
449.215004
 20
327.917852
 30
0.0
 11
465.79874
 21
327.917852
 31
0.0
  0
LINE
  5
34F
330
1F
100
AcDbEntity
  8
LC-001-100-D00-0
 62
     7
370
    50
100
AcDbLine
 10
466.195299
 20
327.917852
 30
0.0
 11
480.436075
 21
327.917852
 31
0.0
  0
LINE
  5
350
330
1F
100
AcDbEntity
  8
LC-001-100-D00-0
 62
     7
370
    50
100
AcDbLine
 10
480.759864
 20
327.917852
 30
0.0
 11
491.687199
 21
327.917852
 31
0.0
  0
LINE
  5
351
330
1F
100
AcDbEntity
  8
LC-001-100-D00-0
 62
     7
370
    50
100
AcDbLine
 10
491.916151
 20
327.917852
 30
0.0
 11
498.785359
 21
327.917852
 31
0.0
  0
LINE
  5
352
330
1F
100
AcDbEntity
  8
LC-001-100-D00-0
 62
     7
370
    50
100
AcDbLine
 10
498.903876
 20
327.917852
 30
0.0
 11
501.246834
 21
327.917852
 31
0.0
  0
LINE
  5
353
330
1F
100
AcDbEntity
  8
LC-001-100-D00-0
 62
     7
370
    50
100
AcDbLine
 10
360.247204
 20
320.217856
 30
0.0
 11
501.247206
 21
320.217856
 31
0.0
  0
LINE
  5
354
330
1F
100
AcDbEntity
  8
LC-001-100-D00-0
 62
     7
370
    50
100
AcDbLine
 10
460.200957
 20
403.017856
 30
0.0
 11
460.200957
 21
402.917855
 31
0.0
  0
LINE
  5
355
330
1F
100
AcDbEntity
  8
LC-001-100-D00-0
 62
     7
370
    50
100
AcDbLine
 10
460.176288
 20
403.017856
 30
0.0
 11
460.200957
 21
403.017856
 31
0.0
  0
LINE
  5
356
330
1F
100
AcDbEntity
  8
LC-001-100-D00-0
 62
     7
370
    50
100
AcDbLine
 10
376.175897
 20
367.824622
 30
0.0
 11
374.772453
 21
367.824622
 31
0.0
  0
LINE
  5
357
330
1F
100
AcDbEntity
  8
LC-001-100-D00-0
 62
     7
370
    50
100
AcDbLine
 10
376.175897
 20
367.824622
 30
0.0
 11
376.175897
 21
367.238097
 31
0.0
  0
ELLIPSE
  5
358
330
1F
100
AcDbEntity
  8
LC-001-100-D00-0
 62
     7
370
    50
100
AcDbEllipse
 10
430.747205
 20
521.614029
 30
0.0
 11
-54.69271162374071
 21
-154.3402810313509
 31
0.0
210
0.0
220
0.0
230
1.0
 40
0.083767
 41
3.150803750597238
 42
3.191731874073086
  0
LINE
  5
359
330
1F
100
AcDbEntity
  8
LC-001-100-D00-0
 62
     7
370
    50
100
AcDbLine
 10
381.511772
 20
367.824622
 30
0.0
 11
376.977386
 21
367.824622
 31
0.0
  0
LINE
  5
35A
330
1F
100
AcDbEntity
  8
LC-001-100-D00-0
 62
     7
370
    50
100
AcDbLine
 10
381.511772
 20
367.824622
 30
0.0
 11
381.511772
 21
367.238097
 31
0.0
  0
ELLIPSE
  5
35B
330
1F
100
AcDbEntity
  8
LC-001-100-D00-0
 62
     7
370
    50
100
AcDbEllipse
 10
430.747205
 20
521.614029
 30
0.0
 11
-50.10599910011421
 21
-154.186567081322
 31
0.0
210
0.0
220
0.0
230
1.0
 40
0.165076
 41
3.174721918189728
 42
3.21565004166557
  0
LINE
  5
35C
330
1F
100
AcDbEntity
  8
LC-001-100-D00-0
 62
     7
370
    50
100
AcDbLine
 10
390.202952
 20
367.824622
 30
0.0
 11
382.846648
 21
367.824622
 31
0.0
  0
LINE
  5
35D
330
1F
100
AcDbEntity
  8
LC-001-100-D00-0
 62
     7
370
    50
100
AcDbLine
 10
390.202952
 20
367.824622
 30
0.0
 11
390.202952
 21
367.238097
 31
0.0
  0
ELLIPSE
  5
35E
330
1F
100
AcDbEntity
  8
LC-001-100-D00-0
 62
     7
370
    50
100
AcDbEllipse
 10
430.747205
 20
521.614029
 30
0.0
 11
-42.26835833949078
 21
-154.0735723013225
 31
0.0
210
0.0
220
0.0
230
1.0
 40
0.240393
 41
3.186982284715615
 42
3.227910408191457
  0
LINE
  5
35F
330
1F
100
AcDbEntity
  8
LC-001-100-D00-0
 62
     7
370
    50
100
AcDbLine
 10
401.657158
 20
367.824622
 30
0.0
 11
391.980251
 21
367.824622
 31
0.0
  0
LINE
  5
360
330
1F
100
AcDbEntity
  8
LC-001-100-D00-0
 62
     7
370
    50
100
AcDbLine
 10
401.657158
 20
367.824622
 30
0.0
 11
401.657158
 21
367.238097
 31
0.0
  0
ELLIPSE
  5
361
330
1F
100
AcDbEntity
  8
LC-001-100-D00-0
 62
     7
370
    50
100
AcDbEllipse
 10
430.747205
 20
521.614029
 30
0.0
 11
-31.02069845648249
 21
-154.119890424732
 31
0.0
210
0.0
220
0.0
230
1.0
 40
0.30407
 41
3.182254375888681
 42
3.223182499364518
  0
LINE
  5
362
330
1F
100
AcDbEntity
  8
LC-001-100-D00-0
 62
     7
370
    50
100
AcDbLine
 10
415.093807
 20
367.824622
 30
0.0
 11
403.649019
 21
367.824622
 31
0.0
  0
LINE
  5
363
330
1F
100
AcDbEntity
  8
LC-001-100-D00-0
 62
     7
370
    50
100
AcDbLine
 10
415.093807
 20
367.824622
 30
0.0
 11
415.093807
 21
367.238097
 31
0.0
  0
ELLIPSE
  5
364
330
1F
100
AcDbEntity
  8
LC-001-100-D00-0
 62
     7
370
    50
100
AcDbEllipse
 10
430.747205
 20
521.614029
 30
0.0
 11
-16.56207463459372
 21
-154.3006263193195
 31
0.0
210
0.0
220
0.0
230
1.0
 40
0.348049
 41
3.158469548149913
 42
3.199397671625754
  0
LINE
  5
365
330
1F
100
AcDbEntity
  8
LC-001-100-D00-0
 62
     7
370
    50
100
AcDbLine
 10
429.597206
 20
367.824622
 30
0.0
 11
417.315436
 21
367.824622
 31
0.0
  0
ELLIPSE
  5
366
330
1F
100
AcDbEntity
  8
LC-001-100-D00-0
 62
     7
370
    50
100
AcDbEllipse
 10
430.747205
 20
521.614029
 30
0.0
 11
0.0
 21
-154.4082631621054
 31
0.0
210
0.0
220
0.0
230
1.0
 40
0.36397
 41
3.121128591851879
 42
3.162056715327758
  0
LINE
  5
367
330
1F
100
AcDbEntity
  8
LC-001-100-D00-0
 62
     7
370
    50
100
AcDbLine
 10
444.178975
 20
367.824622
 30
0.0
 11
431.897206
 21
367.824622
 31
0.0
  0
ELLIPSE
  5
368
330
1F
100
AcDbEntity
  8
LC-001-100-D00-0
 62
     7
370
    50
100
AcDbEllipse
 10
430.747205
 20
521.614029
 30
0.0
 11
16.56207463459367
 21
-154.300626319315
 31
0.0
210
0.0
220
0.0
230
1.0
 40
0.348049
 41
3.083787635553877
 42
3.124715759029717
  0
LINE
  5
369
330
1F
100
AcDbEntity
  8
LC-001-100-D00-0
 62
     7
370
    50
100
AcDbLine
 10
446.400605
 20
367.824622
 30
0.0
 11
446.400605
 21
367.238097
 31
0.0
  0
LINE
  5
36A
330
1F
100
AcDbEntity
  8
LC-001-100-D00-0
 62
     7
370
    50
100
AcDbLine
 10
457.845392
 20
367.824622
 30
0.0
 11
446.400605
 21
367.824622
 31
0.0
  0
ELLIPSE
  5
36B
330
1F
100
AcDbEntity
  8
LC-001-100-D00-0
 62
     7
370
    50
100
AcDbEllipse
 10
430.747205
 20
521.614029
 30
0.0
 11
31.02069845648375
 21
-154.1198904247363
 31
0.0
210
0.0
220
0.0
230
1.0
 40
0.30407
 41
3.060002807815112
 42
3.100930931290954
  0
LINE
  5
36C
330
1F
100
AcDbEntity
  8
LC-001-100-D00-0
 62
     7
370
    50
100
AcDbLine
 10
459.837251
 20
367.824622
 30
0.0
 11
459.837251
 21
367.238097
 31
0.0
  0
LINE
  5
36D
330
1F
100
AcDbEntity
  8
LC-001-100-D00-0
 62
     7
370
    50
100
AcDbLine
 10
469.514161
 20
367.824622
 30
0.0
 11
459.837251
 21
367.824622
 31
0.0
  0
ELLIPSE
  5
36E
330
1F
100
AcDbEntity
  8
LC-001-100-D00-0
 62
     7
370
    50
100
AcDbEllipse
 10
430.747205
 20
521.614029
 30
0.0
 11
42.26835833949841
 21
-154.0735723013494
 31
0.0
210
0.0
220
0.0
230
1.0
 40
0.240393
 41
3.055274898988175
 42
3.096203022464014
  0
LINE
  5
36F
330
1F
100
AcDbEntity
  8
LC-001-100-D00-0
 62
     7
370
    50
100
AcDbLine
 10
471.291458
 20
367.824622
 30
0.0
 11
471.291458
 21
367.238097
 31
0.0
  0
LINE
  5
370
330
1F
100
AcDbEntity
  8
LC-001-100-D00-0
 62
     7
370
    50
100
AcDbLine
 10
478.647764
 20
367.824622
 30
0.0
 11
471.291458
 21
367.824622
 31
0.0
  0
ELLIPSE
  5
371
330
1F
100
AcDbEntity
  8
LC-001-100-D00-0
 62
     7
370
    50
100
AcDbEllipse
 10
430.747205
 20
521.614029
 30
0.0
 11
50.1059991000867
 21
-154.1865670812368
 31
0.0
210
0.0
220
0.0
230
1.0
 40
0.165076
 41
3.06753526551408
 42
3.108463388989919
  0
LINE
  5
372
330
1F
100
AcDbEntity
  8
LC-001-100-D00-0
 62
     7
370
    50
100
AcDbLine
 10
479.982642
 20
367.824622
 30
0.0
 11
479.982642
 21
367.238097
 31
0.0
  0
LINE
  5
373
330
1F
100
AcDbEntity
  8
LC-001-100-D00-0
 62
     7
370
    50
100
AcDbLine
 10
484.517024
 20
367.824622
 30
0.0
 11
479.982642
 21
367.824622
 31
0.0
  0
ELLIPSE
  5
374
330
1F
100
AcDbEntity
  8
LC-001-100-D00-0
 62
     7
370
    50
100
AcDbEllipse
 10
430.747205
 20
521.614029
 30
0.0
 11
54.69271162458905
 21
-154.3402810337443
 31
0.0
210
0.0
220
0.0
230
1.0
 40
0.083767
 41
3.091453433106664
 42
3.132381556582512
  0
LINE
  5
375
330
1F
100
AcDbEntity
  8
LC-001-100-D00-0
 62
     7
370
    50
100
AcDbLine
 10
485.318513
 20
367.824622
 30
0.0
 11
485.318513
 21
367.238097
 31
0.0
  0
LINE
  5
376
330
1F
100
AcDbEntity
  8
LC-001-100-D00-0
 62
     7
370
    50
100
AcDbLine
 10
486.72196
 20
367.824622
 30
0.0
 11
485.318513
 21
367.824622
 31
0.0
  0
LINE
  5
377
330
1F
100
AcDbEntity
  8
LC-001-100-D00-0
 62
     7
370
    50
100
AcDbLine
 10
486.947206
 20
362.517916
 30
0.0
 11
374.547207
 21
362.517916
 31
0.0
  0
LINE
  5
378
330
1F
100
AcDbEntity
  8
LC-001-100-D00-0
 62
     7
370
    50
100
AcDbLine
 10
452.940369
 20
403.017856
 30
0.0
 11
452.940369
 21
402.917855
 31
0.0
  0
LINE
  5
379
330
1F
100
AcDbEntity
  8
LC-001-100-D00-0
 62
     7
370
    50
100
AcDbLine
 10
452.940369
 20
403.017856
 30
0.0
 11
452.940369
 21
403.017856
 31
0.0
  0
LINE
  5
37A
330
1F
100
AcDbEntity
  8
LC-001-100-D00-0
 62
     7
370
    50
100
AcDbLine
 10
443.953146
 20
403.017856
 30
0.0
 11
443.822717
 21
403.017856
 31
0.0
  0
LINE
  5
37B
330
1F
100
AcDbEntity
  8
LC-001-100-D00-0
 62
     7
370
    50
100
AcDbLine
 10
453.766424
 20
403.017856
 30
0.0
 11
453.853378
 21
403.017856
 31
0.0
  0
LINE
  5
37C
330
1F
100
AcDbEntity
  8
LC-001-100-D00-0
 62
     7
370
    50
100
AcDbLine
 10
452.853416
 20
403.017856
 30
0.0
 11
452.940369
 21
403.017856
 31
0.0
  0
LINE
  5
37D
330
1F
100
AcDbEntity
  8
LC-001-100-D00-0
 62
     7
370
    50
100
AcDbLine
 10
452.375174
 20
403.017856
 30
0.0
 11
452.462127
 21
403.017856
 31
0.0
  0
LINE
  5
37E
330
1F
100
AcDbEntity
  8
LC-001-100-D00-0
 62
     7
370
    50
100
AcDbLine
 10
454.244666
 20
403.017856
 30
0.0
 11
454.33162
 21
403.017856
 31
0.0
  0
LINE
  5
37F
330
1F
100
AcDbEntity
  8
LC-001-100-D00-0
 62
     7
370
    50
100
AcDbLine
 10
443.822717
 20
403.017856
 30
0.0
 11
443.375524
 21
403.017856
 31
0.0
  0
LINE
  5
380
330
1F
100
AcDbEntity
  8
LC-001-100-D00-0
 62
     7
370
    50
100
AcDbLine
 10
452.462127
 20
403.017856
 30
0.0
 11
452.853416
 21
403.017856
 31
0.0
  0
LINE
  5
381
330
1F
100
AcDbEntity
  8
LC-001-100-D00-0
 62
     7
370
    50
100
AcDbLine
 10
453.853378
 20
403.017856
 30
0.0
 11
454.244666
 21
403.017856
 31
0.0
  0
LINE
  5
382
330
1F
100
AcDbEntity
  8
LC-001-100-D00-0
 62
     7
370
    50
100
AcDbLine
 10
471.291458
 20
367.238097
 30
0.0
 11
465.917722
 21
388.117858
 31
0.0
  0
LINE
  5
383
330
1F
100
AcDbEntity
  8
LC-001-100-D00-0
 62
     7
370
    50
100
AcDbLine
 10
489.820955
 20
327.917852
 30
0.0
 11
490.941295
 21
328.823224
 31
0.0
  0
LINE
  5
384
330
1F
100
AcDbEntity
  8
LC-001-100-D00-0
 62
     7
370
    50
100
AcDbLine
 10
481.411144
 20
327.917852
 30
0.0
 11
472.506271
 21
362.517916
 31
0.0
  0
LINE
  5
385
330
1F
100
AcDbEntity
  8
LC-001-100-D00-0
 62
     7
370
    50
100
AcDbLine
 10
371.673459
 20
327.917852
 30
0.0
 11
370.553115
 21
328.823224
 31
0.0
  0
LINE
  5
386
330
1F
100
AcDbEntity
  8
LC-001-100-D00-0
 62
     7
370
    50
100
AcDbLine
 10
390.202952
 20
367.238097
 30
0.0
 11
395.576687
 21
388.117858
 31
0.0
  0
LINE
  5
387
330
1F
100
AcDbEntity
  8
LC-001-100-D00-0
 62
     7
370
    50
100
AcDbLine
 10
380.083264
 20
327.917852
 30
0.0
 11
388.988139
 21
362.517916
 31
0.0
  0
LINE
  5
388
330
1F
100
AcDbEntity
  8
LC-001-100-D00-0
 62
     7
370
    50
100
AcDbLine
 10
356.847206
 20
311.217852
 30
0.0
 11
354.729125
 21
311.217852
 31
0.0
  0
LINE
  5
389
330
1F
100
AcDbEntity
  8
LC-001-100-D00-0
 62
     7
370
    50
100
AcDbLine
 10
354.729125
 20
311.217852
 30
0.0
 11
354.729125
 21
327.917852
 31
0.0
  0
LINE
  5
38A
330
1F
100
AcDbEntity
  8
LC-001-100-D00-0
 62
     7
370
    50
100
AcDbLine
 10
376.175897
 20
367.238097
 30
0.0
 11
383.516559
 21
388.117858
 31
0.0
  0
LINE
  5
38B
330
1F
100
AcDbEntity
  8
LC-001-100-D00-0
 62
     7
370
    50
100
AcDbLine
 10
362.352149
 20
327.917852
 30
0.0
 11
374.516436
 21
362.517916
 31
0.0
  0
LINE
  5
38C
330
1F
100
AcDbEntity
  8
LC-001-100-D00-0
 62
     7
370
    50
100
AcDbLine
 10
485.318513
 20
367.238097
 30
0.0
 11
477.977853
 21
388.117858
 31
0.0
  0
LINE
  5
38D
330
1F
100
AcDbEntity
  8
LC-001-100-D00-0
 62
     7
370
    50
100
AcDbLine
 10
506.765285
 20
311.217852
 30
0.0
 11
506.765285
 21
327.917852
 31
0.0
  0
LINE
  5
38E
330
1F
100
AcDbEntity
  8
LC-001-100-D00-0
 62
     7
370
    50
100
AcDbLine
 10
506.765285
 20
311.217852
 30
0.0
 11
504.647204
 21
311.217852
 31
0.0
  0
LINE
  5
38F
330
1F
100
AcDbEntity
  8
LC-001-100-D00-0
 62
     7
370
    50
100
AcDbLine
 10
499.142257
 20
327.917852
 30
0.0
 11
486.977977
 21
362.517916
 31
0.0
  0
LINE
  5
390
330
1F
100
AcDbEntity
  8
LC-001-100-D00-0
 62
     7
370
    50
100
AcDbLine
 10
484.723227
 20
367.238097
 30
0.0
 11
477.382568
 21
388.117858
 31
0.0
  0
LINE
  5
391
330
1F
100
AcDbEntity
  8
LC-001-100-D00-0
 62
     7
370
    50
100
AcDbLine
 10
376.771183
 20
367.238097
 30
0.0
 11
384.111846
 21
388.117858
 31
0.0
  0
INSERT
  5
3A3
330
1F
100
AcDbEntity
  8
LC-001-100-D00-0
 62
     7
370
    50
100
AcDbBlockReference
  2
POLY19
 10
0.0
 20
0.0
 30
0.0
  0
INSERT
  5
3B5
330
1F
100
AcDbEntity
  8
LC-001-100-D00-0
 62
     7
370
    50
100
AcDbBlockReference
  2
POLY20
 10
0.0
 20
0.0
 30
0.0
  0
LINE
  5
3B6
330
1F
100
AcDbEntity
  8
LC-001-100-D00-0
 62
     7
370
    50
100
AcDbLine
 10
416.947221
 20
319.217853
 30
0.0
 11
416.947221
 21
311.217852
 31
0.0
  0
LINE
  5
3B7
330
1F
100
AcDbEntity
  8
LC-001-100-D00-0
 62
     7
370
    50
100
AcDbLine
 10
361.101264
 20
311.217852
 30
0.0
 11
416.947221
 21
311.217852
 31
0.0
  0
LINE
  5
3B8
330
1F
100
AcDbEntity
  8
LC-001-100-D00-0
 62
     7
370
    50
100
AcDbLine
 10
361.101264
 20
311.217852
 30
0.0
 11
361.101264
 21
319.217853
 31
0.0
  0
INSERT
  5
3CA
330
1F
100
AcDbEntity
  8
LC-001-100-D00-0
 62
     7
370
    50
100
AcDbBlockReference
  2
POLY21
 10
0.0
 20
0.0
 30
0.0
  0
INSERT
  5
3DC
330
1F
100
AcDbEntity
  8
LC-001-100-D00-0
 62
     7
370
    50
100
AcDbBlockReference
  2
POLY22
 10
0.0
 20
0.0
 30
0.0
  0
LINE
  5
3DD
330
1F
100
AcDbEntity
  8
LC-001-100-D00-0
 62
     7
370
    50
100
AcDbLine
 10
500.393172
 20
319.217853
 30
0.0
 11
500.393172
 21
311.217852
 31
0.0
  0
LINE
  5
3DE
330
1F
100
AcDbEntity
  8
LC-001-100-D00-0
 62
     7
370
    50
100
AcDbLine
 10
444.547302
 20
311.217852
 30
0.0
 11
500.393172
 21
311.217852
 31
0.0
  0
LINE
  5
3DF
330
1F
100
AcDbEntity
  8
LC-001-100-D00-0
 62
     7
370
    50
100
AcDbLine
 10
444.547302
 20
311.217852
 30
0.0
 11
444.547302
 21
319.217853
 31
0.0
  0
LINE
  5
3E0
330
1F
100
AcDbEntity
  8
LC-001-100-D00-0
 62
     7
370
    50
100
AcDbLine
 10
500.393172
 20
311.217852
 30
0.0
 11
500.759778
 21
311.217852
 31
0.0
  0
LINE
  5
3E1
330
1F
100
AcDbEntity
  8
LC-001-100-D00-0
 62
     7
370
    50
100
AcDbLine
 10
360.734651
 20
311.217852
 30
0.0
 11
361.101264
 21
311.217852
 31
0.0
  0
LINE
  5
3E2
330
1F
100
AcDbEntity
  8
LC-001-100-D00-0
 62
     7
370
    50
100
AcDbLine
 10
498.785359
 20
327.917852
 30
0.0
 11
498.903876
 21
327.917852
 31
0.0
  0
LINE
  5
3E3
330
1F
100
AcDbEntity
  8
LC-001-100-D00-0
 62
     7
370
    50
100
AcDbLine
 10
498.546974
 20
327.917852
 30
0.0
 11
486.382695
 21
362.517916
 31
0.0
  0
LINE
  5
3E4
330
1F
100
AcDbEntity
  8
LC-001-100-D00-0
 62
     7
370
    50
100
AcDbLine
 10
362.590538
 20
327.917852
 30
0.0
 11
362.709054
 21
327.917852
 31
0.0
  0
LINE
  5
3E5
330
1F
100
AcDbEntity
  8
LC-001-100-D00-0
 62
     7
370
    50
100
AcDbLine
 10
362.947436
 20
327.917852
 30
0.0
 11
375.111716
 21
362.517916
 31
0.0
  0
LINE
  5
3E6
330
1F
100
AcDbEntity
  8
LC-001-100-D00-0
 62
     7
370
    50
100
AcDbLine
 10
479.982642
 20
367.238097
 30
0.0
 11
473.401187
 21
388.117858
 31
0.0
  0
LINE
  5
3E7
330
1F
100
AcDbEntity
  8
LC-001-100-D00-0
 62
     7
370
    50
100
AcDbLine
 10
492.376675
 20
327.917852
 30
0.0
 11
481.470477
 21
362.517916
 31
0.0
  0
LINE
  5
3E8
330
1F
100
AcDbEntity
  8
LC-001-100-D00-0
 62
     7
370
    50
100
AcDbLine
 10
381.511772
 20
367.238097
 30
0.0
 11
388.093227
 21
388.117858
 31
0.0
  0
LINE
  5
3E9
330
1F
100
AcDbEntity
  8
LC-001-100-D00-0
 62
     7
370
    50
100
AcDbLine
 10
369.117738
 20
327.917852
 30
0.0
 11
380.023935
 21
362.517916
 31
0.0
  0
LINE
  5
3EA
330
1F
100
AcDbEntity
  8
LC-001-100-D00-0
 62
     7
370
    50
100
AcDbLine
 10
478.832643
 20
367.238097
 30
0.0
 11
472.251186
 21
388.117858
 31
0.0
  0
LINE
  5
3EB
330
1F
100
AcDbEntity
  8
LC-001-100-D00-0
 62
     7
370
    50
100
AcDbLine
 10
382.661769
 20
367.238097
 30
0.0
 11
389.243224
 21
388.117858
 31
0.0
  0
LINE
  5
3EC
330
1F
100
AcDbEntity
  8
LC-001-100-D00-0
 62
     7
370
    50
100
AcDbLine
 10
491.687199
 20
327.917852
 30
0.0
 11
491.916151
 21
327.917852
 31
0.0
  0
LINE
  5
3ED
330
1F
100
AcDbEntity
  8
LC-001-100-D00-0
 62
     7
370
    50
100
AcDbLine
 10
491.226675
 20
327.917852
 30
0.0
 11
480.320478
 21
362.517916
 31
0.0
  0
LINE
  5
3EE
330
1F
100
AcDbEntity
  8
LC-001-100-D00-0
 62
     7
370
    50
100
AcDbLine
 10
369.578259
 20
327.917852
 30
0.0
 11
369.807215
 21
327.917852
 31
0.0
  0
LINE
  5
3EF
330
1F
100
AcDbEntity
  8
LC-001-100-D00-0
 62
     7
370
    50
100
AcDbLine
 10
370.267735
 20
327.917852
 30
0.0
 11
381.173933
 21
362.517916
 31
0.0
  0
LINE
  5
3F0
330
1F
100
AcDbEntity
  8
LC-001-100-D00-0
 62
     7
370
    50
100
AcDbLine
 10
469.665114
 20
367.238097
 30
0.0
 11
464.291377
 21
388.117858
 31
0.0
  0
LINE
  5
3F1
330
1F
100
AcDbEntity
  8
LC-001-100-D00-0
 62
     7
370
    50
100
AcDbLine
 10
391.829298
 20
367.238097
 30
0.0
 11
397.203033
 21
388.117858
 31
0.0
  0
LINE
  5
3F2
330
1F
100
AcDbEntity
  8
LC-001-100-D00-0
 62
     7
370
    50
100
AcDbLine
 10
459.837251
 20
367.238097
 30
0.0
 11
456.037446
 21
388.117858
 31
0.0
  0
LINE
  5
3F3
330
1F
100
AcDbEntity
  8
LC-001-100-D00-0
 62
     7
370
    50
100
AcDbLine
 10
474.535867
 20
329.742179
 30
0.0
 11
468.571171
 21
362.517916
 31
0.0
  0
LINE
  5
3F4
330
1F
100
AcDbEntity
  8
LC-001-100-D00-0
 62
     7
370
    50
100
AcDbLine
 10
467.605428
 20
367.824622
 30
0.0
 11
463.912362
 21
388.117858
 31
0.0
  0
LINE
  5
3F5
330
1F
100
AcDbEntity
  8
LC-001-100-D00-0
 62
     7
370
    50
100
AcDbLine
 10
472.939584
 20
327.917852
 30
0.0
 11
474.535867
 21
329.742179
 31
0.0
  0
LINE
  5
3F6
330
1F
100
AcDbEntity
  8
LC-001-100-D00-0
 62
     7
370
    50
100
AcDbLine
 10
466.992948
 20
327.917852
 30
0.0
 11
460.696253
 21
362.517916
 31
0.0
  0
LINE
  5
3F7
330
1F
100
AcDbEntity
  8
LC-001-100-D00-0
 62
     7
370
    50
100
AcDbLine
 10
388.554828
 20
327.917852
 30
0.0
 11
386.958541
 21
329.742179
 31
0.0
  0
LINE
  5
3F8
330
1F
100
AcDbEntity
  8
LC-001-100-D00-0
 62
     7
370
    50
100
AcDbLine
 10
386.958541
 20
329.742179
 30
0.0
 11
392.923241
 21
362.517916
 31
0.0
  0
LINE
  5
3F9
330
1F
100
AcDbEntity
  8
LC-001-100-D00-0
 62
     7
370
    50
100
AcDbLine
 10
393.888982
 20
367.824622
 30
0.0
 11
397.582048
 21
388.117858
 31
0.0
  0
LINE
  5
3FA
330
1F
100
AcDbEntity
  8
LC-001-100-D00-0
 62
     7
370
    50
100
AcDbLine
 10
401.657158
 20
367.238097
 30
0.0
 11
405.456965
 21
388.117858
 31
0.0
  0
LINE
  5
3FB
330
1F
100
AcDbEntity
  8
LC-001-100-D00-0
 62
     7
370
    50
100
AcDbLine
 10
394.50146
 20
327.917852
 30
0.0
 11
400.798158
 21
362.517916
 31
0.0
  0
LINE
  5
3FC
330
1F
100
AcDbEntity
  8
LC-001-100-D00-0
 62
     7
370
    50
100
AcDbLine
 10
457.845392
 20
367.238097
 30
0.0
 11
454.045587
 21
388.117858
 31
0.0
  0
LINE
  5
3FD
330
1F
100
AcDbEntity
  8
LC-001-100-D00-0
 62
     7
370
    50
100
AcDbLine
 10
403.649019
 20
367.238097
 30
0.0
 11
407.448822
 21
388.117858
 31
0.0
  0
LINE
  5
3FE
330
1F
100
AcDbEntity
  8
LC-001-100-D00-0
 62
     7
370
    50
100
AcDbLine
 10
480.436075
 20
327.917852
 30
0.0
 11
480.759864
 21
327.917852
 31
0.0
  0
LINE
  5
3FF
330
1F
100
AcDbEntity
  8
LC-001-100-D00-0
 62
     7
370
    50
100
AcDbLine
 10
479.784798
 20
327.917852
 30
0.0
 11
470.879925
 21
362.517916
 31
0.0
  0
LINE
  5
400
330
1F
100
AcDbEntity
  8
LC-001-100-D00-0
 62
     7
370
    50
100
AcDbLine
 10
380.734542
 20
327.917852
 30
0.0
 11
381.058337
 21
327.917852
 31
0.0
  0
LINE
  5
401
330
1F
100
AcDbEntity
  8
LC-001-100-D00-0
 62
     7
370
    50
100
AcDbLine
 10
381.709614
 20
327.917852
 30
0.0
 11
390.614485
 21
362.517916
 31
0.0
  0
LINE
  5
402
330
1F
100
AcDbEntity
  8
LC-001-100-D00-0
 62
     7
370
    50
100
AcDbLine
 10
446.400605
 20
367.238097
 30
0.0
 11
444.433681
 21
388.117858
 31
0.0
  0
LINE
  5
403
330
1F
100
AcDbEntity
  8
LC-001-100-D00-0
 62
     7
370
    50
100
AcDbLine
 10
454.009168
 20
329.742179
 30
0.0
 11
450.921614
 21
362.517916
 31
0.0
  0
LINE
  5
404
330
1F
100
AcDbEntity
  8
LC-001-100-D00-0
 62
     7
370
    50
100
AcDbLine
 10
450.421709
 20
367.824622
 30
0.0
 11
448.510037
 21
388.117858
 31
0.0
  0
LINE
  5
405
330
1F
100
AcDbEntity
  8
LC-001-100-D00-0
 62
     7
370
    50
100
AcDbLine
 10
453.182871
 20
327.917852
 30
0.0
 11
454.009168
 21
329.742179
 31
0.0
  0
LINE
  5
406
330
1F
100
AcDbEntity
  8
LC-001-100-D00-0
 62
     7
370
    50
100
AcDbLine
 10
450.104667
 20
327.917852
 30
0.0
 11
446.845257
 21
362.517916
 31
0.0
  0
LINE
  5
407
330
1F
100
AcDbEntity
  8
LC-001-100-D00-0
 62
     7
370
    50
100
AcDbLine
 10
408.31154
 20
327.917852
 30
0.0
 11
407.485241
 21
329.742179
 31
0.0
  0
LINE
  5
408
330
1F
100
AcDbEntity
  8
LC-001-100-D00-0
 62
     7
370
    50
100
AcDbLine
 10
407.485241
 20
329.742179
 30
0.0
 11
410.572799
 21
362.517916
 31
0.0
  0
LINE
  5
409
330
1F
100
AcDbEntity
  8
LC-001-100-D00-0
 62
     7
370
    50
100
AcDbLine
 10
411.072703
 20
367.824622
 30
0.0
 11
412.984373
 21
388.117858
 31
0.0
  0
LINE
  5
40A
330
1F
100
AcDbEntity
  8
LC-001-100-D00-0
 62
     7
370
    50
100
AcDbLine
 10
415.093807
 20
367.238097
 30
0.0
 11
417.060731
 21
388.117858
 31
0.0
  0
LINE
  5
40B
330
1F
100
AcDbEntity
  8
LC-001-100-D00-0
 62
     7
370
    50
100
AcDbLine
 10
411.389744
 20
327.917852
 30
0.0
 11
414.649153
 21
362.517916
 31
0.0
  0
LINE
  5
40C
330
1F
100
AcDbEntity
  8
LC-001-100-D00-0
 62
     7
370
    50
100
AcDbLine
 10
444.178975
 20
367.238097
 30
0.0
 11
442.212051
 21
388.117858
 31
0.0
  0
LINE
  5
40D
330
1F
100
AcDbEntity
  8
LC-001-100-D00-0
 62
     7
370
    50
100
AcDbLine
 10
417.315436
 20
367.238097
 30
0.0
 11
419.28236
 21
388.117858
 31
0.0
  0
LINE
  5
40E
330
1F
100
AcDbEntity
  8
LC-001-100-D00-0
 62
     7
370
    50
100
AcDbLine
 10
429.597206
 20
367.238097
 30
0.0
 11
429.597206
 21
388.117858
 31
0.0
  0
LINE
  5
40F
330
1F
100
AcDbEntity
  8
LC-001-100-D00-0
 62
     7
370
    50
100
AcDbLine
 10
431.897206
 20
367.238097
 30
0.0
 11
431.897206
 21
388.117858
 31
0.0
  0
LINE
  5
410
330
1F
100
AcDbEntity
  8
LC-001-100-D00-0
 62
     7
370
    50
100
AcDbLine
 10
465.79874
 20
327.917852
 30
0.0
 11
466.195299
 21
327.917852
 31
0.0
  0
LINE
  5
411
330
1F
100
AcDbEntity
  8
LC-001-100-D00-0
 62
     7
370
    50
100
AcDbLine
 10
465.00109
 20
327.917852
 30
0.0
 11
458.704395
 21
362.517916
 31
0.0
  0
LINE
  5
412
330
1F
100
AcDbEntity
  8
LC-001-100-D00-0
 62
     7
370
    50
100
AcDbLine
 10
395.299112
 20
327.917852
 30
0.0
 11
395.695669
 21
327.917852
 31
0.0
  0
LINE
  5
413
330
1F
100
AcDbEntity
  8
LC-001-100-D00-0
 62
     7
370
    50
100
AcDbLine
 10
396.493321
 20
327.917852
 30
0.0
 11
402.790015
 21
362.517916
 31
0.0
  0
LINE
  5
414
330
1F
100
AcDbEntity
  8
LC-001-100-D00-0
 62
     7
370
    50
100
AcDbLine
 10
448.7727
 20
327.917852
 30
0.0
 11
449.215004
 21
327.917852
 31
0.0
  0
LINE
  5
415
330
1F
100
AcDbEntity
  8
LC-001-100-D00-0
 62
     7
370
    50
100
AcDbLine
 10
447.883037
 20
327.917852
 30
0.0
 11
444.623627
 21
362.517916
 31
0.0
  0
LINE
  5
416
330
1F
100
AcDbEntity
  8
LC-001-100-D00-0
 62
     7
370
    50
100
AcDbLine
 10
412.279406
 20
327.917852
 30
0.0
 11
412.72171
 21
327.917852
 31
0.0
  0
LINE
  5
417
330
1F
100
AcDbEntity
  8
LC-001-100-D00-0
 62
     7
370
    50
100
AcDbLine
 10
413.611373
 20
327.917852
 30
0.0
 11
416.870782
 21
362.517916
 31
0.0
  0
LINE
  5
418
330
1F
100
AcDbEntity
  8
LC-001-100-D00-0
 62
     7
370
    50
100
AcDbLine
 10
430.518252
 20
327.917852
 30
0.0
 11
430.97616
 21
327.917852
 31
0.0
  0
LINE
  5
419
330
1F
100
AcDbEntity
  8
LC-001-100-D00-0
 62
     7
370
    50
100
AcDbLine
 10
429.597206
 20
327.917852
 30
0.0
 11
429.597206
 21
362.517916
 31
0.0
  0
LINE
  5
41A
330
1F
100
AcDbEntity
  8
LC-001-100-D00-0
 62
     7
370
    50
100
AcDbLine
 10
431.897206
 20
327.917852
 30
0.0
 11
431.897206
 21
362.517916
 31
0.0
  0
INSERT
  5
42C
330
1F
100
AcDbEntity
  8
LC-001-100-D00-0
 62
     7
370
    50
100
AcDbBlockReference
  2
POLY23
 10
0.0
 20
0.0
 30
0.0
  0
LINE
  5
42D
330
1F
100
AcDbEntity
  8
LC-001-100-D00-0
 62
     7
370
    50
100
AcDbLine
 10
442.547302
 20
319.217853
 30
0.0
 11
442.547302
 21
298.917853
 31
0.0
  0
LINE
  5
42E
330
1F
100
AcDbEntity
  8
LC-001-100-D00-0
 62
     7
370
    50
100
AcDbLine
 10
418.947221
 20
298.917853
 30
0.0
 11
442.547302
 21
298.917853
 31
0.0
  0
LINE
  5
42F
330
1F
100
AcDbEntity
  8
LC-001-100-D00-0
 62
     7
370
    50
100
AcDbLine
 10
418.947221
 20
298.917853
 30
0.0
 11
418.947221
 21
319.217853
 31
0.0
  0
INSERT
  5
441
330
1F
100
AcDbEntity
  8
LC-001-100-D00-0
 62
     7
370
    50
100
AcDbBlockReference
  2
POLY24
 10
0.0
 20
0.0
 30
0.0
  0
LINE
  5
442
330
1F
100
AcDbEntity
  8
LC-001-100-D00-0
 62
     7
370
    50
100
AcDbLine
 10
474.139927
 20
331.917852
 30
0.0
 11
478.767063
 21
331.917852
 31
0.0
  0
ARC
  5
443
330
1F
100
AcDbEntity
  8
LC-001-100-D00-0
 62
     7
370
    50
100
AcDbCircle
 10
478.564365
 20
330.119324
 30
0.0
 40
3.909123549999826
100
AcDbArc
 50
134.722413
 51
143.07819
  0
ARC
  5
444
330
1F
100
AcDbEntity
  8
LC-001-100-D00-0
 62
     7
370
    50
100
AcDbCircle
 10
475.872205
 20
328.214346
 30
0.0
 40
4.275269783586199
100
AcDbArc
 50
84.186935
 51
95.813065
  0
ARC
  5
445
330
1F
100
AcDbEntity
  8
LC-001-100-D00-0
 62
     7
370
    50
100
AcDbCircle
 10
479.430224
 20
330.11947
 30
0.0
 40
3.908902739490868
100
AcDbArc
 50
134.722177
 51
143.078426
  0
LINE
  5
446
330
1F
100
AcDbEntity
  8
LC-001-100-D00-0
 62
     7
370
    50
100
AcDbLine
 10
476.724891
 20
332.917854
 30
0.0
 11
478.518461
 21
332.917854
 31
0.0
  0
INSERT
  5
452
330
1F
100
AcDbEntity
  8
LC-001-100-D00-0
 62
     7
370
    50
100
AcDbBlockReference
  2
POLY25
 10
0.0
 20
0.0
 30
0.0
  0
LINE
  5
453
330
1F
100
AcDbEntity
  8
LC-001-100-D00-0
 62
     7
370
    50
100
AcDbLine
 10
476.427477
 20
332.62185
 30
0.0
 11
476.427477
 21
332.917854
 31
0.0
  0
INSERT
  5
45F
330
1F
100
AcDbEntity
  8
LC-001-100-D00-0
 62
     7
370
    50
100
AcDbBlockReference
  2
POLY26
 10
0.0
 20
0.0
 30
0.0
  0
LINE
  5
460
330
1F
100
AcDbEntity
  8
LC-001-100-D00-0
 62
     7
370
    50
100
AcDbLine
 10
476.427477
 20
332.917854
 30
0.0
 11
475.858865
 21
332.917854
 31
0.0
  0
LINE
  5
461
330
1F
100
AcDbEntity
  8
LC-001-100-D00-0
 62
     7
370
    50
100
AcDbLine
 10
474.793918
 20
332.917854
 30
0.0
 11
475.858865
 21
332.917854
 31
0.0
  0
LINE
  5
462
330
1F
100
AcDbEntity
  8
LC-001-100-D00-0
 62
     7
370
    50
100
AcDbLine
 10
476.724891
 20
332.917854
 30
0.0
 11
476.427477
 21
332.917854
 31
0.0
  0
INSERT
  5
46A
330
1F
100
AcDbEntity
  8
LC-001-100-D00-0
 62
     7
370
    25
100
AcDbBlockReference
  2
KLON21
 10
0.0
 20
0.0
 30
0.0
  0
INSERT
  5
472
330
1F
100
AcDbEntity
  8
LC-001-100-D00-0
 62
     7
370
    25
100
AcDbBlockReference
  2
KLON22
 10
0.0
 20
0.0
 30
0.0
  0
INSERT
  5
49E
330
1F
100
AcDbEntity
  8
LC-001-100-D00-0
 62
     7
370
    25
100
AcDbBlockReference
  2
KLON23
 10
0.0
 20
0.0
 30
0.0
  0
INSERT
  5
4C9
330
1F
100
AcDbEntity
  8
LC-001-100-D00-0
 62
     7
370
    25
100
AcDbBlockReference
  2
KLON24
 10
0.0
 20
0.0
 30
0.0
  0
INSERT
  5
4CF
330
1F
100
AcDbEntity
  8
LC-001-100-D00-0
 62
     7
370
    25
100
AcDbBlockReference
  2
KLON25
 10
0.0
 20
0.0
 30
0.0
  0
INSERT
  5
4D5
330
1F
100
AcDbEntity
  8
LC-001-100-D00-0
 62
     7
370
    25
100
AcDbBlockReference
  2
KLON26
 10
0.0
 20
0.0
 30
0.0
  0
INSERT
  5
4E2
330
1F
100
AcDbEntity
  8
LC-001-100-D00-0
 62
     7
370
    25
100
AcDbBlockReference
  2
KLON27
 10
0.0
 20
0.0
 30
0.0
  0
INSERT
  5
4E9
330
1F
100
AcDbEntity
  8
LC-001-100-D00-0
 62
     7
370
    25
100
AcDbBlockReference
  2
KLON28
 10
0.0
 20
0.0
 30
0.0
  0
INSERT
  5
4EF
330
1F
100
AcDbEntity
  8
LC-001-100-D00-0
 62
     7
370
    25
100
AcDbBlockReference
  2
KLON29
 10
0.0
 20
0.0
 30
0.0
  0
LINE
  5
4F1
330
1F
100
AcDbEntity
  8
LC-001-100-D00-0
  6
DASHDOT
 62
     7
370
    25
100
AcDbLine
 10
430.747205
 20
405.153559
 30
0.0
 11
430.747205
 21
156.687206
 31
0.0
  0
LINE
  5
4F2
330
1F
100
AcDbEntity
  8
LC-001-100-D00-0
  6
DASHDOT
 62
     7
370
    25
100
AcDbLine
 10
336.747205
 20
296.458355
 30
0.0
 11
336.747205
 21
335.135495
 31
0.0
  0
LINE
  5
4F3
330
1F
100
AcDbEntity
  8
LC-001-100-D00-0
  6
DASHDOT
 62
     7
370
    25
100
AcDbLine
 10
524.747205
 20
296.500628
 30
0.0
 11
524.747205
 21
324.007206
 31
0.0
  0
LINE
  5
4F5
330
1F
100
AcDbEntity
  8
LC-002-002-----0
 62
     7
370
    50
100
AcDbLine
 10
190.747198
 20
331.273976
 30
0.0
 11
190.747198
 21
326.573976
 31
0.0
  0
LINE
  5
4F6
330
1F
100
AcDbEntity
  8
LC-002-002-----0
 62
     7
370
    50
100
AcDbLine
 10
200.747198
 20
331.273976
 30
0.0
 11
200.747198
 21
326.573976
 31
0.0
  0
LINE
  5
4F7
330
1F
100
AcDbEntity
  8
LC-002-002-----0
 62
     7
370
    50
100
AcDbLine
 10
210.747198
 20
331.273976
 30
0.0
 11
210.747198
 21
326.573976
 31
0.0
  0
LINE
  5
4F8
330
1F
100
AcDbEntity
  8
LC-002-002-----0
 62
     7
370
    50
100
AcDbLine
 10
220.747198
 20
331.273976
 30
0.0
 11
220.747198
 21
326.573976
 31
0.0
  0
LINE
  5
4F9
330
1F
100
AcDbEntity
  8
LC-002-002-----0
 62
     7
370
    50
100
AcDbLine
 10
230.747198
 20
331.273976
 30
0.0
 11
230.747198
 21
326.573976
 31
0.0
  0
LINE
  5
4FA
330
1F
100
AcDbEntity
  8
LC-002-002-----0
 62
     7
370
    50
100
AcDbLine
 10
240.747198
 20
331.273976
 30
0.0
 11
240.747198
 21
326.573976
 31
0.0
  0
LINE
  5
4FB
330
1F
100
AcDbEntity
  8
LC-002-002-----0
 62
     7
370
    50
100
AcDbLine
 10
250.747198
 20
331.273976
 30
0.0
 11
250.747198
 21
326.573976
 31
0.0
  0
LINE
  5
4FC
330
1F
100
AcDbEntity
  8
LC-002-002-----0
 62
     7
370
    50
100
AcDbLine
 10
260.747198
 20
331.273976
 30
0.0
 11
260.747198
 21
326.573976
 31
0.0
  0
LINE
  5
4FD
330
1F
100
AcDbEntity
  8
LC-002-002-----0
 62
     7
370
    50
100
AcDbLine
 10
270.747198
 20
331.273976
 30
0.0
 11
270.747198
 21
326.573976
 31
0.0
  0
INSERT
  5
51C
330
1F
100
AcDbEntity
  8
LC-003-005-----0
 62
     7
370
    25
100
AcDbBlockReference
  2
*X156
 10
0.0
 20
0.0
 30
0.0
  0
INSERT
  5
53A
330
1F
100
AcDbEntity
  8
LC-003-005-----0
 62
     7
370
    25
100
AcDbBlockReference
  2
*X257
 10
0.0
 20
0.0
 30
0.0
  0
INSERT
  5
558
330
1F
100
AcDbEntity
  8
LC-003-005-----0
 62
     7
370
    25
100
AcDbBlockReference
  2
*X358
 10
0.0
 20
0.0
 30
0.0
  0
INSERT
  5
576
330
1F
100
AcDbEntity
  8
LC-003-005-----0
 62
     7
370
    25
100
AcDbBlockReference
  2
*X459
 10
0.0
 20
0.0
 30
0.0
  0
INSERT
  5
594
330
1F
100
AcDbEntity
  8
LC-003-005-----0
 62
     7
370
    25
100
AcDbBlockReference
  2
*X560
 10
0.0
 20
0.0
 30
0.0
  0
LINE
  5
595
330
1F
100
AcDbEntity
  8
LC-002-002-----0
 62
     7
370
    50
100
AcDbLine
 10
280.747198
 20
331.273976
 30
0.0
 11
280.747198
 21
326.573976
 31
0.0
  0
LINE
  5
596
330
1F
100
AcDbEntity
  8
LC-002-002-----0
 62
     7
370
    50
100
AcDbLine
 10
290.747198
 20
331.273976
 30
0.0
 11
290.747198
 21
326.573976
 31
0.0
  0
INSERT
  5
5B4
330
1F
100
AcDbEntity
  8
LC-003-005-----0
 62
     7
370
    25
100
AcDbBlockReference
  2
*X661
 10
0.0
 20
0.0
 30
0.0
  0
LINE
  5
5B5
330
1F
100
AcDbEntity
  8
LC-002-002-----0
 62
     7
370
    50
100
AcDbLine
 10
300.747198
 20
331.273976
 30
0.0
 11
300.747198
 21
326.573976
 31
0.0
  0
INSERT
  5
5D7
330
1F
100
AcDbEntity
  8
LC-003-005-----0
 62
     7
370
    25
100
AcDbBlockReference
  2
*X762
 10
0.0
 20
0.0
 30
0.0
  0
LINE
  5
5D8
330
1F
100
AcDbEntity
  8
LC-002-002-----0
 62
     7
370
    50
100
AcDbLine
 10
310.747198
 20
328.765712
 30
0.0
 11
310.747198
 21
323.835788
 31
0.0
  0
LINE
  5
5D9
330
1F
100
AcDbEntity
  8
LC-002-002-----0
 62
     7
370
    50
100
AcDbLine
 10
320.747198
 20
325.12595
 30
0.0
 11
320.747198
 21
320.196086
 31
0.0
  0
LINE
  5
5DA
330
1F
100
AcDbEntity
  8
LC-002-002-----0
 62
     7
370
    50
100
AcDbLine
 10
330.747198
 20
322.523974
 30
0.0
 11
330.747198
 21
317.893975
 31
0.0
  0
INSERT
  5
5FC
330
1F
100
AcDbEntity
  8
LC-003-005-----0
 62
     7
370
    25
100
AcDbBlockReference
  2
*X863
 10
0.0
 20
0.0
 30
0.0
  0
LINE
  5
5FD
330
1F
100
AcDbEntity
  8
LC-002-002-----0
 62
     7
370
    50
100
AcDbLine
 10
670.747213
 20
331.273976
 30
0.0
 11
670.747213
 21
326.573976
 31
0.0
  0
LINE
  5
5FE
330
1F
100
AcDbEntity
  8
LC-002-002-----0
 62
     7
370
    50
100
AcDbLine
 10
660.747213
 20
331.273976
 30
0.0
 11
660.747213
 21
326.573976
 31
0.0
  0
LINE
  5
5FF
330
1F
100
AcDbEntity
  8
LC-002-002-----0
 62
     7
370
    50
100
AcDbLine
 10
650.747213
 20
331.273976
 30
0.0
 11
650.747213
 21
326.573976
 31
0.0
  0
LINE
  5
600
330
1F
100
AcDbEntity
  8
LC-002-002-----0
 62
     7
370
    50
100
AcDbLine
 10
640.747213
 20
331.273976
 30
0.0
 11
640.747213
 21
326.573976
 31
0.0
  0
LINE
  5
601
330
1F
100
AcDbEntity
  8
LC-002-002-----0
 62
     7
370
    50
100
AcDbLine
 10
630.747213
 20
331.273976
 30
0.0
 11
630.747213
 21
326.573976
 31
0.0
  0
LINE
  5
602
330
1F
100
AcDbEntity
  8
LC-002-002-----0
 62
     7
370
    50
100
AcDbLine
 10
620.747213
 20
331.273976
 30
0.0
 11
620.747213
 21
326.573976
 31
0.0
  0
LINE
  5
603
330
1F
100
AcDbEntity
  8
LC-002-002-----0
 62
     7
370
    50
100
AcDbLine
 10
610.747213
 20
331.273976
 30
0.0
 11
610.747213
 21
326.573976
 31
0.0
  0
LINE
  5
604
330
1F
100
AcDbEntity
  8
LC-002-002-----0
 62
     7
370
    50
100
AcDbLine
 10
600.747213
 20
331.273976
 30
0.0
 11
600.747213
 21
326.573976
 31
0.0
  0
LINE
  5
605
330
1F
100
AcDbEntity
  8
LC-002-002-----0
 62
     7
370
    50
100
AcDbLine
 10
590.747213
 20
331.273976
 30
0.0
 11
590.747213
 21
326.573976
 31
0.0
  0
INSERT
  5
623
330
1F
100
AcDbEntity
  8
LC-003-005-----0
 62
     7
370
    25
100
AcDbBlockReference
  2
*X964
 10
0.0
 20
0.0
 30
0.0
  0
INSERT
  5
641
330
1F
100
AcDbEntity
  8
LC-003-005-----0
 62
     7
370
    25
100
AcDbBlockReference
  2
*X1065
 10
0.0
 20
0.0
 30
0.0
  0
INSERT
  5
65F
330
1F
100
AcDbEntity
  8
LC-003-005-----0
 62
     7
370
    25
100
AcDbBlockReference
  2
*X1166
 10
0.0
 20
0.0
 30
0.0
  0
INSERT
  5
67D
330
1F
100
AcDbEntity
  8
LC-003-005-----0
 62
     7
370
    25
100
AcDbBlockReference
  2
*X1267
 10
0.0
 20
0.0
 30
0.0
  0
INSERT
  5
69B
330
1F
100
AcDbEntity
  8
LC-003-005-----0
 62
     7
370
    25
100
AcDbBlockReference
  2
*X1368
 10
0.0
 20
0.0
 30
0.0
  0
LINE
  5
69C
330
1F
100
AcDbEntity
  8
LC-002-002-----0
 62
     7
370
    50
100
AcDbLine
 10
580.747213
 20
331.273976
 30
0.0
 11
580.747213
 21
326.573976
 31
0.0
  0
LINE
  5
69D
330
1F
100
AcDbEntity
  8
LC-002-002-----0
 62
     7
370
    50
100
AcDbLine
 10
570.747213
 20
331.273976
 30
0.0
 11
570.747213
 21
326.573976
 31
0.0
  0
INSERT
  5
6BB
330
1F
100
AcDbEntity
  8
LC-003-005-----0
 62
     7
370
    25
100
AcDbBlockReference
  2
*X1469
 10
0.0
 20
0.0
 30
0.0
  0
LINE
  5
6BC
330
1F
100
AcDbEntity
  8
LC-002-002-----0
 62
     7
370
    50
100
AcDbLine
 10
560.747213
 20
331.273976
 30
0.0
 11
560.747213
 21
326.573976
 31
0.0
  0
INSERT
  5
6D5
330
1F
100
AcDbEntity
  8
LC-003-005-----0
 62
     7
370
    25
100
AcDbBlockReference
  2
*X1570
 10
0.0
 20
0.0
 30
0.0
  0
LINE
  5
6D6
330
1F
100
AcDbEntity
  8
LC-002-002-----0
 62
     7
370
    50
100
AcDbLine
 10
550.747213
 20
328.765712
 30
0.0
 11
550.747213
 21
323.835788
 31
0.0
  0
LINE
  5
6D7
330
1F
100
AcDbEntity
  8
LC-002-002-----0
 62
     7
370
    50
100
AcDbLine
 10
540.747213
 20
325.12595
 30
0.0
 11
540.747213
 21
320.196086
 31
0.0
  0
INSERT
  5
6F0
330
1F
100
AcDbEntity
  8
LC-003-005-----0
 62
     7
370
    25
100
AcDbBlockReference
  2
*X1671
 10
0.0
 20
0.0
 30
0.0
  0
LINE
  5
6F1
330
1F
100
AcDbEntity
  8
LC-002-002-----0
 62
     7
370
    50
100
AcDbLine
 10
530.747213
 20
322.523974
 30
0.0
 11
530.747213
 21
317.893975
 31
0.0
  0
DIMENSION
  5
6F5
330
1F
100
AcDbEntity
  8
LC-004-003-----0
 62
     7
370
    25
100
AcDbDimension
  2
*D72
 10
680.747198
 20
471.509976
 30
0.0
 11
442.707445
 21
502.309976
 31
0.0
 70
   160
 71
     5
 42
500.0
  3
LC-DIM-L-0140-02-02
100
AcDbAlignedDimension
 13
180.747198
 23
326.573981
 33
0.0
 14
680.747198
 24
326.573981
 34
0.0
100
AcDbRotatedDimension
  0
DIMENSION
  5
703
330
1F
100
AcDbEntity
  8
LC-004-003-----0
 62
     7
370
    25
100
AcDbDimension
  2
*D73
 10
607.747199
 20
423.395976
 30
0.0
 11
427.799138
 21
454.195976
 31
0.0
 70
   160
  1
%%c<>
 71
     5
 42
354.000002
  3
LC-DIM-L-0140-02-02
100
AcDbAlignedDimension
 13
253.747197
 23
323.573975
 33
0.0
 14
607.747199
 24
323.573975
 34
0.0
100
AcDbRotatedDimension
  0
DIMENSION
  5
710
330
1F
100
AcDbEntity
  8
LC-004-003-----0
 62
     7
370
    25
100
AcDbDimension
  2
*D74
 10
235.456839
 20
224.573973
 30
0.0
 11
204.656839
 21
274.249971
 31
0.0
 70
   160
 71
     5
 42
102.000007
 53
90.0
  3
LC-DIM-L-0140-02-02
100
AcDbAlignedDimension
 13
180.747198
 23
326.573981
 33
0.0
 14
361.528486
 24
224.573973
 34
0.0
 50
90.0
100
AcDbRotatedDimension
  0
DIMENSION
  5
71D
330
1F
100
AcDbEntity
  8
LC-004-003-----0
 62
     7
370
    25
100
AcDbDimension
  2
*D75
 10
510.747196
 20
57.491976
 30
0.0
 11
424.604501
 21
88.291976
 31
0.0
 70
   160
  1
%%c<>
 71
     5
 42
159.999996
  3
LC-DIM-L-0140-02-02
100
AcDbAlignedDimension
 13
350.747199
 23
234.573973
 33
0.0
 14
510.747196
 24
234.573973
 34
0.0
100
AcDbRotatedDimension
  0
DIMENSION
  5
72A
330
1F
100
AcDbEntity
  8
LC-004-003-----0
 62
     7
370
    25
100
AcDbDimension
  2
*D76
 10
295.754135
 20
158.573978
 30
0.0
 11
264.954135
 21
188.765976
 31
0.0
 70
   160
 71
     5
 42
65.999999
 53
90.0
  3
LC-DIM-L-0140-02-02
100
AcDbAlignedDimension
 13
358.747205
 23
224.573977
 33
0.0
 14
369.452977
 24
158.573978
 34
0.0
 50
90.0
100
AcDbRotatedDimension
  0
DIMENSION
  5
737
330
1F
100
AcDbEntity
  8
LC-004-003-----0
 62
     7
370
    25
100
AcDbDimension
  2
*D77
 10
493.247205
 20
105.605976
 30
0.0
 11
427.799138
 21
136.405976
 31
0.0
 70
   160
  1
DN125
 71
     5
 42
125.0
  3
LC-DIM-L-0140-02-02
100
AcDbAlignedDimension
 13
368.247205
 23
163.073976
 33
0.0
 14
493.247205
 24
163.073976
 34
0.0
100
AcDbRotatedDimension
  0
ENDSEC
  0
SECTION
  2
OBJECTS
  0
DICTIONARY
  5
C
330
0
100
AcDbDictionary
281
     1
  3
ACAD_GROUP
350
D
  3
ACAD_LAYOUT
350
1A
  3
ACAD_MLINESTYLE
350
17
  3
ACAD_PLOTSETTINGS
350
19
  3
ACAD_PLOTSTYLENAME
350
E
  0
DICTIONARY
  5
D
102
{ACAD_REACTORS
330
C
102
}
330
C
100
AcDbDictionary
281
     1
  0
DICTIONARY
  5
1A
102
{ACAD_REACTORS
330
C
102
}
330
C
100
AcDbDictionary
281
     1
  3
Layout1
350
1E
  3
Layout2
350
26
  3
Model
350
22
  0
DICTIONARY
  5
17
102
{ACAD_REACTORS
330
C
102
}
330
C
100
AcDbDictionary
281
     1
  3
Standard
350
18
  0
DICTIONARY
  5
19
102
{ACAD_REACTORS
330
C
102
}
330
C
100
AcDbDictionary
281
     1
  0
ACDBDICTIONARYWDFLT
  5
E
102
{ACAD_REACTORS
330
C
102
}
330
C
100
AcDbDictionary
281
     1
  3
Normal
350
F
100
AcDbDictionaryWithDefault
340
F
  0
LAYOUT
  5
1E
102
{ACAD_REACTORS
330
1A
102
}
330
1A
100
AcDbPlotSettings
  1

  2

  4

  6

 40
0.0
 41
0.0
 42
0.0
 43
0.0
 44
0.0
 45
0.0
 46
0.0
 47
0.0
 48
0.0
 49
0.0
140
0.0
141
0.0
142
1.0
143
1.0
 70
   688
 72
     0
 73
     0
 74
     5
  7

 75
    16
147
1.0
148
0.0
149
0.0
100
AcDbLayout
  1
Layout1
 70
     1
 71
     1
 10
19.512808
 20
11.753976
 11
859.512808
 21
605.753976
 12
0.0
 22
0.0
 32
0.0
 14
19.512808
 24
11.753976
 34
0.0
 15
859.512808
 25
605.753976
 35
0.0
146
0.0
 13
0.0
 23
0.0
 33
0.0
 16
1.0
 26
0.0
 36
0.0
 17
0.0
 27
1.0
 37
0.0
 76
     0
330
1B
  0
LAYOUT
  5
26
102
{ACAD_REACTORS
330
1A
102
}
330
1A
100
AcDbPlotSettings
  1

  2

  4

  6

 40
0.0
 41
0.0
 42
0.0
 43
0.0
 44
0.0
 45
0.0
 46
0.0
 47
0.0
 48
0.0
 49
0.0
140
0.0
141
0.0
142
1.0
143
1.0
 70
   688
 72
     0
 73
     0
 74
     5
  7

 75
    16
147
1.0
148
0.0
149
0.0
100
AcDbLayout
  1
Layout2
 70
     1
 71
     2
 10
0.0
 20
0.0
 11
0.0
 21
0.0
 12
0.0
 22
0.0
 32
0.0
 14
0.0
 24
0.0
 34
0.0
 15
0.0
 25
0.0
 35
0.0
146
0.0
 13
0.0
 23
0.0
 33
0.0
 16
1.0
 26
0.0
 36
0.0
 17
0.0
 27
1.0
 37
0.0
 76
     0
330
23
  0
LAYOUT
  5
22
102
{ACAD_REACTORS
330
1A
102
}
330
1A
100
AcDbPlotSettings
  1

  2

  4

  6

 40
0.0
 41
0.0
 42
0.0
 43
0.0
 44
0.0
 45
0.0
 46
0.0
 47
0.0
 48
0.0
 49
0.0
140
0.0
141
0.0
142
1.0
143
1.0
 70
  1776
 72
     0
 73
     0
 74
     0
  7

 75
     0
147
1.0
148
0.0
149
0.0
100
AcDbLayout
  1
Model
 70
     1
 71
     0
 10
19.512808
 20
11.753976
 11
859.512808
 21
605.753976
 12
19.512808
 22
11.753976
 32
0.0
 14
19.512808
 24
11.753976
 34
0.0
 15
859.512808
 25
605.753976
 35
0.0
146
0.0
 13
0.0
 23
0.0
 33
0.0
 16
1.0
 26
0.0
 36
0.0
 17
0.0
 27
1.0
 37
0.0
 76
     0
330
1F
  0
MLINESTYLE
  5
18
102
{ACAD_REACTORS
330
17
102
}
330
17
100
AcDbMlineStyle
  2
Standard
 70
     0
  3

 62
   256
 51
90.0
 52
90.0
 71
     2
 49
0.5
 62
   256
  6
BYLAYER
 49
-0.5
 62
   256
  6
BYLAYER
  0
ACDBPLACEHOLDER
  5
F
102
{ACAD_REACTORS
330
E
102
}
330
E
  0
ENDSEC
  0
EOF
