  0
SECTION
  2
HEADER
  9
$ACADVER
  1
AC1009
  9
$INSBASE
 10
0.0
 20
0.0
 30
0.0
  9
$EXTMIN
 10
-210.0
 20
-148.5
 30
0.0
  9
$EXTMAX
 10
630.0
 20
445.5
 30
0.0
  9
$LIMMIN
 10
-210.0
 20
-148.5
  9
$LIMMAX
 10
630.0
 20
445.5
  9
$ORTHOMODE
 70
     0
  9
$REGENMODE
 70
     1
  9
$FILLMODE
 70
     1
  9
$QTEXTMODE
 70
     0
  9
$MIRRTEXT
 70
     1
  9
$DRAGMODE
 70
     2
  9
$LTSCALE
 40
2.0
  9
$OSMODE
 70
     0
  9
$ATTMODE
 70
     1
  9
$TEXTSIZE
 40
0.2
  9
$TRACEWID
 40
0.05
  9
$TEXTSTYLE
  7
STANDARD
  9
$CLAYER
  8
0
  9
$CELTYPE
  6
BYLAYER
  9
$CECOLOR
 62
     7
  9
$DIMSCALE
 40
2.0
  9
$DIMASZ
 40
3.5
  9
$DIMEXO
 40
0.0625
  9
$DIMDLI
 40
0.38
  9
$DIMRND
 40
0.0
  9
$DIMDLE
 40
0.0
  9
$DIMEXE
 40
0.18
  9
$DIMTP
 40
0.0
  9
$DIMTM
 40
0.0
  9
$DIMTXT
 40
3.5
  9
$DIMCEN
 40
0.09
  9
$DIMTSZ
 40
0.0
  9
$DIMTOL
 70
     0
  9
$DIMLIM
 70
     0
  9
$DIMTIH
 70
     1
  9
$DIMTOH
 70
     1
  9
$DIMSE1
 70
     0
  9
$DIMSE2
 70
     0
  9
$DIMTAD
 70
     1
  9
$DIMZIN
 70
     0
  9
$DIMBLK
  1

  9
$DIMASO
 70
     1
  9
$DIMSHO
 70
     1
  9
$DIMPOST
  1

  9
$DIMAPOST
  1

  9
$DIMALT
 70
     0
  9
$DIMALTD
 70
     2
  9
$DIMALTF
 40
25.4
  9
$DIMLFAC
 40
1.0
  9
$DIMTOFL
 70
     0
  9
$DIMTVP
 40
0.0
  9
$DIMTIX
 70
     0
  9
$DIMSOXD
 70
     0
  9
$DIMSAH
 70
     0
  9
$DIMBLK1
  1

  9
$DIMBLK2
  1

  9
$DIMSTYLE
  2
STANDARD
  9
$DIMCLRD
 70
     0
  9
$DIMCLRE
 70
     0
  9
$DIMCLRT
 70
     0
  9
$DIMTFAC
 40
1.0
  9
$DIMGAP
 40
0.09
  9
$LUNITS
 70
     2
  9
$LUPREC
 70
     2
  9
$AXISMODE
 70
     0
  9
$AXISUNIT
 10
0.0
 20
0.0
  9
$SKETCHINC
 40
0.1
  9
$FILLETRAD
 40
0.0
  9
$AUNITS
 70
     0
  9
$AUPREC
 70
     0
  9
$MENU
  1
acad
  9
$ELEVATION
 40
0.0
  9
$PELEVATION
 40
0.0
  9
$THICKNESS
 40
0.0
  9
$LIMCHECK
 70
     0
  9
$BLIPMODE
 70
     1
  9
$CHAMFERA
 40
0.0
  9
$CHAMFERB
 40
0.0
  9
$SKPOLY
 70
     0
  9
$TDCREATE
 40
0.000000000
  9
$TDUPDATE
 40
0.000000000
  9
$TDINDWG
 40
0.0000000000
  9
$TDUSRTIMER
 40
0.0000000000
  9
$USRTIMER
 70
     1
  9
$ANGBASE
 50
0.0
  9
$ANGDIR
 70
     0
  9
$PDMODE
 70
     0
  9
$PDSIZE
 40
0.0
  9
$PLINEWID
 40
0.0
  9
$COORDS
 70
     0
  9
$SPLFRAME
 70
     0
  9
$SPLINETYPE
 70
     6
  9
$SPLINESEGS
 70
     8
  9
$ATTDIA
 70
     0
  9
$ATTREQ
 70
     1
  9
$HANDLING
 70
     1
  9
$HANDSEED
  5
12D
  9
$SURFTAB1
 70
     6
  9
$SURFTAB2
 70
     6
  9
$SURFTYPE
 70
     6
  9
$SURFU
 70
     6
  9
$SURFV
 70
     6
  9
$UCSNAME
  2

  9
$UCSORG
 10
0.0
 20
0.0
 30
0.0
  9
$UCSXDIR
 10
1.0
 20
0.0
 30
0.0
  9
$UCSYDIR
 10
0.0
 20
1.0
 30
0.0
  9
$PUCSNAME
  2

  9
$PUCSORG
 10
0.0
 20
0.0
 30
0.0
  9
$PUCSXDIR
 10
1.0
 20
0.0
 30
0.0
  9
$PUCSYDIR
 10
0.0
 20
1.0
 30
0.0
  9
$USERI1
 70
     0
  9
$USERI2
 70
     0
  9
$USERI3
 70
     0
  9
$USERI4
 70
     0
  9
$USERI5
 70
     0
  9
$USERR1
 40
0.0
  9
$USERR2
 40
0.0
  9
$USERR3
 40
0.0
  9
$USERR4
 40
0.0
  9
$USERR5
 40
0.0
  9
$WORLDVIEW
 70
     1
  9
$SHADEDGE
 70
     3
  9
$SHADEDIF
 70
    70
  9
$TILEMODE
 70
     1
  9
$MAXACTVP
 70
    16
  9
$PINSBASE
 10
0.0
 20
0.0
 30
0.0
  9
$PLIMCHECK
 70
     0
  9
$PEXTMIN
 10
1.000000E+20
 20
1.000000E+20
 30
1.000000E+20
  9
$PEXTMAX
 10
-1.000000E+20
 20
-1.000000E+20
 30
-1.000000E+20
  9
$PLIMMIN
 10
-210.0
 20
-148.5
  9
$PLIMMAX
 10
630.0
 20
445.5
  9
$UNITMODE
 70
     0
  9
$VISRETAIN
 70
     0
  9
$PLINEGEN
 70
     1
  9
$PSLTSCALE
 70
     0
  9
$TREEDEPTH
 70
  3020
  9
$DWGCODEPAGE
  3
dos850
  0
ENDSEC
  0
SECTION
  2
TABLES
  0
TABLE
  2
VPORT
 70
     1
  0
VPORT
  2
*ACTIVE
 70
     0
 10
0.0
 20
0.0
 11
1.0
 21
1.0
 12
420.0
 22
297.0
 13
0.0
 23
0.0
 14
1.0
 24
1.0
 15
0.0
 25
0.0
 16
0.0
 26
0.0
 36
1.0
 17
-210.0
 27
-148.5
 37
0.0
 40
594.0
 41
1.604229
 42
50.0
 43
0.0
 44
0.0
 50
0.0
 51
0.0
 71
     0
 72
   100
 73
     1
 74
     1
 75
     0
 76
     0
 77
     0
 78
     0
  0
ENDTAB
  0
TABLE
  2
LTYPE
 70
     3
  0
LTYPE
  2
CONTINUOUS
 70
    64
  3
Solid line
 72
    65
 73
     0
 40
0.0
  0
LTYPE
  2
DASHED
 70
    64
  3
__ __ __ __ __
 72
    65
 73
     2
 40
6.25
 49
5.0
 49
-1.25
  0
LTYPE
  2
DASHDOT
 70
    64
  3
__ . __ . __ . __ . __
 72
    65
 73
     4
 40
7.5
 49
5.0
 49
-1.25
 49
0.0
 49
-1.25
  0
ENDTAB
  0
TABLE
  2
LAYER
 70
    10
  0
LAYER
  2
0
 70
     0
 62
     7
  6
CONTINUOUS
  0
LAYER
  2
LC-INFO-1-2-MM-A3-0
 70
     1
 62
    -1
  6
CONTINUOUS
  0
LAYER
  2
LC-001-005-----0
 70
     0
 62
     2
  6
CONTINUOUS
  0
LAYER
  2
LC-006-003-MTH-0
 70
     0
 62
     2
  6
CONTINUOUS
  0
LAYER
  2
LC-007-003-MTG-0
 70
     0
 62
     2
  6
CONTINUOUS
  0
LAYER
  2
LC-005-003-----0
 70
     0
 62
     2
  6
CONTINUOUS
  0
LAYER
  2
LC-004-000-----0
 70
     0
 62
     7
  6
CONTINUOUS
  0
LAYER
  2
LC-002-002-----0
 70
     0
 62
     1
  6
CONTINUOUS
  0
LAYER
  2
LC-003-002-RND-0
 70
     0
 62
     1
  6
CONTINUOUS
  0
LAYER
  2
LC-000
 70
     0
 62
     7
  6
CONTINUOUS
  0
ENDTAB
  0
TABLE
  2
STYLE
 70
     4
  0
STYLE
  2
STANDARD
 70
     0
 40
0.0
 41
1.0
 50
0.0
 71
     0
 42
0.0
  3
txt
  4

  0
STYLE
  2
LC-STANDARD
 70
    64
 40
0.0
 41
1.0
 50
0.0
 71
     0
 42
3.5
  3
MONOTXT
  4

  0
STYLE
  2
LC-TXTSTYLE-150-400-0-0-A2
 70
    64
 40
0.0
 41
1.0
 50
15.0
 71
     0
 42
3.5
  3
MONOTXT
  4

  0
STYLE
  2
LC-TXTSTYLE-150-400-0-0-D3
 70
    64
 40
0.0
 41
1.0
 50
15.0
 71
     0
 42
3.5
  3
LC-STANDARD
  4

  0
ENDTAB
  0
TABLE
  2
VIEW
 70
     0
  0
ENDTAB
  0
TABLE
  2
UCS
 70
     0
  0
ENDTAB
  0
TABLE
  2
APPID
 70
     1
  0
APPID
  2
ACAD
 70
     0
  0
ENDTAB
  0
TABLE
  2
DIMSTYLE
 70
     3
  0
DIMSTYLE
  2
STANDARD
 70
     0
  3

  4

  5

  6

  7

 40
1.0
 41
0.18
 42
0.0625
 43
0.38
 44
0.18
 45
0.0
 46
0.0
 47
0.0
 48
0.0
 71
     0
 72
     0
 73
     1
 74
     1
 75
     0
 76
     0
 77
     0
 78
     0
140
0.18
141
0.09
142
0.0
143
25.4
144
1.0
145
0.0
146
1.0
147
0.09
170
     0
171
     2
172
     0
173
     0
174
     0
175
     0
176
     0
177
     0
178
     0
  0
DIMSTYLE
  2
LC-STANDARD
 70
     0
  3

  4

  5

  6

  7

 40
1.0
 41
3.5
 42
0.0
 43
7.5
 44
1.8
 45
0.0
 46
0.0
 47
0.0
 48
0.0
 71
     0
 72
     0
 73
     0
 74
     0
 75
     0
 76
     0
 77
     1
 78
     8
140
3.5
141
0.0
142
0.0
143
25.4
144
1.0
145
0.0
146
0.71
147
1.5
170
     0
171
     2
172
     1
173
     0
174
     0
175
     0
176
     0
177
     0
178
     3
  0
DIMSTYLE
  2
LC-DIM-L-0140-02-02
 70
     0
  3

  4

  5

  6

  7

 40
2.0
 41
3.5
 42
0.0
 43
7.5
 44
1.8
 45
0.0
 46
0.0
 47
0.0
 48
0.0
 71
     0
 72
     0
 73
     0
 74
     0
 75
     0
 76
     0
 77
     1
 78
     8
140
14.0
141
0.0
142
0.0
143
25.4
144
1.0
145
0.0
146
0.71
147
1.5
170
     0
171
     2
172
     0
173
     0
174
     0
175
     0
176
     2
177
     2
178
     8
  0
ENDTAB
  0
ENDSEC
  0
SECTION
  2
BLOCKS
  0
BLOCK
  8
0
  5
23
  2
*X0
 70
    65
 10
236.363196
 20
143.221002
 30
0.0
  3
*X0
  0
LINE
  8
LC-001-005-----0
  6
CONTINUOUS
  5
25
 10
264.642595
 20
159.621473
 30
0.0
 11
263.741277
 21
160.522791
 31
0.0
  0
LINE
  8
LC-001-005-----0
  6
DASHED
  5
27
 10
263.142595
 20
149.807765
 30
0.0
 11
259.109821
 21
153.84054
 31
0.0
  0
LINE
  8
LC-001-005-----0
  6
DASHED
  5
28
 10
261.190431
 20
146.103075
 30
0.0
 11
261.087864
 21
146.205642
 31
0.0
  0
ENDBLK
  8
0
  5
29
  0
BLOCK
  8
0
  5
2B
  2
*X1
 70
    65
 10
248.663302
 20
145.572791
 30
0.0
  3
*X1
  0
LINE
  8
LC-001-005-----0
  6
DASHED
  5
2C
 10
259.663302
 20
164.600767
 30
0.0
 11
257.163302
 21
167.100767
 31
0.0
  0
LINE
  8
LC-001-005-----0
  6
DASHED
  5
2D
 10
256.880069
 20
167.384
 30
0.0
 11
254.380069
 21
169.884
 31
0.0
  0
LINE
  8
LC-001-005-----0
  6
DASHED
  5
2E
 10
258.36285
 20
163.072791
 30
0.0
 11
257.163302
 21
164.272339
 31
0.0
  0
LINE
  8
LC-001-005-----0
  6
DASHED
  5
2F
 10
254.646712
 20
166.78893
 30
0.0
 11
251.553646
 21
169.881995
 31
0.0
  0
LINE
  8
LC-001-005-----0
  6
CONTINUOUS
  5
30
 10
254.646712
 20
161.132075
 30
0.0
 11
248.671615
 21
167.107173
 31
0.0
  0
LINE
  8
LC-001-005-----0
  6
CONTINUOUS
  5
31
 10
254.646712
 20
158.303648
 30
0.0
 11
249.646712
 21
163.303648
 31
0.0
  0
LINE
  8
LC-001-005-----0
  6
DASHED
  5
32
 10
254.646712
 20
152.646794
 30
0.0
 11
249.646712
 21
157.646794
 31
0.0
  0
LINE
  8
LC-001-005-----0
  6
DASHED
  5
33
 10
254.646712
 20
149.818367
 30
0.0
 11
249.646712
 21
154.818367
 31
0.0
  0
LINE
  8
LC-001-005-----0
  6
CONTINUOUS
  5
34
 10
251.92187
 20
146.886355
 30
0.0
 11
249.646712
 21
149.161513
 31
0.0
  0
LINE
  8
LC-001-005-----0
  6
CONTINUOUS
  5
35
 10
250.128719
 20
145.851078
 30
0.0
 11
249.646712
 21
146.333086
 31
0.0
  0
ENDBLK
  8
0
  5
36
  0
BLOCK
  8
0
  5
38
  2
*X2
 70
    65
 10
249.646712
 20
134.572791
 30
0.0
  3
*X2
  0
LINE
  8
LC-001-005-----0
  6
CONTINUOUS
  5
39
 10
249.646712
 20
136.509627
 30
0.0
 11
251.646712
 21
138.509627
 31
0.0
  0
LINE
  8
LC-001-005-----0
  6
CONTINUOUS
  5
3A
 10
252.259876
 20
139.122791
 30
0.0
 11
253.696712
 21
140.559627
 31
0.0
  0
LINE
  8
LC-001-005-----0
  6
CONTINUOUS
  5
3B
 10
259.24016
 20
146.103075
 30
0.0
 11
261.646712
 21
148.509627
 31
0.0
  0
LINE
  8
LC-001-005-----0
  6
CONTINUOUS
  5
3C
 10
249.646712
 20
142.166481
 30
0.0
 11
251.646712
 21
144.166481
 31
0.0
  0
LINE
  8
LC-001-005-----0
  6
CONTINUOUS
  5
3D
 10
253.583305
 20
146.103075
 30
0.0
 11
259.880877
 21
152.400646
 31
0.0
  0
LINE
  8
LC-001-005-----0
  6
CONTINUOUS
  5
3E
 10
268.003022
 20
160.522791
 30
0.0
 11
268.690915
 21
161.210684
 31
0.0
  0
LINE
  8
LC-001-005-----0
  6
CONTINUOUS
  5
3F
 10
254.646712
 20
152.823335
 30
0.0
 11
257.908081
 21
156.084704
 31
0.0
  0
LINE
  8
LC-001-005-----0
  6
CONTINUOUS
  5
40
 10
262.346168
 20
160.522791
 30
0.0
 11
264.896168
 21
163.072791
 31
0.0
  0
LINE
  8
LC-001-005-----0
  6
CONTINUOUS
  5
41
 10
254.646712
 20
158.48019
 30
0.0
 11
259.239314
 21
163.072791
 31
0.0
  0
LINE
  8
LC-001-005-----0
  6
CONTINUOUS
  5
42
 10
254.646712
 20
164.137044
 30
0.0
 11
257.163302
 21
166.653634
 31
0.0
  0
ENDBLK
  8
0
  5
43
  0
BLOCK
  8
0
  5
45
  2
*X3
 70
    65
 10
93.623302
 20
145.572791
 30
0.0
  3
*X3
  0
LINE
  8
LC-001-005-----0
  6
CONTINUOUS
  5
46
 10
104.623223
 20
166.905781
 30
0.0
 11
101.645083
 21
169.883921
 31
0.0
  0
LINE
  8
LC-001-005-----0
  6
DASHED
  5
47
 10
103.639892
 20
162.232257
 30
0.0
 11
98.639892
 21
167.232257
 31
0.0
  0
LINE
  8
LC-001-005-----0
  6
DASHED
  5
48
 10
98.48815
 20
167.384
 30
0.0
 11
95.98815
 21
169.884
 31
0.0
  0
LINE
  8
LC-001-005-----0
  6
DASHED
  5
49
 10
103.639892
 20
159.40383
 30
0.0
 11
98.639892
 21
164.40383
 31
0.0
  0
LINE
  8
LC-001-005-----0
  6
DASHED
  5
4A
 10
96.123302
 20
166.92042
 30
0.0
 11
93.996423
 21
169.047299
 31
0.0
  0
LINE
  8
LC-001-005-----0
  6
CONTINUOUS
  5
4B
 10
103.639892
 20
153.746976
 30
0.0
 11
98.639892
 21
158.746976
 31
0.0
  0
LINE
  8
LC-001-005-----0
  6
CONTINUOUS
  5
4C
 10
94.314077
 20
163.072791
 30
0.0
 11
93.623302
 21
163.763566
 31
0.0
  0
LINE
  8
LC-001-005-----0
  6
CONTINUOUS
  5
4D
 10
103.639892
 20
150.918549
 30
0.0
 11
98.639892
 21
155.918549
 31
0.0
  0
LINE
  8
LC-001-005-----0
  6
DASHED
  5
4E
 10
102.903829
 20
145.997758
 30
0.0
 11
98.639892
 21
150.261695
 31
0.0
  0
ENDBLK
  8
0
  5
4F
  0
BLOCK
  8
0
  5
51
  2
*X4
 70
    65
 10
84.595689
 20
134.572791
 30
0.0
  3
*X4
  0
LINE
  8
LC-001-005-----0
  6
CONTINUOUS
  5
52
 10
100.631666
 20
134.572791
 30
0.0
 11
103.639892
 21
137.581018
 31
0.0
  0
LINE
  8
LC-001-005-----0
  6
CONTINUOUS
  5
53
 10
99.850994
 20
139.448974
 30
0.0
 11
103.639892
 21
143.237872
 31
0.0
  0
LINE
  8
LC-001-005-----0
  6
CONTINUOUS
  5
54
 10
100.744067
 20
145.998901
 30
0.0
 11
101.53387
 21
146.788704
 31
0.0
  0
LINE
  8
LC-001-005-----0
  6
CONTINUOUS
  5
55
 10
95.191386
 20
146.103075
 30
0.0
 11
98.639892
 21
149.551581
 31
0.0
  0
LINE
  8
LC-001-005-----0
  6
CONTINUOUS
  5
56
 10
91.639892
 20
148.208435
 30
0.0
 11
98.639892
 21
155.208435
 31
0.0
  0
LINE
  8
LC-001-005-----0
  6
CONTINUOUS
  5
57
 10
95.639892
 20
157.865289
 30
0.0
 11
98.639892
 21
160.865289
 31
0.0
  0
LINE
  8
LC-001-005-----0
  6
CONTINUOUS
  5
58
 10
92.64054
 20
160.522791
 30
0.0
 11
95.19054
 21
163.072791
 31
0.0
  0
LINE
  8
LC-001-005-----0
  6
CONTINUOUS
  5
59
 10
96.123302
 20
164.005553
 30
0.0
 11
98.639892
 21
166.522143
 31
0.0
  0
LINE
  8
LC-001-005-----0
  6
CONTINUOUS
  5
5A
 10
86.983686
 20
160.522791
 30
0.0
 11
89.533686
 21
163.072791
 31
0.0
  0
ENDBLK
  8
0
  5
5B
  0
BLOCK
  8
0
  5
5D
  2
*X5
 70
    65
 10
88.644009
 20
143.221002
 30
0.0
  3
*X5
  0
LINE
  8
LC-001-005-----0
  6
CONTINUOUS
  5
5E
 10
95.639892
 20
158.918549
 30
0.0
 11
94.03565
 21
160.522791
 31
0.0
  0
LINE
  8
LC-001-005-----0
  6
DASHED
  5
5F
 10
92.512369
 20
150.732363
 30
0.0
 11
88.989174
 21
154.255559
 31
0.0
  0
LINE
  8
LC-001-005-----0
  6
DASHED
  5
60
 10
91.484804
 20
146.103075
 30
0.0
 11
90.144009
 21
147.443869
 31
0.0
  0
ENDBLK
  8
0
  5
61
  0
BLOCK
  8
0
  5
63
  2
BLK1
 70
    64
 10
0.0
 20
0.0
 30
0.0
  3
BLK1
  0
ENDBLK
  8
0
  5
64
  0
BLOCK
  8
0
  5
66
  2
BLK2
 70
    64
 10
0.0
 20
0.0
 30
0.0
  3
BLK2
  0
ENDBLK
  8
0
  5
67
  0
BLOCK
  8
0
  5
69
  2
BLK3
 70
    64
 10
0.0
 20
0.0
 30
0.0
  3
BLK3
  0
ENDBLK
  8
0
  5
6A
  0
BLOCK
  8
0
  5
6C
  2
BLK4
 70
    64
 10
0.0
 20
0.0
 30
0.0
  3
BLK4
  0
ENDBLK
  8
0
  5
6D
  0
BLOCK
  8
0
  5
6F
  2
BLK5
 70
    64
 10
0.0
 20
0.0
 30
0.0
  3
BLK5
  0
ENDBLK
  8
0
  5
70
  0
BLOCK
  8
0
  5
72
  2
*D11
 70
    65
 10
0.0
 20
0.0
 30
0.0
  3
*D11
  0
LINE
  8
LC-006-003-MTH-0
  6
CONTINUOUS
  5
74
 10
84.595689
 20
163.072791
 30
0.0
 11
84.595689
 21
252.0
 31
0.0
  0
LINE
  8
LC-006-003-MTH-0
  6
CONTINUOUS
  5
75
 10
268.690915
 20
163.072791
 30
0.0
 11
268.690915
 21
252.0
 31
0.0
  0
LINE
  8
LC-007-003-MTG-0
  6
CONTINUOUS
  5
77
 10
84.595689
 20
235.2
 30
0.0
 11
268.690915
 21
235.2
 31
0.0
  0
LINE
  8
LC-005-003-----0
  6
CONTINUOUS
  5
79
 10
112.356145
 20
238.854733
 30
0.0
 11
84.595689
 21
235.2
 31
0.0
  0
LINE
  8
LC-005-003-----0
  6
CONTINUOUS
  5
7A
 10
84.595689
 20
235.2
 30
0.0
 11
112.356145
 21
231.545267
 31
0.0
  0
LINE
  8
LC-005-003-----0
  6
CONTINUOUS
  5
7B
 10
112.356145
 20
231.545267
 30
0.0
 11
112.356145
 21
238.854733
 31
0.0
  0
LINE
  8
LC-005-003-----0
  6
CONTINUOUS
  5
7C
 10
112.418427
 20
237.904503
 30
0.0
 11
91.875689
 21
235.2
 31
0.0
  0
LINE
  8
LC-005-003-----0
  6
CONTINUOUS
  5
7D
 10
91.875689
 20
235.2
 30
0.0
 11
112.418427
 21
232.495497
 31
0.0
  0
LINE
  8
LC-005-003-----0
  6
CONTINUOUS
  5
7E
 10
112.480708
 20
236.954272
 30
0.0
 11
99.155689
 21
235.2
 31
0.0
  0
LINE
  8
LC-005-003-----0
  6
CONTINUOUS
  5
7F
 10
99.155689
 20
235.2
 30
0.0
 11
112.480708
 21
233.445728
 31
0.0
  0
LINE
  8
LC-005-003-----0
  6
CONTINUOUS
  5
80
 10
112.54299
 20
236.004041
 30
0.0
 11
106.435689
 21
235.2
 31
0.0
  0
LINE
  8
LC-005-003-----0
  6
CONTINUOUS
  5
81
 10
106.435689
 20
235.2
 30
0.0
 11
112.54299
 21
234.395959
 31
0.0
  0
LINE
  8
LC-005-003-----0
  6
CONTINUOUS
  5
82
 10
240.930459
 20
231.545267
 30
0.0
 11
268.690915
 21
235.2
 31
0.0
  0
LINE
  8
LC-005-003-----0
  6
CONTINUOUS
  5
83
 10
268.690915
 20
235.2
 30
0.0
 11
240.930459
 21
238.854733
 31
0.0
  0
LINE
  8
LC-005-003-----0
  6
CONTINUOUS
  5
84
 10
240.930459
 20
238.854733
 30
0.0
 11
240.930459
 21
231.545267
 31
0.0
  0
LINE
  8
LC-005-003-----0
  6
CONTINUOUS
  5
85
 10
240.868178
 20
232.495497
 30
0.0
 11
261.410915
 21
235.2
 31
0.0
  0
LINE
  8
LC-005-003-----0
  6
CONTINUOUS
  5
86
 10
261.410915
 20
235.2
 30
0.0
 11
240.868178
 21
237.904503
 31
0.0
  0
LINE
  8
LC-005-003-----0
  6
CONTINUOUS
  5
87
 10
240.805896
 20
233.445728
 30
0.0
 11
254.130915
 21
235.2
 31
0.0
  0
LINE
  8
LC-005-003-----0
  6
CONTINUOUS
  5
88
 10
254.130915
 20
235.2
 30
0.0
 11
240.805896
 21
236.954272
 31
0.0
  0
LINE
  8
LC-005-003-----0
  6
CONTINUOUS
  5
89
 10
240.743615
 20
234.395959
 30
0.0
 11
246.850915
 21
235.2
 31
0.0
  0
LINE
  8
LC-005-003-----0
  6
CONTINUOUS
  5
8A
 10
246.850915
 20
235.2
 30
0.0
 11
240.743615
 21
236.004041
 31
0.0
  0
TEXT
  8
LC-005-003-----0
  6
CONTINUOUS
 62
     8
  5
8C
 10
142.893824
 20
243.027554
 30
0.0
 40
28.0
  1
Ø184
 41
0.9
 51
15.0
  7
LC-TXTSTYLE-150-400-0-0-D0
 72
     1
 11
180.991462
 21
243.027554
 31
0.0
  0
ENDBLK
  8
0
  5
8D
  0
BLOCK
  8
0
  5
8F
  2
*D12
 70
    65
 10
0.0
 20
0.0
 30
0.0
  3
*D12
  0
LINE
  8
LC-006-003-MTH-0
  6
CONTINUOUS
  5
90
 10
252.696712
 20
134.572791
 30
0.0
 11
336.8
 21
134.572791
 31
0.0
  0
LINE
  8
LC-006-003-MTH-0
  6
CONTINUOUS
  5
91
 10
257.663302
 20
169.884
 30
0.0
 11
336.8
 21
169.884
 31
0.0
  0
LINE
  8
LC-005-003-----0
  6
CONTINUOUS
  5
92
 10
323.654733
 20
106.812335
 30
0.0
 11
320.0
 21
134.572791
 31
0.0
  0
LINE
  8
LC-005-003-----0
  6
CONTINUOUS
  5
93
 10
320.0
 20
134.572791
 30
0.0
 11
316.345267
 21
106.812335
 31
0.0
  0
LINE
  8
LC-005-003-----0
  6
CONTINUOUS
  5
94
 10
316.345267
 20
106.812335
 30
0.0
 11
323.654733
 21
106.812335
 31
0.0
  0
LINE
  8
LC-005-003-----0
  6
CONTINUOUS
  5
95
 10
322.704503
 20
106.750054
 30
0.0
 11
320.0
 21
127.292791
 31
0.0
  0
LINE
  8
LC-005-003-----0
  6
CONTINUOUS
  5
96
 10
320.0
 20
127.292791
 30
0.0
 11
317.295497
 21
106.750054
 31
0.0
  0
LINE
  8
LC-005-003-----0
  6
CONTINUOUS
  5
97
 10
321.754272
 20
106.687772
 30
0.0
 11
320.0
 21
120.012791
 31
0.0
  0
LINE
  8
LC-005-003-----0
  6
CONTINUOUS
  5
98
 10
320.0
 20
120.012791
 30
0.0
 11
318.245728
 21
106.687772
 31
0.0
  0
LINE
  8
LC-005-003-----0
  6
CONTINUOUS
  5
99
 10
320.804041
 20
106.625491
 30
0.0
 11
320.0
 21
112.732791
 31
0.0
  0
LINE
  8
LC-005-003-----0
  6
CONTINUOUS
  5
9A
 10
320.0
 20
112.732791
 30
0.0
 11
319.195959
 21
106.625491
 31
0.0
  0
LINE
  8
LC-005-003-----0
  6
CONTINUOUS
  5
9B
 10
316.345267
 20
197.644456
 30
0.0
 11
320.0
 21
169.884
 31
0.0
  0
LINE
  8
LC-005-003-----0
  6
CONTINUOUS
  5
9C
 10
320.0
 20
169.884
 30
0.0
 11
323.654733
 21
197.644456
 31
0.0
  0
LINE
  8
LC-005-003-----0
  6
CONTINUOUS
  5
9D
 10
323.654733
 20
197.644456
 30
0.0
 11
316.345267
 21
197.644456
 31
0.0
  0
LINE
  8
LC-005-003-----0
  6
CONTINUOUS
  5
9E
 10
317.295497
 20
197.706738
 30
0.0
 11
320.0
 21
177.164
 31
0.0
  0
LINE
  8
LC-005-003-----0
  6
CONTINUOUS
  5
9F
 10
320.0
 20
177.164
 30
0.0
 11
322.704503
 21
197.706738
 31
0.0
  0
LINE
  8
LC-005-003-----0
  6
CONTINUOUS
  5
A0
 10
318.245728
 20
197.769019
 30
0.0
 11
320.0
 21
184.444
 31
0.0
  0
LINE
  8
LC-005-003-----0
  6
CONTINUOUS
  5
A1
 10
320.0
 20
184.444
 30
0.0
 11
321.754272
 21
197.769019
 31
0.0
  0
LINE
  8
LC-005-003-----0
  6
CONTINUOUS
  5
A2
 10
319.195959
 20
197.8313
 30
0.0
 11
320.0
 21
191.724
 31
0.0
  0
LINE
  8
LC-005-003-----0
  6
CONTINUOUS
  5
A3
 10
320.0
 20
191.724
 30
0.0
 11
320.804041
 21
197.8313
 31
0.0
  0
LINE
  8
LC-007-003-MTG-0
  6
CONTINUOUS
  5
A4
 10
320.0
 20
95.372791
 30
0.0
 11
320.0
 21
253.2484
 31
0.0
  0
TEXT
  8
LC-005-003-----0
  6
CONTINUOUS
 62
     8
  5
A5
 10
312.172446
 20
212.31216
 30
0.0
 40
28.0
  1
35
 50
90.0
 51
15.0
  7
LC-TXTSTYLE-150-400-0-0-D0
  0
ENDBLK
  8
0
  5
A6
  0
BLOCK
  8
0
  5
A8
  2
*D13
 70
    65
 10
0.0
 20
0.0
 30
0.0
  3
*D13
  0
LINE
  8
LC-006-003-MTH-0
  6
CONTINUOUS
  5
A9
 10
104.623302
 20
166.884
 30
0.0
 11
104.623302
 21
212.8
 31
0.0
  0
LINE
  8
LC-006-003-MTH-0
  6
CONTINUOUS
  5
AA
 10
248.663302
 20
166.884
 30
0.0
 11
248.663302
 21
212.8
 31
0.0
  0
LINE
  8
LC-007-003-MTG-0
  6
CONTINUOUS
  5
AB
 10
104.623302
 20
196.0
 30
0.0
 11
248.663302
 21
196.0
 31
0.0
  0
LINE
  8
LC-005-003-----0
  6
CONTINUOUS
  5
AC
 10
132.383758
 20
199.654733
 30
0.0
 11
104.623302
 21
196.0
 31
0.0
  0
LINE
  8
LC-005-003-----0
  6
CONTINUOUS
  5
AD
 10
104.623302
 20
196.0
 30
0.0
 11
132.383758
 21
192.345267
 31
0.0
  0
LINE
  8
LC-005-003-----0
  6
CONTINUOUS
  5
AE
 10
132.383758
 20
192.345267
 30
0.0
 11
132.383758
 21
199.654733
 31
0.0
  0
LINE
  8
LC-005-003-----0
  6
CONTINUOUS
  5
AF
 10
132.44604
 20
198.704503
 30
0.0
 11
111.903302
 21
196.0
 31
0.0
  0
LINE
  8
LC-005-003-----0
  6
CONTINUOUS
  5
B0
 10
111.903302
 20
196.0
 30
0.0
 11
132.44604
 21
193.295497
 31
0.0
  0
LINE
  8
LC-005-003-----0
  6
CONTINUOUS
  5
B1
 10
132.508321
 20
197.754272
 30
0.0
 11
119.183302
 21
196.0
 31
0.0
  0
LINE
  8
LC-005-003-----0
  6
CONTINUOUS
  5
B2
 10
119.183302
 20
196.0
 30
0.0
 11
132.508321
 21
194.245728
 31
0.0
  0
LINE
  8
LC-005-003-----0
  6
CONTINUOUS
  5
B3
 10
132.570603
 20
196.804041
 30
0.0
 11
126.463302
 21
196.0
 31
0.0
  0
LINE
  8
LC-005-003-----0
  6
CONTINUOUS
  5
B4
 10
126.463302
 20
196.0
 30
0.0
 11
132.570603
 21
195.195959
 31
0.0
  0
LINE
  8
LC-005-003-----0
  6
CONTINUOUS
  5
B5
 10
220.902846
 20
192.345267
 30
0.0
 11
248.663302
 21
196.0
 31
0.0
  0
LINE
  8
LC-005-003-----0
  6
CONTINUOUS
  5
B6
 10
248.663302
 20
196.0
 30
0.0
 11
220.902846
 21
199.654733
 31
0.0
  0
LINE
  8
LC-005-003-----0
  6
CONTINUOUS
  5
B7
 10
220.902846
 20
199.654733
 30
0.0
 11
220.902846
 21
192.345267
 31
0.0
  0
LINE
  8
LC-005-003-----0
  6
CONTINUOUS
  5
B8
 10
220.840565
 20
193.295497
 30
0.0
 11
241.383302
 21
196.0
 31
0.0
  0
LINE
  8
LC-005-003-----0
  6
CONTINUOUS
  5
B9
 10
241.383302
 20
196.0
 30
0.0
 11
220.840565
 21
198.704503
 31
0.0
  0
LINE
  8
LC-005-003-----0
  6
CONTINUOUS
  5
BA
 10
220.778283
 20
194.245728
 30
0.0
 11
234.103302
 21
196.0
 31
0.0
  0
LINE
  8
LC-005-003-----0
  6
CONTINUOUS
  5
BB
 10
234.103302
 20
196.0
 30
0.0
 11
220.778283
 21
197.754272
 31
0.0
  0
LINE
  8
LC-005-003-----0
  6
CONTINUOUS
  5
BC
 10
220.716002
 20
195.195959
 30
0.0
 11
226.823302
 21
196.0
 31
0.0
  0
LINE
  8
LC-005-003-----0
  6
CONTINUOUS
  5
BD
 10
226.823302
 20
196.0
 30
0.0
 11
220.716002
 21
196.804041
 31
0.0
  0
TEXT
  8
LC-005-003-----0
  6
CONTINUOUS
 62
     8
  5
BE
 10
142.893824
 20
203.827554
 30
0.0
 40
28.0
  1
Ø145
 51
15.0
  7
LC-TXTSTYLE-150-400-0-0-D0
 72
     1
 11
180.991462
 21
203.827554
 31
0.0
  0
ENDBLK
  8
0
  5
BF
  0
ENDSEC
  0
SECTION
  2
ENTITIES
  0
VIEWPORT
  8
LC-000
  5
124
 67
     1
 68
     1
 10
420.0
 20
297.0
 30
0.0
 40
840.0
 41
594.0
 69
     1
1001
ACAD
1000
MVIEW
1002
{
1070
    16
1010
0.0
1020
0.0
1030
0.0
1010
0.0
1020
0.0
1030
1.0
1040
0.0
1040
594.0
1040
420.0
1040
297.0
1040
50.0
1040
0.0
1040
0.0
1070
     0
1070
   100
1070
     1
1070
     1
1070
     0
1070
     0
1070
     0
1070
     0
1040
0.0
1040
0.0
1040
0.0
1040
1.0
1040
1.0
1040
0.0
1040
0.0
1070
     0
1002
{
1002
}
1002
}
  0
VIEWPORT
  8
0
  5
125
 67
     1
 68
     1
 10
0.0
 20
0.0
 30
0.0
 40
0.0
 41
0.0
 69
     1
1001
ACAD
1000
MVIEW
1002
{
1070
    16
1010
0.0
1020
0.0
1030
0.0
1010
0.0
1020
0.0
1030
1.0
1040
0.0
1040
594.0
1040
0.0
1040
0.0
1040
50.0
1040
0.0
1040
0.0
1070
     0
1070
   100
1070
     0
1070
     1
1070
     0
1070
     0
1070
     0
1070
     0
1040
0.0
1040
0.0
1040
0.0
1040
0.5
1040
0.5
1040
0.5
1040
0.5
1070
     0
1002
{
1002
}
1002
}
  0
INSERT
  8
0
  5
C0
  2
*X0
 10
236.363196
 20
143.221002
 30
0.0
  0
INSERT
  8
0
  5
C1
  2
*X1
 10
248.663302
 20
145.572791
 30
0.0
  0
INSERT
  8
0
  5
C2
  2
*X2
 10
249.646712
 20
134.572791
 30
0.0
  0
INSERT
  8
0
  5
C3
  2
*X3
 10
93.623302
 20
145.572791
 30
0.0
  0
INSERT
  8
0
  5
C4
  2
*X4
 10
84.595689
 20
134.572791
 30
0.0
  0
INSERT
  8
0
  5
C5
  2
*X5
 10
88.644009
 20
143.221002
 30
0.0
  0
INSERT
  8
0
  5
C7
  2
BLK1
 10
0.0
 20
0.0
 30
0.0
  0
INSERT
  8
0
  5
C8
  2
BLK2
 10
0.0
 20
0.0
 30
0.0
  0
INSERT
  8
0
  5
C9
  2
BLK3
 10
0.0
 20
0.0
 30
0.0
  0
INSERT
  8
0
  5
CA
  2
BLK4
 10
0.0
 20
0.0
 30
0.0
  0
INSERT
  8
0
  5
CB
  2
BLK5
 10
0.0
 20
0.0
 30
0.0
  0
DIMENSION
  8
0
  5
CC
  2
*D11
 10
176.643302
 20
235.2
 30
0.0
 11
176.643302
 21
235.2
 31
0.0
  1
%%c184
 13
84.595689
 23
163.072791
 33
0.0
 14
268.690915
 24
163.072791
 34
0.0
  3
LC-DIM-L-0140-02-02
  0
DIMENSION
  8
0
  5
CD
  2
*D12
 10
320.0
 20
170.478
 30
0.0
 11
320.0
 21
170.478
 31
0.0
  1
35
 13
257.663302
 23
169.884
 33
0.0
 14
252.696712
 24
134.572791
 34
0.0
 50
90.0
  3
LC-DIM-L-0140-02-02
  0
DIMENSION
  8
0
  5
CE
  2
*D13
 10
176.643302
 20
196.0
 30
0.0
 11
176.643302
 21
196.0
 31
0.0
  1
%%c145
 13
104.623302
 23
166.884
 33
0.0
 14
248.663302
 24
166.884
 34
0.0
  3
LC-DIM-L-0140-02-02
  0
LINE
  8
LC-002-002-----0
  6
CONTINUOUS
  5
D0
 10
103.639892
 20
163.884
 30
0.0
 11
249.646712
 21
163.884
 31
0.0
  0
LINE
  8
LC-002-002-----0
  6
CONTINUOUS
  5
D1
 10
253.696712
 20
136.022791
 30
0.0
 11
253.696712
 21
135.572791
 31
0.0
  0
LINE
  8
LC-002-002-----0
  6
CONTINUOUS
  5
D2
 10
263.392595
 20
160.522791
 30
0.0
 11
265.392595
 21
160.522791
 31
0.0
  0
LINE
  8
LC-002-002-----0
  6
CONTINUOUS
  5
D3
 10
265.392595
 20
160.522791
 30
0.0
 11
263.392595
 21
160.522791
 31
0.0
  0
LINE
  8
LC-002-002-----0
  6
CONTINUOUS
  5
D4
 10
263.392595
 20
160.522791
 30
0.0
 11
265.392595
 21
160.522791
 31
0.0
  0
LINE
  8
LC-002-002-----0
  6
DASHDOT
 62
     2
  5
D6
 10
176.643302
 20
169.884
 30
0.0
 11
176.643302
 21
134.532079
 31
0.0
  0
LINE
  8
LC-002-002-----0
  6
CONTINUOUS
  5
D7
 10
249.646712
 20
134.532079
 30
0.0
 11
103.602798
 21
134.532079
 31
0.0
  0
LINE
  8
LC-002-002-----0
  6
CONTINUOUS
  5
D8
 10
253.696712
 20
140.072791
 30
0.0
 11
253.696712
 21
140.572791
 31
0.0
  0
ARC
  8
LC-002-002-----0
  6
CONTINUOUS
  5
D9
 10
250.502896
 20
157.360701
 30
0.0
 40
14.139699
 50
333.369494
 51
0.0
  0
ARC
  8
LC-003-002-RND-0
  6
CONTINUOUS
  5
DB
 10
252.696712
 20
140.122791
 30
0.0
 40
1.0
 50
270.0
 51
0.0
  0
LINE
  8
LC-002-002-----0
  6
CONTINUOUS
  5
DC
 10
257.163302
 20
167.384
 30
0.0
 11
257.163302
 21
163.072791
 31
0.0
  0
LINE
  8
LC-002-002-----0
  6
CONTINUOUS
  5
DD
 10
251.646712
 20
141.572791
 30
0.0
 11
251.646712
 21
145.103075
 31
0.0
  0
LINE
  8
LC-002-002-----0
  6
CONTINUOUS
  5
DE
 10
268.690915
 20
160.522791
 30
0.0
 11
257.646712
 21
160.522791
 31
0.0
  0
LINE
  8
LC-002-002-----0
  6
CONTINUOUS
  5
DF
 10
252.646712
 20
146.103075
 30
0.0
 11
262.142595
 21
146.103075
 31
0.0
  0
LINE
  8
LC-002-002-----0
  6
CONTINUOUS
  5
E0
 10
249.646712
 20
134.572791
 30
0.0
 11
249.646712
 21
163.884
 31
0.0
  0
LINE
  8
LC-002-002-----0
  6
CONTINUOUS
  5
E1
 10
252.696712
 20
141.572791
 30
0.0
 11
251.646712
 21
141.572791
 31
0.0
  0
LINE
  8
LC-002-002-----0
  6
CONTINUOUS
  5
E2
 10
251.663302
 20
169.884
 30
0.0
 11
257.663302
 21
169.884
 31
0.0
  0
ARC
  8
LC-003-002-RND-0
  6
CONTINUOUS
  5
E3
 10
252.696712
 20
140.572791
 30
0.0
 40
1.0
 50
0.0
 51
90.0
  0
LINE
  8
LC-002-002-----0
  6
CONTINUOUS
  5
E4
 10
259.663302
 20
167.884
 30
0.0
 11
259.663302
 21
163.072791
 31
0.0
  0
ARC
  8
LC-003-002-RND-0
  6
CONTINUOUS
  5
E5
 10
252.696712
 20
136.022791
 30
0.0
 40
1.0
 50
0.0
 51
90.0
  0
ARC
  8
LC-003-002-RND-0
  6
CONTINUOUS
  5
E6
 10
252.696712
 20
135.572791
 30
0.0
 40
1.0
 50
270.0
 51
0.0
  0
LINE
  8
LC-002-002-----0
  6
CONTINUOUS
  5
E7
 10
252.696712
 20
137.022791
 30
0.0
 11
251.646712
 21
137.022791
 31
0.0
  0
ARC
  8
LC-003-002-RND-0
  6
CONTINUOUS
  5
E8
 10
251.663302
 20
166.884
 30
0.0
 40
3.0
 50
90.0
 51
202.182268
  0
LINE
  8
LC-002-002-----0
  6
CONTINUOUS
  5
E9
 10
252.696712
 20
134.572791
 30
0.0
 11
249.646712
 21
134.572791
 31
0.0
  0
LINE
  8
LC-002-002-----0
  6
CONTINUOUS
  5
EA
 10
251.646712
 20
137.022791
 30
0.0
 11
251.646712
 21
139.122791
 31
0.0
  0
LINE
  8
LC-002-002-----0
  6
CONTINUOUS
  5
EB
 10
261.646712
 20
149.103075
 30
0.0
 11
261.646712
 21
147.103075
 31
0.0
  0
LINE
  8
LC-002-002-----0
  6
CONTINUOUS
  5
EC
 10
252.696712
 20
139.122791
 30
0.0
 11
251.646712
 21
139.122791
 31
0.0
  0
ARC
  8
LC-003-002-RND-0
  6
CONTINUOUS
  5
ED
 10
257.663302
 20
167.884
 30
0.0
 40
2.0
 50
0.0
 51
90.0
  0
LINE
  8
LC-002-002-----0
  6
CONTINUOUS
  5
EE
 10
248.88534
 20
165.751337
 30
0.0
 11
249.646712
 21
163.884
 31
0.0
  0
ARC
  8
LC-003-002-RND-0
  6
CONTINUOUS
  5
EF
 10
260.646712
 20
147.103075
 30
0.0
 40
1.0
 50
270.0
 51
0.0
  0
LINE
  8
LC-002-002-----0
  6
CONTINUOUS
  5
F0
 10
263.142595
 20
147.103075
 30
0.0
 11
263.142595
 21
151.022791
 31
0.0
  0
LINE
  8
LC-002-002-----0
  6
CONTINUOUS
  5
F1
 10
268.690915
 20
160.522791
 30
0.0
 11
268.690915
 21
163.072791
 31
0.0
  0
LINE
  8
LC-002-002-----0
  6
CONTINUOUS
  5
F2
 10
264.642595
 20
157.360701
 30
0.0
 11
264.642595
 21
160.522791
 31
0.0
  0
LINE
  8
LC-002-002-----0
  6
CONTINUOUS
  5
F3
 10
251.646712
 20
145.103075
 30
0.0
 11
252.646712
 21
146.103075
 31
0.0
  0
LINE
  8
LC-002-002-----0
  6
CONTINUOUS
  5
F4
 10
249.646712
 20
145.572791
 30
0.0
 11
254.646712
 21
148.459543
 31
0.0
  0
LINE
  8
LC-002-002-----0
  6
CONTINUOUS
  5
F5
 10
257.163302
 20
167.384
 30
0.0
 11
254.646712
 21
167.384
 31
0.0
  0
LINE
  8
LC-002-002-----0
  6
CONTINUOUS
  5
F6
 10
254.646712
 20
167.384
 30
0.0
 11
254.646712
 21
148.459543
 31
0.0
  0
LINE
  8
LC-002-002-----0
  6
CONTINUOUS
  5
F7
 10
257.646712
 20
156.572791
 30
0.0
 11
261.646712
 21
149.103075
 31
0.0
  0
ARC
  8
LC-003-002-RND-0
  6
CONTINUOUS
  5
F8
 10
262.142595
 20
147.103075
 30
0.0
 40
1.0
 50
270.0
 51
0.0
  0
LINE
  8
LC-002-002-----0
  6
CONTINUOUS
  5
F9
 10
268.690915
 20
163.072791
 30
0.0
 11
257.163302
 21
163.072791
 31
0.0
  0
LINE
  8
LC-002-002-----0
  6
CONTINUOUS
  5
FA
 10
257.646712
 20
160.522791
 30
0.0
 11
257.646712
 21
156.572791
 31
0.0
  0
LINE
  8
LC-002-002-----0
  6
CONTINUOUS
  5
FB
 10
99.589892
 20
140.072791
 30
0.0
 11
99.589892
 21
140.572791
 31
0.0
  0
ARC
  8
LC-002-002-----0
  6
CONTINUOUS
  5
FC
 10
102.783709
 20
157.360701
 30
0.0
 40
14.139699
 50
180.0
 51
206.630506
  0
ARC
  8
LC-003-002-RND-0
  6
CONTINUOUS
  5
FD
 10
100.589892
 20
140.122791
 30
0.0
 40
1.0
 50
180.0
 51
270.0
  0
LINE
  8
LC-002-002-----0
  6
CONTINUOUS
  5
FE
 10
96.123302
 20
167.384
 30
0.0
 11
96.123302
 21
163.072791
 31
0.0
  0
LINE
  8
LC-002-002-----0
  6
CONTINUOUS
  5
FF
 10
101.639892
 20
141.572791
 30
0.0
 11
101.639892
 21
145.103075
 31
0.0
  0
LINE
  8
LC-002-002-----0
  6
CONTINUOUS
  5
100
 10
84.595689
 20
160.522791
 30
0.0
 11
95.639892
 21
160.522791
 31
0.0
  0
LINE
  8
LC-002-002-----0
  6
CONTINUOUS
  5
101
 10
100.639892
 20
146.103075
 30
0.0
 11
91.144009
 21
146.103075
 31
0.0
  0
LINE
  8
LC-002-002-----0
  6
CONTINUOUS
  5
102
 10
103.639892
 20
134.572791
 30
0.0
 11
103.639892
 21
163.884
 31
0.0
  0
LINE
  8
LC-002-002-----0
  6
CONTINUOUS
  5
103
 10
100.589892
 20
141.572791
 30
0.0
 11
101.639892
 21
141.572791
 31
0.0
  0
ARC
  8
LC-003-002-RND-0
  6
CONTINUOUS
  5
104
 10
100.589892
 20
140.572791
 30
0.0
 40
1.0
 50
90.0
 51
180.0
  0
LINE
  8
LC-002-002-----0
  6
CONTINUOUS
  5
105
 10
93.623302
 20
167.884
 30
0.0
 11
93.623302
 21
163.072791
 31
0.0
  0
LINE
  8
LC-002-002-----0
  6
CONTINUOUS
  5
106
 10
99.589892
 20
135.522791
 30
0.0
 11
99.589892
 21
136.022791
 31
0.0
  0
ARC
  8
LC-003-002-RND-0
  6
CONTINUOUS
  5
107
 10
100.589892
 20
136.022791
 30
0.0
 40
1.0
 50
90.0
 51
180.0
  0
ARC
  8
LC-003-002-RND-0
  6
CONTINUOUS
  5
108
 10
100.589892
 20
135.572791
 30
0.0
 40
1.0
 50
180.0
 51
270.0
  0
LINE
  8
LC-002-002-----0
  6
CONTINUOUS
  5
109
 10
100.589892
 20
137.022791
 30
0.0
 11
101.639892
 21
137.022791
 31
0.0
  0
ARC
  8
LC-003-002-RND-0
  6
CONTINUOUS
  5
10A
 10
101.623302
 20
166.884
 30
0.0
 40
3.0
 50
337.817732
 51
90.0
  0
LINE
  8
LC-002-002-----0
  6
CONTINUOUS
  5
10B
 10
100.589892
 20
134.572791
 30
0.0
 11
103.639892
 21
134.572791
 31
0.0
  0
LINE
  8
LC-002-002-----0
  6
CONTINUOUS
  5
10C
 10
101.639892
 20
137.022791
 30
0.0
 11
101.639892
 21
139.122791
 31
0.0
  0
LINE
  8
LC-002-002-----0
  6
CONTINUOUS
  5
10D
 10
91.639892
 20
149.103075
 30
0.0
 11
91.639892
 21
147.103075
 31
0.0
  0
LINE
  8
LC-002-002-----0
  6
CONTINUOUS
  5
10E
 10
100.589892
 20
139.122791
 30
0.0
 11
101.639892
 21
139.122791
 31
0.0
  0
ARC
  8
LC-003-002-RND-0
  6
CONTINUOUS
  5
10F
 10
95.623302
 20
167.884
 30
0.0
 40
2.0
 50
90.0
 51
180.0
  0
LINE
  8
LC-002-002-----0
  6
CONTINUOUS
  5
110
 10
104.401265
 20
165.751337
 30
0.0
 11
103.639892
 21
163.884
 31
0.0
  0
ARC
  8
LC-003-002-RND-0
  6
CONTINUOUS
  5
111
 10
92.639892
 20
147.103075
 30
0.0
 40
1.0
 50
180.0
 51
270.0
  0
LINE
  8
LC-002-002-----0
  6
CONTINUOUS
  5
112
 10
90.144009
 20
147.103075
 30
0.0
 11
90.144009
 21
151.022791
 31
0.0
  0
LINE
  8
LC-002-002-----0
  6
CONTINUOUS
  5
113
 10
84.595689
 20
160.522791
 30
0.0
 11
84.595689
 21
163.072791
 31
0.0
  0
LINE
  8
LC-002-002-----0
  6
CONTINUOUS
  5
114
 10
88.644009
 20
157.360701
 30
0.0
 11
88.644009
 21
160.522791
 31
0.0
  0
LINE
  8
LC-002-002-----0
  6
CONTINUOUS
  5
115
 10
101.639892
 20
145.103075
 30
0.0
 11
100.639892
 21
146.103075
 31
0.0
  0
LINE
  8
LC-002-002-----0
  6
CONTINUOUS
  5
116
 10
103.639892
 20
145.572791
 30
0.0
 11
98.639892
 21
148.459543
 31
0.0
  0
LINE
  8
LC-002-002-----0
  6
CONTINUOUS
  5
117
 10
96.123302
 20
167.384
 30
0.0
 11
98.639892
 21
167.384
 31
0.0
  0
LINE
  8
LC-002-002-----0
  6
CONTINUOUS
  5
118
 10
98.639892
 20
167.384
 30
0.0
 11
98.639892
 21
148.459543
 31
0.0
  0
LINE
  8
LC-002-002-----0
  6
CONTINUOUS
  5
119
 10
95.639892
 20
156.572791
 30
0.0
 11
91.639892
 21
149.103075
 31
0.0
  0
ARC
  8
LC-003-002-RND-0
  6
CONTINUOUS
  5
11A
 10
91.144009
 20
147.103075
 30
0.0
 40
1.0
 50
180.0
 51
270.0
  0
LINE
  8
LC-002-002-----0
  6
CONTINUOUS
  5
11B
 10
84.595689
 20
163.072791
 30
0.0
 11
96.123302
 21
163.072791
 31
0.0
  0
LINE
  8
LC-002-002-----0
  6
CONTINUOUS
  5
11C
 10
95.639892
 20
160.522791
 30
0.0
 11
95.639892
 21
156.572791
 31
0.0
  0
LINE
  8
LC-002-002-----0
  6
CONTINUOUS
  5
11D
 10
95.623302
 20
169.884
 30
0.0
 11
252.485859
 21
169.884
 31
0.0
  0
LINE
  8
LC-002-002-----0
  6
DASHDOT
 62
     2
  5
11E
 10
176.643302
 20
109.532079
 30
0.0
 11
176.643302
 21
-74.563147
 31
0.0
  0
LINE
  8
LC-002-002-----0
  6
DASHDOT
 62
     2
  5
11F
 10
84.595689
 20
17.484466
 30
0.0
 11
268.690915
 21
17.484466
 31
0.0
  0
CIRCLE
  8
LC-002-002-----0
  6
CONTINUOUS
  5
120
 10
176.643302
 20
17.484466
 30
0.0
 40
72.02
  0
CIRCLE
  8
LC-002-002-----0
  6
CONTINUOUS
  5
121
 10
176.643302
 20
17.484466
 30
0.0
 40
83.02
  0
CIRCLE
  8
LC-002-002-----0
  6
CONTINUOUS
  5
122
 10
176.643302
 20
17.484466
 30
0.0
 40
92.047613
  0
ENDSEC
  0
EOF
